#VERSION:0.83;
#TITLE:Quon;
#ARTIST:DJ Noriken;
#BANNER:Quon.png;
#BACKGROUND:Quon-bg.png;
#CDTITLE:./CDTitles/WACCA.png;
#MUSIC:Quon.ogg;
#SAMPLESTART:98.822;
#SAMPLELENGTH:15;
#DISPLAYBPM:85:170;
#BPMS:0=170,70.5=340,71.5=170,128=85,132=340,132.5=170,132.75=85,133=170,164=340,164.5=170,164.75=85,165=170,204.5=85,219.25=170,219.75=85,220=170;
#STOPS:70.5=0.088,71=0.088,204=0.177,219.25=0.088,219.5=0.088;
#BGSTAGE:29;

//--------------- dance-single - Fred-104 ----------------
#NOTEDATA:;
#STEPSTYPE:dance-single;
#DESCRIPTION:Fred-104;
#DIFFICULTY:Beginner;
#METER:3;
#DISPLAYBPM:85:170;
#BPMS:0=170,128=85,132=170,204=85,220=170;
#CREDIT:Fred-104;
#NOTES:
0000
0000
0000
0000
,
0000
0000
0000
0000
,
0000
0000
0000
0000
,
0000
0000
0000
0000
,
0000
0000
0000
0000
,
0000
0000
0000
0000
,
1000
0000
0001
0000
,
1000
0000
0100
0000
,
0010
0000
0001
0000
,
1001
0000
0000
0000
,
1000
0000
0000
0000
,
0000
0000
0000
0000
,
0001
0000
0000
0000
,
0000
0000
0000
0000
,
1000
0000
0000
0000
,
0001
0000
0000
0000
,
1000
0000
0000
0000
,
0001
0000
0000
0000
,
0100
0000
0000
0000
,
0100
0000
0000
0000
,
0010
0000
0000
0000
,
0010
0000
0000
0000
,
1000
0000
0000
0000
,
1000
0000
0000
0000
,
0001
0000
0000
0000
,
1001
0000
0000
0000
,
1000
0000
0000
0000
,
0001
0000
0000
0000
,
0010
0000
0000
0000
,
0100
0000
0000
0000
,
1000
0000
0000
0000
,
0001
0000
0000
0000
,
1001
0000
0000
0000
,
1000
0000
0000
0000
,
0001
0000
0010
0000
,
0010
0000
0000
0000
,
0100
0000
1000
0000
,
1000
0000
0000
0000
,
0001
0000
1000
0000
,
0010
0000
0000
0000
,
0110
0000
0000
0000
,
0000
0001
0000
0001
,
0000
1000
0000
1000
,
0000
0001
0000
0001
,
0001
0000
1000
0000
,
0001
0000
0100
0000
,
0001
0000
0100
0000
,
0010
0000
1000
0000
,
1001
0000
0000
0000
,
0002
0000
0000
0000
,
0000
0000
0003
0000
,
1000
0000
0001
0000
,
0010
0010
0010
0000
,
0100
0000
1000
0000
,
0001
0001
0001
0001
,
0001
0000
0000
0000
,
1000
0000
0000
0000
,
0010
0000
0000
0000
,
0100
0000
0000
0000
,
0001
0000
1000
0000
,
0001
0000
1000
0000
,
0001
0000
1000
0000
,
1001
0000
0000
0000
,
0110
0000
0000
0000
,
1001
0000
0000
0000
,
1000
0000
0000
0000
,
0001
0000
0000
0000
,
0010
0000
0000
0000
,
0100
0000
0000
0000
,
0010
0000
0000
0000
,
0001
0000
0000
0000
,
0010
0000
0010
0000
,
0001
0000
0001
0000
,
1000
0000
0000
0000
,
0010
0000
0000
0000
,
1000
0000
0000
0000
,
0001
0000
1000
0000
,
0001
0000
0000
0000
,
1000
0000
0000
0000
,
0010
0000
0100
0000
,
0110
0000
0000
0000
,
2002
0000
0000
0000
,
3003
0000
0000
0000
;

//--------------- dance-single - Fred-104 ----------------
#NOTEDATA:;
#STEPSTYPE:dance-single;
#DESCRIPTION:Fred-104;
#DIFFICULTY:Easy;
#METER:8;
#CREDIT:Fred-104;
#NOTES:
0000
0000
0000
0000
,
0000
0000
0000
0000
,
0000
0000
0000
0000
,
0000
0000
0000
0000
,
0000
0000
0000
0000
,
0000
0000
0000
0000
,
1000
1000
0100
0100
,
0010
0000
0001
0000
1000
0001
1000
0000
,
0001
0100
0001
0000
1000
0100
1000
0000
,
2002
0000
0000
3003
,
1001
0000
0000
0000
,
0001
0000
0000
0000
,
1000
0000
0000
0000
,
0010
0000
0000
0000
,
0100
0001
1000
0000
,
0100
0010
0001
1000
,
0010
0010
0100
0100
,
0001
1000
2002
3003
,
1001
0001
0100
0100
,
1000
1000
0010
0010
,
0001
0001
0010
0010
,
1000
1000
0100
0100
,
0001
0000
0001
0000
1000
0100
1000
0000
,
0001
0000
0001
0000
0100
0010
0100
0000
,
0101
0001
1100
1000
,
2002
0000
0000
3003
,
1000
0100
0010
0010
,
0001
1000
0110
1001
,
0001
1000
0100
0010
,
0100
1000
0110
1001
,
0001
0001
1000
1000
,
0010
0100
0001
1000
,
2002
0000
3003
0000
,
2000
3000
0100
0010
,
0001
1000
0001
0100
,
0020
0030
0100
0001
,
1000
0100
0010
0001
,
2000
3000
0001
1000
,
0010
0100
0010
1000
,
0002
0003
0010
0000
,
0100
0100
0010
0010
,
0002
0003
1000
0001
,
0100
0001
1000
0100
,
0010
0001
0010
0001
,
1001
0110
2002
3003
,
1000
1000
0001
0100
,
0010
1000
0010
0000
0100
0001
0100
0000
,
0001
0010
0100
1000
,
2002
0000
0000
3003
,
0002
0000
2003
0000
,
3020
0000
0230
0000
,
0302
0003
1000
0000
0100
0100
0010
0000
,
0001
0000
1000
0000
0010
0010
0100
0000
,
0001
0010
1000
0100
,
0001
0001
1000
1000
0001
1000
2002
3003
,
1001
0001
0010
0000
,
0100
1000
0001
0000
,
0100
0010
0100
0000
,
0001
1000
0001
0000
,
1000
0000
0100
0000
,
0001
0000
0010
0000
,
1000
0001
0010
0100
,
1000
0100
1000
0000
0001
0100
0001
0000
,
2002
0000
0000
3003
,
1000
0001
2002
3003
,
0001
0010
0100
1000
,
0001
0000
0100
0000
0010
0010
0010
0000
,
0100
0001
1000
0100
,
0010
0000
0100
0000
1000
1000
1000
0000
,
0001
0100
0001
0010
,
0100
0000
1000
0000
0001
0001
0002
0003
,
1001
1000
1001
0001
,
1001
1000
1001
0002
,
1003
0000
0001
0000
0100
0010
0100
0000
,
0001
0000
1000
0000
0100
0100
0100
0000
,
0010
0000
0001
0000
1000
0001
1000
0000
,
0001
1000
0110
1001
,
0001
0001
0100
0100
,
1000
1000
0010
0010
,
0001
1000
0001
0000
0100
0010
0100
0000
,
0220
0000
0000
0330
,
2002
0000
0000
0000
,
3003
0000
0000
0000
;

//--------------- dance-single - Fred-104 ----------------
#NOTEDATA:;
#STEPSTYPE:dance-single;
#DESCRIPTION:Fred-104;
#DIFFICULTY:Medium;
#METER:12;
#CREDIT:Fred-104;
#NOTES:
0000
0000
0000
0000
,
0000
0000
0000
0000
,
0000
0000
0000
0000
,
0000
0000
0000
0000
,
0000
0000
0000
0000
,
0000
0000
0000
0000
,
0101
0101
1010
1010
,
0011
0000
1100
0000
0001
1000
0001
0000
,
1000
0100
1000
0001
0100
0001
1000
0100
,
0020
0000
0000
0030
,
1001
0000
0000
0000
,
0001
0000
1000
0000
,
0010
0000
0000
0000
,
0100
0000
0001
0000
,
1000
0000
0100
0000
0001
0100
1000
0000
,
0001
0100
1000
0000
0100
0001
1000
0000
,
0100
0000
0010
0000
0001
1000
0010
0000
,
0100
0001
1000
0000
0220
0000
0330
0000
,
1001
0001
1000
1000
,
0010
0010
0100
0100
,
0001
0001
1000
1000
,
0100
0100
0010
0010
,
0011
0000
0001
0000
1000
0010
0100
0000
,
0001
1000
0100
0000
0010
0100
1000
0000
,
2001
3100
1002
0013
,
1000
0001
0100
0010
0100
0001
1000
0000
,
1001
0000
0000
0001
0010
0000
0100
0000
1000
0000
0000
1000
0001
0000
0100
0000
,
0010
0100
0101
0000
0110
0000
1001
0000
,
0001
0000
0000
0001
1000
0000
0100
0000
0010
0000
0000
0010
0100
0000
1000
0000
,
0001
0100
0010
1000
0001
0010
0100
0000
,
1000
0000
0000
0100
0000
0000
0010
0000
0001
0000
0000
1000
0000
0000
0010
0000
,
0100
0001
0010
0100
0010
0001
1000
0001
,
2002
0000
0000
0000
0000
0000
3003
0000
0001
1000
0001
1000
0010
0000
0110
0000
,
1002
0000
0000
0000
1003
0000
0001
0000
0100
0000
0000
0010
0000
0000
1000
0000
,
0001
0000
0000
0010
0000
0000
0100
0000
1000
0000
0000
0001
0000
0000
0100
0000
,
0120
0000
0000
0000
1030
0000
0001
0000
1000
0000
0000
0100
0000
0000
0010
0000
,
0001
0000
0000
0010
0000
0000
1000
0000
0001
0000
0000
0100
0000
0000
1000
0000
,
1002
0000
0000
0000
1003
0000
0010
0000
0100
0000
0000
0010
0000
0000
1000
0000
,
0010
0000
0000
0100
0000
0000
0001
0000
0010
0000
0000
0100
0000
0000
1000
0000
,
0001
0100
1000
0000
0001
0010
1000
0001
,
0010
0100
1000
0001
0100
0000
0110
0000
,
2001
0000
3001
1000
0100
0010
0001
0000
,
1000
0001
0100
0010
1000
0010
0100
0000
,
0001
1000
0100
0001
0100
1000
0001
0000
,
1100
0000
0000
0000
0101
0000
0000
0000
1001
0000
0000
0001
1000
0000
0000
0000
,
1001
0000
0110
0000
1000
0100
0010
0100
,
1000
0001
0100
0010
0100
0001
1000
0000
,
0001
0100
1000
0100
0001
0100
0010
1000
,
0001
0010
0100
1000
0001
0000
1001
0000
,
1000
0100
1000
0100
0001
0100
0001
0100
,
1000
0001
0100
1000
0100
0001
1000
0000
,
0220
0330
0000
0000
0000
0000
0000
0000
1001
0000
0000
0000
0000
0000
0000
0000
0011
0000
0000
0000
0000
0000
0000
0000
0010
0000
0000
0000
0000
0000
0000
0000
0100
0000
0000
0000
0000
0000
0000
0000
1000
0000
0000
0000
0000
0000
0000
0000
1001
0000
0000
0000
0000
0000
0000
0000
0001
0000
0000
0000
0000
0000
0000
0000
,
0100
0010
0100
0000
0101
0000
0001
0000
1000
0100
0010
0000
0011
0000
0001
1000
,
0001
0000
0100
0000
0110
0000
0010
0000
1000
0010
0001
0000
0020
0000
2030
0000
,
3001
0010
0100
1000
0001
1000
0010
0000
1000
0000
0100
0000
0220
0000
0330
0000
,
1001
0000
0000
0000
1000
0000
0000
0000
0001
0000
0000
0100
0000
0000
0010
0000
,
1000
0000
0100
0000
0010
0000
0000
0000
0001
0000
0000
1000
0000
0000
0001
0000
,
0100
0000
0000
0000
0010
0000
0000
0000
0100
0000
0000
0001
0000
0000
1000
0000
,
1100
0110
0011
1001
,
0001
0000
0000
0011
0000
0000
0001
0000
1000
0000
0000
1010
0000
0000
1000
0000
,
0001
0000
0000
0101
0000
0000
0001
0000
1000
0000
0000
1100
0000
0000
1000
0000
,
0001
0100
0010
1000
0001
0010
0100
1000
,
0001
0100
0010
0100
0001
1000
0001
0000
,
2002
0000
0000
3003
,
1000
0100
0001
0100
0010
0000
1001
0000
,
0001
0010
0100
1000
0001
1000
0010
0000
,
0100
0001
1000
0001
0100
0010
1000
0000
,
0001
0010
0100
0010
0001
1000
0010
0000
,
0100
0001
1000
0001
0100
0010
1000
0000
,
0001
0010
0100
1000
0010
0100
0001
0000
,
1000
0100
0001
0100
1000
0001
0200
0300
,
0110
1001
1100
0101
,
1000
0100
0001
0100
1000
0001
2000
0000
,
3001
0100
0010
0100
0001
1000
0100
0010
,
0001
1000
0010
0100
0010
1000
0001
0000
,
0010
0100
1000
0100
0010
0100
1000
0001
,
0100
0010
1000
0001
0011
0000
1001
0000
,
1000
0100
0001
0000
1000
0010
0001
0000
,
1000
0010
0001
0000
1000
0100
0001
0000
,
1000
0100
0010
0001
0010
0100
1000
0001
,
0100
0010
0100
0010
0100
0000
0110
0000
,
2002
0000
0000
0000
,
3003
0000
0000
0000
;

//--------------- dance-single - Fred-104 ----------------
#NOTEDATA:;
#STEPSTYPE:dance-single;
#DESCRIPTION:Fred-104;
#DIFFICULTY:Hard;
#METER:16;
#CREDIT:Fred-104;
#NOTES:
0000
0000
0000
0000
,
0000
0000
0000
0000
,
0000
0000
0000
0000
,
0000
0000
0000
0000
,
0000
0000
0000
0000
,
0000
0000
0000
0000
,
1100
0000
0000
0000
1100
0000
0000
0000
0110
0000
0000
0000
0011
0000
0001
1000
,
0001
0100
0010
1000
0001
0010
0100
1000
,
0001
0100
0001
0100
0010
1000
0010
1000
0001
0010
0001
0010
0100
1000
0100
0010
,
0002
1000
1000
1000
1003
0000
0110
0000
,
1001
0000
0000
0000
,
0001
0000
0010
0000
,
0100
0000
0000
0000
,
1000
0000
0001
0000
,
0100
0000
0010
1000
0010
0100
0000
0001
,
1000
0100
0010
0001
1000
0010
0100
0010
,
1000
0100
0010
0100
1000
0010
0100
0000
,
0001
0000
0000
0000
0000
0000
0000
0000
1000
0000
0000
0000
0000
0000
0000
0000
0100
0000
0000
0000
0000
0000
0000
0000
0010
0000
0000
0000
0000
0000
0000
0000
0100
0000
0000
0000
0000
0000
0000
0000
2000
3000
0000
0000
0000
0000
0000
0000
2000
3000
0000
0000
0000
0000
0000
0000
0000
0000
0000
0000
0000
0000
0000
0000
,
1001
0001
0010
0010
,
0100
0100
1000
1000
,
0010
0010
0100
0100
,
0001
0001
1000
1000
,
1001
0000
0001
0000
0100
0010
0100
0000
,
0001
1000
0100
0000
0010
0001
1000
0000
,
1010
1000
0100
0010
0011
0001
0100
0010
,
1000
0001
1000
0000
0001
0000
0010
0000
0100
0000
1000
0000
1100
0000
0000
0000
,
1001
0000
0000
0001
0010
0000
0100
1000
0001
0000
0000
0001
1000
0000
0010
0100
,
0001
0000
0100
0000
0101
0000
0000
0000
1000
0100
0000
0100
0010
0000
0001
1000
,
0001
0000
0000
1000
0100
0000
0010
0100
1000
0000
0000
0001
0100
0000
0010
1000
,
0001
0000
0010
0000
0100
0000
1000
0000
0001
0000
0100
0010
0000
1000
0010
0100
,
0001
0000
1000
0100
0000
1000
0001
1000
0010
0000
0100
0001
0000
1000
0001
0010
,
0100
0000
1000
0001
0100
0000
0001
1000
0100
0000
0010
0100
1000
0001
1000
0000
,
2002
0000
0000
0000
0000
0000
3003
1000
0100
0010
0001
0100
0010
0000
0110
0000
,
2001
0000
0000
0000
3001
0000
1000
0001
0100
0000
0010
0001
0000
0010
0100
0000
,
0001
0000
1000
0001
0000
0010
0100
0000
1000
0000
0001
0100
0000
1000
0100
0000
,
0020
0000
0000
0000
1030
0000
0001
1000
0010
0000
0100
0010
0000
1000
0001
0010
,
0100
1000
0100
1000
0000
0001
1000
0000
0001
0100
0001
0100
0000
0001
1000
0000
,
1020
0000
0000
0000
0130
0000
0001
1000
0100
0000
0001
0100
0000
0010
0100
0000
,
1000
0001
1000
0010
0000
1000
0001
0000
0010
0001
0010
0100
0000
1000
0100
0000
,
1100
0100
0010
0000
0101
0100
0010
1000
,
0002
1000
1000
1000
1003
0000
0110
0000
,
0002
0000
0000
0003
1001
0000
1000
0000
0010
0000
0100
0000
0101
0000
0001
0000
,
0010
0100
1100
1000
0001
0010
0011
0001
,
1001
1000
1010
0010
0100
0001
0202
0303
,
1100
0000
0000
0000
0101
0000
0000
0000
0110
0000
0000
0001
2000
0000
0000
3000
,
1001
0000
0000
0000
0110
0000
1000
0100
0010
0000
0001
0100
0010
0000
1000
0000
,
0001
0000
0010
0100
1000
0000
0010
0100
0001
0000
0010
0100
1000
0001
0100
0000
,
0010
1000
0010
1000
0001
0010
0001
0010
0100
1000
0100
1000
0001
0100
0010
1000
,
0002
1000
1000
1000
1003
0000
0110
0000
,
0001
0100
0001
0100
1000
0100
1000
0100
,
0001
1000
0100
0001
0100
1000
0001
0000
,
0220
0330
0000
0000
0000
0000
0000
0000
1001
0000
0000
0000
0000
0000
0000
0000
1100
0000
0000
0000
1000
0000
0000
0000
0001
0000
0000
0000
0100
0000
0000
0000
0010
0000
0000
0000
0001
0000
0000
0000
0010
0000
0000
0000
0100
0000
0000
0000
0010
0000
0000
0000
1000
0000
0000
0000
0001
0000
0000
0000
0010
0000
0000
0000
,
0100
1000
0100
1000
0100
0000
0000
0000
1001
0000
1000
0000
0100
0000
1000
0000
0001
0000
0010
0000
1000
0000
0010
0000
0001
0000
1000
0000
0001
0000
0100
0000
,
0101
0000
0001
1000
1001
0001
0010
0100
0001
0100
0010
0001
2000
0000
3020
0100
,
0130
0000
0000
0000
0001
0000
1000
0000
0001
0000
0000
0000
0010
0000
0000
0000
0011
0000
0000
0000
0001
0000
0000
0000
1000
0000
0000
0000
0010
0000
0000
0000
1000
0000
0000
0000
0100
0000
0000
0000
0001
0000
0000
0000
1000
0000
0000
0000
0010
0000
0000
0000
0002
0003
0000
0000
2002
3003
0000
0000
0000
0000
0000
0000
,
1000
0000
0100
0000
0010
0000
1000
0000
0010
0000
0000
0001
0000
0000
0010
0000
,
0100
0000
1000
0000
0001
0000
0000
0000
0100
0000
0000
0001
0000
0000
1000
0001
,
0010
0000
0100
0000
0001
0000
0100
0000
1000
0000
0000
0001
0000
0000
0100
0000
,
0010
0000
1000
0000
0001
0000
0000
0000
0010
0100
1000
0001
0100
0000
0010
0000
,
1000
0000
0001
0010
0000
0100
1000
0100
1000
0000
0001
0100
0000
0010
1000
0010
,
1000
0000
0001
0010
0000
0100
1000
0100
0010
0000
0001
1000
0000
0010
0100
0001
,
1000
0100
1000
0100
0010
0001
0010
0001
1000
0010
1000
0010
0100
0001
1000
0001
,
0010
0100
1000
0000
0001
0000
0100
0000
0010
0000
1000
0000
1001
0000
0000
0000
,
0001
0000
0010
0000
1000
0000
0000
0000
0001
0000
0100
0000
1000
0001
1000
0001
,
2000
0000
0001
0000
0001
0000
3001
0000
1001
0000
0000
0000
0001
1000
0001
1000
,
0001
0010
0210
1300
0001
0100
0120
1030
,
0001
0100
0102
1003
0100
0010
0012
1003
,
0001
1000
1002
1003
0010
0100
0102
1003
,
0100
0010
0012
1003
0001
0100
0120
1030
,
0001
0000
0010
0000
0100
1000
0100
0000
0010
0000
0001
0000
1000
0010
1000
0000
,
0001
0000
0100
0000
0010
1000
0010
0000
0100
0000
0001
0000
2000
3000
0002
0003
,
1001
0001
0101
0100
0110
0010
1010
1000
,
0001
0010
0001
0000
0001
0100
0001
0000
0001
0010
0100
1000
0002
0000
0000
0000
,
1003
0000
0001
0000
0010
0100
1000
0000
0010
0000
0100
0000
1000
0100
0001
0000
,
1000
0000
0100
0000
0010
0100
0001
0000
0100
0000
1000
0000
0001
0100
0010
0000
,
1000
0000
0001
0000
0010
0100
0001
0000
0100
0000
1000
0000
0001
1000
0010
0000
,
0110
0000
0100
0000
0101
0000
0001
0000
1001
0000
0000
0000
1100
0000
0100
0010
,
0001
0000
1000
0000
1010
0000
0010
0000
0110
0000
0100
0000
0001
1000
0001
0010
,
0100
0000
1000
0001
0100
0001
1000
0000
0001
0010
0100
1000
0100
0010
0001
0000
,
1000
0010
1000
0010
0100
0001
0100
0001
1000
0100
1000
0100
0010
0001
1000
0001
,
0200
0010
0010
0010
0310
0000
0110
0000
,
2002
0000
0000
0000
,
3003
0000
0000
0000
;

//--------------- dance-double - Fred-104 ----------------
#NOTEDATA:;
#STEPSTYPE:dance-double;
#DESCRIPTION:Fred-104;
#DIFFICULTY:Easy;
#METER:8;
#CREDIT:Fred-104;
#NOTES:
00000000
00000000
00000000
00000000
,
00000000
00000000
00000000
00000000
,
00000000
00000000
00000000
00000000
,
00000000
00000000
00000000
00000000
,
00000000
00000000
00000000
00000000
,
00000000
00000000
00000000
00000000
,
00000001
00000001
00001000
00001000
,
00000010
00010000
00001000
00010000
,
00000100
00001000
00000100
00000010
,
00000022
00000000
00000000
00000033
,
00001001
00000000
00000000
00000000
,
00000001
00000000
00000000
00000000
,
00001000
00000000
00000000
00000000
,
00000010
00000000
00000000
00000000
,
00010000
00001000
00010000
00000000
,
00001000
00010000
00000010
00000000
,
00001000
00000100
00000010
00000001
,
00000100
00000010
00000220
00000330
,
00001001
00000001
00000100
00000100
,
00001000
00001000
00010000
00010000
,
00100000
00100000
10000000
10000000
,
01000000
01000000
00010000
00010000
,
00001000
00000000
00001000
00000000
00010000
00000100
00010000
00000000
,
00001000
00000000
00001000
00000000
01000000
00010000
01000000
00000000
,
00110000
01000000
10100000
01000000
,
20020000
00000000
00000000
30030000
,
10000000
01000000
00100000
00100000
,
00001000
00010000
00011000
00010010
,
00010000
00001000
00000100
00000001
,
00000100
00000010
00000110
00001001
,
00000001
00000010
00000100
00010000
,
00001000
01000000
00001000
00010000
,
00022000
00000000
00033000
00000000
,
00002000
00003000
00010000
00100000
,
01000000
00010000
10000000
01000000
,
00020000
00030000
00001000
00000100
,
00000001
00001000
00000100
00000010
,
00000002
00000003
00001000
00000010
,
00000100
00001000
00010000
00100000
,
02000000
03000000
00010000
00000000
,
10000000
01000000
00100000
00001000
,
00020000
00030000
00001000
00010000
,
00000010
00010000
00001000
00010000
,
00001000
00000010
00001000
00010000
,
00011000
01001000
00022000
00033000
,
00001000
01000000
00001000
01000000
,
00100000
10000000
00100000
00000000
10000000
01000000
10000000
00000000
,
01000000
00100000
00001000
00010000
,
00022000
00000000
00000000
00033000
,
00020000
00000000
00032000
00000000
,
00003200
00000000
00000302
00000003
,
00002000
00003000
00000100
00000000
00000010
00000010
00000001
00000000
,
00001000
00000000
00000010
00000000
00010000
00001000
00010000
00000000
,
00001000
00000000
00100000
00000000
00010000
10000000
00100000
00000000
,
01000000
01000000
00001000
00001000
00010000
00001000
00022000
00033000
,
00011000
00010000
00000100
00001000
,
00000100
00000010
00000001
00000000
,
00001000
00000100
00000010
00001000
,
00010000
01000000
00100000
00000000
,
00010000
00000000
10000000
00000000
,
01000000
00000000
00100000
00000000
,
00001000
00010000
00001000
00010000
,
00000010
00001000
00000010
00000000
00010000
00001000
00010000
00000000
,
00022000
00000000
00000000
00033000
,
00001000
00010000
00022000
00033000
,
00001000
00100000
01000000
10000000
,
00010000
00000000
10000000
00000000
01000000
01000000
01000000
00000000
,
00100000
00001000
00010000
00001000
,
00000010
00000000
00000001
00000000
00001000
00001000
00001000
00000000
,
00000010
00000100
00000001
00001000
,
00000100
00000000
00010000
00000000
00001000
00001000
00002000
00003000
,
00011000
00010000
00011000
00001000
,
00011000
00010000
00011000
00002000
,
00013000
00000000
00001000
00000000
00100000
00010000
00100000
00000000
,
00001000
00000000
00010000
00000000
00000010
00001000
00000010
00000000
,
00010000
00000000
00001000
00000000
00000100
00000010
00000100
00000000
,
00000001
00001000
00000110
00001001
,
00000001
00000100
00001000
00010000
,
01000000
10000000
01000000
00100000
,
00001000
00010000
00100000
00000000
01000000
00010000
10000000
00000000
,
02200000
00000000
00000000
03300000
,
20020000
00000000
00000000
00000000
,
30030000
00000000
00000000
00000000
;

//--------------- dance-double - Fred-104 ----------------
#NOTEDATA:;
#STEPSTYPE:dance-double;
#DESCRIPTION:Fred-104;
#DIFFICULTY:Medium;
#METER:12;
#CREDIT:Fred-104;
#NOTES:
00000000
00000000
00000000
00000000
,
00000000
00000000
00000000
00000000
,
00000000
00000000
00000000
00000000
,
00000000
00000000
00000000
00000000
,
00000000
00000000
00000000
00000000
,
00000000
00000000
00000000
00000000
,
00011000
00011000
00101000
00101000
,
00010010
00000000
00011000
00000000
00001000
00010000
00001000
00000000
,
00010000
00001000
00000010
00000100
00001000
00000001
00000100
00001000
,
00020000
00000000
00000000
00030000
,
00011000
00000000
00000000
00000000
,
00001000
00000000
00010000
00000000
,
00100000
00000000
00000000
00000000
,
01000000
00000000
00010000
00000000
,
10000000
01000000
00010000
00001000
,
00010000
00001000
00000100
00000001
,
00001000
00000100
00000010
00000001
,
00000100
00001000
00010000
00000000
00022000
00000000
00033000
00000000
,
00011000
00001000
00010000
00010000
,
00000100
00000100
00000010
00000010
,
00000001
00000001
00000100
00000100
,
00001000
00001000
00010000
00010000
,
00011000
00000000
00001000
00000000
00010000
01000000
00100000
00000000
,
00010000
10000000
00100000
00000000
00010000
00001000
00010000
00000000
,
00010100
00010000
01001000
00001000
,
00010000
00001000
01000000
00001000
00010000
00001000
00100000
00000000
,
00011000
00000000
00000000
00000000
00001000
00000000
00010000
00000000
00100000
00000000
00000000
01000000
00000000
00000000
00100000
00000000
,
10000000
00000000
00010000
00000000
00100000
00000000
00000000
00000000
00001000
00000000
00000000
00001000
00000000
00000000
00001000
00000000
,
00010000
00000000
00000000
00000000
00000100
00000000
00001000
00000000
00000001
00000000
00000000
00000001
00000100
00000000
00000010
00000000
,
00000100
00000000
00000001
00000000
00001000
00000000
00000000
00000000
00000010
00000000
00000000
00010000
00000000
00000000
00001000
00000000
,
00010000
00000000
00000000
00001000
00000000
00000000
00100000
00000000
00010000
00000000
00000000
10000000
00000000
00000000
01000000
00000000
,
00010000
00000000
00000000
00001000
00000000
00000000
00000100
00000000
00000001
00000000
00000000
00000010
00000000
00000000
00000100
00000000
,
00002200
00000000
00000000
00000000
00000000
00000000
00003300
00000000
00000001
00000100
00001000
00010000
00001000
00000000
00011000
00000000
,
01200000
00000000
00000000
00000000
10300000
00000000
00010000
00000000
10000000
00000000
00000000
01000000
00000000
00000000
00100000
00000000
,
00001000
00000000
00000000
00010000
00000000
00000000
00000010
00000000
00001000
00000000
00000000
00000001
00000000
00000000
00000010
00000000
,
00000210
00000000
00000000
00000000
00001300
00000000
00000010
00000000
00000100
00000000
00000000
00001000
00000000
00000000
00010000
00000000
,
00100000
00000000
00000000
01000000
00000000
00000000
00010000
00000000
00001000
00000000
00000000
00000010
00000000
00000000
00000100
00000000
,
00000120
00000000
00000000
00000000
00001030
00000000
00000100
00000000
00000010
00000000
00000000
00001000
00000000
00000000
00010000
00000000
,
01000000
00000000
00000000
00100000
00000000
00000000
00010000
00000000
00001000
00000000
00000000
00000100
00000000
00000000
00000010
00000000
,
00000100
00001000
00000001
00000000
00001000
00000010
00000100
00001000
,
00010000
00001000
00010000
00001000
00010000
00000000
00011000
00000000
,
00020010
00000000
00030010
00000000
00010000
00001000
00100000
00000000
,
00001000
00010000
01000000
00000000
10000000
01000000
00100000
00000000
,
00001000
00010000
00000100
00000000
00001000
00000001
00000100
00000000
,
00000110
00000000
00000000
00000000
00001001
00000000
00000000
00000000
00000101
00000000
00000000
00000100
00000010
00000000
00000000
00000000
,
00000110
00000000
00001001
00000000
00000001
00000100
00001000
00000000
,
00010000
01000000
10000000
00100000
01000000
00010000
10000000
00000000
,
01000000
00100000
00001000
00010000
00000100
00000010
00000001
00001000
,
00000010
00000100
00001000
00010000
00001000
00000000
00011000
00000000
,
00001000
00010000
00001000
00010000
00100000
01000000
00100000
01000000
,
00010000
10000000
01000000
00100000
00001000
00010000
00001000
00000000
,
00022000
00033000
00000000
00000000
00000000
00000000
00000000
00000000
01100000
00000000
00000000
00000000
00000000
00000000
00000000
00000000
10010000
00000000
00000000
00000000
00000000
00000000
00000000
00000000
10000000
00000000
00000000
00000000
00000000
00000000
00000000
00000000
01000000
00000000
00000000
00000000
00000000
00000000
00000000
00000000
00100000
00000000
00000000
00000000
00000000
00000000
00000000
00000000
00101000
00000000
00000000
00000000
00000000
00000000
00000000
00000000
00001000
00000000
00000000
00000000
00000000
00000000
00000000
00000000
,
00010000
00000010
00010000
00000000
00011000
00000000
00010000
00000000
00001000
00000100
00000001
00000000
00001001
00000000
00000001
00000100
,
00000010
00000000
00001000
00000000
00001001
00000000
00000001
00000000
00000100
00001000
00010000
00000000
00200000
00000000
02300000
00000000
,
03010000
10000000
01000000
00100000
00001000
00010000
00001000
00000000
00010000
00000000
00001000
00000000
00022000
00000000
00033000
00000000
,
00011000
00000000
00000000
00000000
00010000
00000000
00000000
00000000
00001000
00000000
00000000
01000000
00000000
00000000
00010000
00000000
,
10000000
00000000
01000000
00000000
00100000
00000000
00000000
00000000
00001000
00000000
00000000
00010000
00000000
00000000
00000010
00000000
,
00001000
00000000
00000000
00000000
00000001
00000000
00000000
00000000
00000010
00000000
00000000
00000100
00000000
00000000
00010000
00000000
,
00011000
00010010
01001000
00011000
,
00001000
00000000
00000000
00010000
00000000
00000000
01000000
00000000
10000000
00000000
00000000
00100000
00000000
00000000
00010000
00000000
,
00001000
00000000
00000000
00000100
00000000
00000000
00000001
00000000
00000010
00000000
00000000
00001000
00000000
00000000
00010000
00000000
,
00001000
01000000
00100000
10000000
00010000
00100000
01000000
00100000
,
00001000
00010000
00001000
00000100
00000001
00001000
00000100
00000000
,
00000220
00000000
00000000
00000330
,
00000001
00000100
00001000
00010000
00001000
00000000
00011000
00000000
,
00001000
00010000
00001000
01000000
00010000
10000000
01000000
00000000
,
00100000
00001000
00010000
00000100
00001000
00000010
00000100
00000000
,
00000001
00001000
00000100
00000010
00000001
00001000
00000010
00000000
,
00000100
00000010
00001000
00000001
00000010
00000100
00010000
00000000
,
00001000
00010000
00100000
01000000
00100000
10000000
00010000
00000000
,
10000000
01000000
00010000
00001000
00100000
00001000
00020000
00030000
,
00011000
00000010
00001001
00000100
,
00001000
00000001
00000100
00000010
00001000
00000001
00002000
00000000
,
00003001
00000100
00001000
00010000
00001000
00010000
00100000
00000000
,
01000000
00010000
10000000
01000000
00100000
00001000
00010000
00000000
,
00001000
00010000
00000100
00010000
00001000
00010000
00000010
00000000
,
00001000
00000100
00000010
00000001
00000011
00000000
00001001
00000000
,
00000001
00000100
00001000
00000000
00010000
00100000
10000000
00000000
,
10000000
01000000
00010000
00000000
00001000
00000010
00000001
00000000
,
00000001
00000100
00000010
00000100
00001000
00010000
00100000
10000000
,
01000000
00100000
00001000
00010000
00001000
00000000
01001000
00000000
,
00022000
00000000
00000000
00000000
,
00033000
00000000
00000000
00000000
;

//--------------- dance-double - Fred-104 ----------------
#NOTEDATA:;
#STEPSTYPE:dance-double;
#DESCRIPTION:Fred-104;
#DIFFICULTY:Hard;
#METER:16;
#CREDIT:Fred-104;
#NOTES:
00000000
00000000
00000000
00000000
,
00000000
00000000
00000000
00000000
,
00000000
00000000
00000000
00000000
,
00000000
00000000
00000000
00000000
,
00000000
00000000
00000000
00000000
,
00000000
00000000
00000000
00000000
,
00101000
00000000
00000000
00000000
00010010
00000000
00000000
00000000
01001000
00000000
00000000
00000000
00011000
00000000
00010000
00000100
,
00010000
00001000
00100000
00001000
00010000
00000100
00001000
00000100
,
00000010
00000001
00000010
00000000
00000100
00001000
00000100
00000000
00010000
00001000
00100000
00010000
10000000
00100000
01000000
00010000
,
02000000
00100000
00100000
00100000
03100000
00000000
01100000
00000000
,
10010000
00000000
00000000
00000000
,
10000000
00000000
01000000
00000000
,
00010000
00000000
00000000
00000000
,
00001000
00000000
00000100
00000000
,
00000001
00000000
00001000
00000100
00000010
00000001
00000000
00001000
,
00000010
00000100
00001000
00010000
00100000
01000000
00100000
10000000
,
00010000
00100000
01000000
00100000
00001000
00000010
00000100
00000000
,
00001000
00000000
00000000
00000000
00000000
00000000
00000000
00000000
00000001
00000000
00000000
00000000
00000000
00000000
00000000
00000000
00000100
00000000
00000000
00000000
00000000
00000000
00000000
00000000
00001000
00000000
00000000
00000000
00000000
00000000
00000000
00000000
00010000
00000000
00000000
00000000
00000000
00000000
00000000
00000000
00002000
00003000
00000000
00000000
00000000
00000000
00000000
00000000
00002000
00003000
00000000
00000000
00000000
00000000
00000000
00000000
00000000
00000000
00000000
00000000
00000000
00000000
00000000
00000000
,
00011000
00001000
00010000
00010000
,
00100000
00100000
10000000
10000000
,
01000000
01000000
00010000
00010000
,
00001000
00001000
00010000
00010000
,
00011000
00000000
00010000
00000000
00000010
00001000
00000010
00000000
,
00000100
00000001
00001000
00000000
00000100
00000010
00001000
00010000
,
00011000
00001000
01000000
00010000
10010000
10000000
01000000
00100000
,
00001000
00010000
00001000
00000000
00000100
00000000
00000001
00000000
00001000
00000000
00000100
00000000
00000010
00000000
00000000
00000000
,
00001001
00000000
00000000
00000001
00000010
00000000
00000100
00010000
00001000
00000000
00000000
00001000
00010000
00000000
00100000
01000000
,
00010000
00000000
01000000
00000000
00010000
00000000
00000000
00000000
10000000
01000000
00000000
01000000
00100000
00000000
00001000
00010000
,
00001000
00000000
00000000
00001000
00010000
00000000
00000100
00001000
00000001
00000000
00000000
00000001
00001000
00000000
00000010
00010000
,
00001000
00000000
00010000
00000000
00100000
00000000
01000000
00000000
00100000
00000000
10000000
00010000
00000000
00100000
01000000
00100000
,
00001000
00000000
00010000
00000100
00000000
00001000
00000100
00000010
00000001
00000000
00001000
00000001
00000000
00000100
00000010
00001000
,
00000001
00000000
00001000
00000001
00000100
00000000
00001000
00010000
00100000
00000000
01000000
00010000
10000000
01000000
00100000
00000000
,
20020000
00000000
00000000
00000000
00000000
00000000
30030000
10000000
01000000
00010000
00001000
00000010
00000001
00000000
00001001
00000000
,
00000102
00000000
00000000
00000000
00001003
00000000
00000001
00000010
00000100
00000000
00010000
00001000
00000000
00010000
00100000
00000000
,
01000000
00000000
00010000
10000000
00000000
01000000
00100000
00000000
00001000
00010000
00001000
00010000
00000000
00000010
00001000
00000000
,
00000002
00000000
00000000
00000000
00001003
00000000
00000001
00000010
00000100
00000000
00010000
00001000
00000000
01000000
00001000
00000000
,
00010000
00000100
00001000
00000001
00000000
00000010
00000100
00000000
00010000
00001000
01000000
00001000
00000000
00010000
00000100
00000000
,
00000120
00000000
00000000
00000000
00000031
00000000
00001000
00000010
00000100
00000000
00001000
00010000
00000000
00100000
01000000
00000000
,
00010000
10000000
00010000
00100000
00000000
01000000
10000000
00000000
01000000
00100000
01000000
00100000
00000000
00001000
00010000
00000000
,
00011000
00010000
00000100
00000000
00000110
00000010
00000001
00000100
,
00002000
00010000
00010000
00010000
00013000
00000000
01100000
00000000
,
20000000
00000000
00000000
30000000
10010000
00000000
00010000
00000000
10000000
00000000
01000000
00000000
01100000
00000000
00100000
00000000
,
00001000
00010000
00010010
00000010
00001000
00000100
00000110
00000010
,
00000011
00000001
00001001
00001000
00000010
00010000
00022000
00033000
,
00010010
00000000
00000000
00000000
01001000
00000000
00000000
00000000
00011000
00000000
00000000
00001000
00020000
00000000
00000000
00030000
,
00011000
00000000
00000000
00000000
01000000
00000000
00010000
00100000
01000000
00000000
10000000
00010000
00000000
01000000
00001000
00000000
,
00010000
00000000
00000100
00001000
00000001
00000000
00000100
00000010
00001000
00000000
00000001
00000010
00000000
00000100
00010000
00000000
,
00001000
00100000
00001000
00100000
00010000
10000000
00010000
10000000
01000000
00100000
01000000
00100000
00001000
00010000
00000010
00001000
,
00000002
00000010
00000010
00000010
00000013
00000000
00000110
00000000
,
00001000
00000001
00000100
00000010
00000100
00001000
00010000
00100000
,
01000000
00100000
10000000
01000000
00010000
00001000
00010000
00000000
,
00022000
00033000
00000000
00000000
00000000
00000000
00000000
00000000
00000110
00000000
00000000
00000000
00000000
00000000
00000000
00000000
00001000
00000000
00000000
00000000
00000001
00000000
00000000
00000000
00001000
00000000
00000000
00000000
00000001
00000000
00000000
00000000
00000100
00000000
00000000
00000000
00000010
00000000
00000000
00000000
00000001
00000000
00000000
00000000
00000010
00000000
00000000
00000000
00001000
00000000
00000000
00000000
00010000
00000000
00000000
00000000
01000000
00000000
00000000
00000000
10000000
00000000
00000000
00000000
,
01000000
00100000
01000000
00100000
01000000
00000000
00000000
00000000
00010000
00000000
10000000
00000000
01000000
00000000
00010000
00000000
00001000
00000000
00000100
00000000
00000010
00000000
00001000
00000000
00000001
00000000
00001000
00000000
00000100
00000000
00000010
00000000
,
00001001
00000000
00000001
00000100
00000010
00000010
00010000
00001000
01000000
00001000
00010000
01000000
20000000
00000000
32000000
00100000
,
03100000
00000000
00000000
00000000
00001000
00000000
00010000
00000000
00001000
00000000
00000000
00000000
00000100
00000000
00000000
00000000
00000010
00000000
00000000
00000000
00001000
00000000
00000000
00000000
00000100
00000000
00000000
00000000
00000010
00000000
00000000
00000000
00000001
00000000
00000000
00000000
00000100
00000000
00000000
00000000
00001000
00000000
00000000
00000000
00010000
00000000
00000000
00000000
00100000
00000000
00000000
00000000
20000000
30000000
00000000
00000000
20020000
30030000
00000000
00000000
00000000
00000000
00000000
00000000
,
10000000
00000000
00000000
00000000
01000000
00000000
00100000
00000000
00001000
00000000
00010000
00000010
00000000
00001000
00000001
00000000
,
00000010
00000000
00000100
00000000
00001000
00000000
00000000
00000000
00000001
00000000
00000000
00001000
00000000
00000000
00000100
00010000
,
00000100
00000000
00000000
00000000
00010000
00000000
00001000
00000000
01000000
00000000
00010000
10000000
00000000
01000000
00100000
00000000
,
00001000
00000000
00010000
00000000
00100000
00000000
00000000
00000000
01000000
00010000
01000000
00010000
10000000
00000000
01000000
00000000
,
00100000
00000000
00001000
00010000
00000000
00000010
00001000
00000010
00001000
00000000
00000001
00000010
00000000
00000100
00001000
00000100
,
00001000
00000000
00000001
00001000
00000000
00000010
00010000
00001000
00100000
00000000
00010000
10000000
00000000
01000000
00100000
00001000
,
00010000
00000100
00010000
00000100
00001000
00000001
00001000
00000001
00000010
00000100
00001000
00000100
00010000
00001000
01000000
00001000
,
00010000
00001000
00010000
00000000
01000000
00000000
10000000
00000000
01000000
00000000
00100000
00000000
00110000
00000000
00000000
00000000
,
00001000
00000000
00010000
00000000
00100000
00000000
00000000
00000000
01000000
00000000
00010000
00000000
10000000
01000000
10000000
01000000
,
00200000
01000000
01000000
01000000
01300000
00000000
00011000
00000000
,
00010000
00001000
00011000
00010000
00000010
00001000
00001010
00000010
,
00000100
00000001
00000011
00000010
00000100
00010000
00011000
00001000
,
01000000
00010000
10010000
10000000
01000000
00100000
00101000
00001000
,
00010000
00000100
00001100
00001000
00000001
00000100
00000110
00000010
,
00001000
00000001
00000010
00010000
00100000
01000000
10000000
00010000
,
10000000
00000000
00100000
00000000
00001000
00000000
00000010
00000000
00000100
00000000
00000001
00000000
00000020
00000030
00000200
00000300
,
00001100
00000100
00000110
00000100
00001100
00001000
00001001
00000001
,
00001000
00000001
00000100
00001000
00010000
00100000
20000000
00000000
,
30010000
00000000
10000000
01000000
00100000
00000000
00001000
00000000
00010000
00000100
00001000
00000000
00000001
00000000
00000100
00000000
,
00000010
00000100
00001000
00000000
00010000
00000000
00100000
00000000
01000000
00010000
10000000
00000000
01000000
00000000
00100000
00000000
,
00001000
00000000
00000010
00000100
00001000
00000000
00000001
00000000
00000100
00000000
00001000
00010000
00100000
00000000
01000000
00000000
,
01010000
00000000
00010000
00000000
10010000
00000000
10000000
00000000
11000000
00000000
00000000
00000000
00110000
00000000
00010000
10000000
,
01000000
00000000
00100000
00000000
00101000
00000000
00001000
00000000
00011000
00000000
00010000
00000000
00001000
00010000
00000010
00010000
,
00001000
00000000
00010000
00000010
00001000
00000000
00000001
00000010
00000100
00001000
00000100
00000000
00010000
00001000
00010000
00000000
,
00001000
00100000
00001000
00100000
00010000
10000000
00010000
10000000
01000000
00100000
00001000
00010000
00000100
00000010
00000001
00001000
,
00000020
00000100
00000100
00000100
00000130
00000000
00000110
00000000
,
00002002
00000000
00000000
00000000
,
00003003
00000000
00000000
00000000
;
