#TITLE:Queen's Paradise;
#ARTIST:Nanako;
#BANNER:Queen's Paradise.png;
#BACKGROUND:Queen's Paradise-bg.png;
#CDTITLE:./CDTitles/jubeat ripples.png;
#MUSIC:Queen's Paradise.ogg;
#SAMPLESTART:74.904;
#SAMPLELENGTH:15;
#BPMS:0=157;
#BGSTAGE:2;

//--------------- dance-single - Fred-104 ----------------
#NOTES:
     dance-single:
     Fred-104:
     Beginner:
     3:
     :
0000
0000
0000
0000
,
0000
0000
0000
0000
,
0000
0000
0000
0000
,
0000
0000
0000
0000
,
0000
0000
0000
0000
,
1000
0000
0000
0000
,
1000
0000
0000
0000
,
0001
0000
0000
0000
,
0000
0000
0000
0000
,
1000
0000
1000
0000
,
0100
0000
0000
0000
,
0001
0000
0001
0000
,
0100
0000
0000
0000
,
0010
0000
0010
0000
,
0100
0000
0000
0000
,
1000
0000
0001
0000
,
2000
0000
0000
3000
,
0001
0000
0001
0000
,
0010
0000
0000
0000
,
1000
0000
0010
0000
,
0001
0000
0000
0000
,
1000
0000
1000
0000
,
0010
0000
0000
0000
,
0001
0000
0010
0000
,
1000
0000
0000
0000
,
0002
0003
0002
0003
,
0002
0000
0003
0000
,
2000
3000
2000
3000
,
2000
0000
3000
0000
,
0002
0003
0002
0003
,
0002
0000
0003
0000
,
2000
3000
2000
3000
,
2000
0000
3000
0000
,
0001
0000
0100
0000
,
1000
0000
0000
0000
,
1000
0000
0010
0000
,
0001
0000
0000
0000
,
1000
0000
0100
0000
,
0001
0000
0000
0000
,
0001
0000
0010
0000
,
1000
0000
0000
0000
,
2000
3000
2000
3000
,
2000
0000
3000
0000
,
0002
0003
0002
0003
,
0002
0000
0003
0000
,
2000
3000
2000
3000
,
2000
0000
3000
0000
,
0002
0003
0002
0003
,
0001
0000
0000
0000
,
1000
0000
1000
0000
,
0100
0000
0000
0000
,
0010
0000
0010
0000
,
0001
0000
0000
0000
,
1000
0000
1000
0000
,
0001
0000
0000
0000
,
1000
0000
0001
0000
,
2000
0000
0000
3000
,
1001
0000
0000
0000
,
0001
0000
0001
0000
,
0010
0000
0000
0000
,
0100
0000
0100
0000
,
0010
0000
0000
0000
,
1000
0000
1000
0000
,
0010
0000
0000
0000
,
0001
0000
1000
0000
,
0002
0000
0003
0000
,
1000
0000
1000
0000
,
0010
0000
0000
0000
,
1000
0000
0001
0000
,
0001
0000
0000
0000
,
0100
0000
0001
0000
,
0100
0000
0000
0000
,
0010
0000
0100
0000
,
0001
0001
1000
1000
,
2002
0000
0000
0000
,
0000
0000
0000
0000
,
3003
0000
0000
0000
;

//--------------- dance-single - Fred-104 ----------------
#NOTES:
     dance-single:
     Fred-104:
     Easy:
     5:
     :
0000
0000
0000
0000
,
0000
0000
0000
0000
,
0000
0000
0000
0000
,
0000
0000
0000
0000
,
0000
0000
0000
0000
,
0002
0003
2000
3000
,
0002
0003
0100
0100
,
0020
0030
0200
0300
,
0001
0000
0000
2002
0000
0000
3003
0000
,
2000
3000
0200
0300
,
0002
0003
0010
0010
,
1000
0000
0000
0000
0001
0000
0000
0010
,
0000
0010
0100
0010
,
0002
0003
0200
0300
,
2000
3000
0010
0010
,
0001
0000
1000
0001
,
0100
0010
0110
0000
,
1000
0100
0001
0000
,
0001
0100
1000
0000
,
1000
0010
0001
0000
,
0001
0100
1000
0000
,
0001
0010
1000
0000
,
1000
0010
0001
0000
,
0001
0001
0100
0100
,
1000
1000
0010
0010
,
0002
0000
2003
0000
,
3002
0000
0103
0010
,
0200
0000
0302
0000
,
2003
0000
3100
0010
,
0200
0000
2300
0000
,
3002
0000
0103
0010
,
0200
0000
0301
1000
,
0001
0100
1001
0000
,
1000
0100
0001
0000
,
0001
0100
1000
0000
,
0001
0100
0010
0000
,
1000
0100
0010
0000
,
0001
0010
1000
0000
,
1000
0010
0001
0000
,
0100
0010
1000
0100
,
0010
0001
0100
0010
,
0200
0000
0302
0000
,
2003
0000
3100
0010
,
0002
0000
2003
0000
,
3002
0000
0103
0010
,
0200
0000
0302
0000
,
0023
0000
0130
1000
,
0002
0000
0000
0000
0103
0000
0000
0020
,
0000
0130
0200
0300
,
1001
0000
1000
0000
,
0001
0001
0100
0100
,
1000
0000
0100
0000
,
0010
0010
0100
0001
,
1000
0000
0001
0000
,
0100
0100
1000
1000
,
0100
0000
0001
0000
,
1000
0000
0001
0000
,
1000
0000
0000
2002
0000
0000
3003
0000
,
2000
3000
0200
0300
,
0002
0003
0010
0010
,
1000
0001
1000
0100
,
0010
0001
2000
3000
,
0002
0003
0020
0030
,
2000
3000
0100
0100
,
0002
0000
2003
0000
,
3100
0010
1001
0000
,
1000
0010
0010
0100
,
0100
0001
1000
0000
,
0001
0001
1000
0100
,
1000
0010
1000
0000
,
0001
0100
1000
0000
,
1000
0100
0002
0003
,
2000
3000
0020
0030
,
0002
0003
0100
0100
,
1000
0000
0001
0000
0100
0000
0000
2002
,
0000
0000
0000
0000
,
3003
0000
0000
0000
;

//--------------- dance-single - Fred-104 ----------------
#NOTES:
     dance-single:
     Fred-104:
     Medium:
     8:
     :
0000
0000
0000
0000
,
0000
0000
0000
0000
,
0000
0000
0000
0000
,
0000
0000
0000
0000
,
0000
0000
0000
0000
,
1000
0000
0000
1000
0100
0000
0000
0100
,
0010
0001
2000
3002
,
0103
0000
0000
0100
0010
0000
0100
0001
,
0100
0000
0000
0010
0000
0000
2002
0000
0000
0000
0000
0000
3003
0000
0001
0000
,
0010
0000
0000
0010
0100
0000
0000
0100
,
1000
0001
1000
0010
,
0100
0000
0000
0100
0001
0000
0001
1000
,
0000
1000
0100
0010
,
0100
0000
0000
0100
1000
0000
0000
1000
,
0001
0100
0010
0100
,
0001
0000
0000
0001
1000
0000
0000
1000
,
0100
0010
0001
0000
0100
0010
1000
0000
,
0000
0001
0010
0000
0100
1000
0100
1000
,
0000
0001
0100
0000
0010
1000
0010
1000
,
0001
0000
0010
0000
0100
0000
0000
0100
,
0010
0000
0010
0001
0000
1000
0001
0000
,
0000
1000
0100
0000
1000
0100
0010
0001
,
0000
1000
0010
0000
1000
0010
0100
0001
,
2000
3200
0302
0203
,
2300
3020
0032
0023
,
1030
0000
0000
1000
0100
0000
0000
0100
,
0010
0000
0001
0000
1000
0001
0100
0000
,
0010
0000
0000
0010
1000
0000
0000
1000
,
0100
0000
0010
0000
0100
0010
0001
0000
,
1000
0000
0000
1000
0010
0000
0000
0010
,
0001
0000
0010
0000
1000
0001
0010
0100
,
0010
0000
0000
0010
0001
0000
0000
0001
,
0100
0010
0100
0000
0110
0000
1001
0000
,
0000
1000
0010
0000
0100
0001
0100
0001
,
0000
1000
0100
0000
0010
0001
0010
0001
,
1000
0001
0100
0110
,
0010
0000
0100
0010
0000
0100
0010
0000
,
0000
1000
0001
0000
0010
0100
0010
0100
,
0000
1000
0001
0000
0100
0010
0100
0010
,
2000
3002
0023
2030
,
3020
0032
0203
0320
,
0130
0000
0000
0100
0001
0000
0000
0001
,
1000
0000
0100
0000
0010
0001
0010
0000
,
0001
0000
0000
0001
0100
0000
0000
0100
,
0010
0000
0100
0000
0001
0010
0100
0000
,
1000
0000
0000
1000
0001
0000
0000
0001
,
0100
0000
0010
0000
0100
0001
1000
0000
,
0100
0000
0000
0100
0010
0000
0001
1000
,
0001
1000
2002
3003
,
1000
0000
0000
1000
0100
0000
0000
0100
,
0001
0001
0100
0100
,
1000
0000
0000
1000
0001
0000
1000
0001
,
1000
0100
0001
0100
,
1000
0000
0000
1000
0010
0000
0000
0010
,
0001
0010
0001
0010
,
2000
0001
3002
1000
,
1003
0000
1000
0000
1000
0000
0001
0000
0001
0000
0001
0000
,
0100
0000
0000
0100
0000
0000
2002
0000
0000
0000
0000
0000
3003
0000
0000
0000
,
0001
0000
0000
0100
0010
0000
0000
1000
,
0001
0010
0100
1000
,
0001
0000
0000
1000
0010
0000
0100
0001
,
0000
1000
0001
0000
0010
0000
0100
0000
,
1000
0000
0000
0001
0100
0000
0000
0010
,
1000
0001
1000
0100
,
0010
0000
0100
1000
0001
0000
0100
0010
,
0100
0000
0001
0000
1000
0001
1000
0000
,
0100
0010
0100
1000
,
0010
0000
0100
0001
0100
0000
0010
0000
,
1000
0001
0010
0100
,
0010
0001
0010
0001
2000
0000
3000
0000
,
1000
0000
0001
1000
0000
0101
0000
0000
,
0100
0001
1000
1000
,
0001
0000
0100
0010
0100
0000
0001
1000
,
0100
0010
0011
1001
,
0001
0000
1000
0001
0100
0000
0010
0020
,
0000
0000
0000
0000
,
0030
0000
0000
0000
;

//--------------- dance-single - Fred-104 ----------------
#NOTES:
     dance-single:
     Fred-104:
     Hard:
     12:
     :
0000
0000
0000
0000
,
0000
0000
0000
0000
,
0000
0000
0000
0000
,
0000
0000
0000
0000
,
0000
0000
0000
0000
,
0002
0000
1003
0001
0020
0000
0130
1000
,
0002
0103
0020
0230
,
0301
0000
1000
0100
0010
0000
0001
0100
,
0010
0000
0000
0110
0000
0000
2002
0000
0000
0000
0000
0000
3003
0000
1000
0000
,
0002
0000
1003
0100
0002
0000
0103
1000
,
0002
0000
0103
0010
0100
0000
1001
0000
,
0002
0000
0013
1000
0020
0000
0031
0100
,
0010
0000
0000
0010
1000
0000
0001
0000
0010
0000
0100
0000
1000
0000
0001
0000
,
0200
0000
1300
0100
0002
0000
1003
0100
,
0002
0000
0103
0010
0001
0000
1001
0000
,
2000
0000
3001
0010
2000
0000
3010
0001
,
0100
0000
0000
0100
0010
0000
1000
0000
0001
0010
0001
0010
0100
0000
1000
0000
,
0000
0000
1000
0000
0001
0000
0000
0100
0001
0000
0010
0000
0001
0000
0100
0000
,
0000
0000
0001
0000
1000
0000
0000
0100
1000
0000
0010
0000
1000
0000
0001
0000
,
0200
0000
0320
0000
2030
0000
3001
0010
,
0100
0000
1000
0000
0001
0000
0100
0000
0000
0000
0010
1000
0010
0000
0100
0000
,
0000
0000
0001
0000
1000
0000
0000
0100
0010
0000
0001
0000
0100
0000
0010
0000
,
0000
0000
1000
0000
0001
0000
0000
0010
0100
0000
1000
0000
0001
0000
1000
0000
,
0020
0001
0100
1030
,
0002
0100
1000
0013
,
0001
0000
0000
0010
0000
0000
0100
0000
0000
0000
1000
0000
1001
0000
0000
0000
,
1000
0000
0000
0010
0000
0000
0100
0000
0000
0000
0001
0000
1001
0000
0000
0000
,
1000
0000
0000
0100
0000
0000
1000
0000
0000
0000
0001
0000
0011
0000
0000
0000
,
0001
0000
0000
1000
0000
0000
0010
0000
0000
1000
0001
0000
0100
0000
0010
0100
,
0010
0000
0000
0100
0000
0000
0110
0000
0100
0000
0001
0000
1001
0000
0000
0000
,
1000
0000
0000
0100
0000
0000
0110
0000
0010
0000
0001
0000
1001
0000
0000
0000
,
0001
0000
0000
0100
0000
0000
0101
0000
0100
0000
0010
0000
1010
0000
0000
0000
,
0001
0000
0000
0011
0000
0000
0011
0000
0000
0000
0000
0000
0100
0000
1000
0000
0000
1000
0100
0000
0000
1000
0000
0000
,
0001
0000
0100
0000
0010
0000
0000
0010
1000
0000
0010
0000
0100
0000
0001
0000
,
1000
0000
0100
0000
0010
0000
0000
0010
0001
0000
0010
0000
0100
0000
1000
0000
,
0002
0000
0203
0000
2300
0000
3100
0001
,
1000
0000
0100
0000
0010
0000
0001
0000
0000
0000
0001
0000
1000
0001
1000
0000
,
0001
0000
0100
0000
0010
0000
0000
0010
1000
0000
0001
0000
0010
0000
0001
0000
,
1000
0000
0010
0000
0100
0000
0000
0100
0001
0000
1000
0000
0100
0000
1000
0000
,
0002
0100
1000
0013
,
0200
0001
1000
0310
,
0001
0000
0000
0100
0000
0000
0110
0000
0000
0000
0010
0000
1010
0000
0000
0000
,
1000
0000
0000
0001
0000
0000
0011
0000
0000
0000
0010
0000
0110
0000
0000
0000
,
1000
0000
0000
0001
0000
0000
0101
0000
0000
0000
0100
0000
0110
0000
0000
0000
,
0010
0000
0000
1000
0000
0000
1001
0000
0000
0001
0010
0000
0110
0000
0000
0000
,
1000
0000
0000
0100
0000
0000
1100
0000
0000
0000
0001
0000
0011
0000
0000
0000
,
0001
0000
0000
0100
0000
0000
0101
0000
0000
0000
1000
0000
1010
0000
0000
0000
,
1001
0000
0000
0001
0000
0000
0010
0100
0010
0000
0000
0010
0001
0000
2000
0000
,
0000
0100
0001
3100
,
0120
0000
0031
0100
0020
0000
1030
0100
,
0010
0100
0010
0001
0000
0001
1000
0001
,
0200
0000
0310
1000
0200
0000
0310
0001
,
2000
0000
0001
0000
3001
1000
0010
0000
,
0200
0000
0301
0010
0200
0000
1300
0010
,
0100
0010
1000
0001
0000
0001
0010
0100
,
2000
0010
3002
0100
,
1003
0000
1100
0000
0100
0010
0001
0000
1001
0000
1000
0001
,
0100
0000
0000
0010
0000
0000
2002
0000
0000
0000
0000
0000
3003
0000
0001
0000
,
0010
0001
1000
0001
0100
0001
1000
0001
,
0010
0100
0001
0100
0010
0000
1001
0000
,
0001
0100
0010
1000
0100
1000
0001
0100
,
0010
0000
0000
0010
0100
0000
0001
0000
1000
0000
0100
0000
0010
0000
0001
0000
,
0100
0001
0010
0001
0100
0010
1000
0001
,
0010
1000
0010
0100
0010
0000
1001
0000
,
0001
0100
0010
1000
0100
0010
0100
1000
,
0001
0000
0100
0000
0010
1000
0000
0010
1000
0000
0001
1000
0001
0000
0010
0000
,
0100
1000
0010
0100
0000
1100
0000
0101
,
0000
0001
1000
0001
0020
0000
0130
0010
,
0001
1000
0010
0001
0000
0011
0000
0110
,
0000
0100
0001
1000
0002
0000
0013
0100
,
1000
0001
0100
0010
0000
0110
0000
0010
,
0100
0000
0000
0000
0101
0000
0000
0000
1001
0000
0001
1000
0001
0000
0100
0000
,
0010
1000
0100
0001
0100
0010
0100
1000
,
0001
0000
0000
0001
0100
0000
0010
0000
0110
0000
0000
0000
1001
0000
0000
0000
,
1000
0000
0100
0000
0001
0000
1000
0000
0010
0000
0001
1000
0001
0000
2002
0000
,
0000
0000
0000
0000
,
3003
0000
0000
0000
;

//--------------- dance-double - Fred-104 ----------------
#NOTES:
     dance-double:
     Fred-104:
     Easy:
     5:
     :
00000000
00000000
00000000
00000000
,
00000000
00000000
00000000
00000000
,
00000000
00000000
00000000
00000000
,
00000000
00000000
00000000
00000000
,
00000000
00000000
00000000
00000000
,
00002000
00003000
02000000
03000000
,
00200000
00300000
10000000
10000000
,
00020000
00030000
00200000
00300000
,
01000000
00000000
00000000
20020000
00000000
00000000
30030000
00000000
,
20000000
30000000
00200000
00300000
,
00020000
00030000
00001000
00000100
,
00000001
00000000
00000000
00000000
00000010
00000000
00000000
00000010
,
00000000
00000100
00001000
00000100
,
00020000
00030000
00002000
00003000
,
00020000
00030000
00100000
10000000
,
00010000
00000000
10000000
01000000
,
00010000
00001000
00011000
00000000
,
00010000
00001000
00000010
00000000
,
00000010
00001000
00010000
00000000
,
00010000
00000010
00001000
00000000
,
00000010
00010000
00001000
00000000
,
00001000
00010000
00100000
00000000
,
00100000
00010000
00001000
00000000
,
00010000
00001000
00100000
00001000
,
00010000
00001000
01000000
00010000
,
20000000
00000000
32000000
00000000
,
03200000
00000000
00301000
00010000
,
00002000
00000000
00023000
00000000
,
00030020
00000000
00001030
00000010
,
00000200
00000000
00000302
00000000
,
00002003
00000000
00003010
00010000
,
00002000
00000000
00013000
00001000
,
00100000
00010000
10010000
00000000
,
10000000
01000000
00010000
00000000
,
00001000
00000010
00000001
00000000
,
00000001
00000100
00001000
00000000
,
00010000
00100000
10000000
00000000
,
10000000
00100000
00010000
00000000
,
00001000
00000100
00000001
00000000
,
00000001
00000010
00001000
00001000
,
00010000
01000000
10000000
10000000
,
00020000
00000000
00230000
00000000
,
00302000
00000000
00013000
00001000
,
00020000
00000000
00030200
00000000
,
00000320
00000000
00000031
00001000
,
00000002
00000000
00000203
00000000
,
00002300
00000000
00013000
00001000
,
00020000
00000000
00000000
00000000
00030100
00000000
00000000
00000020
,
00000000
00000031
00000002
00000003
,
00001001
00000000
00000001
00000000
,
00000010
00001000
00010000
00001000
,
00010000
00000000
00001000
00000000
,
01000000
00010000
00100000
01000000
,
10000000
00000000
00100000
00000000
,
01000000
10000000
01000000
00010000
,
10000000
00000000
01000000
00000000
,
00010000
00000000
00001000
00000000
,
00010000
00000000
00000000
00022000
00000000
00000000
00033000
00000000
,
00020000
00030000
00002000
00003000
,
00000200
00000300
00000001
00000010
,
00000100
00001000
00000100
00010000
,
00001000
01000000
00200000
00300000
,
20000000
30000000
00200000
00300000
,
00020000
00030000
00001000
00010000
,
02000000
00000000
23000000
00000000
,
30100000
00010000
00011000
00000000
,
00001000
00001000
00010000
00010000
,
00001000
00100000
00010000
00000000
,
00100000
00010000
00100000
01000000
,
10000000
00010000
10000000
00000000
,
00100000
01000000
00100000
00000000
,
00010000
00001000
00020000
00030000
,
00002000
00003000
00000200
00000300
,
00000002
00000003
00001000
00000100
,
00010000
00000000
00001000
00000000
01000000
00000000
00000000
20020000
,
00000000
00000000
00000000
00000000
,
30030000
00000000
00000000
00000000
;

//--------------- dance-double - Fred-104 ----------------
#NOTES:
     dance-double:
     Fred-104:
     Medium:
     8:
     :
00000000
00000000
00000000
00000000
,
00000000
00000000
00000000
00000000
,
00000000
00000000
00000000
00000000
,
00000000
00000000
00000000
00000000
,
00000000
00000000
00000000
00000000
,
00001000
00000000
00000000
00001000
00010000
00000000
00000000
00010000
,
00001000
00000000
01000000
00010000
00200000
00000000
02300000
00000000
,
13000000
00000000
00000000
10000000
00010000
00000000
01000000
00010000
,
01000000
00000000
00000000
00001000
00000000
00000000
00022000
00000000
00000000
00000000
00000000
00000000
00033000
00000000
00010000
00000000
,
00001000
00000000
00000000
00001000
00010000
00000000
00000000
00010000
,
00000010
00000000
00001000
00000100
,
00000010
00000000
00000000
00000010
00000001
00000000
00001000
00000010
,
00000000
00001000
00000010
00000000
00000100
00000000
00001000
00010000
,
00001000
00000000
00000000
00001000
00100000
00000000
00000000
00100000
,
00010000
00000000
01000000
00100000
,
01000000
00000000
00000000
01000000
00010000
00000000
10000000
00010000
,
10000000
00000000
01000000
00000000
00010000
00001000
00010000
00000000
,
00000000
00001000
00010000
00000000
00000010
00001000
00000010
00001000
,
00000000
00000001
00001000
00000000
00000100
00000010
00000100
00000010
,
00000001
00000000
00000100
00000000
00001000
00000000
00000000
00001000
,
00010000
00000000
00001000
01000000
00000000
00010000
01000000
00000000
,
00000000
00100000
10000000
00000000
00010000
00100000
00010000
00100000
,
00000000
01000000
00100000
00000000
00001000
00010000
00001000
00010000
,
00002000
00023000
00230000
20300000
,
30020000
20030000
32000000
03020000
,
00031000
00000000
00000000
00001000
00010000
00000000
00000000
00010000
,
00000100
00000000
00000010
00000000
00000001
00001000
00000001
00000000
,
00000100
00000000
00000000
00000100
00001000
00000000
00000000
00001000
,
00010000
00000000
00001000
00000000
00100000
00010000
00100000
00000000
,
01000000
00000000
00000000
01000000
10000000
00000000
00000000
10000000
,
00010000
00000000
01000000
00000000
00001000
00010000
00001000
00000000
,
00010000
00000000
00000000
00010000
00000100
00000000
00000000
00000100
,
00010000
00001000
00010000
00000000
00011000
00000000
00011000
00000000
,
00000000
00001000
00100000
00000000
00010000
10000000
00010000
10000000
,
00000000
01000000
00100000
00000000
00001000
00010000
00001000
00010000
,
00000100
00000010
00000001
00001001
,
00000001
00000000
00001000
00000010
00000000
00010000
00000010
00000000
,
00000000
00010000
00001000
00000000
00100000
01000000
00100000
01000000
,
00000000
10000000
00010000
00000000
01000000
00100000
00010000
00001000
,
00020000
00032000
00003200
00000302
,
00002003
00003002
00000023
00002030
,
00013000
00000000
00000000
00010000
00001000
00000000
00000000
00001000
,
01000000
00000000
00100000
00000000
10000000
01000000
00100000
00000000
,
00001000
00000000
00000000
00001000
00010000
00000000
00000000
00010000
,
00000100
00000000
00001000
00000000
00000001
00001000
00000001
00000000
,
00000100
00000000
00000000
00000100
00000010
00000000
00000000
00000010
,
00000100
00000000
00001000
00000000
00010000
00001000
00010000
00000000
,
00001000
00000000
00000000
00001000
00100000
00000000
00010000
01000000
,
00100000
01000000
20020000
30030000
,
01100000
00000000
00000000
10000000
01000000
00000000
00000000
01000000
,
00010000
00000000
00001000
00010000
00000000
00001000
00010000
00000000
,
00000010
00000000
00000000
00000010
00001000
00000000
00000100
00000010
,
00000001
00000100
00001000
00010000
,
00001000
00000000
00000000
00001000
00100000
00000000
00000000
00100000
,
00010000
01000000
00001000
00010000
,
00000020
00000100
00000230
00000010
,
00000310
00000000
00001000
00000000
00001000
00000000
00000100
00000000
00000010
00000000
00000010
00000000
,
00000001
00000000
00000000
00001000
00000000
00000000
00002002
00000000
00000000
00000000
00000000
00000000
00003003
00000000
00001000
00000000
,
00000001
00000000
00000000
00000001
00000100
00000000
00000000
00000100
,
00001000
00010000
00001000
00100000
,
00010000
00000000
00000000
00010000
01000000
00000000
00100000
01000000
,
00000000
00100000
10000000
00000000
00010000
00000000
10000000
00000000
,
01000000
00000000
00000000
01000000
00100000
00000000
00000000
00100000
,
00001000
00000000
00010000
00000000
00000100
00001000
00000100
00000000
,
00010000
00000000
00000000
00010000
00001000
00000000
00000000
00001000
,
01000000
00000000
01100000
00000000
10000000
00010000
10000000
00000000
,
01000000
00000000
00100000
00001000
00000000
00001000
00000000
00010000
,
00000000
00000100
00001000
00000100
00001000
00000000
00000100
00010000
,
00001000
00000000
00010000
00100000
00000000
01000000
00000000
01000000
,
00000000
00010000
10000000
00010000
10000000
00000000
01000000
00000000
,
00100000
00000000
00001000
00010000
00000000
00011000
00000000
00000000
,
00010000
00001000
00000100
00000001
,
00001000
00000000
00000000
00001000
00000100
00000000
00000000
00000100
,
00000010
00000000
00000001
00000000
00001000
00000010
00001000
00000000
,
00000010
00000000
00000000
00000010
00000100
00001000
00010000
00020000
,
00000000
00000000
00000000
00000000
,
00030000
00000000
00000000
00000000
;

//--------------- dance-double - Fred-104 ----------------
#NOTES:
     dance-double:
     Fred-104:
     Hard:
     13:
     :
00000000
00000000
00000000
00000000
,
00000000
00000000
00000000
00000000
,
00000000
00000000
00000000
00000000
,
00000000
00000000
00000000
00000000
,
00000000
00000000
00000000
00000000
,
00020000
00000000
00031000
00000010
00000002
00000000
00000103
00001000
,
00020000
00000000
00031000
00000010
00001000
00010000
00002000
00000000
,
02003000
00000000
03100000
10000000
02000000
00000000
03010000
00001000
,
00001100
00000000
00000000
00000101
00000000
00000000
00002002
00000000
00000000
00000000
00000000
00000000
00003003
00000000
00000001
00000000
,
00000002
00000100
00000103
00001000
00020000
00001000
00031000
01000000
,
00020000
00100000
00130000
01000000
00010000
00000000
00011000
00000000
,
00020000
00001000
00031000
00000100
00000002
00000010
00000013
00000100
,
00010000
00000000
00000000
00010000
00001000
00000000
00010000
00000000
00100000
00000000
01000000
00000000
10000000
00000000
01000000
00000000
,
00200000
10000000
10300000
01000000
00020000
00001000
00031000
00000100
,
00002000
00010000
00013000
00000010
00000110
00000000
00001001
00000000
,
00002000
00000100
00003100
00000010
00000002
00000100
00000103
00001000
,
00010000
00000000
00000000
00010000
00001000
00000000
00010000
00000000
00001000
01000000
00001000
01000000
00001000
00000000
00010000
00000000
,
00000000
00000000
00010000
00000000
00001000
00000000
00000000
00000100
00000010
00000000
00010000
00000000
00001000
00000000
00010000
00000000
,
00000000
00000000
00010000
00000000
00001000
00000000
00000000
00000010
00000100
00000000
00010000
00000000
00001000
00000000
00010000
00000000
,
00002000
00000000
01000000
00000000
00000100
00000000
00013000
00001000
,
00100000
00000000
01000000
00000000
10000000
00000000
00100000
00000000
00010000
00000000
00001000
00010000
00001000
00000000
00010000
00000000
,
00000000
00000000
00010000
00000000
00100000
00000000
00000000
01000000
00001000
00000000
01000000
00000000
00001000
00000000
00010000
00000000
,
00000000
00000000
00010000
00000000
01000000
00000000
00000000
00100000
00001000
00000000
00100000
00000000
00001000
00000000
00010000
00000000
,
00002000
00100000
00000010
00013000
,
00002000
01000000
00000100
00013000
,
00001000
00000000
00000000
00010000
00000000
00000000
00000100
00000000
00001000
00000000
00000010
00000000
00000110
00000000
00000000
00000000
,
00000001
00000000
00000000
00000010
00000000
00000000
00000100
00000000
00010000
00000000
00001000
00000000
01001000
00000000
00000000
00000000
,
00001000
00000000
00000000
00010000
00000000
00000000
00100000
00000000
10000000
00000000
01000000
00000000
01100000
00000000
00000000
00000000
,
00100000
00000000
00000000
00001000
00000000
00000000
00010000
00000000
00000000
00001000
00000100
00000000
00000010
00000000
00001000
00000001
,
00000010
00000000
00000000
00000100
00000000
00000000
00001100
00000000
00000100
00000000
00010000
00000000
00011000
00000000
00000000
00000000
,
00001000
00000000
00000000
01000000
00000000
00000000
01100000
00000000
00100000
00000000
10000000
00000000
01010000
00000000
00000000
00000000
,
00001000
00000000
00000000
00010000
00000000
00000000
00010100
00000000
00000100
00000000
00000010
00000000
00000011
00000000
00000000
00000000
,
00000001
00000000
00000000
00001001
00000000
00000000
00001001
00000000
00000000
00000000
00000000
00000000
00001000
00000000
00000001
00000000
00000000
00000001
00001000
00000000
00000000
00000100
00000000
00000000
,
00010000
00000000
00001000
00000000
01000000
00000000
00000000
01000000
00100000
00000000
00010000
00000000
00100000
00000000
01000000
00000000
,
00010000
00000000
10000000
00000000
01000000
00000000
00000000
01000000
00010000
00000000
00001000
00000000
00000010
00000000
00000100
00000000
,
00002000
00000000
00003002
00000000
00000203
00000000
00001300
00010000
,
00000100
00000000
00000010
00000000
00000001
00000000
00000010
00000000
00000000
00000000
00000100
00000010
00000001
00000000
00001000
00000000
,
00000010
00000000
00000100
00000000
00001000
00000000
00000000
00001000
00010000
00000000
01000000
00000000
10000000
00000000
00010000
00000000
,
01000000
00000000
00100000
00000000
00010000
00000000
00000000
00010000
00001000
00000000
00010000
00000000
01000000
00000000
00100000
00000000
,
00020000
01000000
10000000
00130000
,
00002000
00010000
00000010
00103000
,
00001000
00000000
00000000
00010000
00000000
00000000
00001000
00000000
00010000
00000000
00000100
00000000
00000110
00000000
00000000
00000000
,
00000001
00000000
00000000
00001000
00000000
00000000
00000010
00000000
00000100
00000000
00001000
00000000
00011000
00000000
00000000
00000000
,
00001000
00000000
00000000
01000000
00000000
00000000
00010000
00000000
00100000
00000000
01000000
00000000
11000000
00000000
00000000
00000000
,
00010000
00000000
00000000
01000000
00000000
00000000
00100000
00000000
00000000
00010000
00001000
00000000
00010000
00000000
00000100
00001000
,
00000100
00000000
00000000
00000010
00000000
00000000
00000011
00000000
00000001
00000000
00001000
00000000
00001010
00000000
00000000
00000000
,
00000001
00000000
00000000
00000010
00000000
00000000
00000110
00000000
00000100
00000000
00010000
00000000
01001000
00000000
00000000
00000000
,
01000000
00000000
00000000
00100000
00000000
00000000
10000000
00010000
00100000
00000000
00000000
00001000
00010000
00000000
00002000
00000000
,
00000000
01000000
00000010
00103000
,
00012000
00000000
00013000
00001000
00000200
00000000
00000301
00001000
,
00000100
00000010
00000001
00000100
00000000
00000100
00001000
01000000
,
00020000
00000000
10030000
01000000
00020000
00000000
00031000
00010000
,
00200000
01000000
10000000
01300000
,
00020000
00000000
10030000
01000000
00020000
00000000
00031000
00010000
,
00100000
00010000
00001000
00010000
00000000
00010000
00000100
00000010
,
00000002
00000100
00002003
00000010
,
00003001
00000000
00001000
00000000
00000010
00010000
00001000
00000000
00010000
00000000
00100000
10000000
,
01000000
00000000
00000000
00100000
00000000
00000000
20020000
00000000
00000000
00000000
00000000
00000000
30030000
00000000
10000000
00000000
,
02000000
00100000
03100000
00001000
00020000
00001000
00031000
00000100
,
00000002
00000010
00000013
00001000
00011000
00000000
00011000
00000000
,
00001000
00100000
10000000
00010000
01000000
00100000
00010000
10000000
,
00100000
00000000
00000000
00100000
01000000
00000000
10000000
00000000
01000000
00000000
00100000
00000000
00010000
00000000
00001000
00000000
,
00020000
00001000
00031000
00000100
00000002
00000010
00000013
00000100
,
00020000
00001000
00031000
01000000
01100000
00000000
10010000
00000000
,
00010000
10000000
01000000
00100000
00010000
00001000
00000100
00000010
,
00000001
00000000
00001000
00000000
00000010
00000100
00000000
00000010
00000100
00000000
00000001
00001000
00000100
00000000
00010000
00000000
,
00001000
00010000
00100000
10000000
00000000
11000000
00000000
01010000
,
00000000
00010000
00001000
00010000
00000200
00000000
00000310
00000001
,
00001000
00000001
00000100
00001000
00000000
00011000
00000000
00001010
,
00000000
00000010
00000001
00000100
00002000
00000000
00013000
00001000
,
00100000
01000000
10000000
00010000
00000000
01010000
01000000
00001000
,
00010000
00000000
00000000
00000000
00001010
00000000
00000000
00000000
00011000
00000000
00010000
00001000
00010000
00000000
00000100
00000000
,
00001000
00000010
00000001
00001000
00000100
00000010
00010000
00001000
,
01000000
00000000
00000000
01000000
00100000
00000000
01000000
00000000
01100000
00000000
00000000
00000000
10010000
00000000
00000000
00000000
,
10000000
00000000
01000000
00000000
00010000
00000000
00001000
00000000
00000010
00000000
00000001
00001000
00000001
00000000
00002002
00000000
,
00000000
00000000
00000000
00000000
,
00003003
00000000
00000000
00000000
;
