#TITLE:Queen Kaguya;
#ARTIST:BEMANI Sound Team "U1 overground";
#ARTISTTRANSLIT:U1 overground;
#GENRE:ORBITALIC MOON MIXTURE;
#BANNER:Queen Kaguya.png;
#BACKGROUND:Queen Kaguya-bg.png;
#CDTITLE:./CDTitles/bm IIDX 27 HEROIC VERSE.png;
#MUSIC:Queen Kaguya.ogg;
#SAMPLESTART:108;
#SAMPLELENGTH:15;
#BPMS:0=100,36=200,100=100,116=200,180=100,196=200,260=100,276=200;
#STOPS:308=4.8;

//--------------- dance-single - Fred-104 ----------------
#NOTES:
     dance-single:
     Fred-104:
     Beginner:
     5:
     :
0000
0000
0000
0000
,
0000
0000
0000
0000
,
0000
0000
0000
0000
,
0000
0000
0000
0000
,
0000
0000
0000
0000
,
1000
0000
1000
0000
,
0001
0000
0001
0000
,
2000
3000
0002
0003
,
2000
3000
0002
0003
,
1000
0000
0001
0000
,
0100
0000
0010
0000
,
2000
3000
0001
0000
,
0010
0000
0001
0000
,
1000
0000
1000
0000
,
0100
0000
1000
0000
,
0002
0003
1000
0000
,
0100
0100
0100
0000
,
2000
0000
0000
3000
,
0001
0000
1000
0000
,
0020
0030
0100
0100
,
0200
0000
0300
0000
,
0001
0000
1000
0000
,
0001
0000
0010
0000
,
0001
0000
1000
1000
,
1000
0000
0001
0000
,
1001
0000
0000
0000
,
0000
0000
0000
0000
,
1000
1000
0001
0001
,
1000
0001
2002
3003
,
1000
0000
0001
0000
,
0200
0000
0300
0000
,
0001
0000
1000
0000
,
0002
0000
0003
0000
,
1000
0000
1000
0000
,
0001
0000
0001
0000
,
0100
0000
0100
0000
,
0001
0000
0001
0000
,
0020
0000
0000
0000
,
0230
0000
0000
0000
,
2300
0000
0000
3000
,
2002
0000
3003
0000
,
2000
0000
0000
0000
,
3001
0001
0001
0000
,
0200
0000
0000
0000
,
0310
0010
0010
0000
,
1000
0000
0001
0000
,
1000
0000
0001
0000
,
0100
0000
0010
0000
,
0100
0000
0110
0000
,
1000
0000
1000
0000
,
0001
0000
0001
0000
,
0200
0000
0000
0000
,
0320
0000
0000
0000
,
0130
0000
0100
0000
,
0001
0000
0001
0000
,
2000
0000
0000
0000
,
3002
0000
0000
0000
,
2003
0000
3001
0000
,
2000
0000
3001
0000
,
0020
0000
0130
0000
,
0020
0000
0130
0000
,
1000
0000
0001
0000
,
1000
0000
0001
0000
,
0100
0000
0010
0000
,
1000
1000
1000
1000
,
1001
0000
0001
1000
,
0010
0100
0100
0001
,
1000
0001
1000
1000
,
0001
1000
2002
3003
,
0001
0001
0001
0001
,
0002
0003
2000
3000
,
0010
0010
0020
0030
,
0100
0100
0200
0300
,
0001
1000
0001
0000
,
1000
1000
1000
0000
,
0001
0000
1000
0000
,
0001
1000
2002
0000
,
3003
0000
0000
0000
;

//--------------- dance-single - Fred-104 ----------------
#NOTES:
     dance-single:
     Fred-104:
     Easy:
     9:
     :
0000
0000
0000
0000
,
0000
0000
0000
0000
,
0000
0000
0000
0000
,
0000
0000
0000
0000
,
0000
0000
0000
0000
,
1000
0200
0300
0000
0010
0002
0003
0000
,
1000
0020
0030
0000
0100
0002
0003
0000
,
1000
1000
0001
0100
0010
0010
0100
0001
,
1000
0000
1000
0000
0100
0000
0010
0000
0100
0000
0100
0000
1000
0001
1000
0000
,
0001
0000
1001
0000
0000
1000
0010
0000
,
0100
0000
0010
0000
0100
0001
0100
0000
,
0001
0010
0010
0000
,
0100
1000
1001
0000
,
0001
0000
1001
0000
0000
1000
0100
0000
,
1000
0000
0001
0000
1000
0010
1000
0000
,
0001
0010
0010
0000
,
0100
0010
1001
0000
,
0110
0000
0001
1000
,
0010
0000
0010
0000
0100
0001
0100
0000
,
0001
0000
0000
0000
1000
0100
1000
0000
,
0100
0010
0002
0000
,
0103
0000
0000
0000
0010
0100
0010
0000
,
0100
0000
0001
0000
1000
0001
1000
0000
,
0100
0000
1000
0000
0001
0010
0001
0000
,
0100
0100
0100
0010
,
1001
0000
0000
0000
,
0000
0000
0000
0000
,
0001
0001
0010
0000
0100
0100
1000
0000
,
0001
0001
0100
0100
0010
0010
1000
1000
,
0001
0000
0001
0000
0010
0100
0010
0000
,
0002
0000
1003
0001
1000
0000
0000
0000
,
0010
0000
0010
0000
0100
0001
0100
0000
,
2002
0000
3003
0000
,
1000
0000
1000
0000
0010
1000
0010
0000
,
0100
0000
0100
0000
0001
0010
0001
0000
,
0100
0001
1000
0010
,
0100
0001
1000
0100
,
0010
0001
1000
0001
,
0100
0010
0100
0000
0010
0100
0010
0000
,
0100
0001
1000
0001
,
0010
0100
0220
0330
,
1001
0000
0000
0000
0001
1000
0001
0000
,
0100
0100
0100
0000
0001
0000
1000
0000
,
0200
0000
1300
0001
,
0100
0010
0100
0000
0001
0000
1000
0000
,
0001
0100
0001
0000
1000
0100
1000
1000
,
0001
0010
0001
0000
1000
0010
1000
1000
,
0001
0010
0100
0000
1000
0010
0100
0100
,
0001
0100
0010
0000
1000
0100
0010
0010
,
0001
0000
1000
0000
,
0010
0010
0100
0010
,
1000
0000
0000
0100
0000
0000
1000
0000
,
0001
0000
0010
0000
0001
1000
0001
0000
,
0100
0000
0010
0000
,
0100
0001
1000
0100
,
0010
0000
0000
0001
0000
0000
1000
0000
,
0001
1000
2002
3003
,
2000
0000
3200
0000
,
0320
0000
0032
0000
,
0203
0000
0320
0000
,
2030
0000
3001
1000
,
0001
0100
1000
0000
,
0001
0010
1000
0000
,
0001
0100
0010
1000
,
0001
0100
0001
0000
1000
0100
1000
0000
,
2002
0000
0000
0000
0000
0000
3003
0000
0001
0000
0000
1000
0000
0000
0001
0000
,
0100
0000
0010
0000
1000
0000
0001
0000
1000
0100
1000
0000
0001
0100
0001
0000
,
1000
0100
0010
0001
1000
0000
1001
0000
,
0001
0100
0001
1000
0001
0100
0020
0000
,
0130
0000
0100
0000
0001
1000
0001
0000
,
2000
3100
0002
0103
,
1000
0010
0200
0300
,
0001
1000
1001
0000
,
0001
0010
1000
0010
,
0001
1000
0001
0010
,
0001
1000
0001
1000
0001
1000
0001
0000
,
0100
0010
0110
0000
,
2002
3003
0000
0000
0000
0000
0000
0000
0000
0000
0000
0000
0000
0000
0000
0000
0000
0000
0000
0000
0000
0000
0000
0000
0000
0000
0000
0000
0000
0000
0000
0000
;

//--------------- dance-single - Fred-104 ----------------
#NOTES:
     dance-single:
     Fred-104:
     Medium:
     14:
     :
0000
0000
0000
0000
,
0000
0000
0000
0000
,
0000
0000
0000
0000
,
0000
0000
0000
0000
,
0000
0000
0000
0000
,
2000
3200
0300
0000
0002
0203
0300
0000
,
2000
3020
0030
0000
0002
0023
0030
0000
,
2000
3200
1300
0100
0020
0032
0013
0001
,
2000
0000
3020
0000
1030
0000
0010
0000
0200
0000
0302
0000
0103
0001
1000
0001
,
0010
0000
0110
0000
0100
1000
0001
0000
,
0100
0001
1000
0001
0010
0100
0010
0000
,
0001
0001
0001
1000
0010
0010
0100
0001
,
1000
1000
1000
0000
0001
0100
1000
0100
,
0001
0000
1000
0100
0010
0001
1000
0001
,
0100
0010
1000
0010
0100
0001
1000
0100
,
0010
0010
0010
0001
1000
0001
0100
0010
,
0100
0100
0100
0000
0001
1000
1001
0000
,
1010
0000
0101
0000
1000
0100
0010
0001
,
1000
0100
0020
0030
0001
0100
0020
0030
,
1010
0000
0001
1000
0100
0100
0100
0100
,
1000
0010
0200
0300
0001
0010
0100
0100
,
0100
0000
1001
0000
0001
1000
0010
0100
,
0010
1000
0002
0003
0010
0001
2000
3000
,
1100
0000
0001
1000
0010
0100
0001
1000
,
0100
0010
0001
1000
0010
0100
0110
0000
,
2001
0000
3002
0000
,
0203
0000
0020
0330
,
0001
0001
0100
0100
1000
1000
0010
0010
,
0001
0000
0001
0000
0100
0000
0100
0000
0010
0000
0010
0000
1000
0001
1000
0000
,
0100
0010
0001
0010
0001
0001
0001
1000
,
0002
0000
0103
0010
1000
0001
0010
0100
,
1000
0000
0010
0000
1000
0001
0100
0010
,
0200
0000
0300
0000
,
0001
0010
0100
1000
0001
0010
0100
0000
,
1000
0010
0100
0001
1000
0010
0100
0000
,
0001
1000
0100
0010
0001
1000
0100
0010
,
0001
0000
0010
0100
1000
0010
0100
0001
,
1000
0100
1000
0001
0100
0010
1000
0010
,
0100
0100
0001
0001
1000
1000
0010
0010
,
0100
0001
0010
0100
1000
0001
0100
0010
,
0100
0000
0001
0000
1000
0000
0001
0000
0200
0000
0000
0000
0320
0000
0000
0030
,
1001
0000
0000
0000
1000
0100
1000
1000
,
1000
0001
1000
0001
1000
0000
0000
0000
0001
0000
0100
0000
0110
0000
0000
0000
,
0200
0000
0320
0000
0230
0000
0302
0000
1003
0000
0000
0100
0000
0000
0010
0000
,
0001
0000
0000
0000
1000
0001
1000
0000
0010
0000
0100
0000
0002
0000
0000
0000
,
1003
0000
1100
0000
0100
0010
0001
0010
0001
1000
0001
0000
0001
0010
0100
1000
,
0010
0000
0110
0000
0100
0001
1000
0001
0010
0100
1000
0000
1000
0001
1000
0000
,
0100
0000
1100
0000
0001
0100
1000
0100
0001
0010
0001
0000
1000
0100
0001
0100
,
1000
0000
1001
0000
0001
0010
1000
0010
0001
1000
0001
0000
0100
0010
1000
0001
,
0010
0000
0001
1000
0000
0010
1000
0001
,
0010
0100
0010
0100
0000
1000
0001
0000
,
1000
0000
0010
1000
0000
0001
1000
0100
,
0010
0000
0001
1000
0001
0100
0010
0000
,
1000
0000
0001
0010
0000
0100
1000
0001
,
0100
0010
0100
0010
0000
1000
0010
0000
,
0100
0000
0001
1000
0000
0100
0010
0001
,
1000
0000
0001
0010
0000
0001
1001
0000
,
1000
0100
1000
0100
0000
0010
0100
0000
,
1000
0010
1000
0010
0000
0100
0010
0000
,
1000
0001
1000
0001
0000
0010
0100
0000
,
1000
0001
0100
0010
1000
0001
0010
0000
,
0001
0010
0001
0010
0100
1000
0100
1000
,
0001
0100
0001
0100
0010
1000
0010
1000
,
0100
0010
0001
0100
0010
1000
0001
0010
,
0100
1000
0010
0100
0001
1000
0001
0000
,
2002
0000
0000
0000
0000
0000
3003
0000
1000
0100
0000
0010
0000
0001
1000
0000
,
0001
0010
0100
1000
0010
0100
0001
1000
0100
0010
0001
0010
0100
1000
0010
0100
,
0010
1000
0010
1000
0001
0000
1000
0100
0010
0000
0001
0100
1000
0100
0002
0000
,
2003
0000
3001
0010
0100
1000
0001
0100
0001
0100
1000
0100
0002
0000
0000
0000
,
1003
0100
0010
0001
1000
0010
0100
0001
,
1000
0100
1000
0100
1000
0000
0000
0000
0001
0100
0001
0100
0001
0000
0000
0000
,
1000
0100
0001
0100
2000
0000
3001
1000
,
0020
0000
0000
0000
0000
0000
0130
0000
0000
0001
0000
0000
1000
0000
0001
0000
1000
0000
0001
0000
0000
0000
0000
0000
,
1000
0100
1000
0100
0001
0100
0001
0100
,
1000
0000
0001
0000
0100
0000
0010
0000
1000
0001
1000
0001
1000
0000
0000
0000
,
1000
0010
1000
0010
0100
0001
0100
0001
,
1000
0000
0001
0010
0100
1000
1010
0000
,
2002
3003
0000
0000
0000
0000
0000
0000
0000
0000
0000
0000
0000
0000
0000
0000
0000
0000
0000
0000
0000
0000
0000
0000
0000
0000
0000
0000
0000
0000
0000
0000
;

//--------------- dance-single - Fred-104 ----------------
#NOTES:
     dance-single:
     Fred-104:
     Hard:
     17:
     :
0000
0000
0000
0000
,
0000
0000
0000
0000
,
0000
0000
0000
0000
,
0000
0000
0000
0000
,
0000
0000
0000
0000
,
1001
0000
1000
0100
0000
0010
0000
0001
0000
0100
0010
1000
0000
0001
0000
0000
,
0011
1100
0001
0100
1010
0101
1000
0100
,
0110
0000
0001
0010
0000
0100
0000
1000
0000
0001
1000
0010
0000
0100
0000
0000
,
1010
0000
0000
0000
0101
0000
0000
0000
1000
0000
0000
0000
0100
0000
0010
0001
0010
0000
0000
0000
0100
0000
0100
0000
1000
0000
0001
1000
0001
1000
0001
1000
,
0001
0000
0100
0000
0010
0000
1000
0000
0001
0100
0001
0100
0001
0000
1000
0000
,
0100
0010
0001
0100
0010
1000
1001
0000
,
0001
0010
0001
0010
0100
0000
1000
0000
0001
1000
0010
1000
0001
0010
0100
0000
,
1000
0001
1000
0001
1000
0000
0000
0000
1000
0000
0001
0000
0010
0100
0010
0100
,
1000
0000
0001
0000
0100
0000
0010
0000
0100
0001
0100
0001
0100
0000
0010
0000
,
1000
0001
0010
1000
0010
0100
1000
0000
,
0010
1000
0010
1000
0100
0000
0010
0000
0001
0000
0100
0000
0010
0000
1000
0001
,
1000
0000
0000
0000
0100
1000
0100
1000
0001
0000
0100
0000
0110
0000
0000
0000
,
1001
0000
0000
0000
1000
0000
0001
0000
0010
0100
0010
0100
0010
0000
0001
0000
,
1000
0010
0100
1000
0001
0010
0100
0001
,
1000
0000
0000
0000
0001
0000
0010
0000
0100
0000
0100
0000
0100
0000
0100
1000
,
0100
0000
1000
0000
1001
0000
0000
0000
0001
0000
0100
0000
0010
1000
0010
1000
,
0001
0000
0000
0000
1000
0000
0001
0000
0100
0010
0100
0010
0100
0000
0001
0000
,
1000
0100
0010
1000
0001
0100
0010
0001
,
1000
0000
0000
0000
0001
1000
0001
1000
0001
0010
0100
1000
0000
0001
0100
0000
,
0010
1000
0001
1000
0010
1000
0001
1000
0100
0000
0010
0000
0002
0000
0000
0000
,
1003
0000
0001
0000
1000
0000
0010
0000
0000
0000
1000
0000
0000
0000
0001
0000
0010
0000
0000
0000
0100
0000
1000
0001
1000
0000
0010
0000
0010
0000
0100
0000
,
0001
0000
1000
0000
0100
0010
0000
0100
2000
0000
0000
0000
0000
0000
0000
0000
,
3001
0100
0001
1000
0001
0010
0100
0000
1100
0000
0101
0000
1000
0100
0010
0000
,
0001
0000
0000
0000
1000
0000
0000
0000
0001
0000
0100
0000
0010
0000
0100
0001
0200
0000
0000
0000
0000
0000
0000
0000
0310
0000
1000
0000
0002
0000
0000
0000
,
1003
0000
1000
0000
1000
0000
1000
0000
0001
0100
0001
0100
0001
0000
0010
0000
,
0100
1000
0010
0100
1000
0001
0010
1000
,
0001
0010
0001
0000
1000
0000
0100
0000
0010
0100
0010
0100
0010
0000
0001
1000
,
0001
0000
0100
0000
1000
0000
0100
0000
0001
0000
0000
0000
2001
3000
0100
0000
,
1000
0010
0001
0010
0100
0010
1000
0000
,
0001
0010
0100
0000
1100
1100
1100
0000
,
1010
0000
0000
0000
0101
0000
0100
0000
0010
0000
1000
0000
0001
0000
0010
0001
,
0020
0000
0001
0000
0130
1000
0001
0100
,
0020
0000
0000
0000
1030
0000
0100
0000
1000
0001
0100
0010
1000
0100
1000
0000
,
0001
0010
0001
0000
1000
0100
1000
0000
0001
0100
0001
0100
0010
1000
0010
1000
,
0001
0000
0010
0000
0100
0000
1000
0000
0010
0000
1000
0000
0001
0000
0100
0010
,
0100
0000
0001
0000
0010
0000
0100
0000
2000
0000
0000
0000
3002
0000
0203
0300
,
0110
0000
0000
0000
1000
0000
0000
0000
0001
0000
1000
0000
0010
1000
0001
0010
,
0100
1000
0100
1000
0100
0000
0000
0000
0010
0000
0001
0000
1001
0000
0000
0000
,
2000
0000
3002
0000
0203
0000
0302
0000
1003
0100
1000
0001
0000
0010
0100
0000
,
2000
0000
0000
0000
0000
0000
0000
0000
0000
0000
0000
0000
3100
0000
0000
1000
0000
0000
0100
0000
0000
0010
0000
0000
0001
0000
0000
0000
0000
0000
1000
0000
0000
0000
0000
0000
0020
0000
0000
0000
0000
0000
0000
0000
0030
0000
0000
0000
,
1001
0000
0000
0000
1100
0000
0000
0000
0010
1000
0010
1000
0010
1000
0010
1000
0010
0000
1000
0000
1001
0000
0000
0000
0001
0010
0001
0010
0001
0010
0001
0010
,
0001
0000
0000
0000
0110
0000
0000
0000
0001
0100
0001
0100
0001
0100
0001
0100
0001
0000
1000
0000
1100
0000
0000
0000
1000
0100
1000
0000
0001
0100
0001
0000
,
0100
0000
0000
0000
0110
0000
0000
0000
0001
1000
0001
1000
0001
1000
0001
1000
0001
0000
0010
0000
0110
0000
0000
0000
0100
1000
0100
1000
0100
1000
0100
1000
,
0100
0000
0000
0000
1010
0000
0000
0000
0010
0100
0010
0100
0010
0100
0010
0100
0010
0000
1000
0000
1001
0000
0000
0000
0001
0010
0001
0010
0100
1000
0100
1000
,
0001
0000
0100
0010
0001
0010
0100
1000
,
0100
0010
1000
0100
0010
0001
1000
0000
,
0001
0000
0100
0001
0000
1000
0100
1000
,
0001
0000
0000
0010
0000
0000
0100
0000
0000
1000
0000
0000
0010
0000
0100
0000
0001
0000
1000
0000
0100
0000
0010
0000
,
0001
0000
0010
0100
0001
0100
0010
1000
,
0010
0001
0010
0100
1000
0001
0100
0000
,
0001
0000
0010
0100
0000
1000
0001
0100
,
0010
0000
1000
0010
0000
0100
0001
0001
,
1000
0100
0010
0100
0000
0001
0100
0010
,
0001
0100
1000
0001
0010
1000
0001
0010
,
0100
0000
1000
0000
0001
0000
0100
0000
0000
0000
0100
0000
0010
1000
0001
0000
,
0010
0000
0100
1000
0001
0000
0100
0000
0001
1000
0100
0010
0001
1000
0010
0100
,
0001
0000
0100
0001
1000
0000
0100
0010
0001
0000
1000
0001
0010
0000
0100
0000
,
1000
0000
0001
1000
0010
0000
0100
0001
1000
0000
0100
0010
0001
0000
1000
0000
,
0001
0010
0100
0000
1000
0001
0100
0000
0010
1000
0001
0000
0010
0001
1000
0000
,
0001
0010
0001
0010
0100
1000
0100
1000
0100
0000
0010
0000
0002
0000
0000
0000
,
1003
0000
0010
1000
0000
0001
1000
0100
0010
1000
0000
0010
0000
0001
1000
0000
,
0001
0000
0100
0000
0010
0000
1000
0000
0001
1000
0001
1000
0001
0000
1000
0000
0001
0010
0100
1000
0001
0010
0100
1000
0001
0100
0010
1000
0001
0100
0010
1000
,
0001
0000
0010
0000
0100
0000
1000
0000
1000
0000
0000
0000
0001
0000
1000
0000
0010
0000
0000
0000
0100
0001
0100
0001
1000
0100
1000
0100
0020
0000
0000
0000
,
0032
0000
0000
0000
1000
0000
0000
0000
1003
0000
0010
0000
0100
0000
0001
0000
1000
0001
1000
0001
0010
0000
0100
0000
2000
0000
0000
0000
0000
0000
0000
0000
,
3001
1000
0010
0000
1000
0001
0010
0000
0100
0010
0100
1000
0001
0000
0100
0000
,
0001
1000
0100
0010
0001
0000
0000
0000
1000
0001
0100
0010
1000
0000
0000
0000
,
0001
0010
0100
1000
0001
0010
0100
1000
0002
0000
0000
0000
0103
0000
0001
0000
,
2000
0000
0000
0000
0000
0000
0000
0000
0000
0000
0000
0000
3100
0000
0000
0010
0000
0000
0100
0000
0000
1000
0000
0000
0001
0000
0000
0000
0100
0000
0000
0000
0010
0000
0000
0000
1000
0000
0000
0000
0001
0000
0000
0000
0100
0000
0000
0000
,
0010
1000
0001
0010
0100
0010
0001
1000
0010
0000
1000
0000
0001
1000
0001
1000
,
0001
0000
1000
0000
0010
1000
0001
0010
0100
1000
0010
0100
0001
0000
0000
0000
,
1000
0100
0010
0001
0100
0010
1000
0100
0010
0001
0100
0010
1000
0100
0010
0001
,
1000
0000
0000
0000
0001
0100
0010
1000
0010
0000
1000
0000
1001
0000
0000
0000
,
2002
3003
0000
0000
0000
0000
0000
0000
0000
0000
0000
0000
0000
0000
0000
0000
0000
0000
0000
0000
0000
0000
0000
0000
0000
0000
0000
0000
0000
0000
0000
0000
;

//--------------- dance-double - Fred-104 ----------------
#NOTES:
     dance-double:
     Fred-104:
     Easy:
     9:
     :
00000000
00000000
00000000
00000000
,
00000000
00000000
00000000
00000000
,
00000000
00000000
00000000
00000000
,
00000000
00000000
00000000
00000000
,
00000000
00000000
00000000
00000000
,
00001000
00200000
00300000
00000000
00010000
20000000
30000000
00000000
,
01000000
00200000
00300000
00000000
00001000
00020000
00030000
00000000
,
00001000
00001000
00010000
00000010
00001000
00001000
00000100
00000010
,
00000001
00000000
00000001
00000000
00000100
00000000
00001000
00000000
00010000
00000000
00010000
00000000
00001000
00010000
00001000
00000000
,
00010000
00000000
00011000
00000000
00010000
00000010
00010000
00000000
,
00000010
00000000
00001000
00000000
00000001
00000010
00000001
00000000
,
00001000
00000100
00010000
00000000
,
00001000
00010000
00011000
00000000
,
00001000
00000000
00010000
00000000
00100000
01000000
00100000
00000000
,
10000000
01000000
00010000
00000000
,
00001000
00010000
00001000
00000100
,
00000001
00001000
00001001
00000000
,
00000110
00000000
00010000
00001000
,
00010000
00000010
00001000
00000000
,
00000001
00000000
00000010
00000000
00001000
00010000
00001000
00000000
,
00010000
00100000
02000000
00000000
,
03010000
10000000
00010000
10000000
,
01000000
00100000
00001000
00000000
,
00010000
00001000
00000010
00000001
,
00000010
00000000
00000100
00000000
00010000
00001000
00010000
00000000
,
00011000
00000000
00000000
00000000
,
00000000
00000000
00000000
00000000
,
01000000
00100000
01000000
00000000
00010000
10000000
00100000
00000000
,
01000000
00001000
00010000
00000000
00000100
00001000
00000001
00000010
,
00000100
00000000
00000100
00000000
00010000
00001000
00010000
00000000
,
00002000
00000000
01003000
00000000
00001000
00010000
00001000
00000000
,
00001000
00000000
00010000
00000000
00000010
00001000
00000010
00000000
,
00002002
00000000
00003003
00000000
,
00000001
00000001
00000100
00000100
,
00001000
00001000
00010000
00010000
,
01000000
01000000
10000000
10000000
,
00010000
00100000
00010000
00000000
10000000
00100000
10000000
00000000
,
01000000
00100000
00001000
00010000
,
00000010
00001000
00000010
00000000
00000010
00000100
00000010
00000000
,
00010000
00001000
00100000
00010000
,
10000000
01000000
02200000
03300000
,
10010000
00000000
00000000
00000000
10000000
01000000
00100000
00000000
,
00001000
00001000
00001000
00000000
00010000
00000000
00000010
00000000
,
00002000
00000000
00000000
00000000
00003001
00000100
00000001
00000000
,
00001000
00000100
00010000
00000000
00001000
00000000
00010000
00000000
,
00011000
00000000
01100000
00000000
10000000
01000000
00100000
00000000
,
00011000
00000000
00000110
00000000
00001000
00000010
00000100
00000000
,
00001001
00000000
00000110
00000000
00000001
00000100
00001000
00000000
,
00011000
00000000
01100000
00000000
00010000
01000000
00100000
10000000
,
00010000
00000000
10000000
00000000
,
01000000
01000000
00100000
00001000
,
00010000
00000000
00000000
00001000
00000000
00000000
00000010
00000000
,
00000001
00000010
00000100
00001000
,
00000100
00000000
00010000
00000000
,
00001000
00010000
00100000
01000000
,
00010000
00000000
00000000
10000000
00000000
00000000
01000000
00000000
,
00100000
00000000
00001000
00000000
00010000
00001000
00010000
00000000
,
00022000
00000000
00000000
00000000
,
00000000
00000000
00000000
00000000
,
00000000
00000000
00000000
00000000
,
00000000
00000000
00000000
00033000
,
00010000
00001000
00010000
00001000
,
00000010
00000100
00000010
00000100
,
00001000
00000001
00000100
00001000
,
00010000
00100000
01000000
00010000
,
20020000
00000000
00000000
00000000
00000000
00000000
30030000
00000000
10000000
00000000
00000000
01000000
00000000
00000000
00100000
00000000
,
00001000
00000000
00010000
00000000
00000010
00001000
00000010
00000000
00001000
00000100
00001000
00000000
00000001
00000000
00000100
00000000
,
00000010
00001000
00000100
00000100
00010000
00001000
00011000
00000000
,
00001000
00010000
00100000
01000000
00001000
00000000
00011000
00000000
,
00002000
00023000
00032000
00023000
,
00030010
00001000
00000100
00000000
00000010
00000001
00000100
00000000
,
00000001
00000010
00000200
00000300
,
00010000
00001000
00022000
00033000
,
00001000
00010000
00100000
10000000
,
00010000
10000000
01000000
10000000
,
00100000
01000000
00100000
01000000
00100000
01000000
00100000
00000000
,
00010000
00001000
00000100
00000001
,
00002002
00003003
00000000
00000000
00000000
00000000
00000000
00000000
00000000
00000000
00000000
00000000
00000000
00000000
00000000
00000000
00000000
00000000
00000000
00000000
00000000
00000000
00000000
00000000
00000000
00000000
00000000
00000000
00000000
00000000
00000000
00000000
;

//--------------- dance-double - Fred-104 ----------------
#NOTES:
     dance-double:
     Fred-104:
     Medium:
     14:
     :
00000000
00000000
00000000
00000000
,
00000000
00000000
00000000
00000000
,
00000000
00000000
00000000
00000000
,
00000000
00000000
00000000
00000000
,
00000000
00000000
00000000
00000000
,
00020000
00032000
00003000
00000000
00000020
00002030
00003000
00000000
,
00020000
00032000
00003000
00000000
00000200
00002300
00003000
00000000
,
00020000
00032000
00013000
00001000
00000020
00000230
00000310
00000100
,
00002000
00000000
00003002
00000000
00001003
00000000
00000001
00000000
00000020
00000000
00000230
00000000
00010300
00001000
00010000
00001000
,
00010000
00000000
00011000
00000000
00001000
00010000
00100000
00000000
,
01000000
00010000
10000000
01000000
00010000
00001000
00010000
00000000
,
00001000
00001000
00001000
00010000
00000010
00000010
00001000
00000001
,
00000010
00000010
00000010
00000000
00000001
00000100
00001000
00010000
,
00001000
00000000
00010000
00100000
01000000
00100000
10000000
00010000
,
00100000
01000000
00010000
00001000
00000010
00000100
00001000
00000000
,
00000001
00000001
00000001
00000100
00001000
00010000
00100000
01000000
,
00100000
00100000
00100000
00000000
10000000
00010000
10010000
00000000
,
01100000
00000000
10010000
00000000
10000000
00100000
00010000
00001000
,
00000100
00000001
00002000
00003000
00000100
00001000
00000002
00000003
,
00000110
00000000
00010000
00001000
00010000
00010000
00010000
00010000
,
00001000
00010000
00200000
00300000
01000000
00010000
10000000
10000000
,
10000000
00000000
10100000
00000000
10000000
00010000
00100000
01000000
,
00100000
00001000
00020000
00030000
00001000
00010000
00000020
00000030
,
00001010
00000000
00001000
00000001
00000100
00000010
00000100
00001000
,
00010000
00100000
01000000
00100000
10000000
01000000
01100000
00000000
,
20010000
00000000
30020000
00000000
,
00230000
00000000
00002000
00303000
,
00010000
00010000
00001000
00001000
00000010
00000010
00000001
00000001
,
00001000
00000000
00000100
00000000
00000010
00000000
00000001
00000000
00000100
00000000
00001000
00000000
00010000
00001000
00010000
00000000
,
00001000
00010000
00100000
10000000
01000000
01000000
01000000
00100000
,
00002000
00000000
00013000
00001000
00000100
00000010
00001000
00000001
,
00000010
00000000
00001000
00000000
00010000
00001000
00010000
00100000
,
02000000
00000000
03000000
00000000
,
00010000
00100000
01000000
10000000
00010000
00100000
01000000
00000000
,
00100000
00001000
00010000
00001000
00000010
00000001
00000010
00000100
,
00001000
00000000
00000001
00000100
00001000
00010000
00100000
00000000
,
01000000
00010000
10000000
00010000
00100000
00001000
00010000
00000010
,
00001000
00000001
00000010
00000100
00001000
00000001
00000010
00000100
,
00001000
00001000
00000100
00000100
00010000
00010000
00001000
00001000
,
00100000
00010000
10000000
01000000
00100000
01000000
00010000
00001000
,
00000010
00000000
00000100
00000000
00000010
00000000
00000001
00000000
00002000
00000000
00000000
00000000
00003002
00000000
00000000
00000003
,
00001001
00000000
00000000
00000000
00000001
00000100
00001000
00010000
,
00001000
00010000
00001000
00010000
00001000
00000000
00000000
00000000
01000000
00000000
00100000
00000000
01100000
00000000
00000000
00000000
,
00020000
00000000
02030000
00000000
03020000
00000000
20030000
00000000
31000000
00000000
00000000
00100000
00000000
00000000
00001000
00000000
,
00010000
00001000
00000100
00000001
00001000
00000010
00000110
00000000
,
00000101
00000000
00001001
00000000
00000001
00000010
00000100
00010000
00001000
00000000
00011000
00000000
00001000
00100000
00010000
10000000
,
00100000
00000000
01100000
00000000
01000000
00010000
10000000
01000000
00100000
00000000
00101000
00000000
00001000
00010000
00001000
00000000
,
00011000
00000000
00010010
00000000
00010000
00001000
00000100
00000001
00000010
00000000
00000110
00000000
00000100
00001000
00000001
00000100
,
00001000
00000000
00011000
00000000
00010000
00100000
10000000
00010000
00100000
01000000
01000000
00000000
10000000
00010000
01000000
00000000
,
00100000
00000000
10000000
01000000
00000000
00100000
00000000
00001000
,
00010000
00001000
00010000
00001000
00000000
00000010
00000100
00000000
,
00001000
00000000
00000001
00000100
00000000
00000010
00000100
00000001
,
00001000
00000000
00000100
00000000
00010000
00001000
00010000
00000000
,
00001000
00000000
00010000
00100000
00000000
01000000
00000000
00010000
,
10000000
00100000
00010000
00001000
00000000
00010000
00001000
00000000
,
00010000
00000000
00001000
00000100
00000000
00000010
00001000
00000001
,
00000010
00000000
00000100
00010000
00000000
00001000
00010000
00000000
,
00012000
00000000
00000000
00000000
,
00203000
00000000
00000000
00000000
,
00320000
00000000
00000000
00000000
,
20030000
00000000
30020000
20030000
,
31000000
10000000
00010000
01000000
00100000
00010000
00001000
00000100
,
00000001
00001000
00000100
00000010
00000001
00000100
00001000
00010000
,
00100000
01000000
00010000
10000000
01000000
00010000
00001000
00010000
,
00100000
01000000
00001000
00010000
00001000
00000010
00000001
00001000
,
00002002
00000000
00000000
00000000
00000000
00000000
00003003
00000000
00000001
00000010
00000000
00000100
00000000
00010000
00001000
00000000
,
00010000
00001000
00000010
00000100
00001000
00000001
00000100
00000010
00000100
00001000
00010000
00100000
01000000
00100000
10000000
00010000
,
00100000
00000000
01000000
00100000
00010000
00000000
00100000
00001000
00010000
00000000
00001000
00010000
00000010
00010000
00001000
00000000
,
00020000
00000000
00031000
00000100
00000010
00001000
00000001
00000010
00001000
00010000
00001000
00000010
00000002
00000000
00000000
00000000
,
00001003
00000001
00000100
00001000
00010000
00100000
01000000
00010000
,
10000000
00100000
10000000
00100000
10000000
00000000
00000000
00000000
00010000
00100000
00010000
00100000
00010000
00000000
00000000
00000000
,
01000000
00100000
00010000
00001000
00000200
00000000
00000310
00010000
,
00002000
00000000
00000000
00000000
00000000
00000000
00013000
00000000
00000000
00001000
00000000
00000000
00010000
00000000
00001000
00000000
00010000
00000000
00000010
00000000
00000000
00000000
00000000
00000000
,
00010000
00001000
00000010
00000001
00000010
00000100
00001000
00000001
,
00000100
00000000
00001000
00000000
00010000
00000000
00100000
00000000
01000000
00100000
01000000
00100000
10000000
00000000
00000000
00000000
,
10000000
01000000
00100000
00010000
00001000
00000100
00000010
00000001
,
00001000
00000000
00000001
00000100
00001000
00010000
00100000
10000000
,
20020000
30030000
00000000
00000000
00000000
00000000
00000000
00000000
00000000
00000000
00000000
00000000
00000000
00000000
00000000
00000000
00000000
00000000
00000000
00000000
00000000
00000000
00000000
00000000
00000000
00000000
00000000
00000000
00000000
00000000
00000000
00000000
;

//--------------- dance-double - Fred-104 ----------------
#NOTES:
     dance-double:
     Fred-104:
     Hard:
     17:
     :
00000000
00000000
00000000
00000000
,
00000000
00000000
00000000
00000000
,
00000000
00000000
00000000
00000000
,
00000000
00000000
00000000
00000000
,
00000000
00000000
00000000
00000000
,
00001000
00000000
00010000
00001000
00000000
00010000
00000000
00000010
00000000
00010000
00001000
00000100
00000000
00000010
00000000
00000000
,
00001100
00000101
00000001
00001000
00010100
01001000
00010000
10000000
,
10000000
00000000
01000000
00100000
00000000
00001000
00000000
00010000
00000000
00001000
00010000
00100000
00000000
01000000
00000000
00000000
,
00011000
00000000
00000000
00000000
00010010
00000000
00000000
00000000
00001000
00000000
00000000
00000000
00010000
00000000
00000100
00001000
00000100
00000000
00000000
00000000
00000010
00000000
00000010
00000000
00000001
00000000
00001000
00000001
00001000
00000001
00001000
00000001
,
00000100
00000000
00000010
00000000
00000100
00000000
00001000
00000000
00010000
00001000
00010000
00001000
00010000
00000000
00100000
00000000
,
01000000
00010000
10000000
01000000
00010000
00001000
00011000
00000000
,
00100000
00001000
00100000
00001000
00100000
00000000
00001000
00000000
00010000
00001000
00010000
00000010
00001000
00000010
00010000
00000000
,
00001000
00010000
00001000
00010000
00001000
00000000
00000000
00000000
01000000
00000000
00001000
00000000
00010000
00000000
00001000
00000000
,
00000100
00000000
00000010
00000000
00001000
00000000
00000100
00000000
00010000
00001000
00010000
00001000
00010000
00000000
00001000
00000000
,
00000010
00000100
00010000
00001000
00000100
00000010
00010000
00000000
,
00001000
00010000
00001000
00010000
00001000
00000000
00010000
00000000
00100000
00000000
01000000
00000000
00001000
00000000
00000000
00000000
,
00100000
00001000
00100000
00000000
00001000
00010000
00001000
00000000
00010000
00000000
00000010
00000000
00010000
00000000
00000000
00000000
,
00011000
00000000
00000000
00000000
00010000
00000000
00001000
00000000
00000010
00000100
00000010
00000001
00001000
00000000
00000001
00000000
,
00000100
00001000
00010000
00001000
00010000
01000000
00100000
01000000
,
10000000
00000000
00000000
00000000
00010000
00000000
01000000
00000000
00001000
00000000
00001000
00000000
00010000
00000000
00010000
00001000
,
00010000
00000000
00001000
00000000
00011000
00000000
00000000
00000000
00010000
00000000
00000100
00000000
00001000
00000001
00001000
00000000
,
00000010
00000000
00000000
00000000
00010000
00000000
00001000
00000000
00010000
00000100
00010000
00000100
00010000
00000000
00001000
00000000
,
01000000
00001000
00010000
00001000
00000010
00000100
00001000
00000100
,
00010000
00000000
00000000
00000000
00001000
01000000
00001000
00000000
00010000
00000100
00001000
00000100
00000000
00000010
00000100
00000000
,
00001000
00000001
00001000
00000010
00000100
00000001
00001000
00000000
00000001
00000000
00001000
00000000
00000200
00000000
00000000
00000300
,
00001100
00000000
00000000
00000000
00000001
00000000
00000010
00000000
00000000
00000000
00000100
00000000
00000000
00000000
00010000
00000000
00001000
00000000
00000000
00000000
01000000
00000000
00010000
10000000
00010000
00000000
10000000
00000000
10000000
00000000
01000000
00000000
,
00100000
00000000
00001000
00000000
00010000
00000010
00000000
00001000
00000020
00000000
00000000
00000000
00000000
00000000
00000000
00000000
,
00000130
00000001
00001000
00000001
00000010
00000100
00001000
00000000
00001100
00000000
00010100
00000000
00010000
00001000
00010000
00000000
,
00001000
00000000
00000000
00000000
00010000
00000000
00000000
00000000
00100000
00000000
10000000
00000000
00010000
00000000
00100000
01000000
00200000
00000000
00000000
00000000
01000000
00000000
00000000
00000000
01300000
00000000
10000000
00000000
01000000
00000000
00000000
00000000
,
00100000
00000000
00100000
00000000
00100000
00000000
00100000
00000000
00001000
00010000
00001000
00010000
00001000
00000000
00010000
00000000
,
00001000
00000100
00000010
00001000
00000010
00010000
00001000
00010000
,
00100000
00000000
00000000
00000000
01000000
00000000
00001000
00000000
00010000
00001000
00010000
00000000
00001000
00000000
00000100
00000010
,
00000100
00000000
00000001
00000000
00001000
00000000
00000100
00000000
00010000
00000000
00000000
00000000
00021000
00030000
00001000
00000000
,
01000000
00100000
00010000
00001000
00000100
00000010
00001000
00000000
,
00000001
00000010
00000100
00001000
00000010
00010010
00010010
00000000
,
00010100
00000000
00000000
00000000
00011000
00000000
00000000
00000000
00001000
00000000
00010000
00000000
00100000
00000000
01000000
00010000
,
20000000
00000000
00100000
00000000
30100000
01000000
00010000
10000000
,
02000000
00000000
00000000
00000000
03100000
00000000
00001000
00000000
00010000
00001000
00010000
00000000
00000010
00001000
00000010
00000000
,
00001000
00000001
00000100
00000000
00000001
00001000
00000100
00000000
00001000
00000100
00010000
00000000
00001000
00010000
00001000
00000000
,
00010000
00000000
00001000
00000000
00000010
00000000
00000001
00000000
00000010
00000000
00000100
00000000
00001000
00000000
00000001
00001000
,
00000010
00000000
00000100
00000000
00001000
00000000
00010000
00000000
00002000
00000000
00000000
00000000
00023000
00000000
00032000
00003000
,
00011000
00000000
00000000
00000000
01000000
00000000
00000000
00000000
00010000
00000000
10000000
00000000
00010000
01000000
00010000
01000000
,
00001000
00010000
00001000
00010000
00001000
00000000
00000000
00000000
00010000
00000000
00001000
00000000
00011000
00000000
00000000
00000000
,
00020000
00000000
00032000
00000000
00003200
00000000
00000302
00000000
00001003
00000001
00001000
00000010
00000000
00000010
00000100
00000000
,
00000020
00000000
00000000
00000000
00010030
00001000
00010000
00000100
00001000
00000000
00000100
00000000
00020000
00000000
00000000
00000000
,
00031000
00000000
00000000
00000000
00110000
00000000
00000000
00000000
10000000
00010000
10000000
00010000
10000000
00010000
10000000
00010000
10000000
00000000
01000000
00000000
01100000
00000000
00000000
00000000
00001000
00010000
00001000
00010000
00001000
00010000
00001000
00010000
,
00001000
00000000
00000000
00000000
00010010
00000000
00000000
00000000
00000010
00001000
00000010
00001000
00000010
00001000
00000010
00001000
00000010
00000000
00000100
00000000
00000101
00000000
00000000
00000000
00001000
00000100
00001000
00000000
00000001
00000010
00000001
00000000
,
00001000
00000000
00000000
00000000
00010100
00000000
00000000
00000000
00010000
00001000
00010000
00001000
00010000
00001000
00010000
00001000
00010000
00000000
00001000
00000000
01001000
00000000
00000000
00000000
00010000
01000000
00010000
01000000
00010000
01000000
00010000
01000000
,
00010000
00000000
00000000
00000000
11000000
00000000
00000000
00000000
00100000
00010000
00100000
00010000
00100000
00010000
00100000
00010000
00100000
00000000
00001000
00000000
00011000
00000000
00000000
00000000
00010000
00000000
00001000
00000000
00000100
00000000
00000001
00000000
,
00001000
00000000
00000100
00000010
00000001
00001000
00000010
00000100
,
00001000
00010000
00100000
01000000
00100000
10000000
00010000
00000000
,
10000000
00000000
01000000
00100000
00000000
00001000
00010000
00001000
,
00000010
00000000
00000000
00000001
00000000
00000000
00000010
00000000
00000000
00000100
00000000
00000000
00001000
00000000
00000100
00000000
00000010
00000000
00000001
00000000
00001000
00000000
00000010
00000000
,
00010000
00000000
00001000
00010000
01000000
00100000
00010000
10000000
,
00100000
01000000
00100000
00010000
00001000
00000100
00000010
00000000
,
00000100
00000000
00000001
00001000
00000000
00000100
00001000
00000100
,
00010000
00000000
00001000
00010000
00000000
00001000
01000000
01000000
,
00010000
10000000
00100000
00010000
00000000
00100000
01000000
00010000
,
10000000
01000000
00100000
00001000
00001000
00010000
00000010
00001000
,
00000001
00000000
00000100
00000000
00000010
00000000
00000100
00000000
00000000
00000000
00000001
00000000
00001000
00000100
00001000
00000000
,
00000001
00000000
00000100
00000010
00000100
00000000
00000001
00000000
00001000
00000100
00001000
00000000
00000100
00010000
00000100
00000000
,
00010000
00000000
00001000
00100000
00010000
00000000
00100000
01000000
10000000
00000000
00010000
01000000
00100000
00000000
10000000
00000000
,
00010000
00000000
01000000
00001000
00010000
00000000
00000100
00010000
00001000
00000000
00010000
00000010
00001000
00000000
00000001
00000000
,
00001000
00000100
00001000
00000100
00000010
00000001
00001000
00000000
00000001
00000100
00000001
00000100
00000010
00001000
00000001
00000000
,
00001000
00000100
00001000
00000100
00010000
00001000
00010000
00001000
01000000
00000000
00010000
00000000
02000000
00000000
03200000
00000000
,
10300000
00000000
00010000
00100000
00000000
10000000
00100000
00010000
01000000
00100000
00000000
00010000
00000000
00001000
00000100
00000000
,
00000010
00000000
00001000
00000000
00000001
00000000
00000010
00000000
00000100
00001000
00000100
00001000
00000100
00000000
00010000
00000000
00001000
00100000
00001000
00100000
00010000
10000000
00010000
10000000
00100000
01000000
00100000
01000000
00010000
01000000
00010000
01000000
,
00100000
00000000
10000000
00000000
01000000
00000000
00100000
00000000
00010000
00000000
00000000
00000000
10000000
00000000
00100000
00000000
00010000
00000000
00000000
00000000
00001000
00010000
00001000
00000000
00010000
00000010
00001000
00000010
00020000
00000000
00000000
00000000
,
00032000
00000000
00000000
00000000
00000000
00000000
00000000
00000000
00013000
00000000
00001000
00000000
00000100
00000000
00000010
00000000
00010000
00001000
00010000
00001000
00010000
00000000
00100000
00000000
02000000
00000000
00000000
00000000
00000000
00000000
00000000
00000000
,
03010000
10000000
01000000
00000000
00100000
00001000
00010000
00000000
00001000
00010000
00000100
00000000
00001000
00000001
00000100
00000000
,
00000001
00001000
00000100
00000010
00000001
00000000
00000000
00000000
00001000
00000001
00000100
00000010
00001000
00000000
00000000
00000000
,
00000001
00000010
00000001
00000010
00000100
00000010
00000100
00000010
00000002
00000000
00000000
00000000
00001003
00000000
00000010
00000000
,
00020000
00000000
00000000
00000000
00000000
00000000
00000000
00000000
00000000
00000000
00000000
00000000
00031000
00000000
00000000
00010000
00000000
00000000
00001000
00000000
00000000
00000000
00000000
00000000
00100000
00000000
00000000
00000000
00010000
00000000
00000000
00000000
10000000
00000000
00000000
00000000
00010000
00000000
00000000
00000000
01000000
00000000
00000000
00000000
00001000
00000000
00000000
00000000
,
00010000
00001000
00010000
00000100
00001000
00000001
00000100
00000001
00001000
00000000
00000001
00000000
00001000
00000010
00010000
00001000
,
00100000
00000000
00010000
00000000
10000000
01000000
00100000
00010000
10000000
00100000
01000000
00000000
10010000
00000000
00000000
00000000
,
10000000
01000000
00100000
00010000
01000000
00001000
00100000
00001000
00010000
00000100
00001000
00000010
00000100
00000001
00000010
00000100
,
00001000
00000000
00000000
00000000
00000001
00000100
00000010
00001000
00000010
00000000
00010000
00001000
00010000
00000000
00000000
00000000
,
00022000
00033000
00000000
00000000
00000000
00000000
00000000
00000000
00000000
00000000
00000000
00000000
00000000
00000000
00000000
00000000
00000000
00000000
00000000
00000000
00000000
00000000
00000000
00000000
00000000
00000000
00000000
00000000
00000000
00000000
00000000
00000000
;
