#VERSION:0.83;
#TITLE:Purple Skies;
#ARTIST:Mameyudoufu;
#BANNER:Purple Skies.png;
#BACKGROUND:Purple Skies-bg.png;
#CDTITLE:./CDTitles/WACCA Lily R.png;
#MUSIC:Purple Skies.ogg;
#SAMPLESTART:116.757;
#SAMPLELENGTH:15;
#BPMS:0=185;
#BGSTAGE:27;

//--------------- dance-single - Fred-104 ----------------
#NOTEDATA:;
#STEPSTYPE:dance-single;
#DESCRIPTION:Fred-104;
#DIFFICULTY:Beginner;
#METER:4;
#CREDIT:Fred-104;
#NOTES:
0000
0000
0000
0000
,
0000
0000
0000
0000
,
0000
0000
0000
0000
,
0000
0000
0000
0000
,
0000
0000
0000
0000
,
0000
0000
0000
0000
,
0000
0000
0000
0000
,
0000
0000
0000
0000
,
0000
0000
0000
0000
,
0000
0000
0000
0000
,
1000
0000
0000
0000
,
0001
0000
0000
0000
,
0100
0000
0000
0000
,
0001
0000
1000
0000
,
0001
0000
0000
0000
,
0010
0000
0000
0000
,
2002
0000
0000
0000
,
0000
0000
3003
0000
,
1000
0000
0001
0000
,
0100
0000
0100
0000
,
0100
0000
0000
0000
,
0001
0000
0001
0000
,
0001
0000
0000
0000
,
1000
0000
0010
0000
,
0100
0000
0100
0000
,
0000
0000
0001
0001
,
0001
0000
1000
0000
,
0001
0000
0000
0000
,
1000
0000
0001
0000
,
0100
0000
0000
0000
,
0100
0000
0010
0000
,
0100
0000
0000
0000
,
2002
0000
0000
0000
,
0000
0000
3003
0000
,
1000
0000
1000
0000
,
0100
0000
0100
0000
,
0010
0000
0010
0000
,
0001
0000
0001
0000
,
1000
0000
0010
0000
,
0100
0000
0001
0000
,
1000
0000
0001
0000
,
2002
0000
0000
3003
,
1000
0000
0001
0000
,
0000
0000
0100
0000
,
0100
0000
0100
0000
,
0000
0000
0010
0000
,
0010
0000
0010
0000
,
0000
0000
1000
0000
,
1000
0000
0000
1000
,
0000
0000
0001
0000
,
0100
0000
0100
0000
,
0000
0000
0010
0000
,
0010
0000
0010
0000
,
0000
0000
1000
0000
,
1000
0000
1000
0000
,
1000
0000
0001
0000
,
1000
0000
0000
0001
,
0000
0000
0000
0000
,
2000
0000
0000
0000
,
3002
0000
0000
0000
,
2003
0000
0000
0000
,
3002
0000
0000
0000
,
0203
0000
0000
0000
,
0320
0000
0000
0000
,
0230
0000
0000
0000
,
0320
0000
0000
0000
,
1030
0000
0001
0000
,
1000
0000
0000
0000
,
0001
0000
1000
0000
,
0100
0000
0000
0000
,
0010
0000
0010
0000
,
0001
0000
0000
0000
,
1000
0000
0000
0001
,
0000
0000
1000
0000
,
0002
0000
0000
0000
,
0000
0000
0000
0000
,
2003
0000
0000
0000
,
0000
0000
3000
0000
,
2000
0000
0000
0000
,
0000
0000
0000
0000
,
3002
0000
0000
0000
,
0000
0000
0003
0000
,
1000
0000
0001
0000
,
0100
0000
0010
0000
,
0100
0000
0001
0000
,
0100
0000
0001
0000
,
1000
0000
1000
0000
,
0001
0000
0001
0000
,
2002
0000
0000
0000
,
0000
0000
3003
0000
,
1000
0000
1000
0000
,
0010
0000
0010
0000
,
0001
0000
0001
0000
,
0100
0000
0100
0000
,
1000
0000
0001
0000
,
0100
0000
0010
0000
,
0100
0000
0001
0000
,
1000
0000
0001
0001
,
0001
0000
0010
0000
,
0010
0000
1000
0000
,
1000
0000
0100
0000
,
0100
0000
0001
0000
,
0001
0000
1000
0000
,
0001
0000
1000
0000
,
0001
0000
0000
0001
,
0000
0000
1000
0000
,
2002
0000
0000
0000
,
0000
0000
0000
0000
,
0000
0000
0000
0000
,
0000
0000
0000
0000
,
3003
0000
0000
0000
;

//--------------- dance-single - Fred-104 ----------------
#NOTEDATA:;
#STEPSTYPE:dance-single;
#DESCRIPTION:Fred-104;
#DIFFICULTY:Easy;
#METER:8;
#CREDIT:Fred-104;
#NOTES:
0000
0000
0000
0000
,
0000
0000
0000
0000
,
0000
0000
0000
0000
,
0000
0000
0000
0000
,
0000
0000
0000
0000
,
0000
0000
0000
0000
,
0000
0000
0000
0000
,
0000
0000
0000
0000
,
0000
0000
0000
0000
,
0000
0000
0000
0000
,
1000
0100
1000
0000
,
0001
1000
0001
0100
,
0010
0100
0010
0000
,
1000
0001
1000
0100
,
0100
0010
0110
0000
,
0001
1000
0001
0100
,
0001
0000
0000
1000
0000
0000
2002
0000
,
0000
0000
0000
3003
,
1000
0000
0100
0000
1000
0000
0000
0001
,
0000
0100
0000
0100
0000
0010
0000
0010
,
0000
0000
1000
0000
0001
0000
0000
1000
,
0000
1000
0000
0001
0000
0000
0000
1001
,
0000
0000
1000
0000
0001
0000
0000
0010
,
0000
0001
0000
1000
0000
0001
0000
1000
,
0000
0000
0000
0000
0001
0000
0000
0000
0100
0000
0000
0100
0000
0000
0100
0000
,
0000
0001
2002
3003
,
1000
0000
0100
0000
1000
0000
0000
0001
,
0000
0000
0100
0000
0010
0010
0000
0010
,
0000
0000
0000
0000
1000
0000
0000
0000
0001
0000
0000
1000
0000
0000
1001
0000
,
0000
1000
0001
0010
,
0100
0000
1000
0000
0001
0000
0000
1001
,
0000
0000
0000
0001
0000
0001
1000
0000
,
1001
0000
0000
0110
0000
0000
2002
0000
,
0000
0000
3003
0000
,
1000
0100
0002
0003
,
0001
0100
2000
3000
,
1000
0010
0002
0003
,
0001
0010
2000
3000
,
0001
0001
0100
0100
,
0010
0010
1000
1000
,
0001
0010
0001
0000
1000
0100
1000
0000
,
0100
0100
0100
0110
,
2002
0000
3003
0000
0001
0001
0000
1000
,
0000
0010
0100
0000
0010
0000
1000
0000
,
0002
0000
0023
0000
0130
0100
0000
0010
,
0000
0000
0000
0002
0000
1003
0000
0001
,
0100
0000
0000
0100
0010
0100
0000
0001
,
0000
1000
0000
0001
0000
1000
0000
0000
,
1001
0000
0000
0110
0000
0000
2002
0000
,
3003
0001
0000
0001
0000
0100
0010
0000
,
0220
0000
0330
0000
0001
1000
0000
0100
,
0000
0000
1000
0000
0000
0001
0000
0001
,
0100
0000
0000
0000
0010
0000
0000
0000
0100
0000
0000
0100
0000
0000
0100
0000
,
0000
0000
0000
0001
0000
1000
0000
0001
,
1000
0000
0000
1000
0001
0000
0000
1001
,
0000
0000
0000
0001
0000
1000
0001
0000
,
1000
0000
0000
0100
0000
0000
0001
0000
,
0000
0010
0000
0000
1000
0000
0001
0000
,
0100
0100
0200
0300
,
0001
0001
0002
0003
,
1000
1000
2000
3000
,
0010
0010
0020
0030
,
1000
0100
0110
0000
,
0001
0100
0110
0000
,
1000
0100
0001
0000
,
0001
0100
1000
0000
,
0001
0000
1000
0000
0001
0000
0000
0001
,
0000
0000
0100
0000
0010
0000
0000
0010
,
0100
0000
0100
0000
0001
0000
0000
0001
,
0000
0000
1000
0000
0100
0000
0000
1000
,
0100
0000
1000
0000
0001
0000
0000
1000
,
0000
0001
0100
0000
,
1001
0000
0000
0110
0000
0000
2002
0000
,
3003
0001
0000
0000
1000
0000
0010
0000
,
0200
0000
0000
0000
,
0320
0000
0000
0000
,
2030
0000
0000
0000
,
0002
0000
0000
3003
,
0002
0000
0000
0000
,
0203
0000
0000
0000
,
0320
0000
0000
0000
,
2000
0000
0000
3030
,
1000
0000
0100
0000
1000
0000
0000
0001
,
0000
0100
0000
0001
0000
0010
0000
0001
,
0000
0000
1000
0000
0001
0000
0000
1000
,
0000
1000
0000
0001
0000
0100
0100
0000
,
0010
0000
0100
0000
0001
0000
0000
1000
,
0000
0100
0000
1000
0000
0001
1000
0000
,
2002
0000
0000
0000
0000
0000
3003
0001
,
0000
0001
0000
1000
0001
0000
1001
0000
,
1000
0000
0100
0000
1000
0000
0000
0001
,
0000
0100
0000
0100
0010
0000
0000
0100
,
0000
0000
0001
0000
1000
1000
0000
0100
,
0000
0010
0000
0001
0000
1000
0001
0000
,
0100
0000
0010
0000
0100
0100
0000
0001
,
0000
1000
0000
0001
0000
0100
0000
0100
,
0000
0010
0010
0000
1000
0000
0000
2002
,
0000
3003
0001
1000
,
0001
0000
0100
0000
0010
0100
0000
0001
,
0000
1000
0000
1000
0000
0100
0000
1000
,
0000
0000
0010
0000
0100
0000
0000
0000
0010
0000
0000
0010
0000
0000
1001
0000
,
0000
0000
0001
0000
1000
0000
0000
0001
0000
0000
0100
0000
0100
0000
0000
0000
,
0010
0000
0100
0000
0001
1000
0000
0001
,
0000
0100
0010
0100
0000
0001
1000
0000
,
1001
0000
0000
0110
0000
0000
1001
0000
,
0000
0110
0000
0000
0001
0000
0100
0000
,
0110
0000
0000
0000
1000
1000
0000
2200
,
0000
3300
0000
0202
0000
0303
0000
2002
,
0000
0000
0000
0000
,
0000
0000
0000
0000
,
3003
0000
0000
0000
;

//--------------- dance-single - Fred-104 ----------------
#NOTEDATA:;
#STEPSTYPE:dance-single;
#DESCRIPTION:Fred-104;
#DIFFICULTY:Medium;
#METER:12;
#CREDIT:Fred-104;
#NOTES:
0000
0000
0000
0000
,
0000
0000
0000
0000
,
0000
0000
0000
0000
,
0000
0000
0000
0000
,
0000
0000
0000
0000
,
0000
0000
0000
0000
,
0000
0000
0000
0000
,
0000
0000
0000
0000
,
0000
0000
0000
0000
,
0000
0000
0000
0000
,
1000
0100
1000
0000
0001
0100
0010
2000
,
0000
3001
1000
0002
0000
0103
0010
0100
,
0001
0100
0001
0000
0010
0100
0010
0002
,
0000
1003
0001
2000
0000
3010
0100
0000
,
0010
1000
0010
0000
1000
0100
0010
0001
,
1000
0001
0100
0000
0010
1000
0001
0000
,
1100
0000
0000
0101
0000
0000
2002
0000
,
0000
0000
0000
3003
,
1000
0100
1000
0000
0001
1000
0010
2000
,
0000
3001
1000
0100
0010
0020
0000
0032
,
0000
1003
0001
0000
0100
0010
0100
0020
,
0000
1030
0001
2000
0000
3001
0100
0000
,
0001
1000
0010
0000
1000
0001
0010
0200
,
0000
1300
0010
0100
0001
0001
0000
1001
,
0000
0000
1000
0000
0100
0000
0001
0000
0100
0000
0000
1000
0000
0000
2002
0000
,
0000
3003
0001
0000
0100
0010
1000
0010
,
0100
0001
1000
0000
0100
0010
0001
2000
,
0000
3001
0100
1000
0100
0001
0000
1001
,
0000
0000
1000
0000
0010
0000
0100
0000
0010
0000
0000
1000
0000
0000
2002
0000
,
0000
3003
0001
0100
0100
0010
0100
0001
,
1000
0000
0100
0000
0010
0000
0001
0000
1000
0000
0000
0010
0000
0000
0110
0000
,
0000
0100
0001
2000
0000
3001
1000
0010
,
0110
0000
0000
1100
0000
0000
0202
0000
,
0000
0000
0303
0000
,
1000
0100
0001
0010
,
1000
0010
0001
0100
,
1000
0010
0001
0100
,
1000
0100
0001
0010
,
1000
0000
0000
0000
0100
0000
0000
0000
0010
0000
0000
0001
0000
0000
1000
0000
,
0001
0000
0000
0000
0100
0000
0000
0000
0010
0000
0000
1000
0000
0000
0010
0000
,
0100
0001
1000
0001
0100
0010
1000
0100
,
0010
0000
0010
0000
0010
0000
0220
0330
,
2002
0000
3003
0000
0001
1000
0000
1100
,
0000
0001
0100
0010
1000
0100
0010
0000
,
0012
0000
2003
0000
3001
0100
0000
0110
,
0000
0010
1000
0001
0000
0101
0000
0100
,
0220
0000
0330
0001
1000
0001
0000
0101
,
0000
1010
0000
0011
0000
1100
0000
0001
,
1001
0000
0000
0110
0000
0000
2002
0000
,
3003
0001
1000
0001
0100
0010
1000
0000
,
2002
0000
3003
1000
0100
0010
0000
0011
,
0000
0001
1000
0010
0100
0001
0000
1000
,
0001
0000
0000
0000
0100
0000
0010
0000
0100
0000
0000
0010
0000
0000
1001
0000
,
0000
1000
0100
0010
0000
0100
1000
1000
,
0001
0000
0000
0100
0000
0000
1000
0000
1000
0000
0000
0010
0000
0000
0001
0000
,
0000
0001
1000
0100
0000
0010
0001
0000
,
1100
0000
0000
0101
0000
0000
1010
0000
,
0000
0011
0000
0000
1000
0001
0100
0000
,
0110
0000
0000
0000
0001
0000
0000
0000
1000
0000
0000
0001
0000
0000
0100
0000
,
0010
0000
0000
0000
1000
0000
0000
0000
0001
0000
0000
0010
0000
0000
0100
0000
,
0010
0000
0000
0000
0001
0000
0000
0000
1000
0000
0000
0001
0000
0000
0100
0000
,
0010
0000
0000
0000
1000
0000
0000
0000
0010
0000
0000
0100
0000
0000
0001
0000
,
1000
0000
0000
0000
0100
0000
0000
0000
0010
0000
0000
0011
0000
0000
0001
0000
,
1000
0000
0000
0000
0001
0000
0000
0000
0100
0000
0000
0110
0000
0000
0010
0000
,
1000
0000
0000
0000
0001
0000
0000
0000
1000
0000
0000
1100
0000
0000
0100
0000
,
0010
0001
1000
0000
0001
0100
0010
0000
,
0110
0000
0000
0000
0010
0000
1000
0000
0001
0000
0000
1000
0000
0000
1100
0000
,
0000
0000
0100
0000
0010
0000
0001
0000
1000
0000
0000
1010
0000
0000
0001
0000
,
0100
0000
0010
0000
0100
0000
0000
0000
0101
0000
0000
0001
0000
0000
1001
0000
,
0000
0000
1000
0000
0100
0000
0010
0000
0100
0000
0000
1100
0000
0000
1000
0000
,
0001
0000
0100
0000
0010
0000
0000
0000
0100
0000
0000
0101
0000
0000
1001
0000
,
0000
1000
0100
0010
0001
1000
0010
0000
,
0110
0000
0000
0101
0000
0000
2200
0000
,
3300
0011
0000
0000
0001
0100
0010
1000
,
0002
0000
0000
0000
,
0023
0000
0000
0000
,
0230
0000
0000
0000
,
2300
0000
0002
3003
,
2000
0000
0000
0000
,
3200
0000
0000
0000
,
0302
0000
0000
0000
,
0023
0000
2000
3030
,
1000
0100
1000
0000
0001
0100
0010
2000
,
0000
3001
0010
0200
0000
0301
0100
0020
,
0000
0032
0000
1003
0001
0100
0010
2000
,
0000
3100
0010
0100
0000
1000
0002
0000
,
0103
0010
0100
0000
0001
1000
0010
0200
,
0000
0302
0000
2003
0000
3200
0310
0001
,
1000
0001
0010
0100
0010
0002
1000
1000
,
0000
0000
1000
0000
0000
0000
1003
0001
1000
0000
0000
0000
1001
0000
0000
0000
,
1000
0010
1000
0100
1000
0001
0100
0010
,
0000
0110
0000
0100
0001
1000
0001
0020
,
0000
0130
0010
0001
1000
0010
0100
0002
,
0000
1003
0100
0002
0000
0103
0010
0002
,
0000
1003
0001
0100
0010
1000
0010
0100
,
0000
0101
0000
1001
0000
1000
0010
2000
,
0000
3001
0001
0010
0001
0100
0010
2000
,
0000
3001
1001
0000
0001
0100
1000
0100
,
0001
0010
0100
1000
0001
0100
0010
0100
,
0000
0101
0000
0001
0010
0001
1000
0020
,
0000
0000
0130
0000
0001
0000
1000
0000
0100
0000
0000
0010
0000
0000
0110
0000
,
0000
0000
0001
0000
0100
0000
0000
0110
0000
0000
0010
0000
1000
0000
0000
0000
,
0001
0010
1000
0010
0001
1000
0010
0200
,
0000
0301
0100
0010
0001
0010
0100
0010
,
0110
0000
0000
1010
0000
0000
0101
0000
,
0000
1100
0000
0000
0011
0000
0001
0000
,
1001
0000
0000
0000
0100
0100
0000
0110
,
0000
0001
1000
2002
0000
3003
0000
2002
,
0000
0000
0000
0000
,
0000
0000
0000
0000
,
3003
0000
0000
0000
;

//--------------- dance-single - Fred-104 ----------------
#NOTEDATA:;
#STEPSTYPE:dance-single;
#DESCRIPTION:Fred-104;
#DIFFICULTY:Hard;
#METER:16;
#CREDIT:Fred-104;
#NOTES:
0000
0000
0000
0000
,
0000
0000
0000
0000
,
0000
0000
0000
0000
,
0000
0000
0000
0000
,
0000
0000
0000
0000
,
0000
0000
0000
0000
,
0000
0000
0000
0000
,
0000
0000
0000
0000
,
0000
0000
0000
0000
,
0000
0000
0000
0000
,
1000
0000
0001
0000
1000
0000
0100
0010
0001
0000
1000
0000
0001
0000
0020
0000
,
0000
0000
0031
1000
0010
0000
0200
0000
0000
0000
1300
0000
0100
0000
0010
1000
,
0001
0000
1000
0000
0100
0000
0010
0100
1000
0000
0010
0000
0100
0000
0020
0000
,
0000
0000
1030
0001
0100
0010
2000
0000
0000
0000
3001
0000
0010
0000
0100
0010
,
0001
0000
1000
0000
0010
0000
0100
0010
1000
0000
0002
0000
0103
0000
0020
0000
,
1030
0000
0001
0100
0010
0100
0001
0000
1000
0000
0100
0000
1000
0001
0100
0001
,
1000
0000
1010
0011
0000
1100
2002
0000
,
0000
0000
0000
3003
,
0001
0000
1000
0010
0100
0000
0001
0000
1000
0000
0100
0000
0010
0000
0002
0000
,
0000
0000
0103
0000
0010
0000
0100
0001
2000
0000
0001
0000
0000
0000
3001
0000
,
0100
0000
0010
1000
0001
0000
0010
0000
0100
0010
0001
0000
1000
0000
0020
0000
,
0000
0000
0130
0000
0001
1000
0010
0000
0100
0000
0001
0010
0100
0010
0100
1000
,
0001
0000
1000
0001
0010
0000
0001
0000
1000
0000
1100
0000
0000
0000
0110
0000
,
0000
1001
0001
0100
0010
1010
0000
0110
,
0000
0000
1001
0000
1000
0001
0100
0000
0101
0000
0000
1010
0000
0000
0012
0000
,
0000
0000
0000
0000
2003
0000
0000
0000
3100
0000
1000
0100
0010
0001
1000
0000
,
0001
0000
0100
0010
1000
0000
0001
0000
0010
0001
0100
0000
0010
0000
1010
0000
,
0000
0000
1000
0001
1000
0000
0100
0000
0010
0000
0011
0000
0000
0000
0101
0000
,
0000
0000
1001
0000
0001
0000
0010
0000
0110
0000
0000
1100
0000
0000
2002
0000
,
0000
0000
3003
0000
1000
0000
0100
0000
0010
0000
0001
0010
0100
0000
0010
0000
,
0001
0000
0100
0001
1000
0000
0001
0000
1001
0000
0000
1100
0000
0000
0110
0000
,
0000
0000
0001
0000
1000
0000
0100
0010
0001
0000
1000
0000
0010
0000
0100
0000
,
1001
0000
1001
0101
0000
1100
2002
0000
,
0000
0000
0000
0000
0000
0000
3003
0000
0001
0000
0000
1000
0000
0000
0001
0000
,
1002
0000
0000
0000
0100
0000
0000
0000
1000
0000
0000
1000
0000
0000
0013
0000
,
0200
0000
0000
0000
1000
0000
0000
0000
0010
0000
0000
0010
0000
0000
1300
0000
,
0002
0000
0000
0000
0010
0000
0000
0000
1000
0000
0000
0100
0000
0000
0103
0000
,
0020
0000
0000
0000
0100
0000
0000
0000
0130
0000
0000
0001
1000
0000
0100
0000
,
1000
0000
0001
0000
1000
0000
0010
0000
0100
0000
0000
0001
0010
0000
0100
0000
,
0010
0000
0001
0000
1000
0000
0001
0000
0100
0000
0000
0010
0100
0000
0001
0000
,
1000
0100
1000
0100
1000
0100
1000
0100
0010
0001
0010
0001
0010
0001
0010
0001
,
1000
0000
0010
0000
0100
0000
2002
3003
,
2001
0000
0100
0000
3001
1000
0000
1100
,
0000
1000
0001
0100
0010
0010
0110
0000
,
1002
0000
0010
0000
1003
0001
0000
0101
,
0000
0100
0010
1010
0000
1001
0000
1000
,
1200
0000
0300
0010
0001
1001
0000
0011
,
0000
1010
0000
0101
0000
1100
0000
0110
,
1001
0000
1100
1001
0000
0101
2002
0000
,
3003
0000
0110
0000
0001
0000
1000
0000
0010
0000
0100
0010
1000
0001
0010
0000
,
0210
0000
0000
0000
0000
0000
1300
0001
1000
0000
1100
0000
0000
0000
1001
0000
,
0000
0000
0001
0000
0100
0000
0010
0000
1000
0000
1010
0000
0000
0000
1000
0001
,
0010
0000
0000
0000
0100
0000
0010
0000
0011
0000
0000
1010
0000
0000
0101
0000
,
0000
0001
0010
0200
0000
0301
0100
0010
,
0001
0000
0000
0101
0000
0000
1100
0000
1000
0000
0000
1010
0000
0000
0011
0000
,
0000
0001
0010
0200
0000
1300
1001
0000
,
1100
0100
0010
0101
0100
0010
1001
1001
,
0000
1100
0000
0100
0110
0010
0001
1000
,
2001
0000
0000
0000
0100
0000
0000
0000
0001
0000
0000
0001
0000
0000
3100
0000
,
0120
0000
0000
0000
0001
0000
0000
0000
0100
0000
0000
0100
0000
0000
0031
0000
,
0201
0000
0000
0000
0010
0000
0000
0000
0001
0000
0000
0010
0000
0000
0301
0000
,
2001
0000
0000
0000
0100
0000
0000
0000
0001
0000
0000
0010
0000
0000
3001
0000
,
0012
0000
0000
0000
0100
0000
0000
0000
1000
0000
0000
0010
0000
0000
0103
0000
,
0210
0000
0000
0000
0001
0000
0000
0000
1000
0000
0000
0001
0000
0000
0301
0000
,
2001
0000
0000
0000
0010
0000
0000
0000
0001
0000
0000
0100
0000
0000
3010
0000
,
0100
0001
1000
0000
0001
0000
0010
0100
1000
0001
0100
0000
0001
1000
0001
0000
,
0011
0000
0000
0000
0001
0000
0100
0000
0110
0000
0000
1010
0000
0000
0101
0000
,
0000
0000
1100
0000
1000
0000
0001
0000
0011
0000
0000
1001
0000
0000
1010
0000
,
0010
0000
0110
0000
0100
0001
1000
0000
1100
0000
0000
0101
0000
0000
1010
0000
,
0000
0000
1001
0000
1000
0000
0100
0000
0010
0001
0000
1000
0001
0000
0100
0000
,
0010
0000
1000
0000
1100
0000
0000
0000
0001
0100
0000
0010
1000
0000
1001
0000
,
0000
0000
0001
0000
0010
0000
1000
0000
0010
0000
0001
0000
0100
0010
1000
0001
,
0010
0000
0000
1001
0000
1100
0022
0000
,
0033
0000
0110
0000
0000
0000
1000
0000
0010
0000
0100
0001
1000
0000
0001
0000
,
2001
0000
0000
0000
,
3020
0000
0000
0000
,
0230
0000
0000
0000
,
0302
0000
2000
3003
,
1002
0000
0000
0000
,
0023
0000
0000
0000
,
2030
0000
0000
0000
,
3200
0000
0302
0003
,
0001
0000
1000
0000
0100
0000
0010
1000
0010
0000
0001
0000
0010
0000
0200
0000
,
0000
0000
1300
0001
0100
0000
0020
0000
0000
0000
0031
0000
0010
0000
0200
0000
,
0000
0301
1000
0100
0010
1000
0010
0200
,
0000
0000
1300
0000
0001
0000
0200
0000
0000
0000
0301
1000
0100
0000
0010
0000
,
0001
0000
0100
0000
1000
0000
0100
0010
0100
0000
0001
0000
1000
0000
0001
0000
,
0010
0002
1003
0020
0130
0020
2030
3001
,
1000
0010
1000
0001
0010
0001
1000
0100
1000
0001
0100
0001
1000
0100
0020
0000
,
0000
0000
0100
0000
0000
0000
0130
0010
0100
0000
0000
0000
1001
0000
0000
0000
,
0001
0000
0010
0100
1000
0000
0010
0100
1000
0000
0100
0000
0010
0100
0001
0000
,
1000
0000
0001
0010
0100
0000
0001
0100
0010
0000
0001
0000
0100
0000
0001
0000
,
1000
0000
0100
0010
1000
0000
0010
0100
1000
0001
0100
0000
0010
0000
1000
0000
,
0001
0000
0010
0100
1000
0000
0001
0000
0100
0000
0010
1000
0001
0000
0010
0000
,
0001
0000
1000
0010
0100
0000
1000
0001
0010
0000
1000
0000
0001
0010
1000
0000
,
0010
0000
0001
1000
0010
0000
1000
0001
0010
0001
1000
0000
0001
0000
0100
0000
,
0010
0000
1000
0010
0100
0000
1000
0000
0100
0010
1000
0000
0001
0000
0200
0000
,
0000
0310
0110
0000
1000
0001
0010
0100
,
1000
0000
0001
0010
0100
0000
0001
0000
0100
0010
0001
0000
1000
0010
0100
0000
,
0001
0000
1000
0010
0100
0000
1000
0001
0010
0100
0001
0000
1000
0000
0001
0000
,
0100
0000
0001
1000
0100
0000
0010
0000
0011
0000
0000
1100
0000
0000
1001
0000
,
0000
0000
1000
0000
0100
0000
0000
0110
0000
0000
0010
0001
1000
0000
0001
0000
,
1000
0000
0010
0100
1000
0000
0100
0000
0010
1000
0001
0000
0010
0000
0100
0010
,
0001
0000
0100
0010
0001
0000
0010
0100
0001
1000
0100
0000
1000
0000
0100
0000
,
0110
0000
1100
1001
0000
0101
1001
0000
,
0011
0000
1001
0000
0000
0000
1010
0000
1001
0000
0000
0000
0001
0100
0010
1000
,
0001
0000
0000
0000
1100
0011
0000
1010
,
0000
0101
0100
0220
0000
0330
0000
2002
,
0000
0000
0000
0000
,
0000
0000
0000
0000
,
3003
0000
0000
0000
;

//--------------- dance-double - Fred-104 ----------------
#NOTEDATA:;
#STEPSTYPE:dance-double;
#DESCRIPTION:Fred-104;
#DIFFICULTY:Easy;
#METER:8;
#CREDIT:Fred-104;
#NOTES:
00000000
00000000
00000000
00000000
,
00000000
00000000
00000000
00000000
,
00000000
00000000
00000000
00000000
,
00000000
00000000
00000000
00000000
,
00000000
00000000
00000000
00000000
,
00000000
00000000
00000000
00000000
,
00000000
00000000
00000000
00000000
,
00000000
00000000
00000000
00000000
,
00000000
00000000
00000000
00000000
,
00000000
00000000
00000000
00000000
,
01000000
00100000
01000000
00000000
,
00010000
10000000
01000000
00100000
,
00001000
00010000
00001000
00000000
,
00000010
00000100
00001000
00000010
,
00010000
00001000
00011000
00000000
,
00010000
00001000
00000100
00000010
,
00001000
00000000
00000000
00000010
00000000
00000000
00020020
00000000
,
00000000
00000000
00000000
00030030
,
00010000
00000000
00001000
00000000
00010000
00000000
00000000
00001000
,
00000000
00000100
00000000
00000010
00000000
00010000
00000000
00001000
,
00000000
00000000
00010000
00000000
00001000
00000000
00000000
00000010
,
00000000
00000100
00000000
00010000
00000000
00000000
00000000
00011000
,
00000000
00000000
00001000
00000000
00010000
00000000
00000000
01000000
,
00000000
00100000
00000000
00001000
00000000
00010000
00000000
01000000
,
00000000
00000000
00000000
00000000
00100000
00000000
00000000
00000000
00001000
00000000
00000000
00010000
00000000
00000000
00001000
00000000
,
00000000
00010000
00022000
00033000
,
00001000
00000000
00010000
00000000
00100000
00000000
00000000
01000000
,
00000000
00000000
00001000
00000000
00010000
00010000
00000000
00100000
,
00000000
00000000
00000000
00000000
01000000
00000000
00000000
00000000
00001000
00000000
00000000
00010000
00000000
00000000
00011000
00000000
,
00000000
00010000
00001000
00000100
,
00000010
00000000
00001000
00000000
00000001
00000000
00000000
00001001
,
00000000
00000000
00000000
00000001
00000000
00000100
00000010
00000000
,
00000110
00000000
00000000
00010010
00000000
00000000
00022000
00000000
,
00000000
00000000
00033000
00000000
,
00001000
00010000
00200000
00300000
,
00010000
00001000
00000020
00000030
,
00001000
00010000
02000000
03000000
,
00010000
00001000
00000200
00000300
,
00001000
00010000
00001000
01000000
,
00001000
00010000
00001000
00100000
,
00001000
00010000
00001000
00000000
00010000
00000010
00001000
00000000
,
00000100
00000100
00010000
00011000
,
02002000
00000000
03003000
00000000
00001000
00001000
00000000
00010000
,
00000000
00100000
01000000
00000000
00100000
00000000
10000000
00000000
,
00020000
00000000
20030000
00000000
31000000
01000000
00000000
00100000
,
00000000
00000000
00000000
00002000
00000000
00013000
00000000
00001000
,
00010000
00000000
00000000
00000010
00001000
00000010
00000000
00001000
,
00000000
00000001
00000000
00001000
00000000
00000100
00000000
00000000
,
00001100
00000000
00000000
00000011
00000000
00000000
00002002
00000000
,
00003003
00000001
00000000
00000100
00000000
00001000
00010000
00000000
,
00022000
00000000
00033000
00000000
00001000
00010000
00000000
00100000
,
00000000
00000000
01000000
00000000
00000000
00001000
00000000
00001000
,
00010000
00000000
00000000
00000000
00001000
00000000
00000000
00000000
01000000
00000000
00000000
01000000
00000000
00000000
01000000
00000000
,
00000000
00000000
00000000
00100000
00000000
10000000
00000000
00100000
,
01000000
00000000
00000000
00001000
00010000
00000000
00000000
00011000
,
00000000
00000000
00000000
00010000
00000000
00001000
00000100
00000000
,
00000010
00000000
00000000
00010000
00000000
00000000
00001000
00000000
,
00000000
00000010
00000000
00000000
00000100
00000000
00010000
00000000
,
00001000
00010000
02000000
03000000
,
10000000
00010000
20000000
30000000
,
00100000
00010000
00002000
00003000
,
00000100
00000001
00002000
00003000
,
00000001
00001000
00000100
00000100
,
00010000
00001000
01000000
01000000
,
00010000
00100000
10000000
10000000
,
00100000
00010000
00001000
00001000
,
00010000
00000000
00001000
00000000
00010000
00000000
00000000
00000010
,
00000000
00000000
00001000
00000000
00000010
00000000
00000000
00000100
,
00000010
00000000
00000100
00000000
00000001
00000000
00000000
00001000
,
00000000
00000000
00000001
00000000
00000100
00000000
00000000
00000010
,
00001000
00000000
00000010
00000000
00010000
00000000
00000000
00001000
,
00000000
01000000
00100000
00000000
,
11000000
00000000
00000000
00110000
00000000
00000000
20020000
00000000
,
30030000
10000000
00000000
00000000
01000000
00000000
00100000
00000000
,
00002000
00000000
00000000
00000000
,
00023000
00000000
00000000
00000000
,
00032000
00000000
00000000
00000000
,
00020000
00000000
00000000
00033000
,
00020000
00000000
00000000
00000000
,
00032000
00000000
00000000
00000000
,
00023000
00000000
00000000
00000000
,
00002000
00000000
00000000
00033000
,
00001000
00000000
00010000
00000000
01000000
00000000
00000000
00100000
,
00000000
00001000
00000000
00010000
00000000
01000000
00000000
00100000
,
00000000
00000000
00001000
00000000
00010000
00000000
00000000
00100000
,
00000000
01000000
00000000
00001000
00000000
00010000
00100000
00000000
,
01000000
00000000
00001000
00000000
00010000
00000000
00000000
00001000
,
00000000
00000010
00000000
00000100
00000000
00010000
00001000
00000000
,
00022000
00000000
00000000
00000000
00000000
00000000
00033000
00010000
,
00000000
00001000
00000000
01000000
00010000
00000000
10010000
00000000
,
10000000
00000000
01000000
00000000
00100000
00000000
00000000
00001000
,
00000000
00010000
00000000
00001000
01000000
00000000
00000000
00001000
,
00000000
00000000
00010000
00000000
00001000
00001000
00000000
00010000
,
00000000
00000010
00000000
00010000
00000000
00001000
00010000
00000000
,
00000100
00000000
00001000
00000000
00000100
00000100
00000000
00000010
,
00000000
00000001
00000000
00001000
00000000
00000010
00000000
00010000
,
00000000
00001000
00001000
00000000
00010000
00000000
00000000
00022000
,
00000000
00000000
00033000
00000000
00001000
00010000
00001000
00000000
,
00010000
00000000
01000000
00000000
00100000
01000000
00000000
10000000
,
00000000
00010000
00000000
00010000
00000000
01000000
00000000
00001000
,
00000000
00000000
00010000
00000000
01000000
00000000
00000000
00000000
00100000
00000000
00000000
00010000
00000000
00000000
10010000
00000000
,
00000000
00000000
10000000
00000000
01000000
00000000
00000000
00100000
00000000
00000000
00001000
00000000
00001000
00000000
00000000
00000000
,
00010000
00000000
00001000
00000000
00000010
00000001
00000000
00001000
,
00000000
00000100
00000010
00000001
00000000
00001000
00000001
00000000
,
00001001
00000000
00000000
00000110
00000000
00000000
00010010
00000000
,
00000000
00011000
00000000
00000000
00001000
00000000
00100000
00000000
,
01100000
00000000
00000000
00000000
10000000
01000000
00000000
02200000
,
00000000
03300000
00000000
00022000
00000000
00033000
00000000
00022000
,
00000000
00000000
00000000
00000000
,
00000000
00000000
00000000
00000000
,
00033000
00000000
00000000
00000000
;

//--------------- dance-double - Fred-104 ----------------
#NOTEDATA:;
#STEPSTYPE:dance-double;
#DESCRIPTION:Fred-104;
#DIFFICULTY:Medium;
#METER:12;
#CREDIT:Fred-104;
#NOTES:
00000000
00000000
00000000
00000000
,
00000000
00000000
00000000
00000000
,
00000000
00000000
00000000
00000000
,
00000000
00000000
00000000
00000000
,
00000000
00000000
00000000
00000000
,
00000000
00000000
00000000
00000000
,
00000000
00000000
00000000
00000000
,
00000000
00000000
00000000
00000000
,
00000000
00000000
00000000
00000000
,
00000000
00000000
00000000
00000000
,
00000001
00001000
00000001
00000000
00000100
00000010
00001000
00000100
,
00000000
00010000
00001000
00020000
00000000
00031000
00010000
00100000
,
01000000
00001000
00010000
00000000
00001000
00100000
01000000
20000000
,
00000000
30010000
10000000
02000000
00000000
03100000
01000000
00000000
,
10000000
01000000
00010000
00000000
00001000
00010000
00001000
00000010
,
00000100
00001000
00000100
00000000
00010000
00001000
00010000
00000000
,
00010010
00000000
00000000
00011000
00000000
00000000
02002000
00000000
,
00000000
00000000
00000000
03003000
,
00001000
00010000
00100000
00000000
01000000
00010000
10000000
02000000
,
00000000
03100000
00001000
00010000
00001000
00002000
00000000
00023000
,
00000000
00030010
00010000
00000000
00001000
00010000
00000100
00020000
,
00000000
00031000
00010000
00000020
00000000
00001030
00000001
00000000
,
00000100
00000010
00001000
00000000
00000001
00000010
00000100
00000020
,
00000000
00001030
00010000
01000000
00100000
00010000
00000000
00110000
,
00000000
00000000
00010000
00000000
10000000
00000000
00100000
00000000
01000000
00000000
00000000
00100000
00000000
00000000
20020000
00000000
,
00000000
30030000
10000000
00000000
01000000
00100000
01000000
00100000
,
00001000
00010000
00001000
00000000
00010000
00001000
00000100
00000020
,
00000000
00010030
00001000
00000100
00000010
00010000
00000000
00011000
,
00000000
00000000
00010000
00000000
00001000
00000000
00000010
00000000
00000100
00000000
00000000
00001000
00000000
00000000
00002020
00000000
,
00000000
00003030
00000000
00000000
00001000
00000000
00000100
00000000
00000100
00000000
00000001
00000000
00000010
00000000
00000100
00000000
,
00000010
00000000
00000001
00000000
00000100
00000000
00001000
00000000
00010000
00000000
00000000
00100000
00000000
00000000
01100000
00000000
,
00000000
00010000
10000000
02000000
00000000
03100000
00010000
00000000
,
00110000
00000000
00000000
00101000
00000000
00000000
00022000
00000000
,
00000000
00000000
00033000
00000000
,
00001000
00000000
00000000
00000000
01000000
00000000
00000000
00000000
00001000
00000000
00000000
00001000
00000000
00000000
00100000
00000000
,
00010000
00000000
00000000
00000000
10000000
00000000
00000000
00000000
01000000
00000000
00000000
01000000
00000000
00000000
00100000
00000000
,
00001000
00000000
00000000
00000000
00010000
00000000
00000000
00000000
00000010
00000000
00000000
00000010
00000000
00000000
00001000
00000000
,
00000001
00000000
00000000
00000000
00000010
00000000
00000000
00000000
00000100
00000000
00000000
00010000
00000000
00000000
00001000
00000000
,
00010000
00000000
00000000
00000000
01000000
00000000
00000000
00000000
00100000
00000000
00000000
00010000
00000000
00000000
10000000
00000000
,
00010000
00000000
00000000
00000000
01000000
00000000
00000000
00000000
00100000
00000000
00000000
10000000
00000000
00000000
00100000
00000000
,
01000000
00010000
00100000
00010000
00001000
00000100
00000010
00000001
,
00000100
00000000
00001000
00000000
00010000
00000000
00022000
00033000
,
00020020
00000000
00030030
00000000
00001000
00010000
00000000
00011000
,
00000000
00001000
00010000
00100000
10000000
01000000
00100000
00000000
,
00102000
00000000
00023000
00000000
00031000
00010000
00000000
00010010
,
00000000
00010000
00000010
00001000
00000000
00000110
00000000
00000001
,
00002002
00000000
00003003
00000001
00000100
00001000
00000000
00011000
,
00000000
00110000
00000000
10100000
00000000
10010000
00000000
10000000
,
11000000
00000000
00000000
01010000
00000000
00000000
00022000
00000000
,
00033000
00010000
00001000
00000100
00000010
00001000
00000001
00000000
,
00000220
00000000
00000330
00001000
00000100
00000010
00000000
00001001
,
00000000
00000001
00001000
00000010
00000100
00001000
00000000
00010000
,
00100000
00000000
00000000
00000000
01000000
00000000
00100000
00000000
10000000
00000000
00000000
01000000
00000000
00000000
01100000
00000000
,
00000000
00100000
00001000
00010000
00000000
00001000
00010000
00001000
,
00010000
00000000
00000000
00001000
00000000
00000000
00000010
00000000
00001000
00000000
00000000
00010000
00000000
00000000
00001000
00000000
,
00000000
01000000
00001000
00010000
00000000
00000100
00010000
00000000
,
00001000
00001000
00010000
00000100
00000100
00001000
00000001
00000001
,
00000000
00001001
00000000
00000001
00000010
00000100
00010000
00000000
,
00011000
00000000
00000000
00000000
00001000
00000000
00000000
00000000
00010000
00000000
00000000
00100000
00000000
00000000
10000000
00000000
,
00010000
00000000
00000000
00000000
10000000
00000000
00000000
00000000
01000000
00000000
00000000
00100000
00000000
00000000
00001000
00000000
,
00010000
00000000
00000000
00000000
00001000
00000000
00000000
00000000
00000100
00000000
00000000
00000010
00000000
00000000
00001000
00000000
,
00000001
00000000
00000000
00000000
00000010
00000000
00000000
00000000
00001000
00000000
00000000
00010000
00000000
00000000
00001000
00000000
,
00010000
00000000
00000000
00000000
01000000
00000000
00000000
00000000
00100000
00000000
00000000
10100000
00000000
00000000
10000000
00000000
,
01000000
00000000
00000000
00000000
00100000
00000000
00000000
00000000
00001000
00000000
00000000
00011000
00000000
00000000
00010000
00000000
,
00000010
00000000
00000000
00000000
00001000
00000000
00000000
00000000
00000100
00000000
00000000
00010100
00000000
00000000
00010000
00000000
,
00001000
00010000
00000010
00000000
00010000
00001000
00100000
00000000
,
00011000
00000000
00000000
00000000
00001000
00000000
00010000
00000000
01000000
00000000
00000000
00100000
00000000
00000000
01100000
00000000
,
00000000
00000000
01000000
00000000
00100000
00000000
00010000
00000000
10000000
00000000
00000000
11000000
00000000
00000000
00100000
00000000
,
00001000
00000000
00010000
00000000
00001000
00000000
00000000
00000000
00011000
00000000
00000000
00010000
00000000
00000000
00010010
00000000
,
00000000
00000000
00010000
00000000
00001000
00000000
00000100
00000000
00000001
00000000
00000000
00001001
00000000
00000000
00001000
00000000
,
00000001
00000000
00000010
00000000
00000100
00000000
00000000
00000000
00010000
00000000
00000000
00011000
00000000
00000000
00010100
00000000
,
00000000
00010000
00001000
00000010
00000100
00010000
00001000
00000000
,
00011000
00000000
00000000
01100000
00000000
00000000
20020000
00000000
,
30030000
11000000
00000000
00000000
01000000
00100000
00001000
00010000
,
00002000
00000000
00000000
00000000
,
00023000
00000000
00000000
00000000
,
00030020
00000000
00000000
00000000
,
00020030
00000000
00002000
00033000
,
00002000
00000000
00000000
00000000
,
02003000
00000000
00000000
00000000
,
03002000
00000000
00000000
00000000
,
00023000
00000000
00002000
00033000
,
00010000
00001000
00000010
00000000
00000100
00001000
00000001
00002000
,
00000000
00003001
00000100
00002000
00000000
00013000
00100000
20000000
,
00000000
32000000
00000000
03100000
00010000
10000000
00100000
02000000
,
00000000
03001000
00010000
00001000
00000000
00100000
00002000
00000000
,
00013000
00001000
00010000
00000000
00000010
00001000
00000001
00002000
,
00000000
00003200
00000000
00000320
00000000
00000032
00000103
00000010
,
00000100
00001000
00010000
00100000
01000000
00100000
10000000
00020000
,
00000000
00000000
00100000
00000000
00000000
00000000
00130000
00010000
00100000
00000000
00000000
00000000
00011000
00000000
00000000
00000000
,
00001000
00010000
01000000
10000000
00010000
01000000
00100000
01000000
,
00000000
10010000
00000000
10000000
00100000
00010000
00001000
00020000
,
00000000
00031000
00000010
00000100
00001000
00000010
00000100
00000020
,
00000000
00001030
00000001
00002000
00000000
00003010
00001000
00000010
,
00010000
00000100
00001000
00000100
00000010
00000001
00000010
00000100
,
00000000
00001100
00000000
00010100
00000000
01001000
00000000
00011000
,
00000000
00010000
00001000
00000010
00000100
00010000
00001000
00020000
,
00000000
00031000
00011000
00000000
00001000
00010000
00100000
10000000
,
01000000
00100000
00010000
00001000
00010000
00100000
01000000
10000000
,
00100000
02000000
00000000
03001000
00010000
00001000
00000100
00000020
,
00000000
00000000
00001030
00000000
00000001
00000000
00000010
00000000
00000001
00000000
00000000
00001000
00000000
00000000
00001001
00000000
,
00000000
00000000
00000001
00000000
00000100
00000000
00000000
00000100
00000000
00000000
00000010
00000000
00001000
00000000
00001000
00000000
,
00000100
00000010
00001000
00010000
01000000
00100000
00010000
20000000
,
00000000
30010000
00100000
02000000
00000000
03100000
00001000
00010000
,
00011000
00000000
00000000
00010010
00000000
00000000
00011000
00000000
,
00000000
01001000
00000000
00000000
00011000
00000000
00100000
00000000
,
01100000
00000000
00000000
00000000
00001000
00010000
00000000
00011000
,
00000000
00010000
00000020
00002000
00000000
00003030
00000000
00002002
,
00000000
00000000
00000000
00000000
,
00000000
00000000
00000000
00000000
,
00003003
00000000
00000000
00000000
;

//--------------- dance-double - Fred-104 ----------------
#NOTEDATA:;
#STEPSTYPE:dance-double;
#DESCRIPTION:Fred-104;
#DIFFICULTY:Hard;
#METER:16;
#CREDIT:Fred-104;
#NOTES:
00000000
00000000
00000000
00000000
,
00000000
00000000
00000000
00000000
,
00000000
00000000
00000000
00000000
,
00000000
00000000
00000000
00000000
,
00000000
00000000
00000000
00000000
,
00000000
00000000
00000000
00000000
,
00000000
00000000
00000000
00000000
,
00000000
00000000
00000000
00000000
,
00000000
00000000
00000000
00000000
,
00000000
00000000
00000000
00000000
,
00001000
00000000
00010000
00000000
01000000
00000000
00100000
00010000
10000000
00000000
00100000
00000000
01000000
00000000
00200000
00000000
,
00000000
00000000
00310000
00001000
00000100
00000000
00000020
00000000
00000000
00000000
00000130
00000000
00000001
00000000
00001000
00000001
,
00000010
00000000
00000001
00000000
00001000
00000000
00000010
00010000
00001000
00000000
00010000
00000000
00000100
00000000
00002000
00000000
,
00000000
00000000
00003010
00010000
00001000
00000000
00200000
00000000
00000000
00000000
00310000
10000000
00010000
00000000
01000000
00100000
,
01000000
00000000
00010000
00000000
01000000
00000000
00001000
00010000
00001000
00000000
00020000
00000000
01030000
00000000
00200000
00000000
,
00310000
00000000
10000000
01000000
00100000
00010000
00100000
00000000
00001000
00000000
00010000
00000000
00000010
00001000
00000010
00000100
,
00000001
00000000
00000101
00001100
00000000
00011000
00022000
00000000
,
00000000
00000000
00000000
00033000
,
00010000
00000000
00001000
00000100
00000010
00000000
00001000
00000000
00000100
00000000
00000010
00000000
00001000
00000000
00020000
00000000
,
00000000
00000000
01030000
00000000
00100000
00000000
00010000
01000000
00100000
00000000
01000000
00000000
00000000
00000000
01100000
00000000
,
00000000
00000000
00010000
00100000
00010000
00000000
01000000
00000000
00001000
00010000
00000100
00000000
00010000
00000000
00002000
00000000
,
00000000
00000000
00013000
00000000
00000010
00001000
00000010
00000000
00010000
00000000
00000010
00001000
00000100
00001000
00000010
00000000
,
00000100
00000000
00000010
00000100
00001000
00000000
00010000
00000000
00100000
01000000
00010000
00000000
00000000
00000000
01010000
00000000
,
00000000
01000000
00100000
00010000
00001000
00010000
00000000
00011000
,
00000000
00000000
00010000
00000000
00001000
00000000
00000100
00000000
00000001
00000000
00000000
00000010
00000000
00000000
00000210
00000000
,
00000000
00000000
00000000
00000000
00020300
00000000
00000000
00000000
00031000
00000000
00010000
00001000
00100000
00010000
10000000
00000000
,
01000000
00000000
00100000
00010000
00100000
00000000
01000000
00000000
10000000
00000000
00100000
00000000
00010000
00000000
00001000
00000000
,
00010000
00000000
00000000
00000100
00000000
00000000
00000010
00000000
00000001
00000000
00001000
00000100
00000000
00000000
00001100
00000000
,
00000100
00000000
00000000
00010000
00000000
00000000
00001000
00000000
00011000
00000000
00000000
00101000
00000000
00000000
00022000
00000000
,
00000000
00033000
00000000
00000000
00010000
00000000
00001000
00000000
00000100
00000000
00000010
00000100
00000001
00000000
00001000
00000000
,
00000100
00000000
00000010
00000001
00001000
00000000
00000010
00000000
00010010
00000000
00000000
00011000
00000000
00000000
00010100
00000000
,
00000000
00000000
00001000
00000000
00010000
00000000
00100000
01000000
00010000
00000000
00100000
00000000
01000000
00000000
10000000
00000000
,
10010000
00000000
10100000
01100000
00000000
01001000
00022000
00000000
,
00000000
00000000
00000000
00000000
00000000
00000000
00033000
00000000
00010000
00000000
00000000
00010000
00000000
00000000
00010000
00000000
,
00011000
00000000
00000000
00000000
00010000
00000000
00000000
00000000
00001000
00000000
00000000
00000100
00000010
00000000
00001000
00000000
,
00000001
00000000
00000000
00000000
00000010
00000000
00000000
00000000
00001000
00000000
00000000
00010000
01000000
00000000
00100000
00000000
,
00010000
00000000
00000000
00000000
01000000
00000000
00000000
00000000
00100000
00000000
00000000
10000000
01000000
00000000
00100000
00000000
,
00002000
00000000
00000000
00000000
00010000
00000000
00000000
00000000
00023000
00000000
00000000
00030200
00000000
00000000
00002300
00000000
,
00003001
00000010
00000100
00001000
00000010
00000100
00001000
00010000
,
00000100
00001000
00010000
00100000
00001000
00010000
00100000
10000000
,
00010000
01000000
00100000
00000000
00010000
00000000
00001000
00000000
00000100
00000010
00001000
00000000
00000001
00000000
00000010
00000000
,
00000100
00000000
00010000
00000000
00001000
00000000
00022000
00033000
,
00102000
00000000
00010000
00000000
01003000
00001000
00000000
00011000
,
00000000
00010000
00001000
00000010
00000001
00001000
00000100
00000000
,
00000120
00000000
00000001
00000000
00000031
00001000
00000000
00001100
,
00000000
00010000
00001000
00100000
00001000
00011000
00000000
00001000
,
02002000
00000000
03003000
00010000
00001000
00101000
00000000
10010000
,
00000000
10100000
00000000
01010000
00000000
11000000
00000000
01000000
,
00100000
00000000
00101000
00011000
00000000
00010010
00022000
00000000
,
00033000
00000000
00011000
00000000
00010000
00001000
00010000
00001000
00010000
00000000
00000100
00001000
00000001
00000100
00000010
00000000
,
00000220
00000000
00000000
00000000
00000330
00000000
00000001
00001000
00000010
00000000
00001010
00000000
00000000
00000000
00010010
00000000
,
00000000
00000000
00010000
00000000
00001000
00000000
00010000
00000000
00000000
00000000
01001000
00000000
00000000
00000000
00001000
00010000
,
00001000
00000000
00000000
00000000
00010000
00000010
00001000
00000000
00001010
00000000
00000000
00010010
00000000
00000000
00011000
00000000
,
00000000
00001000
00010000
01000000
00100000
00010000
10000000
01000000
,
11000000
00000000
00000000
01010000
00000000
00000000
00011000
00000000
00001010
00000000
00000000
00000011
00000000
00000000
00001001
00000000
,
00000000
00001000
00000100
00000002
00000000
00000103
00001001
00000000
,
00000001
00000010
00001000
00010000
01000000
00100000
00010000
01010000
,
00000000
11000000
00000000
10010000
10000000
01000000
00100000
00001000
,
00010000
00000000
00000000
00000000
00001000
00000000
00000000
00000000
00011000
00000000
00000000
00000010
00000000
00000000
00001000
00000000
,
00000001
00000000
00000000
00000000
00000100
00000000
00000000
00000000
00000110
00000000
00000000
00010000
00000000
00000000
00001000
00000000
,
01000000
00000000
00000000
00000000
00100000
00000000
00000000
00000000
10010000
00000000
00000000
01000000
00000000
00000000
00001000
00000000
,
00010000
00000000
00000000
00000000
00001000
00000000
00000000
00000000
00010010
00000000
00000000
00000010
00000000
00000000
00001000
00000000
,
00000002
00000000
00000000
00000000
00000100
00000000
00000000
00000000
00001000
00000000
00000000
00000010
00000000
00000000
00000103
00000000
,
00000020
00000000
00000000
00000000
00010000
00000000
00000000
00000000
00001000
00000000
00000000
00001000
00000000
00000000
00010030
00000000
,
00002000
00000000
00000000
00000000
00010000
00000000
00000000
00000000
00010000
00000000
00000000
01000000
00000000
00000000
00013000
00000000
,
00001000
00010000
00001000
00000000
00100000
00000000
00010000
10000000
00010000
01000000
00100000
00000000
10000000
00010000
00100000
00000000
,
00001000
00000000
00010000
00000000
00011000
00000000
00000000
00000000
00010010
00000000
00000000
00000010
00001000
00000000
00001001
00000000
,
00000000
00000000
00000001
00000000
00000010
00000000
00000100
00000000
00000010
00001000
00000000
00010000
01000000
00000000
00100000
00000000
,
00001000
00000000
00010000
00000000
00000010
00001000
00000100
00000000
00010100
00000000
00000000
00011000
00000000
00000000
01001000
00000000
,
00000000
00000000
00010000
00000000
10000000
00100000
01000000
00000000
00010000
10000000
00000000
10000000
01000000
00000000
00100000
00000000
,
00001000
00000000
00010000
00000000
00011000
00000000
00000000
00000000
00010000
00001000
00000000
00000100
00000010
00000000
00001000
00000000
,
00000100
00000000
00000010
00000000
00000001
00000000
00001000
00000000
00000010
00000000
00000100
00000001
00000000
00001000
00000100
00010000
,
00001000
00000000
00000000
00010010
00000000
00101000
00010100
00000000
,
00000000
00000000
01001000
00000000
00000000
00000000
00001000
00000000
00010000
00000000
00100000
01000000
00100000
10000000
00010000
00000000
,
20010000
00000000
00000000
00000000
,
32000000
00000000
00000000
00000000
,
03200000
00000000
00000000
00000000
,
00302000
00000000
00023000
00030000
,
00010020
00000000
00000000
00000000
,
00002030
00000000
00000000
00000000
,
00003200
00000000
00000000
00000000
,
00000320
00000000
00000032
00000003
,
00001000
00000000
00000001
00000000
00000010
00000000
00000100
00000010
00000001
00000000
00001000
00000000
00000010
00000000
00020000
00000000
,
00000000
00000000
00031000
00010000
00001000
00000000
02000000
00000000
00000000
00000000
03001000
00000000
00010000
00000000
00002000
00000000
,
00000000
00003010
00000100
00001000
00000010
00010000
00001000
00020000
,
00000000
00000000
01030000
00000000
00100000
00000000
00020000
00000000
00000000
00000000
10030000
00010000
01000000
00000000
00001000
00000000
,
00010000
00000000
00001000
00000000
00000100
00000000
00000010
00000100
00000001
00000000
00001000
00000000
00000100
00000000
00020000
00000000
,
00031000
00020000
00130000
02000000
03100000
20000000
30020000
00000000
,
10030000
01000000
10000000
00010000
00100000
00010000
00100000
00001000
00010000
00001000
00010000
00000100
00001000
00000100
00000020
00000000
,
00000000
00000000
00000001
00000000
00000000
00000000
00000031
00001000
00000001
00000000
00000000
00000000
00001001
00000000
00000000
00000000
,
00000001
00000000
00000100
00001000
00010000
00000000
00001000
00000100
00000001
00000000
00000010
00000000
00000100
00000010
00000001
00000000
,
00001000
00000000
00000100
00010000
00001000
00000000
01000000
00001000
00010000
00000000
00001000
00000000
00100000
00000000
00010000
00000000
,
10000000
00000000
01000000
00100000
10000000
00000000
00010000
00000000
01000000
00100000
00010000
00000000
10000000
00000000
00100000
00000000
,
00010000
00000000
00001000
00010000
00001000
00000000
00000100
00000000
00000010
00000000
00001000
00000001
00000010
00000000
00000100
00000000
,
00010000
00000000
00001000
00010000
00000010
00000000
00001000
00000010
00010000
00000000
00001000
00000000
00100000
00010000
01000000
00000000
,
00010000
00000000
10000000
00100000
01000000
00000000
00001000
00000000
00010000
00100000
01000000
00000000
00010000
00000000
10000000
00000000
,
00010000
00000000
10000000
01000000
00100000
00000000
00001000
00000000
00010000
00000100
00001000
00000000
00000001
00000000
00000200
00000000
,
00000000
00000310
00001001
00000000
00000001
00000010
00001000
00010000
,
00001000
00000000
00100000
01000000
00100000
00000000
00010000
00100000
01000000
00000000
10000000
00000000
00100000
01000000
00100000
00000000
,
00010000
00000000
00001000
00000100
00000010
00000000
00000100
00000001
00001000
00000001
00000010
00000000
00001000
00000000
00000010
00000000
,
00000100
00000000
00001000
00000001
00000100
00000000
00000010
00000000
00001010
00000000
00000000
00010010
00000000
00000000
00011000
00000000
,
00000000
00000000
00001000
00000000
00100000
00000000
00000000
00110000
00000000
00000000
00010000
10000000
00100000
00000000
01000000
00000000
,
00010000
00000000
10000000
00100000
00010000
00000000
00001000
00000000
00010000
00100000
10000000
00000000
01000000
00000000
00100000
01000000
,
00010000
00000000
00001000
00000010
00000100
00000000
00001000
00000010
00010000
00000000
00001000
00000000
00010000
00001000
00010000
00000000
,
00011000
00000000
00001000
00010010
00000000
00010000
00101000
00000000
,
00001000
00000000
00010100
00000000
00000000
00000000
00010000
00000000
01001000
00000000
00000000
00000000
00001000
00010000
00000010
00001000
,
00000001
00000000
00000000
00000000
00001000
00001001
00000000
00011000
,
00000000
00010000
00001000
00022000
00000000
00033000
00000000
20020000
,
00000000
00000000
00000000
00000000
,
00000000
00000000
00000000
00000000
,
30030000
00000000
00000000
00000000
;
