#VERSION:0.83;
#TITLE:Proof of the existence;
#ARTIST:猫叉Master+;
#ARTISTTRANSLIT:Nekomata Master+;
#GENRE:HARD ELECTRONICA;
#BANNER:Proof of the existence.png;
#BACKGROUND:Proof of the existence-bg.png;
#CDTITLE:./CDTitles/bm IIDX 20 tricoro.png;
#MUSIC:Proof of the existence.ogg;
#SAMPLESTART:91.754;
#SAMPLELENGTH:15;
#BPMS:0=170,131=340,132=170,194=340,196=170,256=340,260=170;
#DISPLAYBPM:170;
#STOPS:131=0.044,131.25=0.044,131.5=0.044,131.75=0.044,194=0.117,194.666667=0.118,195.333333=0.117,256=0.118,256.666667=0.118,257.333333=0.117,258=0.118,258.666667=0.118,259.333333=0.118;
#BGSTAGE:27;

//--------------- dance-single - Fred-104 ----------------
#NOTEDATA:;
#STEPSTYPE:dance-single;
#DESCRIPTION:Fred-104;
#DIFFICULTY:Beginner;
#METER:4;
#CREDIT:Fred-104;
#NOTES:
0000
0000
0000
0000
,
0000
0000
0000
0000
,
0000
0000
0000
0000
,
0000
0000
0000
0000
,
0000
0000
0000
0000
,
0000
0000
0000
0000
,
0000
0000
0000
0000
,
0000
0000
0000
0000
,
0000
0000
0000
0000
,
0002
0000
0000
0000
,
0000
0000
0003
0000
,
2000
0000
0000
0000
,
0000
0000
3000
0000
,
0002
0000
0000
0003
,
2000
0000
0000
3000
,
0002
0000
0000
0003
,
2002
0000
0000
3003
,
1000
0000
0010
0000
,
1000
1000
1000
0000
,
0001
0000
0100
0000
,
0010
0010
0010
0000
,
1000
0000
0100
0000
,
1000
1000
1000
0000
,
0001
0001
0001
0000
,
1000
1000
2000
3000
,
0001
0001
0000
0001
,
0000
0010
0000
0001
,
0000
0010
0000
0010
,
0000
0010
0000
0010
,
0000
0100
0000
0100
,
0000
1000
0000
1000
,
0000
0001
0000
1000
,
0000
1000
0000
2000
,
3000
1000
0000
1000
,
0000
0010
0000
1000
,
1000
1000
0000
0001
,
0000
0010
0000
0100
,
0100
0100
0000
0010
,
0000
0001
0001
0001
,
0001
0000
1000
0000
,
0001
0000
1000
1000
,
1000
0000
0000
0000
,
0100
0000
0000
0000
,
0010
0000
0000
0000
,
0001
0000
0000
0000
,
1000
0000
1000
0000
,
0001
0000
0001
0000
,
1000
0000
1000
0000
,
0001
0000
0000
0000
,
1000
0000
0010
0000
,
1000
0000
0100
0100
,
0100
0000
0010
0000
,
0010
0000
0001
0001
,
0001
0000
0010
0000
,
0001
0000
1000
1000
,
1000
0000
0001
0000
,
1000
1000
1000
0000
,
1001
0000
0000
0000
,
0200
0000
0300
0000
,
0200
0000
0300
0000
,
0200
0000
0300
0000
,
0020
0000
0030
0000
,
0020
0000
0030
0000
,
0002
0000
0003
0000
,
2002
0000
3003
0000
,
1000
0000
0010
0000
,
1000
0000
1000
0000
,
0100
0000
0100
0000
,
0010
0000
0010
0010
,
0010
0000
0001
0000
,
0001
0001
0001
0001
,
0001
0000
1000
0000
,
2002
0000
3003
0000
,
1000
0000
0010
0000
,
1000
1000
1000
0000
,
0100
0000
1000
0000
,
0010
0010
0010
0000
,
1000
0000
0001
0000
,
1000
1000
1000
1000
,
1000
0000
0001
0000
,
2002
0000
3003
0000
,
2000
0000
3000
0000
,
0002
0000
0003
0000
,
2000
0000
3000
0000
,
0002
0000
0003
0000
,
0200
0000
0300
0000
,
0020
0000
0030
0000
,
0200
0000
0300
0000
,
2002
0000
0000
0000
,
0000
0000
0000
0000
,
3003
0000
0000
0000
;

//--------------- dance-single - Fred-104 ----------------
#NOTEDATA:;
#STEPSTYPE:dance-single;
#DESCRIPTION:Fred-104;
#DIFFICULTY:Easy;
#METER:8;
#CREDIT:Fred-104;
#NOTES:
0000
0000
0000
0000
,
0000
0000
0000
0000
,
0000
0000
0000
0000
,
0000
0000
0000
0000
,
0000
0000
0000
0000
,
0000
0000
0000
0000
,
0000
0000
0000
0000
,
0000
0000
0000
0000
,
0000
0000
0000
0000
,
2000
0000
3020
0000
,
2030
0000
0000
0000
0000
0000
3001
0000
0001
0000
0001
0000
,
0200
0000
0320
0000
,
2030
0000
0000
0000
0000
0000
3100
0000
0100
0000
0100
0000
,
2000
0000
3020
0000
,
0230
0000
0000
0000
0000
0000
0301
0000
0001
0000
0010
0000
,
0002
0000
2003
3000
,
2002
0000
0000
3003
0000
0000
0000
0000
,
1000
0100
0000
0100
0000
1000
0000
1000
,
0000
0010
0000
1000
0000
0001
0000
0001
,
0000
0010
0000
0100
0000
0010
0000
0010
,
0000
0001
0000
0100
0000
0010
0000
0010
,
0000
1000
0000
0100
0000
0100
0000
1000
,
0000
0001
0000
0010
0000
0010
0000
0001
,
0000
1000
0000
0010
0000
1000
0000
0001
,
0000
1000
0000
1000
0002
2000
3003
0000
,
1001
0000
0100
0000
0010
0000
0001
0100
,
0001
0000
0100
0000
0010
0000
1000
0010
,
1000
0000
0001
0000
0100
0000
0010
0100
,
0010
0000
1000
0000
0001
1000
0001
0000
,
1000
0000
0100
0000
0010
0000
0100
0010
,
0100
0000
1000
0100
1000
0000
0001
0000
,
0100
0000
0100
0000
,
0010
0010
0110
0000
,
1000
0000
0100
0000
1000
0000
0001
0100
,
0010
0000
1000
0000
0100
0000
1000
0010
,
0100
0000
0010
0000
1000
0000
0001
1000
,
0100
0000
1000
0000
0001
0100
0001
0000
,
1000
0000
0100
0000
0010
0000
0100
0010
,
0001
0000
1000
0000
0010
0100
0010
0000
,
1000
0001
0010
0010
,
0001
0100
0110
0000
,
1000
0000
0100
0000
1000
0000
0010
0000
0100
0000
0001
0000
,
0100
0000
0010
0000
,
1000
0000
0010
0000
0100
0000
0001
0000
0100
0000
0001
0000
,
0010
0000
0001
0000
,
1000
0000
1000
0000
1000
0000
0001
0000
0001
0000
0001
0000
,
1000
0000
0001
0000
,
0100
0000
0100
0000
0010
0000
0100
0000
0010
0000
0100
0000
,
0100
0000
1001
0000
,
1000
0100
1000
0100
,
1000
0000
0010
0000
0100
0001
0100
0000
,
0001
0010
0100
1000
,
0001
0000
0100
0000
0010
0100
0010
0100
,
0010
1000
0001
1000
,
0100
0000
0010
0000
0001
1000
0100
0000
,
1000
0010
0100
0010
,
1000
0001
1000
0000
,
2001
0000
3000
0000
,
0200
0000
0300
0000
,
0002
0000
0003
0000
,
0020
0000
0030
0000
,
0002
0000
0003
0000
,
0200
0000
0300
0000
,
2000
0000
3000
0000
,
0002
0000
0000
0003
,
0001
0010
0100
0010
,
0001
0000
0100
0000
0001
0001
0001
0000
,
0100
0010
0100
0001
,
1000
0000
0010
0000
1000
1000
1000
0000
,
0001
0010
0001
0100
,
0010
1000
0100
1000
,
0001
0100
0010
1000
,
0002
0000
2003
0000
,
3001
0100
0001
0100
,
0010
0000
1000
0000
0100
0100
0100
0000
,
1000
0010
0100
0010
,
1000
0000
0100
0000
0010
0010
0010
0000
,
0100
1000
0001
0100
,
0110
0010
1000
0001
,
0012
0000
2003
0000
,
3020
0000
0230
0000
,
0302
0000
0000
0003
,
2000
0000
0000
3000
,
0020
0000
0000
0030
,
0200
0000
0000
0300
,
0002
0000
0000
0003
,
0020
0000
0000
0030
,
0200
0000
0000
0300
,
2002
0000
0000
0000
,
0000
0000
0000
0000
,
3003
0000
0000
0000
;

//--------------- dance-single - Fred-104 ----------------
#NOTEDATA:;
#STEPSTYPE:dance-single;
#DESCRIPTION:Fred-104;
#DIFFICULTY:Medium;
#METER:12;
#CREDIT:Fred-104;
#NOTES:
0000
0000
0000
0000
,
0000
0000
0000
0000
,
0000
0000
0000
0000
,
0000
0000
0000
0000
,
0000
0000
0000
0000
,
0000
0000
0000
0000
,
0000
0000
0000
0000
,
0000
0000
0000
0000
,
0000
0000
0000
0000
,
0002
0000
0023
0000
,
0230
0000
0000
0000
0000
0000
1300
0000
0010
0000
1000
0000
,
0200
0000
0320
0000
,
0230
0000
0000
0000
0000
0000
1300
0000
1000
0000
0100
0000
,
0020
0000
0032
0000
,
0203
0000
0000
0000
0000
0000
0310
0000
1000
0000
0001
0000
,
2000
0000
3002
0003
,
2002
0000
0000
3003
,
1000
0100
1000
0010
1000
0100
1000
0010
,
0100
0001
0010
0001
0100
0001
0010
0001
,
1000
0100
0010
0001
1000
0010
0100
0001
,
1000
0001
0010
0100
1000
0001
0010
0000
,
0100
0010
0001
1000
0010
0100
0010
1000
,
0001
0010
0100
0010
0100
1000
0010
0100
,
0001
0100
0001
1000
0100
0010
0001
1000
,
0010
0100
0010
0100
0010
0020
0000
0000
,
1030
0000
0000
1000
0100
0000
0000
0100
0010
0000
0000
0010
0001
0000
0100
0000
,
0010
0000
0000
0010
1000
0000
0000
1000
0001
0000
0000
0001
0100
0000
0010
0000
,
0100
0000
0000
0100
0001
0000
0000
0001
1000
0000
0000
1000
0100
0000
0020
0000
,
0000
0130
1000
0002
0000
0103
0010
1000
,
0001
0000
0000
1000
0100
0000
0000
0100
0010
0000
0000
0010
0100
0000
1000
0000
,
0001
0000
0100
0010
0010
1000
0001
0010
,
0100
0000
0010
0001
1000
0100
1000
0010
,
0000
0000
0000
0000
0000
0000
0000
0000
0100
0000
0000
0000
0000
0000
0000
0000
0010
0000
0000
0000
0000
0000
0000
0000
0100
0000
0000
0000
0000
0000
0000
0000
0000
0000
0000
0000
0000
0000
0000
0000
0010
0000
0000
0000
0000
0000
0000
0000
0200
0300
0000
0000
0020
0030
0000
0000
0200
0300
0000
0000
0020
0030
0000
0000
,
0100
0001
1000
0000
1000
0010
0100
0010
,
1000
0010
0001
0000
0010
0100
0001
1000
,
0100
0001
0100
0000
1000
0010
0100
0001
,
1000
0000
0100
0020
0000
0031
0100
0010
,
0100
0001
1000
0000
0010
0100
1000
0100
,
0010
1000
0002
0000
0013
0100
0001
0100
,
0010
0001
1000
0000
0100
1000
0001
1000
,
0000
1000
0010
0001
0000
0001
0010
1000
,
0001
0000
0010
0000
0100
0000
1000
0000
0010
0000
0100
0000
,
0002
0000
1003
0010
,
1000
0000
0100
0000
0010
0000
0001
0000
1000
0000
0010
0000
,
0200
0000
0301
0100
,
0001
0000
0010
0000
0001
0000
1000
0000
0010
0000
1000
0000
,
0001
0000
0001
0000
0100
0000
0010
0000
0010
0000
1000
0000
,
1100
0000
0100
0000
0010
0000
0011
0000
0001
0000
1000
0000
,
0110
0000
0000
0000
0000
0000
0000
0000
0000
0000
0000
0000
0000
0000
0000
0000
0000
0000
0000
0000
0000
0000
0000
0000
0000
0000
0000
0000
0000
0000
0000
0000
0100
0000
0000
0000
0000
0000
0000
0000
0000
0000
0000
0000
0000
0000
0000
0000
0000
0000
0000
0000
0000
0000
0000
0000
0000
0000
0000
0000
0000
0000
0000
0000
0010
0000
0000
0000
0000
0000
0000
0000
0000
0000
0000
0000
0000
0000
0000
0000
0000
0000
0000
0000
0000
0000
0000
0000
0000
0000
0000
0000
0000
0000
0000
0000
0210
0000
0000
0300
0000
0000
0000
0000
0000
0000
0000
0000
0000
0000
0000
0000
0000
0000
0000
0000
0000
0000
0000
0000
0000
0000
0000
0000
0000
0000
0000
0000
0200
0000
0000
0300
0000
0000
0000
0000
0000
0000
0000
0000
0000
0000
0000
0000
0000
0000
0000
0000
0000
0000
0000
0000
0000
0000
0000
0000
0000
0000
0000
0000
0200
0000
0000
0300
0000
0000
0000
0000
0000
0000
0000
0000
0000
0000
0000
0000
0000
0000
0000
0000
0000
0000
0000
0000
0000
0000
0000
0000
0000
0000
0000
0000
,
0001
0010
0000
0001
0100
0010
0000
1000
,
0010
0100
0000
0010
1000
0010
0100
0000
,
0001
0100
0000
0001
0100
0010
0000
1000
,
0001
0100
0000
0010
1000
0100
0010
0000
,
0001
0100
0000
0100
1000
0100
0000
0100
,
0001
0100
0000
0100
1000
0100
0001
0000
,
1000
0010
0000
0010
0001
0010
0000
0010
,
1000
0010
0001
0010
1000
0000
0001
0000
,
2001
0000
3200
0000
,
0302
0000
2003
0000
,
3020
0000
0032
0000
,
2003
0000
3002
0000
,
0203
0000
0320
0000
,
1030
0000
0100
0000
0100
0000
0001
0000
0010
0000
0010
0000
,
1000
0000
0100
0000
0010
0000
0001
0000
1000
0000
0010
0000
,
0200
0000
0000
0300
0000
0000
0000
0000
0000
0000
0000
0000
0000
0000
0000
0000
0000
0000
0000
0000
0000
0000
0000
0000
0000
0000
0000
0000
0000
0000
0000
0000
0200
0000
0000
0300
0000
0000
0000
0000
0000
0000
0000
0000
0000
0000
0000
0000
0000
0000
0000
0000
0000
0000
0000
0000
0000
0000
0000
0000
0000
0000
0000
0000
0200
0000
0000
0300
0000
0000
0000
0000
0000
0000
0000
0000
0000
0000
0000
0000
0000
0000
0000
0000
0000
0000
0000
0000
0000
0000
0000
0000
0000
0000
0000
0000
0020
0000
0000
0030
0000
0000
0000
0000
0000
0000
0000
0000
0000
0000
0000
0000
0000
0000
0000
0000
0000
0000
0000
0000
0000
0000
0000
0000
0000
0000
0000
0000
0020
0000
0000
0030
0000
0000
0000
0000
0000
0000
0000
0000
0000
0000
0000
0000
0000
0000
0000
0000
0000
0000
0000
0000
0000
0000
0000
0000
0000
0000
0000
0000
0020
0000
0000
0030
0000
0000
0000
0000
0000
0000
0000
0000
0000
0000
0000
0000
0000
0000
0000
0000
0000
0000
0000
0000
0000
0000
0000
0000
0000
0000
0000
0000
,
1000
0010
1000
0100
1000
0010
0100
0001
,
0010
0001
0100
0001
1000
0100
0010
0000
,
0001
0100
0001
0010
0001
0100
0001
0010
,
0100
1000
0010
0100
0001
1000
0100
0000
,
0010
0100
1000
0010
0100
0001
0100
0010
,
2000
3020
0230
0302
,
1003
1100
0001
0101
,
0100
0000
0110
0000
0010
0100
0100
0100
,
0010
0001
1000
0010
0100
0010
1000
0001
,
0010
0100
1000
0001
0100
1000
0100
0000
,
0001
1000
0100
0001
0100
1000
0001
0010
,
0100
0010
0001
0100
0010
1000
0001
0000
,
1000
0010
0200
0000
0301
0010
0200
0000
,
1300
0010
1000
0001
0100
0010
1000
0001
,
1000
0000
0000
0000
0001
0000
0000
0000
0010
0000
0000
0000
0100
0000
0000
1000
0000
0000
0001
0000
0000
0100
0000
0000
,
0010
0000
0000
1000
0000
0000
0010
0000
0000
1000
0000
0000
0001
0000
0000
0000
0000
0000
0000
0000
0000
0000
0000
0000
2001
0000
0000
0000
0000
0000
0000
0000
0000
0000
0000
0000
3001
0000
0000
0000
1000
0000
0000
0000
0001
0000
0000
0000
,
2000
0000
0000
0000
,
3200
0000
0000
0000
,
0302
0000
0000
0000
,
0023
0000
0000
0030
,
2020
0000
0000
3030
,
0022
0000
0000
0033
,
2200
0000
0000
3300
,
2002
0000
0000
0000
,
0000
0000
0000
0000
,
3003
0000
0000
0000
;

//--------------- dance-single - Fred-104 ----------------
#NOTEDATA:;
#STEPSTYPE:dance-single;
#DESCRIPTION:Fred-104;
#DIFFICULTY:Hard;
#METER:16;
#CREDIT:Fred-104;
#NOTES:
0000
0000
0000
0000
,
0000
0000
0000
0000
,
0000
0000
0000
0000
,
0000
0000
0000
0000
,
0000
0000
0000
0000
,
0000
0000
0000
0000
,
0000
0000
0000
0000
,
0000
0000
0000
0000
,
0000
0000
0000
0000
,
2002
0000
0000
0000
,
0003
0000
0000
0000
0000
0000
3010
0000
0010
0000
0100
0000
,
0002
0000
0000
0000
,
0000
0000
0000
0000
0000
0000
0013
0000
0010
0000
0100
0000
,
2000
0000
0000
0000
,
3200
0000
0000
0000
0000
0000
0310
0000
0010
0000
0001
0000
,
0200
0000
0010
0300
,
2002
0000
0000
0000
0000
0000
0000
3003
,
1000
0000
0010
1000
0010
0000
0100
0000
0001
0000
0100
0001
0100
0000
0010
0000
,
1000
0000
0001
0010
0001
0000
0010
0000
0100
0000
1000
0100
1000
0000
0010
0000
,
0100
0000
0001
0100
0010
0000
1000
0000
0100
0000
0010
0001
1000
0000
0010
0000
,
0100
0000
0001
1000
0100
0000
0010
0000
0100
0000
1000
0001
0100
0000
0010
0000
,
1000
0000
0100
1000
0100
0000
0010
0100
0010
0000
0001
0010
0001
0000
1000
0001
,
1000
0000
0001
0100
0001
0000
0100
0010
0100
0000
0010
1000
0010
0000
1000
0001
,
1000
0000
0001
0100
0010
0000
1000
0100
0010
0000
0001
0100
0010
0000
1000
0010
,
0100
0001
0100
0001
1000
0100
0010
0001
0100
0010
0200
0000
0000
0000
0000
0000
,
0301
0000
1000
0100
1000
0000
0001
0000
0100
0000
0010
0100
0010
0000
1000
0000
,
0001
0000
0000
0000
0000
0000
0010
0000
0000
0001
0000
0000
0010
0000
0000
0000
0000
0000
0001
0000
0000
0000
0000
0000
0100
0000
0000
0000
0000
0000
0010
0000
0000
0000
0000
0000
1000
0000
0001
0000
1000
0000
0001
0000
0000
0000
0000
0000
,
1000
0000
0100
1000
0100
0000
0010
0000
0001
0000
0100
0001
0100
0000
0020
0000
,
0000
0000
0000
1000
0000
0000
0000
0000
0000
0130
0000
0000
0001
0000
0000
0010
0000
0000
0100
1000
0100
1000
0000
0000
,
0001
0000
1000
0100
1000
0000
0100
0000
0010
0000
0001
0100
0001
0000
0100
0000
,
0010
0000
1000
0010
1000
0000
0001
0010
0200
0000
2300
0000
3002
0000
2003
0000
,
3100
0000
0010
0100
0010
0000
0001
0000
1000
0000
0010
0000
0100
0000
0002
0000
,
0000
0000
0000
0000
0000
0000
0000
0000
0103
0000
0000
0000
0001
0000
0000
0000
0100
0000
0000
0000
0000
0000
0000
0000
0020
0000
0000
0000
0000
0000
0000
0000
0000
0000
0000
0000
0000
0000
0000
0000
0130
0000
0000
0000
0010
0000
0000
0000
0200
0300
0000
0000
0020
0030
0000
0000
0200
0300
0000
0000
0020
0030
0000
0000
,
0100
0000
0001
0100
0010
0000
1000
0000
0100
0000
0010
0001
1000
0000
0010
0000
,
0100
0000
0000
0000
0000
0000
0001
0000
0000
1000
0000
0000
0100
0000
0000
0000
0000
0000
0010
0000
0000
0000
0000
0000
0100
0000
0000
0000
0000
0000
1000
0000
0000
0000
0000
0000
0001
0000
1000
0000
0001
0000
1000
0000
0000
0000
0000
0000
,
0010
0000
1000
0100
0010
0000
0001
0000
1000
0000
0010
0100
0001
0000
0200
0000
,
0000
0000
0000
0001
0000
0000
0000
0000
0000
0310
0000
0000
0100
0000
0000
0001
0000
0000
1000
0010
1000
0010
0000
0000
,
0100
0000
0001
0010
0100
0000
0010
0000
0001
0000
1000
0010
0100
0000
0010
0000
,
1000
0000
0001
0100
0010
0000
1000
0001
2000
0000
3200
0000
0302
0000
0203
0000
,
1300
0000
0100
0010
0100
0000
1000
0000
0001
0000
0010
0100
0010
0000
0012
0000
,
0000
0000
0000
0000
0000
0000
1003
0000
0001
0000
0100
0000
0001
0000
0000
0000
0000
0000
1002
0000
0000
0000
0000
0000
0000
0000
0000
0000
0000
0000
1003
0000
0000
0100
0000
0000
1000
0000
0000
0001
0000
0000
1000
0000
0000
0001
0000
0000
,
1000
0000
1100
0000
0110
0000
0001
0000
0101
0000
0110
0000
,
2000
0000
0100
3000
0020
0000
0100
0030
,
1000
0000
1010
0000
0110
0000
0001
0000
0011
0000
0110
0000
,
2000
0000
0100
3000
0002
0000
0010
0003
,
1000
0000
1010
0000
1010
0000
0001
0000
0011
0000
0011
0000
,
1000
0000
1100
0000
1100
0000
0001
0000
0101
0000
0101
0000
,
1000
0000
1100
0000
0101
0000
0001
0000
0011
0000
1010
0000
,
1000
0000
0000
0000
0000
0000
0000
0000
0000
0000
0000
0000
0000
0000
0000
0000
0000
0000
0000
0000
0000
0000
0000
0000
0000
0000
0000
0000
0000
0000
0000
0000
0100
0000
0000
0000
0000
0000
0000
0000
0000
0000
0000
0000
0000
0000
0000
0000
0000
0000
0000
0000
0000
0000
0000
0000
0000
0000
0000
0000
0000
0000
0000
0000
0010
0000
0000
0000
0000
0000
0000
0000
0000
0000
0000
0000
0000
0000
0000
0000
0000
0000
0000
0000
0000
0000
0000
0000
0000
0000
0000
0000
0000
0000
0000
0000
0220
0000
0000
0330
0000
0000
0000
0000
0000
0000
0000
0000
0000
0000
0000
0000
0000
0000
0000
0000
0000
0000
0000
0000
0000
0000
0000
0000
0000
0000
0000
0000
0220
0000
0000
0330
0000
0000
0000
0000
0000
0000
0000
0000
0000
0000
0000
0000
0000
0000
0000
0000
0000
0000
0000
0000
0000
0000
0000
0000
0000
0000
0000
0000
2002
0000
0000
3003
0000
0000
0000
0000
0000
0000
0000
0000
0000
0000
0000
0000
0000
0000
0000
0000
0000
0000
0000
0000
0000
0000
0000
0000
0000
0000
0000
0000
,
1000
0000
0100
0010
0001
0000
1000
0010
0100
0000
0001
0010
0001
0000
1000
0000
,
0001
0000
1000
0100
1000
0000
0010
0100
0001
1000
0001
0000
0100
0000
0010
0000
,
1000
0000
0001
0100
0001
0000
1000
0100
0010
0000
0001
0100
0010
0000
1000
0000
,
0001
0000
0010
0001
1000
0000
0010
1000
0001
0100
0001
0000
0100
0010
0100
0010
,
1000
0000
0001
0010
0001
0000
1000
0010
0100
0000
0001
1000
0100
0000
0010
0000
,
0100
0000
1000
0010
0100
0000
0001
0010
0100
1000
0010
0000
0100
0000
0001
0100
,
0001
0000
1000
0010
0100
0000
0001
0010
0100
0000
1000
0001
0100
0000
0010
0000
,
1000
0100
0010
1000
0010
0001
1000
0000
,
2001
0000
3002
0000
,
0023
0000
0230
0000
,
0320
0000
0032
0000
,
2003
0000
3002
0000
,
1003
0100
0002
0000
,
1003
0000
0000
0010
0000
0000
0001
0000
0100
0000
1000
0000
,
0001
0000
0010
0000
1000
0000
0100
0000
0001
0000
1000
0000
,
2200
0000
0000
3300
0000
0000
0000
0000
0000
0000
0000
0000
0000
0000
0000
0000
0000
0000
0000
0000
0000
0000
0000
0000
0000
0000
0000
0000
0000
0000
0000
0000
2200
0000
0000
3300
0000
0000
0000
0000
0000
0000
0000
0000
0000
0000
0000
0000
0000
0000
0000
0000
0000
0000
0000
0000
0000
0000
0000
0000
0000
0000
0000
0000
2200
0000
0000
3300
0000
0000
0000
0000
0000
0000
0000
0000
0000
0000
0000
0000
0000
0000
0000
0000
0000
0000
0000
0000
0000
0000
0000
0000
0000
0000
0000
0000
0022
0000
0000
0033
0000
0000
0000
0000
0000
0000
0000
0000
0000
0000
0000
0000
0000
0000
0000
0000
0000
0000
0000
0000
0000
0000
0000
0000
0000
0000
0000
0000
0022
0000
0000
0033
0000
0000
0000
0000
0000
0000
0000
0000
0000
0000
0000
0000
0000
0000
0000
0000
0000
0000
0000
0000
0000
0000
0000
0000
0000
0000
0000
0000
2002
0000
0000
3003
0000
0000
0000
0000
0000
0000
0000
0000
0000
0000
0000
0000
0000
0000
0000
0000
0000
0000
0000
0000
0000
0000
0000
0000
0000
0000
0000
0000
,
0001
0000
0100
0010
1000
0000
0010
0100
0001
0000
1000
0100
0010
0000
0001
0000
,
1000
0000
0100
1000
0100
0000
0010
0001
0010
0001
1000
0000
0010
0000
0100
0000
,
0001
0000
1000
0100
0010
0000
0100
1000
0010
0000
0100
0001
1000
0000
0100
0000
,
0010
0000
0001
1000
0001
0000
0010
0001
1000
0100
1000
0100
1000
0000
0001
0000
,
0100
0000
0001
0100
0010
0000
1000
0001
0100
0000
0010
0100
0010
0000
1000
0000
,
0001
0010
0001
0000
0010
0100
0010
0000
0100
1000
0100
0000
1000
0001
1000
0000
,
0001
0000
0100
0010
1000
0000
0001
1000
0100
0000
0010
0001
1000
0000
0001
0000
,
2000
0000
0010
0000
3001
0100
0010
1000
,
1001
0000
0001
1000
0100
0000
1000
0001
0100
0000
0010
1000
0001
0000
0010
0100
,
1000
0000
0001
0100
0010
0000
1000
0010
0100
0000
0001
0010
0001
0000
1000
0010
,
0100
0000
0001
1000
0100
0000
0010
0001
1000
0000
0010
0100
0010
0000
1000
0001
,
0100
0000
0010
1000
0001
0000
0010
0100
1000
0100
1000
0001
0100
0000
0010
0000
,
2000
0000
3100
0001
0100
0000
0010
0000
0002
0000
0103
1000
0100
0000
0010
0000
,
2000
3100
0002
0103
2000
3010
0002
0013
,
1001
0000
0000
0000
1000
0000
0000
0000
0010
0000
0000
0000
0100
0000
0000
0100
0000
0000
0001
0000
0000
0001
0000
0000
,
1000
0000
0000
0001
0000
0000
0100
0000
0000
0001
0000
0000
1000
0000
0000
0000
0000
0000
0010
0000
0000
0000
0000
0000
1000
0000
0010
0000
1000
0000
0010
0000
1000
0000
0010
0000
1000
0000
0000
0000
0100
0000
0000
0000
0010
0000
0000
0000
,
0002
0000
0023
0000
,
2030
0000
3200
0000
,
0302
0000
0203
0000
,
2300
0000
3020
0030
,
0022
0033
2020
3030
,
0202
0303
2200
3300
,
0020
0030
0200
0300
,
2002
0000
0000
0000
,
0000
0000
0000
0000
,
3003
0000
0000
0000
;

//--------------- dance-single - Fred-104† ----------------
#NOTEDATA:;
#STEPSTYPE:dance-single;
#DESCRIPTION:Fred-104†;
#DIFFICULTY:Challenge;
#METER:18;
#CREDIT:Fred-104†;
#NOTES:
0000
0000
0000
0000
,
0000
0000
0000
0000
,
0000
0000
0000
0000
,
0000
0000
0000
0000
,
0000
0000
0000
0000
,
0000
0000
0000
0000
,
0000
0000
0000
0000
,
0000
0000
0000
0000
,
0000
0000
0000
0000
,
1010
0000
0010
0000
0000
0000
0010
0000
0000
0000
0010
0000
0000
0000
1000
0001
,
0010
0000
0000
0001
0000
0000
0000
0000
0000
0001
0000
0000
1000
0000
0000
0000
1000
0000
0000
0000
1000
0000
0000
0000
,
0001
0000
0001
0000
0000
0000
0100
0000
0000
0000
0100
0000
0000
0000
0100
0010
,
1000
0000
0000
0010
0000
0000
0000
0000
0000
0010
0000
0000
1000
0000
0000
0000
1000
0000
0000
0000
1000
0000
0000
0000
,
0010
0000
1000
0000
0000
0000
0001
0000
0000
0000
0001
0000
0000
0000
0010
0001
,
0100
0000
0000
0010
0000
0000
0000
0000
0000
0010
0000
0000
0100
0000
0000
0000
0100
0000
0000
0000
0100
0000
0000
0000
,
0010
0000
1000
0000
1000
0000
0001
0000
1000
0000
0001
0000
,
2000
0000
0000
0002
0000
0000
3003
0000
,
1000
0000
0001
0100
0020
0000
1000
0100
0030
0000
0001
1000
0010
0000
0100
0000
,
0001
0000
0010
0001
0200
0000
0010
1000
0300
0000
0010
0001
1000
0000
0001
0000
,
1000
0000
0100
1000
0020
0000
0100
0001
0030
0000
0100
1000
0001
0000
0100
0000
,
0001
0000
0100
0001
0020
0000
0001
0100
0030
0000
1000
0100
0010
0000
0001
0000
,
1000
0000
0010
1000
0001
0000
1000
0100
0010
0000
0001
0010
0100
0000
1000
0001
,
0100
0000
0001
0010
1000
0000
0010
0001
0100
0000
0010
1000
0100
0000
0010
0001
,
1000
0010
1000
0100
1000
0010
0100
0001
0100
0001
0010
0001
0100
0001
0010
0100
,
1000
0001
0100
1000
0100
0001
1000
0010
0100
0001
2000
0000
0000
0000
3000
0000
,
1001
0000
0001
0010
0100
0000
1000
0010
0100
0000
0001
1000
0100
0000
0010
0000
,
0011
0000
0000
0000
0000
0000
0001
0000
0000
1000
0000
0000
0010
0000
0000
0000
0000
0000
1000
0000
0000
0100
0000
0000
0010
0000
0000
0000
0000
0000
0001
0000
0000
0000
0000
0000
1000
0000
0010
0000
0100
0000
0010
0000
0000
0000
0000
0000
,
1010
0000
1000
0100
0010
0000
0100
1000
0010
0000
1000
0100
0010
0000
0001
0000
,
0011
0000
0000
0000
0000
0000
0001
0000
0000
1000
0000
0000
0010
0000
0000
0000
0000
0000
0200
0000
0000
0000
0000
0000
0000
0000
0000
0000
0000
0000
0301
0000
0000
0000
0000
0000
1000
0000
0010
0000
1000
0000
0100
0000
0000
0000
0000
0000
,
0110
0000
0010
0001
1000
0000
0010
1000
0001
0000
1000
0100
0010
0000
0001
0000
,
1001
0000
0000
0000
0000
0000
1000
0000
0000
0100
0000
0000
1000
0000
0000
0000
0000
0000
0001
0000
0100
0000
0010
0000
2000
0000
0000
0000
0000
0000
3002
0000
0000
0000
0000
0000
0203
0000
0000
0000
0000
0000
0320
0000
0000
0000
0000
0000
,
1030
0000
0010
1000
0100
0000
0110
0000
0010
0000
0001
0100
0010
0000
1010
0000
,
1000
0000
0000
0000
0000
0000
0000
0000
0000
0000
0000
0000
0000
0000
0000
0000
0000
0000
0000
0000
0000
0000
0000
0000
0001
0000
0000
0000
0000
0000
0000
0000
0100
0000
0000
0000
0000
0000
0000
0000
0010
0000
0000
0000
0000
0000
0000
0000
0100
0000
0000
0000
0000
0000
0000
0000
0000
0000
0000
0000
0000
0000
0000
0000
0000
0000
0000
0000
0000
0000
0000
0000
0001
0000
0000
0000
0000
0000
0000
0000
0000
0000
0000
0000
0000
0000
0000
0000
0000
0000
0000
0000
0000
0000
0000
0000
1001
0000
0000
0000
0000
0000
0000
0000
0000
0000
0000
0000
0000
0000
0000
0000
0000
0000
0000
0000
0000
0000
0000
0000
0001
0000
0000
0000
0000
0000
0000
0000
0000
0000
0000
0000
0200
0000
0000
0300
0000
0000
0000
0000
0000
0000
0000
0000
0200
0000
0000
0300
0000
0000
0000
0000
0000
0000
0000
0000
2000
0000
0000
3000
0000
0000
0000
0000
0000
0000
0000
0000
0020
0000
0000
0030
0000
0000
0000
0000
0000
0000
0000
0000
0200
0000
0000
0300
0000
0000
0000
0000
0000
0000
0000
0000
,
0001
0000
1000
0100
0010
0000
0100
1000
0001
0100
0010
0100
0001
0000
1000
0000
,
1100
0000
0000
0000
0000
0000
1000
0000
0000
0010
0000
0000
0100
0000
0000
0000
0000
0000
0010
0000
0000
1000
0000
0000
0100
0000
0000
1000
0000
0000
0010
0000
0000
0100
0000
0000
0001
0000
0010
0000
0001
0000
1000
0000
0000
0000
0000
0000
,
1100
0000
1000
0100
0010
0000
0001
0010
0100
1000
0001
0100
0001
0000
1001
0000
,
1000
0000
0000
0000
0000
0000
0100
0000
0000
0010
0000
0000
0001
0000
0000
0000
0000
0000
0012
0000
0000
0000
0000
0000
0000
0000
0000
0000
0000
0000
1003
0000
0000
0000
0000
0000
0001
0000
0010
0000
0100
0000
1000
0000
0001
0000
0100
0000
,
0001
0000
1000
0001
0010
0000
0100
1000
0001
0000
0100
0010
1000
0000
0100
0000
,
0110
0000
0000
0000
0000
0000
0000
0000
0000
0000
0000
0000
0000
0000
0000
0000
0000
0000
0000
0000
0000
0000
0000
0000
0010
0000
0000
0000
0000
0000
0000
0000
0000
0000
0000
0000
0001
0000
0000
0000
0000
0000
0000
0000
0000
0000
0000
0000
1000
0000
0000
0000
0000
0000
0000
0000
0000
0000
0000
0000
0000
0000
0000
0000
0000
0000
0000
0000
0000
0000
0000
0000
0001
0000
0000
0000
0000
0000
0000
0000
1000
0000
0000
0000
0000
0000
0000
0000
0001
0000
0000
0000
0000
0000
0000
0000
0020
0000
0000
0000
0000
0000
0000
0000
0000
0000
0000
0000
0000
0000
0000
0000
0000
0000
0000
0000
0000
0000
0000
0000
0032
0000
0000
0000
0000
0000
0000
0000
0000
0000
0000
0000
0000
0000
0000
0000
0000
0000
0000
0000
0000
0000
0000
0000
2003
0000
0000
0000
0000
0000
0000
0000
0000
0000
0000
0000
0000
0000
0000
0000
0000
0000
0000
0000
0000
0000
0000
0000
3020
0000
0000
0000
0000
0000
0000
0000
0000
0000
0000
0000
0000
0000
0000
0000
0000
0000
0000
0000
0000
0030
0000
0000
,
0110
0000
0010
1000
0001
0000
1000
0100
0010
0000
0001
1000
0001
0000
0101
0000
,
0100
0000
0000
0000
0000
0000
0010
0000
1000
0000
0010
0000
0100
0000
0000
0000
0000
0000
0120
0000
0000
0000
0000
0000
0000
0000
0000
0000
0000
0000
0130
0000
0000
0001
0000
0000
1000
0000
0100
0000
0010
0000
0001
0000
0100
0000
0010
0000
,
1000
0000
0000
0000
1010
0000
0000
0000
0010
1000
0001
0100
0001
0000
0000
0000
0011
0000
0000
0000
0110
0000
0000
0000
,
0200
0000
0000
0010
0000
0000
0310
0000
1000
0000
0001
0000
,
0010
0000
0000
0000
0011
0000
0000
0000
0001
1000
0001
0100
0010
0000
0000
0000
1010
0000
0000
0000
1100
0000
0000
0000
,
0200
0000
0000
0010
0000
0000
2300
0000
0000
3001
0010
0100
,
1000
0010
0100
0010
1000
0000
0000
0000
0001
0010
0100
1000
0001
0000
0000
0000
0011
0000
0000
0000
1001
0000
0000
0000
,
1100
0000
0000
0000
0101
0000
0000
0000
1000
0001
0100
0001
1000
0000
0000
0000
1010
0000
0000
0000
1001
0000
0000
0000
,
0011
0000
0000
0000
1001
0000
0000
0000
0001
0100
0010
0100
0001
0000
0000
0000
0001
0010
0100
1000
0100
0010
0001
1000
,
0001
0000
0000
0000
0011
0000
0000
0000
0001
0100
0010
1000
0020
0030
0000
0000
0220
0330
0000
0000
2002
3003
0000
0000
,
1000
0000
0000
0000
0000
0000
0010
0000
0000
1000
0000
0000
0100
0000
0000
0000
0000
0000
0010
0000
0001
0000
1000
0000
0001
0000
0000
0000
0000
0000
0100
0000
0000
0001
0000
0000
0100
0000
0000
0000
0000
0000
0010
0000
0000
0000
0000
0000
,
1000
0000
0001
1000
0100
0000
1000
0100
0010
0001
0010
0100
1000
0001
0100
0001
,
0100
0000
0000
0000
0000
0000
0001
0000
0000
0010
0000
0000
0100
0000
0000
0000
0000
0000
1000
0000
0001
0000
1000
0000
0100
0000
0000
0000
0000
0000
1000
0000
0000
0010
0000
0000
0100
0000
0000
0001
0000
0000
1000
0000
0000
0000
0000
0000
,
0001
0000
0000
0010
0100
0010
0001
0000
0000
1000
0010
0100
0001
0000
0100
0000
0100
0000
1000
0000
0100
0000
0100
0000
,
0001
0000
0000
0000
0000
0000
1000
0000
0000
0010
0000
0000
0100
0000
0000
0000
0000
0000
0001
0000
0010
0000
0100
0000
1000
0000
0000
0000
0000
0000
0001
0000
0000
0100
0000
0000
1000
0000
0000
0100
0000
0000
0010
0000
0000
0000
0000
0000
,
1000
0001
0010
0000
0001
1000
0010
0000
0100
0001
0010
0100
1000
0001
0100
0001
,
1000
0000
0000
0000
0000
0000
0001
0000
0000
1000
0000
0000
0100
0000
0000
0000
0000
0000
1000
0000
0010
0000
0100
0000
0001
0000
0000
0000
0000
0000
1000
0000
0000
0100
0000
0000
0010
0000
0000
0001
0000
0000
1000
0000
0000
0000
0000
0000
,
0001
0100
1000
0001
0010
1000
1001
0000
,
2100
0000
3020
0000
,
0230
0000
0302
0000
,
0203
0000
2300
0000
,
3200
0000
0302
0000
,
0023
0000
0032
0000
,
2003
0000
0000
0000
0000
0000
3001
0000
0100
0000
1000
0000
,
0001
0000
0010
0000
1000
0000
0001
0000
1000
0000
0001
0000
,
2200
3300
0000
0000
0022
0033
0000
0000
2020
3030
0000
0000
0202
0303
0000
0000
0220
0330
0000
0000
2002
3003
0000
0000
,
2000
0000
3010
1000
0100
0000
0010
0001
0200
0000
0310
1000
0100
0000
0010
0001
,
2000
0000
3001
0010
0200
0000
0301
0100
2000
3010
0100
0001
2000
0000
3010
0000
,
2000
0000
3001
0100
0010
0000
1000
0100
0020
0000
1030
0010
0001
0000
1000
0001
,
0020
0000
0031
1000
0100
0000
1000
0010
0200
0301
1000
0001
0020
0000
0130
0000
,
2000
0000
3001
1000
0100
0000
0010
0001
2000
0000
3001
0010
0100
0000
1000
0000
,
0002
0103
0010
0001
0020
1030
0001
0000
2000
3001
0010
1000
0020
0130
1000
0000
,
0002
0000
0103
1000
0200
0000
0301
0010
0200
0000
1300
0010
0200
0000
0310
1000
,
0002
0000
0100
0000
1003
0000
1001
0001
,
2000
3010
0001
0010
0100
0001
1000
0000
0002
0013
1000
0010
0100
1000
0001
0000
,
2000
3100
0010
0001
0020
1030
0010
0001
2000
3001
0100
0010
2000
0000
3001
0000
,
2000
3100
0010
0001
0100
1000
0100
0000
0002
0013
0100
1000
0010
0100
0001
0000
,
2000
3100
0010
0001
0200
0310
0001
0010
0200
1300
0100
0010
2000
0000
3001
0000
,
2000
3010
0100
0001
0100
1000
0100
0001
2000
3100
0010
1000
0010
0100
1000
0001
,
2000
0000
3100
0010
0002
0000
1003
0100
0020
0000
0031
0010
0200
0000
1300
0000
,
1100
0000
0000
0000
0101
0000
0000
0000
1100
0000
0000
0000
0001
0000
0000
0100
0000
0000
0010
0000
0000
1000
0000
0000
,
0001
0010
0001
1000
0010
0100
0001
0000
0000
1000
0000
0000
0001
0010
0100
1000
0001
1000
0100
0000
0010
0000
0100
0000
,
2001
0000
3020
0000
,
0230
0000
0302
0000
,
2003
0000
3002
0000
,
0203
0000
0020
0330
,
2200
3300
0202
0303
,
2020
3030
0022
0033
,
0220
0330
2002
3003
,
2020
0000
0000
0000
,
0000
0000
0000
0000
,
3030
0000
0000
0000
;

//--------------- dance-double - Fred-104 ----------------
#NOTEDATA:;
#STEPSTYPE:dance-double;
#DESCRIPTION:Fred-104;
#DIFFICULTY:Easy;
#METER:9;
#CREDIT:Fred-104;
#NOTES:
00000000
00000000
00000000
00000000
,
00000000
00000000
00000000
00000000
,
00000000
00000000
00000000
00000000
,
00000000
00000000
00000000
00000000
,
00000000
00000000
00000000
00000000
,
00000000
00000000
00000000
00000000
,
00000000
00000000
00000000
00000000
,
00000000
00000000
00000000
00000000
,
00000000
00000000
00000000
00000000
,
00000002
00000000
00000000
00000003
,
00000200
00000000
00000000
00000300
,
00002000
00000000
00000000
00003000
,
00020000
00000000
00000000
00030000
,
02000000
00000000
00000000
03000000
,
00200000
00000000
00000000
00300000
,
20000000
00000000
00000000
30000000
,
20020000
00000000
00000000
30030000
00000000
00000000
00000000
00000000
,
01000000
00100000
00000000
00010000
00000000
00001000
00000000
00001000
,
00000000
00000100
00000000
00000001
00000000
00000001
00000000
00001000
,
00000000
00000010
00000000
00000100
00000000
00000100
00000000
00010000
,
00000000
00001000
00000000
00100000
00000000
00010000
00000000
00010000
,
00000000
01000000
00000000
00100000
00000000
00100000
00000000
10000000
,
00000000
01000000
00000000
00100000
00000000
01000000
00000000
10000000
,
00000000
00100000
00000000
01000000
00000000
00010000
00000000
00100000
,
00000000
00001000
00000000
00010000
00002000
00020000
00033000
00000000
,
00011000
00000000
00001000
00000000
00000100
00000000
00000010
00000100
,
00000010
00000000
00000001
00000000
00001000
00000000
00000001
00000100
,
00000001
00000000
00000100
00000000
00001000
00000000
00010000
00001000
,
00010000
00000000
00100000
00000000
10000000
00100000
10000000
00000000
,
00100000
00000000
01000000
00000000
00010000
00000000
00100000
00001000
,
00010000
00000000
00001000
00010000
00001000
00000000
00000100
00000000
,
00000010
00000000
00000100
00000000
,
00000001
00000100
00000110
00000000
,
00001000
00000000
00010000
00000000
00001000
00000000
00100000
00010000
,
10000000
00000000
01000000
00000000
00100000
00000000
01000000
00100000
,
01000000
00000000
10000000
00000000
00100000
00000000
01000000
00010000
,
01000000
00000000
00010000
00000000
00001000
00010000
00001000
00000000
,
00010000
00000000
00001000
00000000
00000100
00000000
00000001
00000100
,
00000001
00000000
00000100
00000000
00000010
00001000
00000100
00000000
,
00010000
00001000
00100000
01000000
,
00100000
00001000
00011000
00000000
,
00001000
00000000
00001000
00000000
00010000
00000000
00100000
00000000
00100000
00000000
01000000
00000000
,
00100000
00000000
10000000
00000000
,
01000000
00000000
01000000
00000000
00010000
00000000
00001000
00000000
00001000
00000000
00000100
00000000
,
00000010
00000000
00000001
00000000
,
00000100
00000000
00000100
00000000
00000010
00000000
00000100
00000000
00000001
00000000
00001000
00000000
,
00000100
00000000
00010000
00000000
,
00001000
00000000
00010000
00000000
00100000
00000000
01000000
00000000
10000000
00000000
00100000
00000000
,
01000000
00000000
10010000
00000000
,
01000000
01000000
00010000
00001000
,
00010000
00000000
00001000
00000000
00000100
00000010
00000100
00000000
,
00000001
00000100
00000010
00000010
,
00001000
00000000
00000100
00000000
00010000
00001000
00100000
00010000
,
10000000
00100000
01000000
01000000
,
00100000
00000000
10000000
00000000
01000000
00100000
00010000
00000000
,
00001000
00010000
00000100
00010000
,
00001000
00010000
00011000
00000000
,
00001002
00000000
00000003
00000000
,
00000020
00000000
00000030
00000000
,
00002000
00000000
00003000
00000000
,
00020000
00000000
00030000
00000000
,
00200000
00000000
00300000
00000000
,
20000000
00000000
30000000
00000000
,
02000000
00000000
03000000
00000000
,
00020000
00000000
00000000
00030000
,
00010000
00010000
00001000
00000100
,
00000001
00000000
00000100
00000000
00000010
00000100
00000010
00000000
,
00000100
00000100
00001000
00010000
,
00010000
00000000
01000000
00000000
00100000
01000000
00100000
01000000
,
10000000
01000000
01000000
00100000
,
00001000
00010000
00001000
00010000
,
00001000
00000100
00000001
00001000
,
00000002
00000000
00000203
00000320
,
00010030
00000000
00001000
00000000
00100000
00000000
00010000
01000000
,
10000000
00000000
00100000
00000000
01000000
00100000
10000000
00000000
,
00100000
00000000
01000000
00000000
00010000
00000000
01000000
00010000
,
00001000
00000000
00010000
00000000
00000100
00010000
00001000
00000000
,
00000100
00000010
00000001
00000100
,
00001100
00001000
00011000
00010000
,
02010000
00000000
13000000
01000000
,
01000000
00010000
01000000
00010000
00001000
00010000
00002000
00000000
,
00023000
00000000
00031000
00000000
,
00002000
00000000
00003100
00000000
,
00000200
00000000
00000301
00000000
,
00000002
00000000
00000103
00000000
,
00000200
00000000
00001300
00000000
,
00002000
00000000
00013000
00000000
,
00020000
00000000
10030000
00000000
,
20020000
00000000
00000000
00000000
,
00000000
00000000
00000000
00000000
,
30030000
00000000
00000000
00000000
;

//--------------- dance-double - Fred-104 ----------------
#NOTEDATA:;
#STEPSTYPE:dance-double;
#DESCRIPTION:Fred-104;
#DIFFICULTY:Medium;
#METER:13;
#CREDIT:Fred-104;
#NOTES:
00000000
00000000
00000000
00000000
,
00000000
00000000
00000000
00000000
,
00000000
00000000
00000000
00000000
,
00000000
00000000
00000000
00000000
,
00000000
00000000
00000000
00000000
,
00000000
00000000
00000000
00000000
,
00000000
00000000
00000000
00000000
,
00000000
00000000
00000000
00000000
,
00000000
00000000
00000000
00000000
,
00020000
00000000
00032000
00000000
,
00203000
00000000
00000000
00000000
00000000
00000000
00310000
00000000
00010000
00000000
01000000
00000000
,
00200000
00000000
20300000
00000000
,
32000000
00000000
00000000
00000000
00000000
00000000
03010000
00000000
00010000
00000000
00001000
00000000
,
00000200
00000000
00000302
00000000
,
00000023
00000000
00000000
00000000
00000000
00000000
00001030
00000000
00001000
00000000
00010000
00000000
,
00200000
00000000
20300000
30000000
,
20020000
00000000
00000000
30030000
,
10000000
01000000
10000000
00100000
01000000
00010000
00100000
00001000
,
00000000
00010000
00001000
00010000
00000100
00001000
00000100
00000001
,
00000000
00000100
00001000
00000100
00001000
00010000
01000000
00010000
,
00000000
00001000
00010000
00001000
00000100
00001000
00010000
00001000
,
00000000
00010000
00001000
00000010
00001000
00010000
00001000
00010000
,
00000000
00001000
00010000
00001000
00010000
00100000
00010000
00001000
,
00000000
00010000
00001000
00100000
00010000
10000000
00100000
01000000
,
00010000
10000000
01000000
00100000
00001000
00020000
00000000
00030000
,
00011000
00000000
00001010
00000000
00000010
00000001
00001000
00000010
,
00000100
00000000
00000110
00000000
00000100
00000010
00001000
00000100
,
00010000
00000000
00011000
00000000
00001000
00010000
00100000
10000000
,
00000000
00100000
00010000
10000000
00000000
00100000
01000000
01000000
,
00100000
00000000
10100000
00000000
10000000
01000000
00100000
00001000
,
00010000
00000000
00001000
00000100
00000001
00001000
00000100
00000010
,
00000001
00000000
00000100
00000000
00001000
00010000
00001000
00010000
,
00000000
00000000
00000000
00000000
00000000
00000000
00000000
00000000
00100000
00000000
00000000
00000000
00000000
00000000
00000000
00000000
10000000
00000000
00000000
00000000
00000000
00000000
00000000
00000000
00010000
00000000
00000000
00000000
00000000
00000000
00000000
00000000
00000000
00000000
00000000
00000000
00000000
00000000
00000000
00000000
01000000
00000000
00000000
00000000
00000000
00000000
00000000
00000000
00020000
00030000
00000000
00000000
20000000
30000000
00000000
00000000
00020000
00030000
00000000
00000000
20000000
30000000
00000000
00000000
,
00010000
00100000
00010000
00000000
10000000
01000000
00100000
00001000
,
00000000
00010000
00100000
00000000
00001000
00010000
00001000
00000010
,
00000000
00001000
00000100
00000000
00001000
00010000
00001000
00100000
,
00000000
00001000
00010000
01000000
00000000
00010000
00001000
00000100
,
00000001
00000000
00000100
00000010
00001000
00000010
00000100
00000001
,
00000000
00000010
00000100
00000010
00001000
00010000
00001000
00010000
,
00011000
00000000
00100000
00000000
01000000
10000000
01000000
00010000
,
00000000
00001000
00010000
00000100
00000000
00010000
00001000
00000100
,
00000001
00000000
00000001
00000000
00000100
00000000
00001000
00000000
00001000
00000000
00000100
00000000
,
00000001
00000000
00000010
00001000
,
00010000
00000000
00010000
00000000
00001000
00000000
00000010
00000000
00001000
00000000
00010000
00000000
,
00010000
00000000
00001000
00100000
,
00010000
00000000
00010000
00000000
01000000
00000000
00100000
00000000
10000000
00000000
01000000
00000000
,
01000000
00000000
00010000
00000000
00100000
00000000
00001000
00000000
00010000
00000000
00000010
00000000
,
00001000
00000000
00000100
00000000
00000001
00000000
00000100
00000000
00010000
00000000
00000100
00000000
,
00000001
00000000
00000000
00000000
00000000
00000000
00000000
00000000
00000000
00000000
00000000
00000000
00000000
00000000
00000000
00000000
00000000
00000000
00000000
00000000
00000000
00000000
00000000
00000000
00000000
00000000
00000000
00000000
00000000
00000000
00000000
00000000
00000010
00000000
00000000
00000000
00000000
00000000
00000000
00000000
00000000
00000000
00000000
00000000
00000000
00000000
00000000
00000000
00000000
00000000
00000000
00000000
00000000
00000000
00000000
00000000
00000000
00000000
00000000
00000000
00000000
00000000
00000000
00000000
00000100
00000000
00000000
00000000
00000000
00000000
00000000
00000000
00000000
00000000
00000000
00000000
00000000
00000000
00000000
00000000
00000000
00000000
00000000
00000000
00000000
00000000
00000000
00000000
00000000
00000000
00000000
00000000
00000000
00000000
00000000
00000000
00000220
00000000
00000000
00000330
00000000
00000000
00000000
00000000
00000000
00000000
00000000
00000000
00000000
00000000
00000000
00000000
00000000
00000000
00000000
00000000
00000000
00000000
00000000
00000000
00000000
00000000
00000000
00000000
00000000
00000000
00000000
00000000
00000020
00000000
00000000
00000030
00000000
00000000
00000000
00000000
00000000
00000000
00000000
00000000
00000000
00000000
00000000
00000000
00000000
00000000
00000000
00000000
00000000
00000000
00000000
00000000
00000000
00000000
00000000
00000000
00000000
00000000
00000000
00000000
00000200
00000000
00000000
00000300
00000000
00000000
00000000
00000000
00000000
00000000
00000000
00000000
00000000
00000000
00000000
00000000
00000000
00000000
00000000
00000000
00000000
00000000
00000000
00000000
00000000
00000000
00000000
00000000
00000000
00000000
00000000
00000000
,
00001001
00000001
00000100
00000010
00001000
00000010
00000100
00000000
,
00001000
00010000
00200000
00000000
00310000
00001000
00000020
00000000
,
00001030
00010000
00100000
10000000
00010000
01000000
00100000
00000000
,
10000000
01000000
00020000
00000000
00031000
00010000
00011000
00000000
,
00010000
00001000
00000100
00000001
00001000
00000010
00000100
00000001
,
00001000
00000100
00000020
00000000
00010030
00001000
00200000
00000000
,
00301000
00010000
00100000
10000000
00010000
01000000
00100000
10000000
,
01000000
00010000
00001000
00000001
,
00001002
00000000
00000203
00000000
,
00002300
00000000
00023000
00000000
,
02030000
00000000
03020000
00000000
,
00032000
00000000
00003200
00000000
,
00000302
00000000
00000023
00000000
,
00002030
00000000
00000000
00000000
00000000
00000000
00013000
00000000
00100000
00000000
10000000
00000000
,
10000000
00000000
01000000
00000000
00010000
00000000
00010000
00000000
00001000
00000000
00000010
00000000
,
00000022
00000000
00000000
00000033
00000000
00000000
00000000
00000000
00000000
00000000
00000000
00000000
00000000
00000000
00000000
00000000
00000000
00000000
00000000
00000000
00000000
00000000
00000000
00000000
00000000
00000000
00000000
00000000
00000000
00000000
00000000
00000000
00000002
00000000
00000000
00000003
00000000
00000000
00000000
00000000
00000000
00000000
00000000
00000000
00000000
00000000
00000000
00000000
00000000
00000000
00000000
00000000
00000000
00000000
00000000
00000000
00000000
00000000
00000000
00000000
00000000
00000000
00000000
00000000
00000200
00000000
00000000
00000300
00000000
00000000
00000000
00000000
00000000
00000000
00000000
00000000
00000000
00000000
00000000
00000000
00000000
00000000
00000000
00000000
00000000
00000000
00000000
00000000
00000000
00000000
00000000
00000000
00000000
00000000
00000000
00000000
00002000
00000000
00000000
00003000
00000000
00000000
00000000
00000000
00000000
00000000
00000000
00000000
00000000
00000000
00000000
00000000
00000000
00000000
00000000
00000000
00000000
00000000
00000000
00000000
00000000
00000000
00000000
00000000
00000000
00000000
00000000
00000000
00020000
00000000
00000000
00030000
00000000
00000000
00000000
00000000
00000000
00000000
00000000
00000000
00000000
00000000
00000000
00000000
00000000
00000000
00000000
00000000
00000000
00000000
00000000
00000000
00000000
00000000
00000000
00000000
00000000
00000000
00000000
00000000
00020000
00000000
00000000
00030000
00000000
00000000
00000000
00000000
00000000
00000000
00000000
00000000
00000000
00000000
00000000
00000000
00000000
00000000
00000000
00000000
00000000
00000000
00000000
00000000
00000000
00000000
00000000
00000000
00000000
00000000
00000000
00000000
,
00011000
00000000
00000000
00001000
00010000
00000000
00000000
00010000
00100000
00000000
00000000
00100000
01000000
00000000
00100000
00000000
,
00010000
00000000
00000000
00010000
10000000
00000000
00000000
10000000
01000000
00000000
00000000
01000000
00100000
00000000
00001000
00000000
,
00010000
00000000
00000000
00010000
00000010
00000000
00000000
00000010
00001000
00000000
00000000
00001000
00000001
00000000
00000100
00000000
,
00000010
00000000
00000000
00000010
00001000
00000000
00000000
00001000
00000001
00000000
00000100
00000000
00002000
00000000
00000000
00000000
,
00013000
00000000
00000000
00010000
00001000
00000000
00000000
00001000
00100000
00000000
00000000
00100000
00010000
00000000
10000000
00000000
,
00100000
10000000
00100000
00010000
00001000
00010000
00001000
00000010
,
00000001
00001000
00000001
00000100
00000001
00000100
00001000
00010000
,
00002000
00000000
00000000
00000000
00013000
00010000
00001000
00010000
,
00001000
00100000
00010000
10000000
00100000
01000000
00100000
10000000
,
01000000
00100000
00001000
00010000
00000100
00001000
00000100
00000010
,
00000001
00001000
00000001
00000100
00001000
00000100
00000001
00000100
,
00001000
00010000
00001000
00010000
01000000
00010000
00001000
00000000
,
00010000
00001000
00000010
00001000
00010000
00001000
00010000
00100000
,
00010000
00001000
00010000
00100000
10000000
00010000
01000000
00000000
,
01100000
00000000
00000000
00000000
01000000
00000000
00000000
00000000
00100000
00000000
00000000
00000000
00001000
00000000
00000000
00010000
00000000
00000000
00000100
00000000
00000000
00010000
00000000
00000000
,
00001000
00000000
00000000
00010000
00000000
00000000
00001000
00000000
00000000
00010000
00000000
00000000
00002000
00000000
00000000
00000000
00000000
00000000
00000000
00000000
00000000
00000000
00000000
00000000
00003200
00000000
00000000
00000000
00000000
00000000
00000000
00000000
00000000
00000000
00000000
00000000
00000310
00000000
00000000
00000000
00000100
00000000
00000000
00000000
00000010
00000000
00000000
00000000
,
00000200
00000000
00000302
00000000
,
00000023
00000000
00002030
00000000
,
00023000
00000000
02030000
00000000
,
23000000
00000000
30020000
00000000
,
02030000
00000000
03200000
00000000
,
00302000
00000000
00023000
00000000
,
00030020
00000000
00002030
00003000
,
00002002
00000000
00000000
00000000
,
00000000
00000000
00000000
00000000
,
00003003
00000000
00000000
00000000
;

//--------------- dance-double - Fred-104 ----------------
#NOTEDATA:;
#STEPSTYPE:dance-double;
#DESCRIPTION:Fred-104;
#DIFFICULTY:Hard;
#METER:16;
#CREDIT:Fred-104;
#NOTES:
00000000
00000000
00000000
00000000
,
00000000
00000000
00000000
00000000
,
00000000
00000000
00000000
00000000
,
00000000
00000000
00000000
00000000
,
00000000
00000000
00000000
00000000
,
00000000
00000000
00000000
00000000
,
00000000
00000000
00000000
00000000
,
00000000
00000000
00000000
00000000
,
00000000
00000000
00000000
00000000
,
02000000
00000000
03020000
00000000
,
00032000
00000000
00000000
00000000
00000000
00000000
00003100
00000000
00000001
00000000
00000100
00000000
,
00002000
00000000
00023000
00000000
,
00230000
00000000
00000000
00000000
00000000
00000000
10300000
00000000
00100000
00000000
00010000
00000000
,
00002000
00000000
00003020
00000000
,
00000032
00000000
00000000
00000000
00000000
00000000
00000103
00000000
00001000
00000000
00010000
00000000
,
02000000
00000000
03200000
00300000
,
20020000
00000000
00000000
00000000
00000000
00000000
00000000
30030000
,
01000000
00000000
00010000
10000000
00010000
00000000
10000000
00000000
01000000
00000000
00100000
01000000
00100000
00000000
00001000
00000000
,
00010000
00000000
00000010
00001000
00000010
00000000
00010000
00000000
00001000
00000000
00000100
00000010
00000100
00000000
00001000
00000000
,
00000001
00000000
00000100
00000010
00000100
00000000
00000001
00000000
00000010
00000000
00000100
00001000
00000100
00000000
00000010
00000000
,
00010000
00000000
00001000
00010000
00001000
00000000
00100000
00000000
00010000
00000000
10000000
00010000
10000000
00000000
00100000
00000000
,
01000000
00000000
00100000
10000000
01000000
00000000
00100000
00000000
00001000
00000000
00010000
00000100
00001000
00000000
00000100
00000000
,
00010000
00000000
00000010
00001000
00000100
00000000
00000010
00000000
00000001
00000000
00000100
00000010
00001000
00000000
00000001
00000000
,
00000010
00000000
00000001
00000100
00000010
00000000
00001000
00000100
00010000
00000000
00001000
00010000
00001000
00000000
00100000
00010000
,
10000000
00100000
10000000
00100000
10000000
00010000
10000000
00010000
01000000
00100000
02000000
00000000
00000000
00000000
00000000
00000000
,
03010000
00000000
10000000
01000000
10000000
00000000
01000000
00000000
00100000
00000000
00001000
00010000
00001000
00000000
01000000
00000000
,
00001000
00000000
00010000
00000100
00010000
00000000
00001000
00000000
00000100
00000000
00000010
00000000
00000001
00000100
00000010
00000000
,
00001000
00000000
00000001
00000100
00000001
00000000
00000100
00000000
00000010
00000000
00001000
00000100
00001000
00000000
00000020
00000000
,
00000000
00000000
00001030
00000000
00010000
00000000
00100000
00000000
10000000
00000000
00010000
00000000
01000000
00100000
01000000
00100000
,
10000000
00000000
00100000
01000000
00100000
00000000
10000000
00000000
01000000
00000000
10000000
00010000
10000000
00000000
01000000
00000000
,
00010000
00000000
00001000
00010000
00001000
00000000
00000100
00000010
00000100
00000000
00001000
00000000
00000001
00000000
00000100
00000000
,
00001000
00000000
00010000
00001000
00010000
00000000
00001000
00000000
00000100
00000000
00000001
00000100
00000001
00000000
00000201
00000000
,
00000000
00000000
00000000
00000000
00000000
00000000
00000000
00000000
00000310
00000000
00000000
00000000
00001000
00000000
00000000
00000000
00000100
00000000
00000000
00000000
00000000
00000000
00000000
00000000
00000120
00000000
00000000
00000000
00000000
00000000
00000000
00000000
00000000
00000000
00000000
00000000
00000000
00000000
00000000
00000000
00000130
00000000
00000000
00000000
00000000
00000000
00000000
00000000
00000002
00000003
00000000
00000000
00002000
00003000
00000000
00000000
00000002
00000003
00000000
00000000
00002000
00003000
00000000
00000000
,
00000002
00000003
00000000
00000000
00000000
00000000
00000000
00000000
00000100
00000000
00000000
00000000
00000010
00000000
00000000
00000000
00001000
00000000
00000000
00000000
00000000
00000000
00000000
00000000
00000001
00000000
00000000
00000000
00000000
00000000
00000000
00000000
00000010
00000000
00000000
00000000
00000000
00000000
00000000
00000000
00000100
00000000
00000000
00000000
00000010
00000000
00000000
00000000
00000001
00000000
00000000
00000000
00000000
00000000
00000000
00000000
00000100
00000000
00000000
00000000
00000000
00000000
00000000
00000000
,
00000010
00000000
00000000
00000000
00000000
00000000
00001000
00000000
00000000
00000100
00000000
00000000
00010000
00000000
00000000
00000000
00000000
00000000
00001000
00000000
00000000
00000000
00000000
00000000
00100000
00000000
00000000
00000000
00000000
00000000
00001000
00000000
00000000
00000000
00000000
00000000
00010000
00000000
00001000
00000000
00010000
00000000
00001000
00000000
00000000
00000000
00000000
00000000
,
01000000
00000000
00010000
00100000
01000000
00000000
00100000
00000000
00010000
00000000
10000000
00010000
01000000
00000000
00100000
00000000
,
00001000
00000000
00010000
00000000
00001000
00000000
00000200
00000000
00000000
00000000
00000301
00000000
00000100
00000010
00000100
00000010
,
00001000
00000000
00000001
00000010
00000100
00000000
00000010
00000000
00000001
00000000
00001000
00000010
00010000
00000000
00001000
00000000
,
00010000
00000000
00001000
00100000
00010000
00000000
01000000
00010000
10000000
00000000
01000000
00000000
00010000
00000000
01000000
00000000
,
00100000
00000000
00001000
00010000
00100000
00000000
00010000
00000000
00001000
00000000
00010000
00000010
00001000
00000000
00001020
00000000
,
00000000
00000000
00000130
00000001
00001000
00000000
00001002
00000000
00000000
00000000
00000103
00000010
00001000
00000010
00001000
00000010
,
00000100
00000000
00000001
00000000
00000101
00000000
00000100
00000000
00001000
00000000
00011000
00000000
,
00020000
00100000
10000000
01030000
,
00010000
00000000
00001000
00000000
00011000
00000000
00000100
00000000
00000001
00000000
00000011
00000000
,
00000002
00000000
00000100
00000003
00002000
00000000
00000100
00003000
,
00000001
00000000
00000011
00000000
00001010
00000000
00010000
00000000
00011000
00000000
00011000
00000000
,
00100000
00000000
00110000
00000000
10100000
00000000
10000000
00000000
10010000
00000000
10010000
00000000
,
10000000
00000000
11000000
00000000
01010000
00000000
00010000
00000000
00011000
00000000
00011000
00000000
,
00001000
00000000
00000000
00000000
00000000
00000000
00000000
00000000
00000000
00000000
00000000
00000000
00000000
00000000
00000000
00000000
00000000
00000000
00000000
00000000
00000000
00000000
00000000
00000000
00000000
00000000
00000000
00000000
00000000
00000000
00000000
00000000
00001100
00000000
00000000
00000000
00000000
00000000
00000000
00000000
00000000
00000000
00000000
00000000
00000000
00000000
00000000
00000000
00000000
00000000
00000000
00000000
00000000
00000000
00000000
00000000
00000000
00000000
00000000
00000000
00000000
00000000
00000000
00000000
00000101
00000000
00000000
00000000
00000000
00000000
00000000
00000000
00000000
00000000
00000000
00000000
00000000
00000000
00000000
00000000
00000000
00000000
00000000
00000000
00000000
00000000
00000000
00000000
00000000
00000000
00000000
00000000
00000000
00000000
00000000
00000000
00002002
00000000
00000000
00003003
00000000
00000000
00000000
00000000
00000000
00000000
00000000
00000000
00000000
00000000
00000000
00000000
00000000
00000000
00000000
00000000
00000000
00000000
00000000
00000000
00000000
00000000
00000000
00000000
00000000
00000000
00000000
00000000
00002002
00000000
00000000
00003003
00000000
00000000
00000000
00000000
00000000
00000000
00000000
00000000
00000000
00000000
00000000
00000000
00000000
00000000
00000000
00000000
00000000
00000000
00000000
00000000
00000000
00000000
00000000
00000000
00000000
00000000
00000000
00000000
00002002
00000000
00000000
00003003
00000000
00000000
00000000
00000000
00000000
00000000
00000000
00000000
00000000
00000000
00000000
00000000
00000000
00000000
00000000
00000000
00000000
00000000
00000000
00000000
00000000
00000000
00000000
00000000
00000000
00000000
00000000
00000000
,
00000100
00000000
00000001
00001000
00000100
00000000
00000010
00000001
00001000
00000000
00000010
00000100
00000010
00000000
00001000
00000000
,
00000100
00000000
00010000
00000000
00001000
00000000
00010000
00000000
00100000
01000000
00100000
01000000
00100000
00000000
00010000
00000000
,
00001000
00000000
00100000
00010000
10000000
00000000
00100000
01000000
00010000
00000000
10000000
01000000
00100000
00000000
00001000
00000000
,
00010000
00000000
00000100
00000000
00001000
00000000
00000100
00000000
00000010
00000100
00000010
00000100
00000010
00000000
00000001
00001000
,
00000100
00000000
00001000
00000001
00000100
00000000
00000010
00001000
00000100
00000000
00010000
00001000
00010000
00000000
00001000
00000000
,
00100000
00010000
00100000
00000000
00001000
00010000
00001000
00000000
00100000
00010000
00100000
00001000
00010000
00000000
00001000
00000000
,
00100000
00000000
00010000
10000000
01000000
00000000
00100000
01000000
10000000
00000000
00010000
01000000
00100000
00000000
10000000
00000000
,
00010000
00100000
10000000
00010000
01000000
10000000
10010000
00000000
,
21000000
00000000
32000000
00000000
,
03200000
00000000
00302000
00000000
,
00023000
00000000
00030200
00000000
,
00000320
00000000
00000032
00000000
,
00000103
00001000
00000001
00000000
,
00000100
00000000
00000000
00001000
00000000
00000000
00010000
00000000
00001000
00000000
00010000
00000000
,
00100000
00000000
01000000
00000000
00100000
00000000
00010000
00000000
10000000
00000000
01000000
00000000
,
22000000
00000000
00000000
33000000
00000000
00000000
00000000
00000000
00000000
00000000
00000000
00000000
00000000
00000000
00000000
00000000
00000000
00000000
00000000
00000000
00000000
00000000
00000000
00000000
00000000
00000000
00000000
00000000
00000000
00000000
00000000
00000000
02020000
00000000
00000000
03030000
00000000
00000000
00000000
00000000
00000000
00000000
00000000
00000000
00000000
00000000
00000000
00000000
00000000
00000000
00000000
00000000
00000000
00000000
00000000
00000000
00000000
00000000
00000000
00000000
00000000
00000000
00000000
00000000
00022000
00000000
00000000
00033000
00000000
00000000
00000000
00000000
00000000
00000000
00000000
00000000
00000000
00000000
00000000
00000000
00000000
00000000
00000000
00000000
00000000
00000000
00000000
00000000
00000000
00000000
00000000
00000000
00000000
00000000
00000000
00000000
00002200
00000000
00000000
00003300
00000000
00000000
00000000
00000000
00000000
00000000
00000000
00000000
00000000
00000000
00000000
00000000
00000000
00000000
00000000
00000000
00000000
00000000
00000000
00000000
00000000
00000000
00000000
00000000
00000000
00000000
00000000
00000000
00000202
00000000
00000000
00000303
00000000
00000000
00000000
00000000
00000000
00000000
00000000
00000000
00000000
00000000
00000000
00000000
00000000
00000000
00000000
00000000
00000000
00000000
00000000
00000000
00000000
00000000
00000000
00000000
00000000
00000000
00000000
00000000
00002002
00000000
00000000
00003003
00000000
00000000
00000000
00000000
00000000
00000000
00000000
00000000
00000000
00000000
00000000
00000000
00000000
00000000
00000000
00000000
00000000
00000000
00000000
00000000
00000000
00000000
00000000
00000000
00000000
00000000
00000000
00000000
,
00000001
00000000
00000010
00000001
00001000
00000000
00000010
00000100
00000010
00000000
00001000
00000100
00010000
00000000
00001000
00010000
,
00001000
00000000
00100000
00010000
10000000
00000000
00010000
01000000
00100000
00000000
10000000
01000000
10000000
00000000
00010000
00000000
,
10000000
00000000
01000000
00100000
00010000
00000000
10000000
01000000
00100000
00000000
00001000
00010000
00001000
00000000
00010000
00000100
,
00001000
00000000
00000100
00010000
00001000
00000000
00010000
00000010
00001000
00000010
00000100
00000000
00000001
00000000
00000001
00000000
,
00001000
00000000
00000001
00000010
00000100
00000000
00000010
00000100
00001000
00000000
00000100
00001000
00010000
00000000
00001000
00010000
,
00100000
00000000
00010000
00100000
01000000
00000000
00100000
01000000
10000000
00000000
00010000
10000000
00010000
00000000
01000000
00000000
,
00100000
00000000
10000000
00100000
01000000
00000000
00010000
00100000
00001000
00000000
00010000
00000010
00001000
00000000
00010000
00000000
,
00012000
00000000
00000010
00000000
00103000
00001000
00010000
00010000
,
00001000
00000000
00100000
00010000
10000000
00000000
00010000
00100000
01000000
00000000
00100000
00010000
10000000
00000000
01000000
00100000
,
01000000
00000000
10000000
00100000
01000000
00000000
00010000
00100000
00001000
00000000
00010000
00000010
00001000
00000000
00000100
00000010
,
00000100
00000000
00001000
00000001
00000100
00000000
00000001
00001000
00000100
00000000
00000010
00000001
00001000
00000000
00000010
00010000
,
00001000
00000000
00100000
00001000
00010000
00000000
00001000
00100000
00010000
10000000
00100000
01000000
00010000
00000000
10000000
00000000
,
00020000
00000000
00031000
00100000
00001000
00000000
00010000
00000000
00002000
00000000
00013000
00000010
00010000
00000000
00001000
00000000
,
00020000
01030000
00020000
00031000
00002000
00003100
00002000
00013000
,
00011000
00000000
00000000
00000000
00001000
00000000
00000000
00000000
00000100
00000000
00000000
00000000
00000010
00000000
00000000
00000001
00000000
00000000
00001000
00000000
00000000
00000010
00000000
00000000
,
00000100
00000000
00000000
00000010
00000000
00000000
00000100
00000000
00000000
00000010
00000000
00000000
00000100
00000000
00000000
00000000
00000000
00000000
00000010
00000000
00000000
00000000
00000000
00000000
00001000
00000000
00000000
00000100
00000000
00000000
00010000
00000000
00000000
00001000
00000000
00000000
00100000
00000000
00000000
00000000
00010000
00000000
00000000
00000000
00100000
00000000
00000000
00000000
,
02000000
00000000
23000000
00000000
,
30200000
00000000
00320000
00000000
,
00032000
00000000
00003200
00000000
,
00000302
00000000
00002003
00000000
,
00003020
00000000
00000230
00000000
,
00020300
00000000
00032000
00000000
,
00203000
00000000
00302000
00003000
,
00022000
00000000
00000000
00000000
,
00000000
00000000
00000000
00000000
,
00033000
00000000
00000000
00000000
;

//--------------- dance-double - Fred-104† ----------------
#NOTEDATA:;
#STEPSTYPE:dance-double;
#DESCRIPTION:Fred-104†;
#DIFFICULTY:Challenge;
#METER:18;
#CREDIT:Fred-104†;
#NOTES:
00000000
00000000
00000000
00000000
,
00000000
00000000
00000000
00000000
,
00000000
00000000
00000000
00000000
,
00000000
00000000
00000000
00000000
,
00000000
00000000
00000000
00000000
,
00000000
00000000
00000000
00000000
,
00000000
00000000
00000000
00000000
,
00000000
00000000
00000000
00000000
,
00000000
00000000
00000000
00000000
,
00011000
00000000
00001000
00000000
00000000
00000000
00100000
00000000
00000000
00000000
00000010
00000000
00000000
00000000
00010000
00001000
,
00010000
00000000
00000000
00000100
00000000
00000000
00000000
00000000
00000000
01000000
00000000
00000000
00001000
00000000
00000000
00000000
00010000
00000000
00000000
00000000
00000100
00000000
00000000
00000000
,
00010000
00000000
00000100
00000000
00000000
00000000
01000000
00000000
00000000
00000000
00000100
00000000
00000000
00000000
00010000
00001000
,
00010000
00000000
00000000
00000010
00000000
00000000
00000000
00000000
00000000
00100000
00000000
00000000
00001000
00000000
00000000
00000000
00010000
00000000
00000000
00000000
00001000
00000000
00000000
00000000
,
01000000
00000000
00001000
00000000
00000000
00000000
00010000
00000000
00000000
00000000
00000010
00000000
00000000
00000000
00100000
00001000
,
00100000
00000000
00000000
00001000
00000000
00000000
00000000
00000000
00000000
00010000
00000000
00000000
00000100
00000000
00000000
00000000
00010000
00000000
00000000
00000000
00001000
00000000
00000000
00000000
,
01000000
00000000
00001000
00000000
00010000
00000000
00000100
00000000
00000010
00000000
00000100
00000000
,
00001000
00000000
00000000
00022000
00000000
00000000
00033000
00000000
,
00001000
00000000
00100000
00010000
02000000
00000000
00100000
10000000
03000000
00000000
00100000
00010000
10000000
00000000
01000000
00000000
,
00100000
00000000
00001000
00010000
00000200
00000000
00001000
00000010
00000300
00000000
00000001
00000010
00000100
00000000
00001000
00000000
,
00000001
00000000
00000100
00000001
00000020
00000000
00000100
00001000
00000030
00000000
00000100
00000001
00000010
00000000
00000001
00000000
,
00001000
00000000
00000010
00010000
00002000
00000000
00010000
00000010
00003000
00000000
00000010
00010000
00001000
00000000
00010000
00000000
,
00001000
00000000
00100000
00010000
00100000
00000000
01000000
10000000
01000000
00000000
00100000
00010000
10000000
00000000
01000000
00100000
,
00010000
00000000
00000100
00001000
00000100
00000000
00000010
00000001
00001000
00000000
00000001
00000010
00000100
00000000
00001000
00010000
,
00100000
01000000
10000000
01000000
00100000
00010000
10000000
00100000
01000000
00010000
00100000
00001000
00010000
00000100
00001000
00000010
,
00000100
00000001
00000100
00000010
00001000
00000001
00000100
00001000
00010000
01000000
20000000
00000000
00000000
00000000
30000000
00000000
,
10010000
00000000
00010000
10000000
01000000
00000000
00100000
00010000
10000000
00000000
01000000
00100000
00001000
00000000
00010000
00000000
,
00000100
00000000
00001000
00000100
00000010
00000000
00000001
00000010
00000100
00000000
00001000
00000100
00000100
00000001
00001000
00000000
,
00000001
00000000
00000010
00000100
00001000
00000000
00010000
00001000
00000100
00000000
00000010
00000100
00001000
00000000
00010000
00000000
,
00000100
00000000
00000000
00000000
00000000
00000000
00010000
00000000
00000000
00001000
00000000
00000000
01000000
00000000
00000000
00000000
00000000
00000000
01200000
00000000
00000000
00000000
00000000
00000000
00000000
00000000
00000000
00000000
00000000
00000000
01300000
00000000
00000000
00000000
00000000
00000000
00010000
00000000
01000000
00000000
00001000
00000000
00010000
00000000
00000000
00000000
00000000
00000000
,
00001000
00000000
00100000
00001000
00010000
00000000
00000100
00001000
00000010
00000000
00000100
00000001
00000010
00000000
00000100
00000000
,
00001000
00000000
00000001
00000010
00001000
00000000
00010000
00100000
20000000
00000000
30020000
00000000
02030000
00000000
03200000
00000000
,
10300000
00000000
00010000
10000000
01000000
00000000
00100000
01000000
10000000
00000000
00010000
00100000
01000000
00000000
00100000
00000000
,
00001000
00000000
00000000
00000000
00000000
00000000
00000000
00000000
00000000
00000000
00000000
00000000
00000000
00000000
00000000
00000000
00000000
00000000
00000000
00000000
00000000
00000000
00000000
00000000
00010000
00000000
00000000
00000000
00000000
00000000
00000000
00000000
00001000
00000000
00000000
00000000
00000000
00000000
00000000
00000000
00010000
00000000
00000000
00000000
00000000
00000000
00000000
00000000
00001000
00000000
00000000
00000000
00000000
00000000
00000000
00000000
00000000
00000000
00000000
00000000
00000000
00000000
00000000
00000000
00000000
00000000
00000000
00000000
00000000
00000000
00000000
00000000
00000010
00000000
00000000
00000000
00000000
00000000
00000000
00000000
00000000
00000000
00000000
00000000
00000000
00000000
00000000
00000000
00000000
00000000
00000000
00000000
00000000
00000000
00000000
00000000
00000100
00000000
00000000
00000000
00000000
00000000
00000000
00000000
00000000
00000000
00000000
00000000
00000000
00000000
00000000
00000000
00000000
00000000
00000000
00000000
00000000
00000000
00000000
00000000
00000001
00000000
00000000
00000000
00000000
00000000
00000000
00000000
00000000
00000000
00000000
00000000
00000010
00000000
00000000
00000000
00000000
00000000
00000000
00000000
00000000
00000000
00000000
00000000
00002000
00000000
00000000
00003000
00000000
00000000
00000000
00000000
00000000
00000000
00000000
00000000
00020000
00000000
00000000
00030000
00000000
00000000
00000000
00000000
00000000
00000000
00000000
00000000
02000000
00000000
00000000
03000000
00000000
00000000
00000000
00000000
00000000
00000000
00000000
00000000
20000000
00000000
00000000
30000000
00000000
00000000
00000000
00000000
00000000
00000000
00000000
00000000
,
00010000
00000000
01000000
00100000
10000000
00000000
00010000
00100000
10000000
00000000
00100000
00010000
10000000
00000000
00100000
00000000
,
01000000
00000000
00000000
00000000
00000000
00000000
00010000
00000000
00000000
01000000
00000000
00000000
10000000
00000000
00000000
00000000
00000000
00000000
01000000
00000000
00000000
00010000
00000000
00000000
00100000
00000000
00000000
00000000
00000000
00000000
01000000
00000000
00000000
10000000
00000000
00000000
00010000
00000000
01000000
00000000
00010000
00000000
01000000
00000000
00000000
00000000
00000000
00000000
,
00001000
00000000
00010000
00000100
00001000
00000000
00000010
00001000
00000100
00000000
00001000
00000010
00000100
00000000
00000001
00000000
,
00001000
00000000
00000000
00000000
00000000
00000000
00000001
00000000
00000000
00000010
00000000
00000000
00000100
00000000
00000000
00000000
00000000
00000000
00010200
00000000
00000000
00000000
00000000
00000000
00000000
00000000
00000000
00000000
00000000
00000000
00010300
00000000
00000000
00000000
00000000
00000000
00001000
00000000
00010000
00000000
00001000
00000000
00100000
00000000
00000000
00000000
00000000
00000000
,
00010000
00000000
10000000
00010000
01000000
00000000
00010000
10000000
01000000
00000000
10000000
01000000
00100000
00000000
00001000
00000000
,
00010000
00000000
00000000
00000000
00000000
00000000
00001000
00000000
00000000
00000100
00000000
00000000
00000010
00000000
00000000
00000000
00000000
00000000
00000001
00000000
00000100
00000000
00000010
00000000
00002000
00000000
00000000
00000000
00000000
00000000
00003020
00000000
00000000
00000000
00000000
00000000
00020030
00000000
00000000
00000000
00000000
00000000
00032000
00000000
00000000
00000000
00000000
00000000
,
00013000
00000000
00000010
00001000
00000100
00000000
00010000
00000000
00001000
00000000
00100000
01000000
00100000
00000000
00010000
00000000
,
00001000
00000000
00000000
00000000
00000000
00000000
00010000
00000000
00001000
00000000
00010000
00000000
00001000
00000000
00000000
00000000
00000000
00000000
00021000
00000000
00000000
00000000
00000000
00000000
00000000
00000000
00000000
00000000
00000000
00000000
00030010
00000000
00000000
00001000
00000000
00000000
00000100
00000000
00010000
00000000
00000100
00000000
00010000
00000000
00000000
00001000
00000000
00000000
,
00010000
00000000
00000000
00000000
00011000
00000000
00000000
00000000
00000100
00001000
00000100
00001000
00000100
00000000
00000000
00000000
00000010
00000000
00000000
00000000
00000001
00000000
00000000
00000000
,
00001000
00000000
00000000
00010000
00000000
00000000
10000000
00000000
00010000
00000000
00001000
00000000
,
00000001
00000000
00000000
00000000
00001000
00000000
00000000
00000000
00010000
00001000
00010000
00001000
00010000
00000000
00000000
00000000
10000000
00000000
00000000
00000000
00010000
00000000
00000000
00000000
,
00002000
00000000
00000000
00100000
00000000
00000000
00003010
00000000
00000000
00010000
00001000
00010000
,
00000100
00001000
00000100
00001000
00000100
00000000
00000000
00000000
00000010
00000001
00000010
00000001
00000010
00000000
00000000
00000000
00001000
00000000
00000000
00000000
00010000
00000000
00000000
00000000
,
00100000
00000000
00000000
00000000
10000000
00000000
00000000
00000000
00010000
01000000
00010000
01000000
00010000
00000000
00000000
00000000
10000000
00000000
00000000
00000000
01000000
00000000
00000000
00000000
,
00100000
00000000
00000000
00000000
00001000
00000000
00000000
00000000
00010000
00000010
00010000
00000010
00010000
00000000
00000000
00000000
00001000
00010000
00001000
00010000
00001000
00000000
00000000
00000000
,
00010000
00000000
00000000
00000000
00000100
00000000
00000000
00000000
00001000
00000010
00001000
00000010
00002000
00003000
00000000
00000000
00000002
00000003
00000000
00000000
00000200
00000300
00000000
00000000
,
00000010
00000000
00001000
00000001
00000010
00000000
00000100
00001000
00000010
00000000
00010000
00001000
00010000
00000000
00001000
00000000
,
00100000
00000000
00010000
00100000
01000000
00000000
10000000
01000000
00100000
00001000
00010000
00001000
00100000
00001000
00010000
00000000
,
00000010
00000000
00001000
00000100
00000001
00000000
00000100
00001000
00000010
00000000
00000100
00000001
00000010
00000100
00001000
00000000
,
00010000
00000000
00000010
00001000
00000100
00010000
00001000
00000000
00100000
00010000
01000000
00001000
00010000
00000100
00001000
00000010
,
00010000
00000000
00000000
00000000
00000000
00000000
00001000
00000000
00000000
00100000
00000000
00000000
00010000
00000000
00000000
00000000
00000000
00000000
01000000
00000000
00100000
00000000
10000000
00000000
00100000
00000000
00000000
00000000
00000000
00000000
10000000
00000000
00000000
01000000
00000000
00000000
00010000
00000000
00000000
00000000
00000000
00000000
01000000
00000000
00000000
00000000
00000000
00000000
,
10000000
00100000
01000000
00000000
00010000
00100000
00001000
00000000
00010000
00000010
00001000
00000010
00010000
00000100
00001000
00000100
,
00010000
00000000
00000000
00000000
00000000
00000000
00000010
00000000
00000000
00001000
00000000
00000000
00000100
00000000
00000000
00000000
00000000
00000000
00010000
00000000
00001000
00000000
00010000
00000000
00000100
00000000
00000000
00000000
00000000
00000000
00001000
00000000
00000000
00000010
00000000
00000000
00000100
00000000
00000000
00000001
00000000
00000000
00001000
00000000
00000000
00000000
00000000
00000000
,
00000001
00000010
00001000
00010000
01000000
10000000
10010000
00000000
,
01200000
00000000
20300000
00000000
,
32000000
00000000
03200000
00000000
,
00302000
00000000
00003020
00000000
,
00000032
00000000
00000203
00000000
,
00002300
00000000
00023000
00000000
,
02030000
00000000
00000000
00000000
00000000
00000000
13000000
00000000
01000000
00000000
00010000
00000000
,
00001000
00000000
00000010
00000000
00000001
00000000
00001000
00000000
00010000
00000000
10000000
00000000
,
22000000
33000000
00000000
00000000
02020000
03030000
00000000
00000000
00022000
00033000
00000000
00000000
00002020
00003030
00000000
00000000
00000022
00000033
00000000
00000000
00002002
00003003
00000000
00000000
,
00000010
00000000
00010000
00000010
00001000
00000000
00000010
00010000
00001000
00000000
00100000
00001000
00010000
00000000
00000100
00001000
,
00000010
00000000
00000100
00000001
00000010
00000000
00000100
00001000
00000100
00010000
00001000
00100000
00010000
00000000
10000000
00000000
,
00100000
00000000
01000000
00010000
00100000
00000000
01000000
10000000
00100000
00000000
10000000
01000000
00100000
00000000
00001000
00000000
,
00010000
00000000
00001000
00100000
00001000
00000000
00010000
00000100
00001000
00000100
00000010
00000001
00001000
00000000
00000001
00000000
,
00000100
00000000
00000001
00000010
00000100
00000000
00001000
00010000
00100000
00000000
01000000
10000000
00010000
00000000
01000000
00100000
,
10000000
00000000
00010000
00100000
10000000
00000000
00100000
00010000
10000000
00000000
01000000
00010000
01000000
00000000
10000000
00000000
,
00100000
00000000
10000000
01000000
00100000
00000000
00001000
00010000
00001000
00000000
00010000
00000010
00001000
00000000
00010000
00000000
,
00012000
00000000
01000000
00000000
00000010
00000000
00013000
00001000
,
00010000
00000100
00001000
00000100
00010000
00000100
00001000
00000000
00000010
00000100
00000001
00000100
00000010
00000100
00000001
00000000
,
00001000
00000100
00000010
00000001
00000010
00000100
00001000
00000000
00010000
00001000
00100000
00010000
01000000
00100000
10000000
00000000
,
00010000
00100000
01000000
10000000
00100000
10000000
01000000
10000000
00100000
01000000
00010000
00100000
00001000
00010000
00000100
00001000
,
00000001
00000000
00001000
00000100
00000001
00000000
00000100
00001000
00000010
00000100
00000001
00000010
00000100
00000000
00000010
00000000
,
00000001
00000100
00001000
00000100
00000001
00000100
00001000
00000000
00010000
00001000
00010000
01000000
10000000
01000000
00010000
00000000
,
00001000
00010000
00100000
00000000
00010000
00001000
00000010
00000000
00001000
00010000
01000000
00000000
00010000
00001000
00000100
00000000
,
00000110
00000000
00000000
00000000
00001010
00000000
00000000
00000000
00000101
00000000
00000000
00000000
00000001
00000000
00000000
00000100
00000000
00000000
00001000
00000000
00000000
00000100
00000000
00000000
,
00000001
00000010
00000001
00000010
00000001
00000010
00000001
00000000
00000000
00001000
00000000
00000000
00000010
00001000
00000010
00001000
00000010
00010000
00001000
00000000
01000000
00000000
00010000
00000000
,
20010000
00000000
30200000
00000000
,
00320000
00000000
00032000
00000000
,
00003020
00000000
00000032
00000000
,
00000203
00000000
00002300
00003000
,
00022000
00033000
00020020
00030030
,
00202000
00303000
00020200
00030300
,
02002000
03003000
00022000
00033000
,
20020000
00000000
00000000
00000000
,
00000000
00000000
00000000
00000000
,
30030000
00000000
00000000
00000000
;
