#VERSION:0.83;
#TITLE:Prey(Fred-Special);
#ARTIST:BEMANI Sound Team "Dustup";
#ARTISTTRANSLIT:Dustup;
#BANNER:Prey(Fred-Special).png;
#BACKGROUND:Prey(Fred-Special)-bg.png;
#CDTITLE:./CDTitles/BEMANI SUMMER GREETINGS.png;
#MUSIC:Prey(Fred-Special).ogg;
#SAMPLESTART:78.847;
#SAMPLELENGTH:15;
#BPMS:0=210,4=105,44=420,172=210,300=420,428=210;
#STAGE:30;

//--------------- dance-single - Fred-104-CSP ----------------
#NOTEDATA:;
#CHARTNAME:Fred-104-CSP;
#STEPSTYPE:dance-single;
#DESCRIPTION:Fred-104-CSP;
#DIFFICULTY:Challenge;
#METER:19;
#CREDIT:Fred-104;
#NOTES:
0000
0000
0000
0000
,
0000
0000
0000
0000
,
0000
0000
0000
0000
,
0000
0000
0000
0000
,
0000
0000
0000
0000
,
1100
0000
0100
0010
0011
0000
0001
0100
0110
0000
1000
0100
0110
0000
0010
0001
,
0101
0000
0010
1000
1100
0000
0100
0010
0011
0000
0100
0010
1010
0000
1000
0001
,
1001
1100
0110
0010
0011
1010
0110
0100
,
0001
0100
0010
0100
0000
0010
1000
0010
0100
0001
1000
0100
0000
0010
0100
0100
,
0001
0100
0001
0100
0010
1000
0010
1000
0100
0010
0001
0100
0010
1000
0001
1000
,
0001
0010
0100
1000
0010
0100
0001
0010
0100
1000
0100
0010
0001
0100
0010
1000
0002
0000
0000
0000
0000
0000
0000
0000
2000
0000
0000
0000
3003
0000
0000
0000
,
1000
0100
0010
0100
1000
0100
0010
0100
,
1000
0100
0010
0100
0010
0001
0010
0100
,
1000
0010
0100
0010
1000
0010
0100
0001
,
1000
0100
0010
0001
1000
0010
0100
0001
,
0100
0001
1000
0001
0100
0001
1000
0001
,
0010
0001
1000
0001
0010
0001
1000
0001
,
1000
0010
0100
0010
1000
0100
0010
0001
,
1000
0010
0100
0001
1000
0010
0100
0001
,
1000
0100
1000
0010
1000
0100
1000
0010
,
0100
0001
1000
0001
0100
0001
1000
0001
,
0100
0001
0010
0100
1000
0100
0010
0001
,
0100
0010
1000
0010
0100
0010
1000
0001
,
1000
0100
1000
0010
0100
0001
0010
0001
,
1000
0100
0010
0001
0010
0100
1000
0001
,
0100
0010
1000
0000
0010
0100
0001
0000
,
1000
0001
1001
0000
,
0001
0100
0010
0100
0001
0100
0010
0100
,
0001
0010
0100
0010
0001
0010
0100
0010
,
0001
1000
0100
1000
0001
1000
0010
1000
,
0001
1000
0100
0010
0001
1000
0010
0100
,
0001
1000
0100
0010
0001
0010
0100
1000
,
0010
0100
0001
0100
0010
1000
0100
1000
,
0010
0100
0001
1000
0001
0010
0001
1000
,
0100
0010
0100
0010
0001
0100
0010
0100
,
0010
1000
0010
0100
0010
1000
0001
0010
,
0100
1000
0100
0010
0001
1000
0010
0100
,
0001
0010
0001
0100
0001
0100
0010
0100
,
0001
0100
0001
1000
0010
0100
0010
1000
,
0010
1000
0100
0010
0001
0100
0010
1000
,
0001
1000
0010
0100
0010
1000
0010
0100
,
0001
0010
0100
1000
0010
0100
0001
0010
,
0100
1000
0100
0010
0001
0100
0010
1000
,
0002
0000
0000
0000
,
0000
0000
0000
0000
,
2003
0000
0000
0000
,
3020
0000
0000
0000
,
0130
0000
0001
1000
0010
0000
0100
0000
,
0001
0000
0100
0000
0010
0000
0100
0001
1000
0000
0000
0000
1001
0000
0000
0000
,
1000
0010
0100
0000
0010
0000
0001
0010
0100
0000
0010
0000
0001
1000
0001
0000
,
0000
0000
0100
0000
0010
0000
0100
0000
0001
0100
0000
1000
0100
0000
0001
0000
,
0010
0101
0010
1010
,
1000
0100
0001
1000
0010
0001
1000
0100
,
0101
0010
1100
0010
,
1000
0010
0001
1000
0100
0001
1000
0010
,
0001
0100
1000
0010
,
0100
0001
0010
1000
,
0001
0001
0100
0100
0010
0010
1000
1000
,
2002
0000
0000
3003
,
1000
0000
0100
0000
0010
0000
0001
1000
0100
1000
0000
0010
0100
0000
0001
0000
,
1000
0100
0010
0001
1000
0000
0010
0000
1000
0100
0010
0100
0001
0100
0010
0100
,
1000
0000
0001
0000
0100
0000
0010
1000
0001
0100
0000
0010
0100
0000
0001
0000
,
1000
0000
0001
0000
1000
0000
0100
0010
0001
0100
0010
0100
0001
0100
0010
1000
,
0001
0000
0010
0000
0100
0000
1000
0100
0010
0100
0000
0100
0001
0000
0100
0000
,
1000
0000
0010
0000
0100
0000
0001
0100
0010
0000
0010
1000
0010
0100
0010
0000
,
1000
0000
0100
0000
0010
0000
0001
0100
0010
0100
0000
0001
0100
0000
0010
0000
,
0100
0000
0001
1000
0100
0000
0010
0000
0001
0100
0010
0100
1000
0100
0010
0100
,
0001
0000
1000
0000
0010
0000
1000
0100
0010
1000
0000
0010
0100
0000
1000
0000
,
0001
0000
0100
0000
0001
0000
0100
1000
0100
0010
1000
0001
0100
0010
0001
0010
,
1000
0000
0001
0000
0100
0000
0001
0100
1000
0100
0000
0001
1000
0000
0010
0000
,
0100
0000
0001
0000
1000
0000
0100
1000
0100
0001
0100
0010
1000
0001
0010
0100
,
1000
0000
0001
1000
0100
0000
0010
0001
1000
0010
0000
0100
0010
0000
1000
0000
,
0001
0000
0010
0000
0100
0000
0100
1000
0100
0000
0100
0001
0100
1000
0010
0000
,
0100
0000
0001
0000
1000
0000
0010
0100
0001
1000
0100
0010
0001
0000
1000
0000
,
2002
0000
0000
3003
,
1000
0000
0100
0010
0000
0100
1000
0000
,
0100
0010
0000
0100
1000
0000
0100
0010
,
0001
0000
0010
0100
0000
0010
0001
0000
,
0010
0100
0000
0010
0001
0000
0100
0010
,
1000
0000
0001
0100
0000
0010
1000
0000
,
0001
0010
0000
0100
1000
0001
0100
0001
,
1000
0000
0100
0010
0000
0001
0100
0000
,
0001
0010
0100
1000
0100
0010
0001
1000
,
0010
0000
0100
0001
0000
0100
0010
0000
,
0100
1000
0000
0100
0010
0000
0100
0001
,
1000
0000
0010
0100
0000
0010
0001
0000
,
0010
0100
0000
0010
1000
0000
0001
1000
,
0100
0000
0010
0001
0000
0100
0010
0000
,
1000
0010
0000
0100
0001
1000
0001
0100
,
0010
0000
1000
0100
0000
0010
0001
0000
,
1000
0100
0010
0100
0001
0100
0010
0100
,
1000
0000
0001
1000
0100
0010
0001
0000
,
1000
0010
0100
0001
1000
0000
0001
1000
,
0100
0000
1000
0010
0100
0001
0010
0000
,
0100
1000
0001
0100
0010
0000
1000
0100
,
0010
0000
0001
0100
0010
0100
0001
0000
,
1000
0010
0100
0010
1000
0000
0001
1000
,
0100
0000
0010
0001
1000
0010
0100
0000
,
0001
0010
0100
1000
0010
0100
0001
0010
,
0100
0000
1000
0001
0010
0100
0010
0000
,
0001
1000
0010
0100
0001
0000
1000
0100
,
0001
0000
0100
1000
0100
0010
0100
0000
,
0001
0100
1000
0010
0100
0000
0001
1000
,
0001
0010
0100
1000
0010
0100
0001
0010
,
0100
1000
0010
0100
0001
1000
0100
0010
,
0001
0000
1000
0010
0000
0010
0100
0000
,
0001
0000
1000
0100
0010
0001
0100
0010
,
2000
0000
0000
0000
,
3000
0000
0000
0000
;

//--------------- dance-double - Fred-104-CDP ----------------
#NOTEDATA:;
#CHARTNAME:Fred-104-CDP;
#STEPSTYPE:dance-double;
#DESCRIPTION:Fred-104-CDP;
#DIFFICULTY:Challenge;
#METER:19;
#CREDIT:Fred-104;
#NOTES:
00000000
00000000
00000000
00000000
,
00000000
00000000
00000000
00000000
,
00000000
00000000
00000000
00000000
,
00000000
00000000
00000000
00000000
,
00000000
00000000
00000000
00000000
,
00001010
00000010
00000100
00000001
00001000
00000010
00001000
00100000
,
10000000
00000000
01000000
00000000
00010000
00000000
00001000
00000000
01000000
00000000
00010000
00000000
00000100
00000000
00001000
00000100
,
00000010
00000011
00000101
00000100
00000010
00001010
00001100
00010000
,
00000010
00010000
00001000
01000000
00000000
00010000
00100000
01000000
10000000
00100000
01000000
00010000
00000000
10000000
01000000
00100000
,
00010000
01000000
00100000
10000000
01000000
00100000
00001000
00010000
00000100
00000010
00000001
00001000
00000010
00000100
00000001
00001000
,
00000001
00000100
00000001
00000100
00000010
00001000
00000010
00001000
00000100
00001000
00000100
00010000
00001000
00010000
00001000
00010000
00002000
00000000
00000000
00000000
00000000
00000000
00000000
00000000
00020000
00000000
00000000
00000000
00033000
00000000
00000000
00000000
,
00001000
00010000
00001000
00010000
00001000
00010000
00001000
00010000
,
00001000
00100000
00001000
00100000
00001000
00100000
00001000
00100000
,
00010000
01000000
00010000
01000000
00010000
01000000
00010000
01000000
,
00010000
00100000
01000000
10000000
00010000
00000000
00000000
00000000
,
10000000
00100000
10000000
00100000
10000000
00100000
10000000
00100000
,
01000000
00010000
01000000
00010000
01000000
00010000
01000000
00010000
,
00100000
00010000
00100000
00010000
00100000
00010000
00100000
00010000
,
00100000
00001000
00010000
00000100
00001000
00000000
00000000
00000000
,
00000010
00000100
00000010
00000100
00000010
00000100
00000010
00000100
,
00000001
00000100
00000001
00000100
00000001
00000100
00000001
00000100
,
00000001
00000010
00000001
00000010
00000001
00000010
00000001
00000010
,
00000100
00001000
00000100
00010000
00001000
00000000
00000000
00000000
,
00100000
00001000
00100000
00001000
00100000
00001000
00100000
00001000
,
00010000
00001000
00010000
00001000
00010000
00001000
00010000
00001000
,
00100000
00010000
00100000
00010000
00100000
00010000
00100000
00010000
,
00100000
01000000
10000000
00010000
01000000
00000000
00000000
00000000
,
00100000
10000000
00100000
10000000
00100000
01000000
00100000
01000000
,
00010000
01000000
00010000
01000000
00001000
00010000
00001000
00010000
,
00000100
00001000
00000100
00001000
00000100
00000010
00000100
00000010
,
00000001
00000100
00000010
00001000
00000001
00000100
00000001
00000000
,
00000100
00000010
00000100
00000010
00001000
00000010
00001000
00000010
,
00001000
00000100
00001000
00000100
00010000
00001000
00010000
00001000
,
00100000
00010000
00100000
00010000
10000000
00010000
10000000
00010000
,
10000000
01000000
00100000
00010000
00100000
01000000
10000000
00000000
,
00010000
01000000
00010000
01000000
00100000
01000000
00100000
01000000
,
00100000
10000000
00100000
10000000
00010000
10000000
00010000
10000000
,
01000000
00100000
01000000
00100000
00010000
00001000
00010000
00001000
,
00000100
00000010
00000100
00000010
00000001
00001000
00000010
00000000
,
00000100
00000001
00000100
00000001
00000100
00000010
00001000
00000100
,
00010000
00001000
00100000
00010000
00100000
01000000
10000000
00100000
,
01000000
00010000
10000000
01000000
00100000
00001000
00010000
00000100
,
00010000
00001000
00010000
00000010
00001000
00000001
00000100
00000010
,
00002000
00000000
00000000
00000000
,
00000000
00000000
00000000
00000000
,
00023000
00000000
00000000
00000000
,
20030000
00000000
00000000
00000000
,
30100000
00000000
10010000
00000000
,
01000000
00000000
00000000
00000000
00000000
00000000
00010000
00001000
00010000
00000000
00000000
00000000
00000100
00000000
00000000
00000000
,
00001000
00000010
00000100
00000000
00000010
00000000
00000001
00000100
00000010
00000000
00001000
00000000
00010000
00001000
00010000
00000000
,
00000000
00000000
00100000
00000000
00100000
00000000
10000000
00000000
00010000
01000000
00000000
00100000
01000000
00000000
00010000
00000000
,
10010000
01000000
00011000
00000100
,
00001001
00000010
00011000
00100000
,
10010000
01000000
00011000
00000010
,
00001001
00000100
00011000
00100000
,
10000000
01000000
00100000
00001000
,
00010000
00000100
00000010
00000001
,
00001000
00000100
00000001
00000100
00010000
01000000
10000000
01000000
,
00200000
00000000
00000000
00300000
,
00010000
00000000
01000000
00000000
00100000
00000000
10000000
01000000
10000000
00100000
00000000
01000000
00010000
00000000
00100000
00000000
,
01000000
00000000
00010000
00000000
00100000
00000000
00001000
00000000
00010000
00001000
00010000
00000010
00001000
00000010
00010000
00001000
,
00010000
00000000
00000100
00000000
00001000
00000000
00000001
00000100
00000010
00000100
00000000
00000001
00000100
00000000
00000010
00000000
,
00001000
00000000
00000001
00000000
00000100
00000000
00000010
00000100
00000010
00001000
00000010
00001000
00000100
00010000
00001000
00010000
,
00001000
00000000
01000000
00000000
00010000
00000000
00100000
00001000
00010000
00001000
00000000
00100000
00010000
00000000
10000000
00000000
,
00010000
00000000
01000000
00000000
00100000
00000000
10000000
01000000
00010000
00000000
01000000
10000000
00100000
01000000
00010000
00000000
,
10000000
00000000
01000000
00000000
00100000
00000000
00001000
00010000
00001000
00010000
00000000
00001000
01000000
00000000
00001000
00000000
,
00010000
00000000
00001000
00000100
00001000
00000000
00000100
00000000
00000010
00000001
00001000
00000001
00000100
00000001
00001000
00000001
,
00000010
00000000
00000001
00000000
00001000
00000000
00000001
00000100
00000010
00001000
00000000
00000010
00000100
00000000
00000001
00000000
,
00001000
00000000
00000100
00000000
00000010
00000000
00001000
00000100
00010000
00001000
00100000
00010000
00100000
01000000
00100000
00010000
,
10000000
00000000
00010000
00000000
01000000
00000000
00010000
10000000
01000000
10000000
00000000
00100000
01000000
00000000
00100000
00000000
,
00001000
00000000
00010000
00000000
00001000
00000000
00000100
00000010
00000100
00000010
00000001
00000100
00000010
00001000
00000001
00000010
,
00000100
00000000
00001000
00000000
00000100
00000010
00000001
00000010
00000001
00001000
00000000
00000010
00000100
00000000
00000001
00000000
,
00001000
00000000
00000100
00000000
00000010
00000000
00001000
00010000
00001000
00000000
00010000
00001000
00010000
00100000
00010000
00000000
,
00100000
00000000
01000000
00000000
10000000
00010000
01000000
00100000
10000000
01000000
00000000
00100000
00001000
00000000
00010000
00000000
,
00022000
00000000
00000000
00033000
,
00001000
00000000
00000001
00000100
00000000
00000001
00001000
00000000
,
00000001
00000010
00000000
00000001
00001000
00000000
00000001
00000000
,
00000100
00000000
00000010
00001000
00000000
00000100
00001000
00000000
,
00000010
00010000
00000000
00001000
00010000
00000000
00001000
00000000
,
00100000
00000000
00010000
01000000
00000000
00100000
01000000
00000000
,
00010000
01000000
00000000
00100000
10000000
00000000
00010000
10000000
,
01000000
00000000
00100000
00001000
00000000
00010000
00001000
00000000
,
00010000
00000010
00001000
00000100
00010000
00001000
00010000
00000000
,
00000010
00000000
00001000
00000100
00000000
00000010
00000001
00000000
,
00001000
00000010
00000000
00000100
00000001
00000000
00001000
00000000
,
00000010
00000000
00010000
00001000
00000000
00100000
00010000
00000000
,
10000000
00010000
00000000
01000000
00100000
00000000
10000000
00000000
,
01000000
00000000
00100000
00010000
00000000
10000000
01000000
00000000
,
00100000
00001000
00000000
00010000
00000100
00000000
00000010
00000001
,
00001000
00000000
00000001
00000100
00000000
00000010
00001000
00000000
,
00000001
00000010
00000100
00001000
00000100
00000010
00000001
00000000
,
00001000
00000000
00000001
00000100
00000001
00000100
00000010
00000000
,
00001000
00000100
00001000
00000100
00010000
00000000
00001000
00000000
,
00100000
00000000
00010000
10000000
00010000
10000000
01000000
00000000
,
00100000
00010000
00100000
00010000
00100000
00000000
00001000
00000000
,
00010000
00000000
00000010
00001000
00000100
00001000
00000010
00000000
,
00000100
00000001
00000010
00000001
00001000
00000000
00000001
00000100
,
00000010
00000000
00001000
00000100
00010000
00001000
00010000
00000000
,
00000010
00010000
00001000
00100000
00001000
00010000
00001000
01000000
,
00100000
00000000
10000000
01000000
00100000
00010000
01000000
00000000
,
00001000
00010000
00000100
00001000
00000010
00000000
00001000
00000100
,
00000010
00000000
00000001
00000010
00000100
00001000
00010000
00000000
,
00000100
00001000
00010000
00100000
01000000
00000000
00100000
01000000
,
00010000
10000000
01000000
00100000
00010000
00100000
00001000
00010000
,
00000010
00001000
00000100
00001000
00000001
00000100
00001000
00000100
,
00000001
00000000
00000000
00000100
00000000
00000000
00001000
00000000
,
00010000
00000000
00001000
00010000
00100000
10000000
00010000
01000000
,
00200000
00000000
00000000
00000000
,
00300000
00000000
00000000
00000000
;
