#VERSION:0.83;
#TITLE:Poseidon;
#ARTIST:Massive New Krew;
#BANNER:Poseidon.png;
#BACKGROUND:Poseidon-bg.png;
#CDTITLE:./CDTitles/WACCA.png;
#MUSIC:Poseidon.ogg;
#SAMPLESTART:92.9;
#SAMPLELENGTH:15;
#DISPLAYBPM:77.5:155;
#BPMS:0=155,70=77.5,71=155,77.75=310,78=155,86=77.5,86.5=155,93.25=310,93.5=155,100.5=77.5,101.5=155,104.5=77.5,105=155,108=77.5,108.5=155,111.5=77.5,112=155,130=77.5,131=155,135=116.25,138=77.5,154=155,216=77.5,217=155,249=77.5,253=155,307=77.5,308=155;
#STOPS:77.75=0.048,93.25=0.049;
#TIMESIGNATURES:0=4=4,68=3=4,71=4=4,83=3=4,86=4=4,98=3=4,101=4=4,105=3=4,108=4=4,128=3=4,131=4=4,135=3=4,138=4=4,214=3=4,217=4=4,305=3=4,308=4=4;
#BGSTAGE:27;

//--------------- dance-single - Fred-104 ----------------
#NOTEDATA:;
#STEPSTYPE:dance-single;
#DESCRIPTION:Fred-104;
#DIFFICULTY:Beginner;
#METER:4;
#CREDIT:Fred-104;
#NOTES:
0000
0000
0000
0000
,
0000
0000
0000
0000
,
0000
0000
0000
0000
,
0000
0000
0000
0000
,
0000
0000
0000
0000
,
0000
0000
0000
0000
,
0000
0000
0000
0000
,
0000
0000
0000
0000
,
0000
0000
0000
0000
,
0000
0000
0000
0000
,
1000
0000
1000
0000
,
0010
0000
0010
0000
,
0100
0000
0100
0000
,
0001
0000
0001
0000
,
1000
0000
0001
0000
,
1000
0000
0001
0000
,
1000
1000
0001
0001
,
2002
0000
3003
1000
,
0000
1000
0000
0001
,
0001
0002
0003
1000
,
0000
0001
0000
1000
,
1000
0000
0001
0000
0000
0100
0000
0100
,
0000
0100
0000
0000
0000
0010
0000
0010
,
0000
0020
0000
0030
0000
1000
0000
1000
,
0000
1000
0000
1000
0000
1000
0000
0000
,
0000
0000
0000
0001
0000
0000
0000
1000
,
0000
1000
0000
0001
,
0000
1000
0000
0000
0000
0001
0000
0000
,
1000
0000
0001
0000
,
1000
0000
0010
0010
,
0100
0000
0001
0001
,
0001
0000
1000
0000
,
2002
0000
3003
1001
,
0000
0000
0000
0000
,
0000
0000
1000
0000
,
1000
0000
0010
0000
,
0010
0000
0001
0000
,
0001
0000
0100
0000
,
0100
0000
1000
0000
,
0010
0000
1000
0000
,
0001
0000
1000
0000
,
1000
0000
0001
0000
,
0100
0000
0001
0000
,
1000
0000
0001
0000
,
0001
0000
1000
0000
,
0001
0000
1000
0000
,
0001
0000
1000
0000
,
0000
0000
0001
0000
,
0000
0000
0100
0000
,
0000
0000
0010
0000
,
0000
0000
1000
0000
,
1000
0000
0001
0000
,
0001
0000
1000
1000
,
1000
1000
2002
0000
,
3003
0001
0000
0001
,
0000
0100
0100
0100
,
0000
0001
0000
1000
,
0000
0010
0010
0010
,
0000
1000
0000
0001
,
0000
1000
1000
1000
,
0000
0001
0000
0100
,
0000
0010
0010
0010
,
0000
1000
0001
1000
,
0001
1000
1000
1000
,
0000
0001
0001
0001
,
0000
0100
0100
0100
,
0000
0010
0010
0010
,
0000
0100
0100
0100
,
0000
0001
0000
1000
,
0000
2000
0000
0000
,
3000
0020
0000
0000
,
0030
0200
0000
0000
,
0300
0002
0000
0000
,
0003
1000
0000
0100
,
0000
0010
0000
0001
,
0000
0100
0100
0100
,
0100
0220
0000
0330
,
1001
0000
0000
0000
;

//--------------- dance-single - Fred-104 ----------------
#NOTEDATA:;
#STEPSTYPE:dance-single;
#DESCRIPTION:Fred-104;
#DIFFICULTY:Easy;
#METER:8;
#CREDIT:Fred-104;
#NOTES:
0000
0000
0000
0000
,
0000
0000
0000
0000
,
0000
0000
0000
0000
,
0000
0000
0000
0000
,
0000
0000
0000
0000
,
0000
0000
0000
0000
,
0000
0000
0000
0000
,
0000
0000
0000
0000
,
0000
0000
0000
0000
,
0000
0000
0000
0000
,
1000
0010
1000
0000
0001
0000
0001
0000
,
0100
0010
0100
0000
0001
0000
0001
0000
,
0100
0010
0100
0000
1000
0000
1000
0000
,
0001
0100
0001
0000
1000
0000
1000
0000
,
0001
0001
0100
0100
,
0010
0010
1000
1000
,
0001
0010
0100
1000
,
2002
0000
3003
1000
,
1100
0000
1000
0000
1100
0000
0001
0100
,
0001
0200
0310
0100
,
0110
0010
0110
0100
,
1000
0000
0001
1000
0002
1003
0000
1010
,
0000
1000
0000
1010
0000
0001
0100
0001
,
0000
0200
0000
0310
0000
2000
0000
3002
,
0000
2003
0000
3002
0000
1003
0000
0010
,
0000
0100
0100
0010
0000
0100
0000
2002
,
0000
3003
0001
0100
0001
0000
2002
0000
,
3003
1000
0000
0100
0000
0220
0000
0330
,
0001
0100
0010
1000
,
1000
0100
2200
3300
,
0001
0100
0202
0303
,
1000
1000
0010
0100
,
0002
0000
0000
0000
1003
0001
1001
0000
,
0000
0000
0000
0000
,
0000
0000
2000
3100
,
0002
0003
0001
0100
,
2000
3000
1000
0010
,
0002
0003
0001
0010
,
2000
3000
1000
1000
,
0010
0100
0001
1000
,
0002
0003
0100
0100
,
0010
0100
0001
1000
,
0002
0003
1000
1000
,
0100
0010
0001
1000
,
0020
0030
0100
0100
,
0001
1000
0001
0100
,
0020
0000
0030
0000
0001
0010
0001
0000
,
1000
0000
1000
0000
0100
0010
0100
0000
,
1000
0000
1000
0000
0100
0010
0100
0000
,
0001
0000
0001
0000
1000
0100
1000
0000
,
0001
0001
1000
1000
,
0100
0100
0010
0010
,
0001
0001
1000
0010
,
0100
0001
2002
0000
,
3003
1000
0010
1000
,
1000
0001
0100
0010
,
0000
0100
0100
0001
,
1000
0001
1000
0001
,
0000
1000
1000
0010
,
0100
0001
0100
0010
,
0000
1000
0010
1000
,
1000
0001
0100
0110
,
0000
0000
0001
0010
0001
0000
1000
0010
,
0100
0100
0001
0000
0001
0000
0100
0000
,
0010
0000
1000
0000
0001
1000
0001
0000
,
0000
0000
1000
0100
1000
0000
0100
0000
,
1000
0000
0001
0000
0100
0010
0100
0000
,
0000
0000
0001
0000
0100
0000
0100
0010
,
0000
0010
0000
0000
1000
0000
2002
0000
,
3003
0000
0000
0000
1000
0000
0000
1000
0000
0000
1000
0000
0100
0000
0000
0000
,
0010
0000
0000
0000
0001
0000
0000
0001
0000
0000
0001
0000
1000
0000
0000
0000
,
0010
0000
0000
0000
0100
0000
0000
0100
0000
0000
0100
0000
0001
0000
0000
0000
,
1000
0000
0000
0000
0010
0000
0000
0010
0000
0000
0010
0000
0100
0000
0000
0000
,
0001
1000
0010
1000
,
0010
0100
0001
0100
,
0001
0000
1000
0001
1000
0000
0010
0100
,
0010
2002
0000
3003
,
1001
0000
0000
0000
;

//--------------- dance-single - Fred-104 ----------------
#NOTEDATA:;
#STEPSTYPE:dance-single;
#DESCRIPTION:Fred-104;
#DIFFICULTY:Medium;
#METER:11;
#CREDIT:Fred-104;
#NOTES:
0000
0000
0000
0000
,
0000
0000
0000
0000
,
0000
0000
0000
0000
,
0000
0000
0000
0000
,
0000
0000
0000
0000
,
0000
0000
0000
0000
,
0000
0000
0000
0000
,
0000
0000
0000
0000
,
0000
0000
0000
0000
,
0000
0000
0000
0000
,
1000
0100
1000
0000
0100
0000
1100
0000
,
0001
0100
0001
0000
0100
0000
0101
0000
,
1000
0010
1000
0000
0010
0000
1010
0000
,
0001
0010
0001
0000
0010
0000
0011
0000
,
0001
0000
0000
0001
0000
0000
0100
0000
0010
0000
0000
0010
0000
0000
1000
0000
,
0100
0000
0000
0100
0000
0000
1000
0000
0001
0000
0000
0001
0000
0000
0100
0000
,
0001
0100
0001
0100
0010
1000
0010
1000
,
0002
0000
0000
0000
0000
0000
0000
0000
1003
0001
1000
0000
1100
0000
0000
0000
,
0110
0000
1100
0000
0110
0000
0001
0100
,
0001
0000
0200
0000
0310
0010
1010
0000
,
1100
0000
1010
0000
1001
0000
0001
0100
,
0001
0001
1000
0010
0200
0301
0000
0101
,
0000
1001
0000
0100
0010
0100
0100
0100
,
0000
0002
0000
1003
0010
1000
0010
0001
,
0010
1000
0100
0001
0100
1000
0000
0001
,
0000
2002
3003
1010
0000
0010
0100
0001
,
0000
0002
0000
0000
1003
0000
0010
0000
0100
0000
0100
0000
0001
0000
0000
2000
,
0000
0000
3001
0000
0000
0000
0100
0000
0010
0000
0100
0000
0000
0020
0000
0000
,
1030
0000
0010
0000
0100
0000
0001
0000
1000
0000
0000
1000
0000
0000
0001
0000
,
0100
0000
0000
0000
0001
0000
0001
0000
1000
0000
0000
0010
0000
0000
0100
0000
,
0001
0000
0100
0000
0001
0000
0010
0000
0001
0000
0000
1000
0000
0000
0001
0000
,
0100
0010
0100
0010
1000
0010
1000
0001
,
2000
0000
0000
0000
0000
0000
0000
0000
3001
0001
1000
0000
1001
0000
0000
0000
,
0000
0000
0000
0000
,
0000
0000
0000
0000
0000
0000
0000
0000
1000
0010
1000
0000
0001
0010
0001
0010
,
0000
0100
1000
0100
2000
0000
0000
0000
3001
0100
0001
0000
1000
0100
1000
0100
,
0000
0010
0001
0010
0002
0000
0000
0000
1003
0100
1000
0000
0001
0100
0001
0100
,
0000
0010
1000
0010
2000
0000
0000
0000
3001
0010
0001
0000
1000
0010
1000
0010
,
0000
0100
0001
0100
0002
0000
0000
0000
1003
0000
0010
0000
0100
0000
0000
0000
,
0001
0010
0001
0100
0000
0100
0010
1000
,
0001
0000
1000
0010
0100
0010
1000
0000
,
0001
0010
0100
1000
0000
0001
0100
0001
,
1000
0000
0010
0100
0010
1000
0010
0000
,
1000
0100
0010
0100
0000
0010
0001
1000
,
0001
0000
0100
0010
0100
0010
1000
0000
,
0001
0010
0100
1000
0000
0001
0100
0010
,
1000
0000
1001
0000
0001
0100
0001
0000
,
0100
0000
0101
0000
1000
0100
1000
0000
,
0100
0000
1100
0000
0001
0010
0001
0000
,
0010
0000
0011
0000
1000
0010
1000
0000
,
0010
0000
0000
0000
1010
0000
0000
0000
1000
0000
0000
1000
0000
0000
0100
0000
,
0010
0000
0000
0010
0000
0000
0001
0000
0100
0000
0000
0100
0000
0000
0001
0000
,
1000
0000
0000
1000
0000
0000
0100
0000
1000
0000
0100
0000
1000
0000
0100
0000
,
0010
0001
0010
0001
2000
0000
0000
0000
,
3001
1000
0001
0000
1000
0000
1000
0000
0010
0000
0000
0000
1000
0000
0100
0000
,
1000
0001
0000
1000
0100
0010
0001
0000
,
0100
0010
0100
0100
0001
0000
1000
0001
,
0010
0001
0000
1000
0001
0100
0010
0000
,
1000
0010
0100
0100
0010
0000
1000
0010
,
0100
0001
0000
1000
0100
0010
0001
0000
,
1000
0001
0100
0100
0100
0000
0001
0010
,
0001
1000
0000
0010
1000
0001
1000
0000
,
1001
0000
0000
0000
1000
0010
0100
0010
1000
0100
0010
0001
0000
0100
0010
0100
,
0001
0000
1000
1000
0001
0000
0100
0000
0001
0000
0000
0000
0100
0000
0100
0000
,
0010
1000
0000
0010
1000
0100
1000
0000
,
0001
0001
1000
0001
0100
0000
0001
0001
,
1000
0001
0000
0100
0001
1000
0010
0000
,
0110
0000
1000
1000
0100
0100
1000
1000
,
0001
0100
0000
0100
0010
0100
0110
0000
,
1001
0000
0000
0000
1000
0000
0000
1100
0000
0000
0100
0000
0010
0000
0001
0000
,
1000
0000
0001
0000
0100
0000
0000
0110
0000
0000
0010
0000
1000
0000
0001
0000
,
0100
0000
0010
0000
0100
0000
0000
0101
0000
0000
0001
0000
1000
0000
0001
0000
,
0100
0000
0010
0000
1000
0000
0000
1001
0000
0000
0001
0000
0100
0000
0010
0000
,
0100
0001
1000
0100
0010
0000
0001
0100
,
0010
0000
1000
0001
0100
0000
0001
1000
,
0100
0000
0000
0000
1000
0100
1000
0000
0001
0100
0001
0000
0100
0010
0100
0000
,
0001
1000
0001
0000
0220
0000
0000
0000
0000
0000
0330
0000
0010
0010
0100
0000
,
1001
0000
0000
0000
;

//--------------- dance-single - Fred-104 ----------------
#NOTEDATA:;
#STEPSTYPE:dance-single;
#DESCRIPTION:Fred-104;
#DIFFICULTY:Hard;
#METER:15;
#CREDIT:Fred-104;
#NOTES:
0000
0000
0000
0000
,
0000
0000
0000
0000
,
0000
0000
0000
0000
,
0000
0000
0000
0000
,
0000
0000
0000
0000
,
0000
0000
0000
0000
,
0000
0000
0000
0000
,
0000
0000
0000
0000
,
0000
0000
0000
0000
,
0000
0000
0000
0000
,
1000
1000
1000
0000
1010
0000
0101
0000
,
0001
0001
0001
0000
0011
0000
1100
0000
,
1000
1000
1000
0000
1100
0000
0011
0000
,
0001
0001
0001
0000
0101
0000
1010
0000
,
1000
0100
1000
0010
1000
0100
0010
0001
,
1000
0001
0010
0001
1000
0010
0100
0001
,
1000
0100
1000
0000
0001
0100
0001
0000
1000
0010
1000
0010
0100
0001
0100
0001
,
2000
0000
3200
0000
0320
0000
0032
0000
0203
0320
0230
0301
1001
0000
0000
0000
,
1100
0000
1001
0000
0101
0000
1001
0001
,
0100
0000
0000
0000
0000
0000
0000
0000
0010
0000
0000
0000
0000
0000
0000
0000
1010
0000
0000
0000
0000
0000
0000
0000
0000
0000
0000
0000
2000
3000
0000
0000
0001
0000
0000
0000
0000
0000
0000
0000
0100
0000
0000
0000
0000
0000
0000
0000
0101
0000
0000
0000
0000
0000
0000
0000
0000
0000
0000
0000
0000
0000
0000
0000
,
1100
0000
0000
0000
0101
0000
0000
0000
1010
0000
1000
0000
0001
0000
0100
0010
,
1000
0010
0000
0100
0001
1000
0001
0000
2000
0000
3001
0000
0100
0000
0010
0000
,
0100
0000
0001
0000
1000
0000
0010
1000
0001
0100
0001
0000
0101
0000
0101
0000
,
0000
0000
0000
0000
0000
0000
0000
0000
1001
0000
0000
0000
0000
0000
0000
0000
0000
0000
0000
0000
0020
0030
0000
0000
0100
0000
0000
0000
0000
0000
0000
0000
0010
0000
0000
0000
0000
0000
0000
0000
1000
0000
0000
0000
0000
0000
0000
0000
0001
0000
0000
0000
0100
0000
0000
0000
0001
0000
0000
0000
0000
0000
0000
0000
,
1000
0100
1000
0000
0001
0100
0001
0100
0010
1000
0010
1000
0001
1000
0002
0000
,
0000
0000
0000
0000
1003
0100
1000
0100
2000
0000
3010
0000
0100
0000
0000
0000
0000
0000
0000
0000
0101
0000
0000
0000
0001
0000
0000
0000
0010
0000
0100
0000
,
0000
1000
0020
0230
0301
0000
1000
0001
1000
0000
0100
0000
0110
0000
0000
0010
,
0002
1003
1001
0000
0000
0000
1100
0000
0100
0000
0010
0001
0000
0001
0200
0320
,
1030
0000
0100
0000
0001
0000
0100
0000
1100
0000
0000
0101
0000
0000
0110
0000
,
1001
0000
0000
0000
1100
0000
0100
0000
0010
0000
0001
0100
0000
0010
0100
0000
,
0001
0000
0001
0000
1001
0000
1000
0000
0010
0000
0000
0010
0100
0000
0001
0000
,
1000
0000
0001
0100
0010
0000
1000
0100
0010
0000
0001
0000
1000
0001
0100
0001
,
2000
0000
0000
0000
0000
0000
0000
0000
0000
0000
0000
0000
0000
0000
0000
0000
3001
0000
0100
0010
1000
0000
0000
0000
1001
0000
0000
0000
0000
0000
0000
0000
,
0000
0000
0000
0000
,
0000
0000
0000
0000
0000
0000
0000
0000
1000
0010
0200
0000
0301
0100
1000
0200
,
0000
0310
0100
0001
2000
0000
0001
0000
3001
0100
0020
0000
1030
0010
0001
0020
,
0000
0130
0010
1000
0002
0000
0100
0000
0103
0010
2000
0000
3001
0100
1000
0200
,
0000
0301
0100
0010
2000
0000
0100
0000
3100
0010
0002
0000
1003
0100
0001
0200
,
0000
0000
1300
0000
0100
0000
0010
0000
0002
0000
0000
0000
1003
0001
1000
0001
1000
0000
0000
0000
0100
0000
0000
0000
2000
0000
0000
0000
0000
0000
0000
0000
,
3100
0010
0001
0020
0000
0031
0100
0010
,
2000
0000
0000
0000
0000
0000
3001
1000
0001
0000
0010
0000
0200
0000
0000
0000
,
0310
0001
0100
0020
0000
1030
0001
1000
,
0200
0000
0000
0000
0000
0000
1300
0100
1000
0000
0010
0000
0200
0000
0000
0000
,
0301
0010
0001
2000
0000
3100
0010
1000
,
0020
0000
0000
0000
0031
1000
0200
0000
,
0301
1000
0010
2000
0000
3001
0100
0010
,
2000
0000
0000
0000
3001
0010
0100
1000
0001
0000
0001
0000
0001
0000
0000
0000
,
0101
0000
1010
0000
1000
1000
1000
0000
,
1100
0000
0011
0000
0001
0001
0001
0000
,
0011
0000
1100
0000
1000
1000
1000
0000
,
1010
0000
0101
0000
0001
0100
0010
1000
,
0001
0010
0100
1000
0001
1000
0100
1000
,
0010
0000
0100
0000
0001
0000
0100
0000
0001
0100
0001
0100
0010
1000
0010
1000
,
0001
0010
0001
0010
0100
1000
0100
1000
0002
0000
0203
0000
0320
0000
2030
0000
,
3002
0023
0230
1300
1001
0000
1000
0000
1010
0000
0000
0000
0110
0000
0100
0000
,
0001
1001
0000
1100
0100
0010
0011
0000
,
0100
0000
0001
1000
0010
0000
0100
0000
0110
0000
0000
0000
1010
0000
1000
0000
,
0100
0110
0000
0101
0001
0010
0011
0000
,
1000
0000
0001
1000
0100
0000
1000
0000
1001
0000
0000
0000
1100
0000
0100
0000
,
0010
0110
0000
0011
0001
0100
0101
0000
,
0100
0010
1000
1000
1010
0000
0011
0001
,
0001
0101
0000
0100
0100
1000
1100
0000
,
1000
0001
0010
0001
0200
0010
0010
0310
1000
0010
0100
0002
0000
1003
0100
0010
,
0011
0000
0000
0000
0001
0100
0001
0100
0010
0000
0000
0000
1000
0000
0100
0000
1000
0000
0000
0000
0100
0000
0000
0000
0010
0000
0001
0000
0010
0000
0000
0000
,
0001
0000
1000
0000
0001
0000
0100
0010
0100
0000
0001
0000
1000
0000
0010
0000
,
0100
0000
0100
0001
0100
0000
0001
0010
0001
0000
1000
0000
0001
1000
0001
0000
,
0100
0000
0010
0000
1000
0000
0100
0010
0100
0000
1000
0000
1100
0000
0000
0000
,
0101
0000
1000
1100
1100
1100
1001
1001
,
0001
0000
0101
0000
0000
0000
0001
0000
0100
0000
0010
1000
0001
0000
0000
0000
,
1000
0100
0010
0001
1000
0000
0000
1010
0000
0000
1001
0000
0001
0000
0100
0000
,
0010
0000
1000
0001
0100
0000
0000
1001
0000
0000
0101
0000
0001
0000
0100
0010
,
1000
0010
0100
0010
1000
0000
0000
1100
0000
0000
0110
0000
0001
0100
0010
0100
,
0001
1000
0001
0000
1001
0000
0000
0110
0000
0000
1001
0000
1000
0000
0001
1000
,
0010
0100
0001
0000
0011
0000
0010
0000
0100
0000
1000
0000
1010
0000
0010
0000
,
0100
0001
0101
0100
0010
1000
1100
0100
,
0010
0000
0001
0000
1000
0010
0100
0001
1000
0100
0010
0001
0010
0100
1000
0001
,
0100
0001
0100
0010
0200
0000
0000
0000
0000
0000
0000
0000
0302
0203
0320
1030
,
1001
0000
0000
0000
;

//--------------- dance-single - Fred-104 ----------------
#NOTEDATA:;
#STEPSTYPE:dance-single;
#DESCRIPTION:Fred-104;
#DIFFICULTY:Challenge;
#METER:17;
#CREDIT:Fred-104;
#NOTES:
0000
0000
0000
0000
,
0000
0000
0000
0000
,
0000
0000
0000
0000
,
0000
0000
0000
0000
,
0000
0000
0000
0000
,
0000
0000
0000
0000
,
0000
0000
0000
0000
,
0000
0000
0000
0000
,
0000
0000
0000
0000
,
0000
0000
0000
0000
,
0001
0000
0000
0000
0000
0000
0000
0000
0100
0000
0000
0000
0000
0000
0000
0000
0020
0000
0000
0000
0000
0000
0000
0000
0000
0000
0000
0000
0000
0000
0000
0030
1010
0000
0000
0000
0000
0000
0000
0000
MMMM
0000
0000
0000
0000
0000
0000
0000
0101
0000
0000
0000
0000
0000
0000
0000
MMMM
0000
0000
0000
0000
0000
0000
0000
,
1000
0000
0000
0000
0000
0000
0000
0000
0100
0000
0000
0000
0000
0000
0000
0000
0020
0000
0000
0000
0000
0000
0000
0000
0000
0000
0000
0000
0000
0000
0000
0030
0011
0000
0000
0000
0000
0000
0000
0000
MMMM
0000
0000
0000
0000
0000
0000
0000
1100
0000
0000
0000
0000
0000
0000
0000
MMMM
0000
0000
0000
0000
0000
0000
0000
,
0001
0000
0000
0000
0000
0000
0000
0000
0010
0000
0000
0000
0000
0000
0000
0000
0200
0000
0000
0000
0000
0000
0000
0000
0000
0000
0000
0000
0000
0000
0000
0300
1100
0000
0000
0000
0000
0000
0000
0000
MMMM
0000
0000
0000
0000
0000
0000
0000
0011
0000
0000
0000
0000
0000
0000
0000
MMMM
0000
0000
0000
0000
0000
0000
0000
,
1000
0000
0000
0000
0000
0000
0000
0000
0010
0000
0000
0000
0000
0000
0000
0000
0200
0000
0000
0000
0000
0000
0000
0000
0000
0000
0000
0000
0000
0000
0000
0300
0101
0000
0000
0000
0000
0000
0000
0000
MMMM
0000
0000
0000
0000
0000
0000
0000
1010
0000
0000
0000
0000
0000
0000
0000
MMMM
0000
0000
0000
0000
0000
0000
0000
,
0001
0000
0100
0010
1000
0000
0010
0100
0001
0000
1000
0100
0010
0000
0001
0010
,
0100
0000
1000
0001
0100
0000
0001
1000
0010
0000
1000
0001
0100
0000
0001
1000
,
0100
0010
0001
0100
0010
1000
0100
0010
0001
0010
0100
1000
0010
0100
0001
0010
,
0200
0000
0300
0000
0020
0000
0030
0000
0002
0000
0003
0000
2000
0000
3000
0000
0002
0003
0200
0300
0020
0030
2000
3000
1001
0000
0000
0000
1000
0000
0000
0000
,
1100
0100
0110
0010
0011
0100
1001
0100
,
1100
0000
0000
0000
0000
0000
0000
0000
0000
0000
0000
0000
0000
0000
0000
0000
0000
0000
0000
0000
0000
0000
0000
0000
0000
0000
0000
0000
0000
0000
0000
0000
0000
0000
0000
0000
0000
0000
0000
0000
0000
0000
0000
0000
0000
0000
0000
0000
0110
0000
0000
0000
0000
0000
0000
0000
0000
0000
0000
0000
0000
0000
0000
0000
0000
0000
0000
0000
0000
0000
0000
0000
0000
0000
0000
0000
0000
0000
0000
0000
0000
0000
0000
0000
0002
0003
0000
0000
0000
0000
0000
0000
0000
0000
0000
0000
0001
0000
0000
0000
0000
0000
0000
0000
0000
0000
0000
0000
0000
0000
0000
0000
0000
0000
0000
0000
0000
0000
0000
0000
1000
0000
0000
0000
0000
0000
0000
0000
0000
0000
0000
0000
0000
0000
0000
0000
0000
0000
0000
0000
0000
0000
0000
0000
1010
0000
0000
0000
0000
0000
0000
0000
0000
0000
0000
0000
0000
0000
0000
0000
0000
0000
0000
0000
0000
0000
0000
0000
0100
0000
0000
0000
0000
0000
0000
0000
0000
0000
0000
0000
0000
0000
0000
0000
0000
0000
0000
0000
0000
0000
0000
0000
,
1010
0000
0001
0000
1010
0000
0100
0000
1010
0000
0001
0000
1000
0000
0001
0010
,
0100
1000
0000
0001
0100
0010
1000
0000
2001
0000
3002
0000
0013
0100
2000
0000
,
3010
0000
0000
0100
0000
0000
0002
0000
0000
0000
0000
0000
1003
0000
0000
0100
0000
0000
0010
0000
0000
0001
0000
0000
1000
0000
0010
0000
1000
0000
0001
0000
0000
0000
0000
0000
0101
0000
0000
0000
0000
0000
1001
0000
0000
0000
0000
0000
,
1000
0000
0000
0000
0000
0000
0000
0000
0000
0000
0000
0000
0000
0000
0000
0000
0000
0000
0000
0000
0000
0000
0000
0000
1100
0000
0000
0000
0000
0000
0000
0000
0000
0000
0000
0000
0000
0000
0000
0000
0000
0000
0000
0000
0000
0000
0000
0000
0000
0000
0000
0000
0000
0000
0000
0000
0000
0000
0000
0000
0200
0300
0000
0000
0000
0000
0000
0000
0000
0000
0000
0000
0010
0000
0000
0000
0000
0000
0000
0000
0000
0000
0000
0000
0000
0000
0000
0000
0000
0000
0000
0000
0000
0000
0000
0000
0001
0000
0000
0000
0000
0000
0000
0000
0000
0000
0000
0000
0000
0000
0000
0000
0000
0000
0000
0000
0000
0000
0000
0000
1001
0000
0000
0000
0000
0000
0000
0000
0000
0000
0000
0000
0000
0000
0000
0000
0000
0000
0000
0000
0000
0000
0000
0000
1000
0000
0000
0000
0000
0000
0000
0000
0000
0000
0000
0000
0100
0000
0000
0000
0000
0000
0000
0000
0000
0000
0000
0000
1000
0000
0000
0000
0000
0000
0000
0000
0000
0000
0000
0000
0000
0000
0000
0000
0000
0000
0000
0000
0000
0000
0000
0000
,
0010
0000
0000
0000
0000
0000
0000
0000
0000
0000
0000
0000
0100
0000
0000
0000
0000
0000
0000
0000
0000
0000
0000
0000
0001
0000
0000
0000
0000
0000
0000
0000
0000
0000
0000
0000
1000
0000
0000
0000
0000
0000
0000
0000
0000
0000
0000
0000
0200
0300
0000
0000
0000
0000
0000
0000
0000
0000
0000
0000
0200
0300
0000
0000
0000
0000
0000
0000
0000
0000
0000
0000
0001
0000
0000
0000
0000
0000
0000
0000
0000
0000
0000
0000
1000
0000
0000
0000
0000
0000
0000
0000
0000
0000
0000
0000
0020
0030
0000
0000
0000
0000
0000
0000
0000
0000
0000
0000
0020
0030
0000
0000
0000
0000
0000
0000
0000
0000
0000
0000
0001
0000
0000
0000
0000
0000
0000
0000
0000
0000
0000
0000
0100
0000
0000
0000
0000
0000
0000
0000
0000
0000
0000
0000
0010
0000
0000
0000
0000
0000
0000
0000
0000
0000
0000
0000
1000
0000
0000
0000
0000
0000
0000
0000
0000
0000
0000
0000
0002
0000
0000
0000
0000
0000
0000
0000
0000
0000
0000
0000
0000
0000
0000
0000
0000
0000
0000
0000
0000
0000
0000
0000
,
0000
0000
0000
0000
1003
0010
0100
0001
2000
0000
3020
0000
0130
0000
0000
0000
0000
0000
0000
0000
0101
0000
0000
0000
0001
0000
0000
0000
0100
0000
0010
0000
,
0000
0010
1000
1000
0001
1000
0100
0010
0100
0000
1000
0000
0001
0100
0000
0100
,
0010
0010
1010
0000
0000
0000
0001
0000
1000
0000
0001
0010
0000
0100
1000
1000
,
0001
0000
0010
0000
1000
0000
0100
0000
0101
0000
0000
1001
0000
0000
1100
0000
,
1001
0000
0000
0000
1100
0000
0100
0000
0020
0000
0001
0100
0030
0000
2000
0000
,
3001
0000
1000
0001
0100
0000
0010
0000
0100
0000
0010
1000
0002
0000
0203
0000
,
0301
0000
1000
0001
0010
0000
0001
0100
0010
1000
0100
0010
0100
1000
0001
0100
,
0002
0000
0000
0000
0000
0000
0000
0000
1000
0000
0000
0000
0000
0000
0000
0000
1003
0000
0001
0100
0010
0000
0000
0000
0110
0000
0000
0000
0000
0000
0000
0000
,
0000
MMMM
0000
0000
MMMM
0000
MMMM
0000
,
0000
MMMM
0000
0000
0000
0000
0000
0000
0000
0000
MMMM
0000
0000
0000
0000
0000
1000
0000
0010
0000
0100
0000
0000
0000
1000
0000
0001
0000
0010
0000
1000
0000
,
0000
0001
1000
0001
0100
0000
MMMM
0000
0001
0010
0100
0000
0001
1000
0010
0001
,
0000
0000
1000
0000
0001
0000
1000
0000
0100
0000
0010
0000
0001
0100
0001
0000
1000
0000
0100
0000
0001
0000
0000
0000
1000
0000
0010
0000
0100
0000
1000
0000
,
0000
0001
0010
1000
0010
0000
MMMM
0000
0001
0100
1000
0000
0100
0001
0010
2000
,
0000
0000
3020
0000
0032
0000
2003
0000
3002
0000
0000
0000
1003
0100
0010
0001
1000
0000
0000
0000
0100
0000
0000
0000
0020
0000
0000
0000
0000
0000
0000
0000
,
1030
0010
0100
2000
0000
3001
0100
0010
,
0200
0000
0000
0000
0301
0100
0010
1000
0001
0000
0100
0000
0020
0000
0000
0000
,
0031
0010
0100
0002
0000
0103
0010
1000
,
0200
0000
0000
0000
0310
0001
1000
0001
0100
0000
0001
0000
2000
0000
0000
0000
,
3001
0100
1000
0200
0000
0301
0010
0100
,
1000
0000
MMMM
0000
0001
0100
0020
0000
,
0130
0001
1000
0200
0000
0301
0100
1000
,
0020
0000
0000
0000
0000
0000
0000
0000
0000
0000
0000
0000
0000
0000
0000
0000
1030
0000
0000
0000
0100
0000
0000
0000
0010
0000
0000
0000
0001
0000
0000
0000
1000
0000
0000
0000
0000
0000
0000
0000
0100
0000
0000
0000
0000
0000
0000
0000
0020
0000
0000
0000
0000
0000
0000
0000
0000
0000
0000
0000
0000
0000
0000
0030
,
0011
0000
0000
0000
0000
0000
0000
0000
MMMM
0000
0000
0000
0000
0000
0000
0000
1100
0000
0000
0000
0000
0000
0000
0000
MMMM
0000
0000
0000
0000
0000
0000
0000
0001
0000
0000
0000
0000
0000
0000
0000
0100
0000
0000
0000
0000
0000
0000
0000
0020
0000
0000
0000
0000
0000
0000
0000
0000
0000
0000
0000
0000
0000
0000
0030
,
1010
0000
0000
0000
0000
0000
0000
0000
MMMM
0000
0000
0000
0000
0000
0000
0000
0101
0000
0000
0000
0000
0000
0000
0000
MMMM
0000
0000
0000
0000
0000
0000
0000
1000
0000
0000
0000
0000
0000
0000
0000
0010
0000
0000
0000
0000
0000
0000
0000
0200
0000
0000
0000
0000
0000
0000
0000
0000
0000
0000
0000
0000
0000
0000
0300
,
0101
0000
0000
0000
0000
0000
0000
0000
MMMM
0000
0000
0000
0000
0000
0000
0000
1010
0000
0000
0000
0000
0000
0000
0000
MMMM
0000
0000
0000
0000
0000
0000
0000
0001
0000
0000
0000
0000
0000
0000
0000
0010
0000
0000
0000
0000
0000
0000
0000
0200
0000
0000
0000
0000
0000
0000
0000
0000
0000
0000
0000
0000
0000
0000
0300
,
1100
0000
MMMM
0000
0011
0000
MMMM
0000
1000
0000
0100
0010
0001
0000
0010
0100
,
1000
0000
0001
0100
0010
0000
1000
0010
0100
0000
0001
1000
0100
0000
1000
0001
,
0010
0000
0001
1000
0100
0000
1000
0001
0100
0010
1000
0100
0010
0001
0100
0010
,
1000
0010
0100
0001
0010
0100
1000
0010
2000
3000
0002
0003
0200
0300
0020
0030
,
2000
3000
0200
0300
0020
0030
0002
0003
0101
0000
0000
0000
0001
0000
0000
0000
0011
0000
0000
0000
MMMM
0000
0000
0000
0110
0000
0000
0000
0100
0000
0000
0000
,
1000
0000
1010
0000
0000
0000
0010
1000
0001
0000
0100
0000
0110
0000
0000
0000
,
1001
0000
0001
0100
0010
0000
0010
0000
1010
0000
MMMM
0000
1100
0000
0100
0000
,
0010
0011
0000
0101
0100
0010
1001
0000
,
1100
0000
0100
0010
0001
0000
0100
0000
0101
0000
MMMM
0000
0011
0000
0010
0000
,
0001
1001
0000
1010
1000
0100
1100
0000
,
1001
0000
0001
0001
0011
0000
1010
1000
,
1000
1100
0000
0100
0100
0001
0101
0000
,
1000
0100
0001
0100
2000
0001
0001
3001
1000
0100
0010
0002
0000
0103
0010
0001
,
0020
0000
0000
0000
0130
0001
1000
0001
0010
0000
0000
0000
0001
0000
1000
0000
0010
0000
0000
0000
0100
0000
0000
0000
0001
0000
0010
0000
0100
0000
1000
0000
,
0001
0000
0100
0010
1000
0000
0001
1000
0100
0000
0010
0000
0001
0100
0001
0000
,
0100
0010
1000
0010
0100
0000
0001
0010
0100
0000
1000
0000
0001
1000
0100
1000
,
0001
0000
1000
0100
0010
0000
0001
0100
0010
0000
0001
0010
1000
0001
1000
0000
,
1001
0000
MMMM
0101
1100
0101
1100
1001
,
MMMM
0000
1200
0000
0000
0000
1300
0000
0100
0000
0010
0001
1000
0000
0000
0000
,
0001
0100
0010
1000
1010
0000
0000
0101
0000
0000
1100
0000
0001
0000
0100
0000
,
0010
0000
1000
0010
0110
0000
0000
0101
0000
0000
0110
0000
0100
0000
0001
1000
,
0100
0000
0000
0010
0000
0000
0001
0000
0100
0000
0001
0000
0100
0000
0000
0000
0000
0000
0000
0000
0000
1010
0000
0000
0000
0000
0000
0000
0000
0000
1001
0000
0000
0000
0000
0000
0001
0000
0100
0000
0001
0000
0100
0000
0000
0010
0000
0000
,
1000
0000
0000
0100
0000
0000
0010
0000
0001
0000
1000
0000
0001
0000
0000
0000
0000
0000
0000
0000
0000
0110
0000
0000
0000
0000
0000
0000
0000
0000
1001
0000
0000
0000
0000
0000
0001
0000
0000
0000
0000
0000
1000
0000
0010
0000
0100
0000
,
0010
1000
0010
0100
0001
0000
0001
0010
0100
0000
0100
1000
0010
0000
0010
0100
,
0001
0000
0001
0100
1000
0000
1000
0100
0001
0000
0001
0010
1000
0000
1000
0010
,
0001
0000
0001
1000
0001
0100
0010
1000
0001
0010
0100
1000
0001
0010
0001
1000
,
0001
0000
0000
0000
0100
0000
0000
0000
0010
0000
0000
0000
1000
0000
0000
0000
0010
0000
0000
0000
0100
0000
0000
0000
0002
0000
0000
0000
0000
0000
0000
0000
0000
0000
0000
0000
0000
0000
0000
0000
0000
0000
0000
0000
0000
0000
0000
0000
0000
0000
0000
0000
0000
0000
0000
0000
0000
0000
0000
0000
0000
0000
0000
0000
0000
0000
0000
0000
0000
0000
0000
0000
2003
0000
0000
3000
0000
0000
0200
0000
0000
0300
0000
0000
0002
0000
0000
0003
0000
0000
0200
0000
0000
0300
0000
0000
,
1001
0000
0000
0000
;

//--------------- dance-double - Fred-104 ----------------
#NOTEDATA:;
#STEPSTYPE:dance-double;
#DESCRIPTION:Fred-104;
#DIFFICULTY:Easy;
#METER:8;
#CREDIT:Fred-104;
#NOTES:
00000000
00000000
00000000
00000000
,
00000000
00000000
00000000
00000000
,
00000000
00000000
00000000
00000000
,
00000000
00000000
00000000
00000000
,
00000000
00000000
00000000
00000000
,
00000000
00000000
00000000
00000000
,
00000000
00000000
00000000
00000000
,
00000000
00000000
00000000
00000000
,
00000000
00000000
00000000
00000000
,
00000000
00000000
00000000
00000000
,
10000000
00100000
10000000
00000000
00100000
00000000
00100000
00000000
,
01000000
00100000
01000000
00000000
00010000
00000000
00010000
00000000
,
00100000
00001000
00100000
00000000
00001000
00000000
00001000
00000000
,
00010000
00000010
00010000
00000000
00000100
00000000
00000100
00000000
,
00001000
00001000
00000010
00000100
,
00000001
00000001
00000010
00000100
,
00010000
00001000
00010000
00000000
00001000
00010000
00001000
00000000
,
00022000
00000000
00033000
00001000
,
00101000
00000000
00100000
00000000
00110000
00000000
00010000
10000000
,
00010000
02000000
03100000
01000000
,
01010000
00001000
00011000
00010000
,
00000010
00000000
00001000
00000001
00000200
00000301
00000000
00000101
,
00000000
00000001
00000000
00001001
00000000
00001000
00000100
00001000
,
00000000
00000020
00000000
00010030
00000000
00002000
00000000
00023000
,
00000000
00032000
00000000
00023000
00000000
00032000
00000000
00000000
,
00000000
00103000
00100000
00010000
00000000
10000000
00000000
20020000
,
00000000
30030000
01000000
00000000
00100000
00000000
02200000
00000000
,
03300000
00001000
00000000
00010000
00000000
00022000
00000000
00033000
,
00010000
00001000
00000100
00000001
,
00001000
00000100
00000220
00000330
,
00010000
00001000
00022000
00033000
,
00001000
00100000
00010000
10000000
,
02000000
00000000
00000000
00000000
03010000
00001000
00011000
00000000
,
00000000
00000000
00000000
00000000
,
00000000
00000000
00001000
00000100
,
00000002
00000003
00000001
00000100
,
00002000
00003000
00010000
00100000
,
20000000
30000000
10000000
01000000
,
00020000
00030000
00001000
00001000
,
00010000
00000010
00001000
00000001
,
00000200
00000000
00000301
00000001
,
00000010
00000100
00001000
00000100
,
00020000
00000000
00031000
01000000
,
00010000
00100000
00001000
00010000
,
02000000
03000000
10000000
00100000
,
00010000
00001000
00000100
00000010
,
00002000
00000000
00003000
00000000
00000001
00000010
00000001
00000000
,
00000010
00000000
00000010
00000000
00000100
00000010
00000100
00000000
,
00001000
00000000
00001000
00000000
00000010
00010000
00000010
00000000
,
00010000
00000000
00010000
00000000
00001000
00100000
00001000
00000000
,
01000000
01000000
00010000
00010000
,
00100000
01000000
10000000
10000000
,
00100000
00000000
01000000
00000000
00001000
00010000
00001000
00000000
,
00010000
00001000
00010000
00000000
00022000
00000000
00000000
00000000
,
00033000
00001000
00010000
00001000
,
00001000
00000000
00010000
00000000
00000010
00001000
00000020
00000000
,
00000030
00000100
00000100
00000001
,
00001000
00000000
00000001
00000000
00000010
00000001
00000020
00000000
,
00000030
00000001
00000001
00000100
,
00001000
00000000
00010000
00000000
00001000
00010000
00002000
00000000
,
00003000
00100000
00001000
00010000
,
00010000
00000000
00001000
00000000
01000000
00100000
02000000
00000000
,
03000000
00000000
00010000
10000000
01000000
00000000
00100000
00001000
,
00010000
00010000
00000100
00000000
00010000
00000000
00001000
00000000
,
00001000
00000000
00010000
00000000
00000010
00001000
00000010
00000000
,
00001000
00000001
00000001
00000100
,
00000010
00000000
00001000
00000000
00000010
00000100
00000010
00000000
,
00010000
00000000
00001000
00000000
00010000
00000000
00000000
00001000
,
00000000
00001000
00000000
00000000
00010000
00000000
00022000
00000000
,
00033000
00000000
00000000
00000000
00010000
00000000
00000000
00010000
00000000
00000000
00010000
00000000
00000000
00000000
00000000
00000000
,
00000000
00000000
00000000
00000000
01000000
00000000
00000000
01000000
00000000
00000000
01000000
00000000
00000000
00000000
00000000
00000000
,
00000000
00000000
00000000
00000000
00100000
00000000
00000000
00100000
00000000
00000000
00100000
00000000
00000000
00000000
00000000
00000000
,
00000000
00000000
00000000
00000000
10000000
00000000
00000000
10000000
00000000
00000000
10000000
00000000
00000000
00000000
00000000
00000000
,
00000000
01100000
00100000
00001000
,
00010000
00001000
00000100
00000010
,
00001000
00000000
00000001
00000010
00000001
00000000
00001000
00000100
,
00001000
00000220
00000000
00000330
,
00001001
00000000
00000000
00000000
;

//--------------- dance-double - Fred-104 ----------------
#NOTEDATA:;
#STEPSTYPE:dance-double;
#DESCRIPTION:Fred-104;
#DIFFICULTY:Medium;
#METER:11;
#CREDIT:Fred-104;
#NOTES:
00000000
00000000
00000000
00000000
,
00000000
00000000
00000000
00000000
,
00000000
00000000
00000000
00000000
,
00000000
00000000
00000000
00000000
,
00000000
00000000
00000000
00000000
,
00000000
00000000
00000000
00000000
,
00000000
00000000
00000000
00000000
,
00000000
00000000
00000000
00000000
,
00000000
00000000
00000000
00000000
,
00000000
00000000
00000000
00000000
,
00000001
00000100
00000001
00000000
00000100
00000000
00000110
00000000
,
00000010
00001000
00000010
00000000
00001000
00000000
00001100
00000000
,
00000100
00010000
00000100
00000000
00010000
00000000
00011000
00000000
,
00001000
00100000
00001000
00000000
00100000
00000000
00110000
00000000
,
00010000
10000000
00010000
00000000
01000000
00100000
01000000
00000000
,
00100000
10000000
00100000
00000000
10000000
01000000
10000000
00000000
,
00100000
10000000
01000000
00100000
00001000
00010000
00000100
00001000
,
00000200
00000000
00000000
00000000
00000000
00000000
00000000
00000000
00000310
00000100
00000010
00000000
00001001
00000000
00000000
00000000
,
00001100
00000000
00010100
00000000
00011000
00000000
00001000
00100000
,
00010000
00000000
20000000
00000000
30010000
01000000
01100000
00000000
,
10100000
00000000
01100000
00000000
10010000
00000000
00010000
10000000
,
01000000
00010000
00001000
00000010
00002000
00013000
00000000
00011000
,
00000000
00010100
00000000
00011000
00000000
00000010
00001000
00000010
,
00000000
00002000
00000000
00003001
00000010
00000100
00000010
00001000
,
00010000
01000000
00100000
00010000
10000000
01000000
00000000
00010000
,
00000000
00022000
00033000
00000100
00000000
00001000
00000010
00010000
,
00000000
00002000
00000000
00000000
00013000
00000000
00001000
00000000
00100000
00000000
00010000
00000000
01000000
00000000
00000000
00020000
,
00000000
00000000
00031000
00000000
00000000
00000000
00000010
00000000
00000100
00000000
00001000
00000000
00000000
00000002
00000000
00000000
,
00000103
00000000
00000010
00000000
00000100
00000000
00000000
00000000
00000001
00000000
00000000
00000001
00000000
00000000
00000001
00000000
,
00001000
00000000
00000000
00000000
00000100
00000000
00000100
00000000
00000001
00000000
00000000
00000100
00000000
00000000
00000010
00000000
,
00001000
00000000
00000001
00000000
00000010
00000000
00000100
00000000
00001000
00000000
00000000
00000100
00000000
00000000
00010000
00000000
,
00001000
00010000
00100000
01000000
00001000
00010000
00100000
10000000
,
02000000
00000000
00000000
00000000
00000000
00000000
00000000
00000000
03100000
00100000
00001000
00000000
00011000
00000000
00000000
00000000
,
00000000
00000000
00000000
00000000
,
00000000
00000000
00000000
00000000
00000000
00000000
00000000
00000000
00010000
00001000
00010000
00000000
00001000
00000010
00000001
00000010
,
00000000
00000001
00000100
00000001
00000200
00000000
00000000
00000000
00001300
00010000
00001000
00000000
00010000
01000000
10000000
01000000
,
00000000
10000000
00100000
10000000
00200000
00000000
00000000
00000000
00310000
00001000
00010000
00000000
00001000
00000100
00000001
00000100
,
00000000
00000001
00000010
00000001
00000020
00000000
00000000
00000000
00001030
00010000
00001000
00000000
00010000
00100000
10000000
00100000
,
00000000
10000000
01000000
10000000
02000000
00000000
00000000
00000000
03100000
00000000
00010000
00000000
00010000
00000000
00000000
00000000
,
10000000
00100000
01000000
00100000
00000000
00010000
00001000
00000100
,
00000010
00000000
00001000
00000001
00000010
00000100
00000100
00000000
,
00001000
00000100
00001000
00000001
00000000
00000100
00000001
00000100
,
00000010
00000000
00001000
00000001
00000010
00000100
00000010
00000000
,
00000001
00000100
00001000
00010000
00000000
00001000
00010000
00100000
,
01000000
00000000
00010000
00100000
01000000
10000000
01000000
00000000
,
00100000
00001000
00010000
00000010
00000000
00010000
00001000
00100000
,
00010000
00000000
10000000
00000000
10000000
01000000
10000000
00000000
,
01000000
00000000
01100000
00000000
00100000
00010000
00100000
00000000
,
00010000
00000000
01010000
00000000
01000000
00001000
01000000
00000000
,
00001000
00000000
00011000
00000000
00010000
00000010
00010000
00000000
,
00000010
00000000
00001010
00000000
00001000
00000001
00001000
00000000
,
00000100
00000010
00000100
00000000
00000010
00000001
00000010
00000000
,
00000001
00000100
00000001
00000000
00000010
00000001
00000100
00000010
,
00010000
00001000
01000000
00010000
02000000
00000000
00000000
00000000
,
03100000
01000000
00100000
00000000
10000000
00000000
00010000
00000000
10000000
00000000
00000000
00000000
00100000
00000000
00100000
00000000
,
10000000
01000000
00000000
00100000
00001000
00010000
00001000
00000000
,
00010000
00001000
00000010
00000001
00001000
00000000
00000001
00000100
,
00000010
00001000
00000000
00000001
00000100
00001000
00010000
00000000
,
00001000
00001000
00010000
00000010
00001000
00000000
00000010
00010000
,
00001000
00100000
00000000
00010000
00100000
01000000
00100000
00000000
,
00001000
00010000
00000100
00001000
00000001
00000000
00000100
00000010
,
00001000
00010000
00000000
01000000
00100000
00010000
00001000
00000000
,
00011000
00000000
00000000
00000000
00010000
00001000
00010000
00001000
00000100
00000001
00001000
00000010
00000000
00000100
00000001
00000010
,
00000100
00000000
00010000
00001000
00010000
00000000
00001000
00000000
00010000
00000000
00000000
00000000
00001000
00000000
00010000
00000000
,
01000000
10000000
00000000
01000000
10000000
00100000
01000000
00000000
,
00010000
00010000
10000000
00010000
01000000
00000000
00100000
00010000
,
00001000
00000100
00000000
00000010
00001000
00000001
00000010
00000000
,
00001001
00000000
00000001
00000100
00000100
00000010
00001000
00000100
,
00000100
00010000
00000000
00010000
00001000
01000000
00100000
00000000
,
10010000
00000000
00000000
00000000
10000000
00000000
00000000
11000000
00000000
00000000
01000000
00000000
00100000
00000000
00010000
00000000
,
10000000
00000000
00100000
00000000
01000000
00000000
00000000
01010000
00000000
00000000
00010000
00000000
01000000
00000000
00001000
00000000
,
00010000
00000000
00001000
00000000
00000100
00000000
00000000
00000110
00000000
00000000
00000010
00000000
00000001
00000000
00001000
00000000
,
00000100
00000000
00001000
00000000
00000010
00000000
00000000
00010010
00000000
00000000
00010000
00000000
00001000
00000000
00100000
00000000
,
00001000
00010000
00001000
00010000
00100000
00000000
00010000
00001000
,
00000010
00000000
00001000
00010000
01000000
00000000
00010000
00001000
,
00000100
00000000
00000000
00000000
00001000
00010000
00001000
00000000
00010000
00000010
00010000
00000000
00001000
00100000
00001000
00000000
,
00010000
00001000
00010000
00000000
00022000
00000000
00000000
00000000
00000000
00000000
00033000
00000000
01000000
00100000
01000000
00000000
,
10010000
00000000
00000000
00000000
;

//--------------- dance-double - Fred-104 ----------------
#NOTEDATA:;
#STEPSTYPE:dance-double;
#DESCRIPTION:Fred-104;
#DIFFICULTY:Hard;
#METER:15;
#CREDIT:Fred-104;
#NOTES:
00000000
00000000
00000000
00000000
,
00000000
00000000
00000000
00000000
,
00000000
00000000
00000000
00000000
,
00000000
00000000
00000000
00000000
,
00000000
00000000
00000000
00000000
,
00000000
00000000
00000000
00000000
,
00000000
00000000
00000000
00000000
,
00000000
00000000
00000000
00000000
,
00000000
00000000
00000000
00000000
,
00000000
00000000
00000000
00000000
,
00000001
00000100
00000001
00000000
00000101
00000000
00001100
00000000
,
00010000
00001000
00010000
00000000
01010000
00000000
11000000
00000000
,
10000000
00100000
10000000
00000000
10100000
00000000
00110000
00000000
,
00010000
00001000
00010000
00000000
00001010
00000000
00000011
00000000
,
00000001
00000100
00000001
00000100
00000010
00001000
00000010
00001000
,
00000100
00010000
00001000
00100000
00010000
10000000
00100000
01000000
,
00010000
01000000
00010000
00000000
10000000
01000000
10000000
00000000
00100000
01000000
00100000
01000000
00010000
10000000
00010000
10000000
,
02000000
00000000
00000000
00000000
00000000
00000000
00000000
00000000
03200000
00320000
00032000
00003100
00000110
00000000
00000000
00000000
,
00001100
00000000
00000110
00000000
00001100
00000000
00000110
00001000
,
00000001
00000000
00000000
00000000
00000000
00000000
00000000
00000000
00000000
00000000
00000000
00000000
00000000
00000000
00000000
00000000
00001001
00000000
00000000
00000000
00000000
00000000
00000000
00000000
00000000
00000000
00000000
00000000
00000002
00000003
00000000
00000000
00000100
00000000
00000000
00000000
00000000
00000000
00000000
00000000
00000010
00000000
00000000
00000000
00000000
00000000
00000000
00000000
00001010
00000000
00000000
00000000
00000000
00000000
00000000
00000000
00000000
00000000
00000000
00000000
00000000
00000000
00000000
00000000
,
00011000
00000000
00000000
00000000
00001010
00000000
00000000
00000000
00011000
00000000
00001000
00000000
00100000
00000000
00010000
01000000
,
00010000
01000000
00000000
00100000
01000000
00010000
10000000
00000000
00020000
00000000
10030000
00000000
01000000
00000000
10000000
00000000
,
01000000
00000000
00010000
00000000
01000000
00000000
10000000
00010000
01000000
00010000
01000000
00000000
01010000
00000000
00011000
00000000
,
00000000
00000000
00000000
00000000
00000000
00000000
00000000
00000000
00011000
00000000
00000000
00000000
00000000
00000000
00000000
00000000
00000000
00000000
00000000
00000000
00020000
00030000
00000000
00000000
00001000
00000000
00000000
00000000
00000000
00000000
00000000
00000000
00000010
00000000
00000000
00000000
00000000
00000000
00000000
00000000
00000100
00000000
00000000
00000000
00000000
00000000
00000000
00000000
00000100
00000000
00000000
00000000
00001000
00000000
00000000
00000000
00000001
00000000
00000000
00000000
00000000
00000000
00000000
00000000
,
00000100
00000001
00001000
00000000
00000001
00000010
00000001
00001000
00000010
00001000
00000001
00001000
00000100
00010000
00002000
00000000
,
00000000
00000000
00000000
00000000
01003000
00010000
01000000
00010000
02000000
00000000
03200000
00000000
10300000
00000000
00000000
00000000
00000000
00000000
00000000
00000000
11000000
00000000
00000000
00000000
01000000
00000000
00000000
00000000
00100000
00000000
00000000
00000000
,
00000000
00001000
00020000
00000000
00031000
00000000
00010000
00001000
00010000
00000000
00000010
00000000
00001010
00000000
00000000
00001000
,
00000001
00000001
00001001
00000000
00000000
00000000
00000101
00000000
00000100
00000000
00000010
00000000
00000000
00001000
00000010
00000020
,
00000130
00000000
00000001
00000000
00001000
00000000
00000100
00000000
00000010
00000000
00000000
00001000
00000000
00000000
00010000
00000000
,
00011000
00000000
00000000
00000000
00001000
00000000
00010000
00000000
01000000
00000000
10000000
00100000
00000000
01000000
10000000
00000000
,
01000000
00000000
00100000
00000000
10100000
00000000
10000000
00000000
01000000
00000000
00000000
00100000
00001000
00000000
00010000
00000000
,
00001000
00000000
00010000
00000010
00001000
00000000
00000010
00010000
00001000
00000000
00010000
00000000
00000010
00001000
00000001
00001000
,
00000200
00000000
00000000
00000000
00000000
00000000
00000000
00000000
00000000
00000000
00000000
00000000
00000000
00000000
00000000
00000000
00000310
00000000
00000001
00001000
00000001
00000000
00000000
00000000
00001001
00000000
00000000
00000000
00000000
00000000
00000000
00000000
,
00000000
00000000
00000000
00000000
,
00000000
00000000
00000000
00000000
00000000
00000000
00000000
00000000
00010000
00001000
00200000
00000000
00310000
01000000
10000000
02000000
,
00000000
03100000
01000000
00010000
10000000
00000000
00100000
00000000
00010000
00100000
01000000
00000000
00010000
00100000
00001000
00020000
,
00000000
00030010
00001000
00000010
00000100
00000000
00000001
00000000
00000001
00000100
00000010
00000000
00001000
00000100
00000010
00000200
,
00000000
00000301
00000100
00001000
00000010
00000000
00000100
00000000
00001000
00010000
00100000
00000000
01000000
00010000
10000000
02000000
,
00000000
00000000
03010000
00000000
00001000
00000000
00000010
00000000
00000001
00000000
00000000
00000000
00000100
00000010
00000100
00000010
00000100
00000000
00000000
00000000
00000001
00000000
00000000
00000000
00000200
00000000
00000000
00000000
00000000
00000000
00000000
00000000
,
00000301
00001000
00000100
00000020
00000000
00000031
00001000
00000010
,
00002000
00000000
00000000
00000000
00003100
00010000
00001000
00100000
00010000
00000000
00100000
00000000
02000000
00000000
00000000
00000000
,
03100000
00010000
10000000
00200000
00000000
00301000
00000010
00010000
,
00002000
00000000
00000000
00000000
00013000
00000100
00010000
00000100
00010000
00000000
00001000
00000000
00020000
00000000
00000000
00000000
,
00031000
00000010
00000100
00002000
00000000
00003001
00000100
00000010
,
00020000
00000000
00000000
00000000
00031000
00100000
00010000
10000000
00100000
00000000
01000000
00000000
00020000
00000000
00000000
00000000
,
00031000
00000010
00000100
00002000
00000000
00003001
00000010
00001000
,
00020000
00000000
00000000
00000000
01030000
00100000
00010000
10000000
00100000
00000000
10000000
00000000
00010000
00000000
00000000
00000000
,
11000000
00000000
01010000
00000000
00001000
00010000
00001000
00000000
,
00001100
00000000
00000101
00000000
00000001
00000010
00000001
00000000
,
00000011
00000000
00001010
00000000
00001000
00010000
00001000
00000000
,
00110000
00000000
10100000
00000000
10000000
01000000
10000000
01000000
,
00100000
00010000
00100000
00010000
01000000
00001000
00010000
00000010
,
00001000
00000000
00000001
00000000
00000010
00000000
00000100
00000000
00001000
00000100
00001000
00000100
00000010
00000001
00000010
00000001
,
00001000
00000010
00001000
00000010
00010000
00001000
00010000
00001000
00020000
00000000
00000000
00000000
00000000
00000000
00000000
00000000
,
00032000
00203000
00320000
10030000
10010000
00000000
10000000
00000000
11000000
00000000
00000000
00000000
01100000
00000000
00100000
00000000
,
00001000
00011000
00000000
00010000
00001000
00010000
00010010
00000000
,
00001000
00000000
00000010
00000100
00000010
00000000
00001000
00000000
00001100
00000000
00000000
00000000
00000110
00000000
00000010
00000000
,
00000001
00000101
00000000
00000110
00000010
00001000
00001010
00000000
,
00000010
00000000
00010000
00001000
00010000
00000000
00001000
00000000
00011000
00000000
00000000
00000000
00101000
00000000
00100000
00000000
,
00010000
10010000
00000000
11000000
01000000
00100000
00110000
00000000
,
00001000
00010000
00010000
00010000
00011000
00000000
00001000
00001000
,
00000010
00000011
00000000
00000001
00000100
00000100
00001100
00000000
,
00010000
00001000
00010000
00001000
02000000
00100000
00100000
03100000
10000000
00100000
00010000
00001000
00000000
00000100
00000010
00001000
,
00001001
00000000
00000000
00000000
00001000
00000100
00001000
00000100
00000010
00000000
00000000
00000000
00000001
00000000
00000100
00000000
00000001
00000000
00000000
00000000
00000100
00000000
00000000
00000000
00000001
00000000
00000010
00000000
00000001
00000000
00000000
00000000
,
00001000
00000010
00010000
00001000
00000100
00000010
00010000
00001000
,
00010000
00000000
00001000
00010000
00001000
00000000
00100000
00010000
00100000
00000000
00001000
00000000
01000000
00010000
01000000
00000000
,
00001000
00100000
00010000
10000000
00100000
01000000
01100000
00000000
,
10010000
00000000
01000000
01100000
01100000
01100000
00110000
00110000
,
00100000
00101000
00000000
00011000
00010000
00000010
00001010
00000000
,
00000001
00001000
00000001
00001000
00000001
00000000
00000000
00000101
00000000
00000000
00000110
00000000
00000010
00000000
00001000
00000000
,
00000100
00000000
00000010
00000001
00001000
00000000
00000000
00010010
00000000
00000000
00011000
00000000
00001000
00000000
00100000
00010000
,
10000000
00010000
01000000
00100000
10000000
00000000
00000000
11000000
00000000
00000000
01100000
00000000
01000000
00010000
00100000
00001000
,
00010000
00001000
00010000
00000000
00101000
00000000
00000000
00011000
00000000
00000000
00010010
00000000
00000010
00000000
00001000
00000001
,
00000100
00000010
00001000
00000000
00001100
00000000
00000100
00000000
00000010
00000000
00000001
00000000
00000101
00000000
00000100
00000000
,
00001000
00010000
00011000
00001000
00100000
00010000
10010000
10000000
,
00100000
00000000
01000000
00000000
00010000
01000000
00010000
01000000
00001000
00010000
00001000
00010000
00000100
00001000
00000100
00001000
,
00000001
00000100
00000010
00000100
00000002
00000000
00000000
00000000
00000000
00000000
00000000
00000000
00000013
00001000
00010000
00001000
,
00011000
00000000
00000000
00000000
;

//--------------- dance-double - Fred-104 ----------------
#NOTEDATA:;
#STEPSTYPE:dance-double;
#DESCRIPTION:Fred-104;
#DIFFICULTY:Challenge;
#METER:17;
#CREDIT:Fred-104;
#NOTES:
00000000
00000000
00000000
00000000
,
00000000
00000000
00000000
00000000
,
00000000
00000000
00000000
00000000
,
00000000
00000000
00000000
00000000
,
00000000
00000000
00000000
00000000
,
00000000
00000000
00000000
00000000
,
00000000
00000000
00000000
00000000
,
00000000
00000000
00000000
00000000
,
00000000
00000000
00000000
00000000
,
00000000
00000000
00000000
00000000
,
00000010
00000000
00000000
00000000
00000000
00000000
00000000
00000000
00001000
00000000
00000000
00000000
00000000
00000000
00000000
00000000
00000002
00000000
00000000
00000000
00000000
00000000
00000000
00000000
00000000
00000000
00000000
00000000
00000000
00000000
00000000
00000003
MMMM1001
00000000
00000000
00000000
00000000
00000000
00000000
00000000
00000000
00000000
00000000
00000000
00000000
00000000
00000000
00000000
0001MMMM
00000000
00000000
00000000
00000000
00000000
00000000
00000000
00000000
00000000
00000000
00000000
00000000
00000000
00000000
00000000
,
00100000
00000000
00000000
00000000
00000000
00000000
00000000
00000000
00010000
00000000
00000000
00000000
00000000
00000000
00000000
00000000
20000000
00000000
00000000
00000000
00000000
00000000
00000000
00000000
00000000
00000000
00000000
00000000
00000000
00000000
00000000
30000000
1001MMMM
00000000
00000000
00000000
00000000
00000000
00000000
00000000
00000000
00000000
00000000
00000000
00000000
00000000
00000000
00000000
MMMM1000
00000000
00000000
00000000
00000000
00000000
00000000
00000000
00000000
00000000
00000000
00000000
00000000
00000000
00000000
00000000
,
00000100
00000000
00000000
00000000
00000000
00000000
00000000
00000000
00001000
00000000
00000000
00000000
00000000
00000000
00000000
00000000
00000002
00000000
00000000
00000000
00000000
00000000
00000000
00000000
00000000
00000000
00000000
00000000
00000000
00000000
00000000
00000003
MMMM1001
00000000
00000000
00000000
00000000
00000000
00000000
00000000
00000000
00000000
00000000
00000000
00000000
00000000
00000000
00000000
0001MMMM
00000000
00000000
00000000
00000000
00000000
00000000
00000000
00000000
00000000
00000000
00000000
00000000
00000000
00000000
00000000
,
01000000
00000000
00000000
00000000
00000000
00000000
00000000
00000000
00010000
00000000
00000000
00000000
00000000
00000000
00000000
00000000
20000000
00000000
00000000
00000000
00000000
00000000
00000000
00000000
00000000
00000000
00000000
00000000
00000000
00000000
00000000
30000000
1001MMMM
00000000
00000000
00000000
00000000
00000000
00000000
00000000
00000000
00000000
00000000
00000000
00000000
00000000
00000000
00000000
MMMM1000
00000000
00000000
00000000
00000000
00000000
00000000
00000000
00000000
00000000
00000000
00000000
00000000
00000000
00000000
00000000
,
00010000
00000000
00001000
00010000
00000100
00000000
00001000
00000000
00000010
00000000
00000100
00000001
00000010
00000000
00000100
00000000
,
00000010
00000000
00000001
00001000
00000100
00000000
00010000
00000000
00001000
00000000
01000000
00010000
00100000
00000000
00010000
00000000
,
10000000
01000000
00100000
00010000
00100000
01000000
10000000
00100000
01000000
00010000
00100000
00001000
00010000
00000100
00001000
00000100
,
00000020
00000000
00000030
00000000
00000002
00000000
00000003
00000000
00002000
00000000
00003000
00000000
00000020
00000000
00000030
00000000
00020000
00030000
00002000
00003000
00020000
00030000
00002000
00003000
00011000
00000000
00000000
00000000
MMMMMMMM
00000000
00000000
00000000
,
01010000
MMMMMMMM
11000000
MMMMMMMM
01010000
0001MMMM
00011000
00010000
,
00010100
00000000
00000000
00000000
00000000
00000000
00000000
00000000
00000000
00000000
00000000
00000000
00000000
00000000
00000000
00000000
00000000
00000000
00000000
00000000
00000000
00000000
00000000
00000000
00000000
00000000
00000000
00000000
00000000
00000000
00000000
00000000
00000000
00000000
00000000
00000000
00000000
00000000
00000000
00000000
00000000
00000000
00000000
00000000
00000000
00000000
00000000
00000000
00000110
00000000
00000000
00000000
00000000
00000000
00000000
00000000
00000000
00000000
00000000
00000000
00000000
00000000
00000000
00000000
00000000
00000000
00000000
00000000
00000000
00000000
00000000
00000000
00000000
00000000
00000000
00000000
00000000
00000000
00000000
00000000
00000000
00000000
00000000
00000000
00000002
00000003
00000000
00000000
00000000
00000000
00000000
00000000
00000000
00000000
00000000
00000000
00001000
00000000
00000000
00000000
00000000
00000000
00000000
00000000
00000000
00000000
00000000
00000000
00000000
00000000
00000000
00000000
00000000
00000000
00000000
00000000
00000000
00000000
00000000
00000000
00000001
00000000
00000000
00000000
00000000
00000000
00000000
00000000
00000000
00000000
00000000
00000000
00000000
00000000
00000000
00000000
00000000
00000000
00000000
00000000
00000000
00000000
00000000
00000000
00001001
00000000
00000000
00000000
00000000
00000000
00000000
00000000
00000000
00000000
00000000
00000000
00000000
00000000
00000000
00000000
00000000
00000000
00000000
00000000
00000000
00000000
00000000
00000000
MMMMMMMM
00000000
00000000
00000000
00000000
00000000
00000000
00000000
00000000
00000000
00000000
00000000
00000000
00000000
00000000
00000000
00000000
00000000
00000000
00000000
00000000
00000000
00000000
00000000
,
00001100
00000000
MMMMMMMM
00000000
00011000
00000000
MMMMMMMM
00000000
00110000
00000000
0001MMMM
00000000
10000000
00000000
01000000
10000000
,
00100000
01000000
00000000
01000000
00010000
10000000
01000000
00000000
20010000
00000000
30010000
00000000
10000000
01000000
00010000
00000000
,
00001000
00000000
00000000
00000010
00000000
00000000
00000100
00000000
00000000
00000000
00000000
00000000
00001000
00000000
00000000
00000010
00000000
00000000
00000100
00000000
00000000
00000001
00000000
00000000
00001000
00000000
00000100
00000000
00000010
00000000
00000001
00000000
00000000
00000000
00000000
00000000
00000100
00000000
00000000
00000000
00000000
00000000
00000110
00000000
00000000
00000000
00000000
00000000
,
MMMM0010
00000000
00000000
00000000
00000000
00000000
00000000
00000000
00000000
00000000
00000000
00000000
00000000
00000000
00000000
00000000
00000000
00000000
00000000
00000000
00000000
00000000
00000000
00000000
00011000
00000000
00000000
00000000
00000000
00000000
00000000
00000000
00000000
00000000
00000000
00000000
00000000
00000000
00000000
00000000
00000000
00000000
00000000
00000000
00000000
00000000
00000000
00000000
00000000
00000000
00000000
00000000
00000000
00000000
00000000
00000000
00000000
00000000
00000000
00000000
00002000
00003000
00000000
00000000
00000000
00000000
00000000
00000000
00000000
00000000
00000000
00000000
00010000
00000000
00000000
00000000
00000000
00000000
00000000
00000000
00000000
00000000
00000000
00000000
00000000
00000000
00000000
00000000
00000000
00000000
00000000
00000000
00000000
00000000
00000000
00000000
00001000
00000000
00000000
00000000
00000000
00000000
00000000
00000000
00000000
00000000
00000000
00000000
00000000
00000000
00000000
00000000
00000000
00000000
00000000
00000000
00000000
00000000
00000000
00000000
00100000
00000000
00000000
00000000
00000000
00000000
00000000
00000000
00000000
00000000
00000000
00000000
00000000
00000000
00000000
00000000
00000000
00000000
00000000
00000000
00000000
00000000
00000000
00000000
00010000
00000000
00000000
00000000
00000000
00000000
00000000
00000000
00000000
00000000
00000000
00000000
02000000
03000000
00000000
00000000
00000000
00000000
00000000
00000000
00000000
00000000
00000000
00000000
02000000
03000000
00000000
00000000
00000000
00000000
00000000
00000000
00000000
00000000
00000000
00000000
00000000
00000000
00000000
00000000
00000000
00000000
00000000
00000000
00000000
00000000
00000000
00000000
,
10000000
00000000
00000000
00000000
00000000
00000000
00000000
00000000
00000000
00000000
00000000
00000000
02000000
03000000
00000000
00000000
00000000
00000000
00000000
00000000
00000000
00000000
00000000
00000000
02000000
03000000
00000000
00000000
00000000
00000000
00000000
00000000
00000000
00000000
00000000
00000000
00010000
00000000
00000000
00000000
00000000
00000000
00000000
00000000
00000000
00000000
00000000
00000000
00200000
00300000
00000000
00000000
00000000
00000000
00000000
00000000
00000000
00000000
00000000
00000000
00200000
00300000
00000000
00000000
00000000
00000000
00000000
00000000
00000000
00000000
00000000
00000000
10000000
00000000
00000000
00000000
00000000
00000000
00000000
00000000
00000000
00000000
00000000
00000000
01000000
00000000
00000000
00000000
00000000
00000000
00000000
00000000
00000000
00000000
00000000
00000000
00100000
00000000
00000000
00000000
00000000
00000000
00000000
00000000
00000000
00000000
00000000
00000000
00010000
00000000
00000000
00000000
00000000
00000000
00000000
00000000
00000000
00000000
00000000
00000000
00100000
00000000
00000000
00000000
00000000
00000000
00000000
00000000
00000000
00000000
00000000
00000000
00001000
00000000
00000000
00000000
00000000
00000000
00000000
00000000
00000000
00000000
00000000
00000000
00010000
00000000
00000000
00000000
00000000
00000000
00000000
00000000
00000000
00000000
00000000
00000000
00000010
00000000
00000000
00000000
00000000
00000000
00000000
00000000
00000000
00000000
00000000
00000000
00002000
00000000
00000000
00000000
00000000
00000000
00000000
00000000
00000000
00000000
00000000
00000000
00000000
00000000
00000000
00000000
00000000
00000000
00000000
00000000
00000000
00000000
00000000
00000000
,
00000000
00000000
00000000
00000000
00003001
00000100
00000001
00000100
00000002
00000000
00000203
00000000
00000310
00000000
00000000
00000000
00000000
00000000
00000000
00000000
00011000
00000000
00000000
00000000
00001000
00000000
00000000
00000000
00010000
00000000
00000100
00000000
,
00000000
00010000
00002000
00010000
00013000
00001000
00100000
00010000
10000000
00000000
00100000
00000000
01000000
00100000
00000000
00100000
,
20000000
01000000
31000000
00000000
00000000
00000000
00101000
00000000
00001000
00000000
00001000
00010000
00000000
00010000
00002000
00010000
,
00013000
00000000
00000010
00000000
00001000
00000000
00000100
00000000
00000110
00000000
00000000
00000101
00000000
00000000
00001100
00000000
,
00001001
00000000
00000000
00000000
00000001
00000000
00000100
00000000
00000020
00000000
00001000
00000100
00000030
00000000
00000001
00000000
,
00000100
00000000
00000010
00001000
00000100
00000000
00010000
00000000
00001000
00000000
00010000
00100000
01000000
00000000
00010000
00000000
,
10000000
00000000
10000000
01000000
00010000
00000000
01000000
10000000
00100000
01000000
00010000
01000000
00100000
10000000
01000000
00100000
,
00002000
00000000
00000000
00000000
00000000
00000000
00000000
00000000
00000000
00000000
00000000
00000000
00000000
00000000
00000000
00000000
00013000
00000000
00000010
00001000
00000010
00000000
00000000
00000000
00001001
00000000
00000000
00000000
00000000
00000000
00000000
00000000
,
00000000
MMMMMMMM
00000000
00000000
MMMMMMMM
00000000
MMMMMMMM
00000000
,
00000000
MMMMMMMM
00000000
00000000
00000000
00000000
00000000
00000000
00000000
00000000
MMMMMMMM
00000000
00000000
00000000
00000000
00000000
00001000
00000000
00100000
00000000
00010000
00000000
00000000
00000000
10000000
00000000
00100000
00000000
00010000
00000000
00001000
00000000
,
00000000
00000100
00000010
00001000
00000001
00000000
MMMM1000
00000000
00000001
00000100
00001000
00000000
00010000
00100000
01000000
00010000
,
00000000
00000000
10000000
00000000
01000000
00000000
00100000
00000000
00001000
00000000
00010000
00000000
00000010
00001000
00000010
00000000
00000100
00000000
00000001
00000000
00001000
00000000
00000000
00000000
00000100
00000000
00000010
00000000
00001000
00000000
00010000
00000000
,
00000000
01000000
00100000
00010000
10000000
00000000
0010MMMM
00000000
00010000
00001000
00000100
00000000
00000001
00000010
00001000
00020000
,
00000000
00000000
00032000
00000000
00003200
00000000
00000320
00000000
00002030
00000000
00000000
00000000
00003001
00001000
00000001
00001000
00000010
00000000
00000000
00000000
00001000
00000000
00000000
00000000
00000100
00000000
00000000
00000000
00000000
00000000
00000000
00000000
,
00001000
00000001
00000100
00002000
00000000
00013000
00100000
01000000
,
00020000
00000000
00000000
00000000
10030000
01000000
00100000
00001000
00010000
00000000
00000100
00000000
00002000
00000000
00000000
00000000
,
00003100
00000010
00000001
00002000
00000000
00003001
00000100
00001000
,
00020000
00000000
00000000
00000000
00031000
00010000
00001000
00010000
00001000
00000000
00100000
00000000
02000000
00000000
00000000
00000000
,
03100000
00010000
10000000
00200000
00000000
00310000
00100000
01000000
,
00010000
00000000
MMMMMMMM
00000000
00001000
00010000
00000200
00000000
,
00001300
00000010
00000100
00000002
00000000
00000013
00001000
00010000
,
01000000
00000000
00000000
00000000
00000000
00000000
00000000
00000000
00000000
00000000
00000000
00000000
00000000
00000000
00000000
00000000
00100000
00000000
00000000
00000000
00010000
00000000
00000000
00000000
10000000
00000000
00000000
00000000
00100000
00000000
00000000
00000000
01000000
00000000
00000000
00000000
00000000
00000000
00000000
00000000
00100000
00000000
00000000
00000000
00000000
00000000
00000000
00000000
20000000
00000000
00000000
00000000
00000000
00000000
00000000
00000000
00000000
00000000
00000000
00000000
00000000
00000000
00000000
30000000
,
1001MMMM
00000000
00000000
00000000
00000000
00000000
00000000
00000000
00000000
00000000
00000000
00000000
00000000
00000000
00000000
00000000
MMMM1000
00000000
00000000
00000000
00000000
00000000
00000000
00000000
00000000
00000000
00000000
00000000
00000000
00000000
00000000
00000000
00000010
00000000
00000000
00000000
00000000
00000000
00000000
00000000
00001000
00000000
00000000
00000000
00000000
00000000
00000000
00000000
00000002
00000000
00000000
00000000
00000000
00000000
00000000
00000000
00000000
00000000
00000000
00000000
00000000
00000000
00000000
00000003
,
MMMM1001
00000000
00000000
00000000
00000000
00000000
00000000
00000000
00000000
00000000
00000000
00000000
00000000
00000000
00000000
00000000
0001MMMM
00000000
00000000
00000000
00000000
00000000
00000000
00000000
00000000
00000000
00000000
00000000
00000000
00000000
00000000
00000000
01000000
00000000
00000000
00000000
00000000
00000000
00000000
00000000
00010000
00000000
00000000
00000000
00000000
00000000
00000000
00000000
20000000
00000000
00000000
00000000
00000000
00000000
00000000
00000000
00000000
00000000
00000000
00000000
00000000
00000000
00000000
30000000
,
1001MMMM
00000000
00000000
00000000
00000000
00000000
00000000
00000000
00000000
00000000
00000000
00000000
00000000
00000000
00000000
00000000
MMMM1000
00000000
00000000
00000000
00000000
00000000
00000000
00000000
00000000
00000000
00000000
00000000
00000000
00000000
00000000
00000000
00000100
00000000
00000000
00000000
00000000
00000000
00000000
00000000
00001000
00000000
00000000
00000000
00000000
00000000
00000000
00000000
00000002
00000000
00000000
00000000
00000000
00000000
00000000
00000000
00000000
00000000
00000000
00000000
00000000
00000000
00000000
00000003
,
MMMM1001
00000000
00000000
00000000
0001MMMM
00000000
00000000
00000000
00001000
00000000
00010000
00001000
00000100
00000000
00001000
00010000
,
01000000
00000000
00010000
00001000
00000010
00000000
00001000
00010000
00100000
00000000
01000000
00010000
10000000
00000000
01000000
00100000
,
00010000
00000000
00100000
00001000
00010000
00000000
00000010
00001000
00000001
00000010
00000100
00000010
00000001
00001000
00000010
00001000
,
00000100
00010000
00001000
00100000
00010000
10000000
00100000
01000000
00020000
00030000
20000000
30000000
02000000
03000000
00200000
00300000
,
00002000
00003000
00020000
00030000
00000020
00000030
00002000
00003000
00001010
00000000
00000000
00000000
00001000
00000000
00000000
00000000
00001001
00000000
00000000
00000000
MMMMMMMM
00000000
00000000
00000000
00000101
00000000
00000000
00000000
00000100
00000000
00000000
00000000
,
00000010
00001010
00000000
00011000
00001000
01000000
01100000
00000000
,
01010000
00000000
00010000
10000000
01000000
00000000
00100000
00000000
00110000
00000000
MMMMMMMM
00000000
01001000
00000000
00001000
00000000
,
00010000
00010100
00000000
00000110
00000010
00000001
00001001
00000000
,
00000110
00000000
00001000
00000001
00001000
00000000
00000001
00000000
00001001
00000000
MMMMMMMM
00000000
00000101
00000000
00000100
00000000
,
00001000
00011000
00000000
00110000
00100000
10000000
10010000
00000000
,
01100000
00000000
10000000
10000000
11000000
00000000
01010000
00010000
,
00010000
00011000
00000000
00001000
00000100
00000001
00001001
00000000
,
00000001
00000100
00000010
00001000
00000002
00000010
00000010
00000013
00000001
00000100
00001000
00020000
00000000
00130000
10000000
01000000
,
00020000
00000000
00000000
00000000
00031000
00010000
00001000
00010000
00001000
00000000
00000000
00000000
00000010
00000000
00000100
00000000
00001000
00000000
00000000
00000000
00000001
00000000
00000000
00000000
00000001
00000000
00000100
00000000
00001000
00000000
00000000
00000000
,
00000100
00000010
00010000
00001000
00100000
01000000
00100000
00010000
,
01000000
00001000
00010000
00001000
00000100
00000000
00000010
00001000
00000001
00000000
00001000
00000000
00000001
00000100
00001000
00000000
,
00010000
00000000
00001000
00000000
00010000
00000000
00100000
01000000
00010000
00000000
00100000
00000000
01000000
00000000
10000000
00000000
,
10010000
00000000
0100MMMM
01001000
01001000
00011000
00010010
00010010
,
MMMM0010
00000000
00002010
00000000
00000000
00000000
00003001
00000000
00000100
00000000
00000010
00001000
00000010
00000000
00000000
00000000
,
00001000
00000100
00000010
00000001
00000011
00000000
00000000
00001010
00000000
00000000
00000011
00000000
00000001
00000000
00000100
00000000
,
00000010
00000000
00001000
00000100
00001100
00000000
00000000
00010100
00000000
00000000
00011000
00000000
00001000
00000000
00100000
00010000
,
00100000
00000000
00000000
01000000
00000000
00000000
10000000
00000000
00100000
00000000
01000000
00000000
00010000
00000000
00000000
00000000
00000000
00000000
00000000
00000000
00000000
00110000
00000000
00000000
00000000
00000000
00000000
00000000
00000000
00000000
10100000
00000000
00000000
00000000
00000000
00000000
00100000
00000000
00010000
00000000
10000000
00000000
00100000
00000000
00000000
01000000
00000000
00000000
,
00010000
00000000
00000000
00100000
00000000
00000000
00001000
00000000
00010000
00000000
00001000
00000000
00010000
00000000
00000000
00000000
00000000
00000000
00000000
00000000
00000000
00010010
00000000
00000000
00000000
00000000
00000000
00000000
00000000
00000000
00001010
00000000
00000000
00000000
00000000
00000000
00001000
00000000
00000000
00000000
00000000
00000000
00000010
00000000
00000100
00000000
00000001
00000000
,
00000100
00000010
00001000
00000010
00000100
00000000
00000001
00000010
00001000
00000000
00010000
01000000
10000000
00000000
10000000
00100000
,
00010000
00000000
00001000
00000100
00000001
00000000
00000001
00000100
00001000
00000000
00010000
00100000
10000000
00000000
10000000
01000000
,
00010000
00000000
00001000
00000010
00000001
00000010
00000100
00000010
00001000
00010000
01000000
00100000
00010000
10000000
00100000
00010000
,
00001000
00000000
00000100
00000000
00000010
00000000
00001000
00000000
00000002
00000000
00000000
00000000
00000000
00000000
00000000
00000000
00000000
00000000
00000000
00000000
00000000
00000000
00000000
00000000
00020003
00030000
00002000
00003000
02000000
03000000
00200000
00300000
,
10010000
00000000
00000000
00000000
;
