#VERSION:0.83;
#TITLE:Plan 8;
#ARTIST:Ryu☆;
#GENRE:HAPPY GABBA;
#BANNER:Plan 8.png;
#BACKGROUND:Plan 8-bg.png;
#CDTITLE:./CDTitles/bm IIDX 20 tricoro.png;
#MUSIC:Plan 8.ogg;
#SAMPLESTART:11.321;
#SAMPLELENGTH:15;
#BPMS:0=212;
#BGSTAGE:29;

//--------------- dance-single - Fred-104 ----------------
#NOTEDATA:;
#STEPSTYPE:dance-single;
#DESCRIPTION:Fred-104;
#DIFFICULTY:Beginner;
#METER:8;
#CREDIT:Fred-104;
#NOTES:
0000
0000
0000
0000
,
0000
0000
0000
0000
,
0000
0000
0000
0000
,
0000
0000
0000
0000
,
0000
0000
0000
0100
,
1001
0000
0001
0000
,
1000
1000
0001
0001
,
0100
0100
0010
0010
,
1000
0100
1000
0001
,
0200
0000
0000
0300
,
1001
0000
1000
0000
,
0001
0100
0010
0100
,
0010
0000
0100
0000
,
0001
0010
0001
0001
,
1000
0000
0010
0000
,
1000
0100
0010
0001
,
1000
0000
0001
0000
,
0100
0100
0010
0010
,
1001
0000
0000
0000
,
0000
0000
0000
0000
,
0000
0000
0000
0000
,
0000
0000
0000
0100
,
0110
0000
0010
0000
,
1000
1000
0001
0000
,
0100
0100
0010
0010
,
1000
0010
1000
0000
0001
0100
0001
0000
,
1000
1000
0001
0100
,
0010
0100
0001
0000
,
0010
0010
0001
1000
,
0001
0100
0010
0000
,
0100
0100
0001
1000
,
0001
0100
0010
0000
,
1000
0100
0010
0001
,
1001
0000
0000
0000
,
0001
0100
0020
0030
,
1000
0100
0020
0030
,
0001
0010
0200
0300
,
1000
0010
0200
0300
,
0001
0010
0001
0001
,
0100
0010
0100
0100
,
0001
1000
0100
0100
,
1000
0010
0100
0001
,
1001
0000
0001
0000
,
0100
0000
0010
0000
,
0100
0100
0001
1000
,
0001
0010
0100
1000
,
0001
0000
0100
0000
,
0010
0000
0100
0000
,
0001
0001
1000
1000
,
0002
0000
0000
0003
,
1001
0000
0001
0000
,
1000
0100
0010
0100
,
0010
0000
0100
0000
,
1000
0010
1000
1000
,
0001
0000
0010
0000
,
0001
0100
0010
1000
,
0001
0000
1000
0000
,
0100
0100
0010
0010
,
1001
0000
0100
0000
,
0110
0000
0010
0000
,
1001
0000
1000
0000
,
0001
0000
0001
0000
,
1000
1000
0001
0001
,
0100
0010
0100
0000
0001
1000
0002
0000
,
0000
0000
0000
0000
,
0000
0000
0000
0003
,
2000
0000
0000
0000
,
3000
0000
0000
0000
,
0002
0000
0000
0000
,
0003
0000
0000
0000
,
0020
0000
0000
0000
,
0030
0000
0000
0000
,
0200
0000
0300
0000
,
1000
0000
0001
0000
,
2002
0000
3003
0000
,
1000
0000
0010
0000
,
2000
0000
3000
0000
,
0001
0000
0100
0000
,
0002
0000
0003
0000
,
0100
0000
0010
0000
,
0200
0000
0000
0000
,
0000
0000
0310
0000
,
1000
0000
0010
0000
,
1000
0000
0100
0100
,
0010
0000
0001
0000
,
1000
0000
0001
0001
,
0100
0010
0100
0000
,
0001
0010
0001
0000
,
1000
0010
1000
0000
,
0001
1000
1001
0000
,
0000
0000
0000
0002
,
1003
0100
1000
1000
,
0001
0100
0010
0100
,
0100
0001
0010
0001
,
1000
0001
1001
0000
,
0001
0001
0010
0100
,
1000
1000
0001
0100
,
0010
0000
1000
0000
0100
0000
0000
1000
,
0000
1000
0000
0000
0001
0000
1000
0000
,
1001
0000
0001
0000
,
0100
0100
0010
0100
,
0001
0000
0010
0000
,
0001
1000
0001
0200
,
0301
0001
0010
0010
,
0100
0100
1000
1000
,
0001
0100
0001
0000
1000
0010
1000
0000
,
0002
0000
2000
3003
,
1001
0000
0000
0000
;

//--------------- dance-single - Fred-104 ----------------
#NOTEDATA:;
#STEPSTYPE:dance-single;
#DESCRIPTION:Fred-104;
#DIFFICULTY:Easy;
#METER:11;
#CREDIT:Fred-104;
#NOTES:
0000
0000
0000
0000
,
0000
0000
0000
0000
,
0000
0000
0000
0000
,
0000
0000
0000
0000
,
0000
0000
0000
0100
,
1001
0000
0000
0000
,
0000
0000
0002
2003
,
3001
0100
0010
0100
,
0001
0010
0001
0000
1000
0100
1000
0000
,
2002
0000
0000
3003
,
1000
1100
0001
0101
,
1000
0001
1000
0010
0100
0000
0110
0000
,
0001
0011
1000
1010
,
0001
0100
0001
0000
1000
0010
1000
0000
,
0100
0110
0001
1001
,
0001
0010
0100
0010
0100
0000
1100
0000
,
1000
0010
1000
0000
0001
0100
0001
0000
,
1000
0010
1000
0010
1000
0010
1000
0000
,
1002
0000
0000
0000
,
0023
0000
0000
0000
,
0230
0000
0000
0000
,
2300
0000
0000
3001
,
1001
0000
0001
0010
0000
0001
0100
0000
,
0010
0000
0010
0000
0100
0010
0100
0000
,
0001
0001
0100
0100
,
0010
1000
0010
0000
1000
0100
1000
0000
,
0001
0000
0100
0000
0001
0010
0001
0000
,
0100
0000
0100
0000
0010
1000
0010
0000
,
1000
0000
1000
0000
0010
1000
0010
0000
,
0100
0000
0001
0000
1000
0001
1000
0000
,
0001
0000
0010
0000
0100
1000
0100
0000
,
1000
0000
0010
0000
0100
0001
0100
0000
,
0001
0000
1000
0000
0001
1000
0010
0000
,
0100
0100
0100
0100
,
0110
0000
0000
0000
0010
0000
0000
0000
1000
0000
0000
0010
0000
0000
0100
0000
,
0010
0000
0000
0000
1000
0000
0000
0000
0100
0000
0000
0010
0000
0000
0001
0000
,
0100
0000
0000
0000
0001
0000
0000
0000
1000
0000
0000
0001
0000
0000
0100
0000
,
0010
0000
0000
0000
0100
0000
0000
0000
0001
0000
0000
0010
0000
0000
0001
0000
,
0100
0000
0000
0000
0001
0000
0000
0000
0010
0000
0000
0100
0000
0000
1000
0000
,
0001
0000
0000
0000
0100
0000
0000
0000
0010
0000
0000
1000
0000
0000
0010
0000
,
0100
0000
0000
0000
0001
0000
0000
0000
1000
0000
0000
0100
0000
0000
0010
0000
,
0001
0001
0100
0100
,
0110
0000
0010
1000
0000
0010
0100
0000
,
0001
0001
1000
0100
,
1000
0001
0100
0010
,
0100
0000
0001
0000
1000
0001
1000
0000
,
1001
0000
0001
0010
0000
0001
1000
0000
,
0010
1000
0001
0100
,
0001
0010
0100
1000
,
0001
0010
0001
0000
1000
0100
1000
0000
,
0001
0101
1000
1100
,
0001
1000
0001
0010
0100
0000
0110
0000
,
1000
1010
0001
0011
,
1000
0100
1000
0000
0001
0010
0001
0000
,
0100
0110
1000
1001
,
1000
0010
0100
0010
0100
0000
0101
0000
,
0001
0010
0001
0000
1000
0100
1000
0000
,
0001
0100
0001
0100
0002
0000
2003
0000
,
3010
0100
0020
2030
,
3100
0010
0002
1003
,
1001
0000
0110
0000
,
1001
0000
0110
0001
,
1000
1000
0001
0001
,
0100
0010
0100
0010
0100
0010
0200
0000
,
0000
0000
0000
0000
,
0000
0000
0000
0300
,
2001
0000
0000
0000
,
3002
0000
2003
0000
,
3002
0000
0000
0000
,
0203
0000
0310
0100
,
0020
0000
0000
0000
,
2030
0000
3002
0000
,
2003
0000
0000
3100
,
0010
0001
1000
0001
,
2002
0000
0000
3003
,
0002
0000
0203
0000
,
0320
0000
0000
0000
,
2030
0000
3002
2003
,
3200
0000
0000
0000
,
0320
0000
0230
0300
,
2002
0000
0000
0000
,
0000
0000
3003
0000
,
0001
0000
0000
0000
0100
0010
0100
0010
,
0000
0000
1000
0100
,
1000
0000
0000
0000
0001
0100
0000
0010
,
0000
0000
0100
0001
,
1000
1000
0100
0100
,
0010
0010
0001
0001
,
0100
0000
0100
0000
0010
0000
0000
0100
,
0000
0100
0000
0001
1000
0000
0000
0000
,
2000
0001
3001
1001
,
1000
0000
1000
0000
0001
0100
0001
0100
,
0000
0010
0100
0001
,
1000
0000
0100
0000
1000
0010
0000
1000
,
0000
0100
1000
0001
,
0100
0000
0010
0000
0100
0010
0100
0010
,
0000
0100
0001
0010
,
0001
0000
1000
0000
0001
0100
0001
0100
,
0000
0001
0000
0001
0100
0000
0010
0000
,
1001
0000
0000
0000
1000
0100
1000
0100
,
0000
0010
0001
1000
,
0001
0000
0100
0000
0001
0010
0001
0010
,
0000
0001
0100
0010
,
0100
0001
0100
0001
,
1000
0100
1000
0010
,
0100
0010
0100
0000
0001
0010
0001
0000
,
1000
0001
1000
0001
2000
0000
3000
0000
,
1001
0000
0000
0000
;

//--------------- dance-single - Fred-104 ----------------
#NOTEDATA:;
#STEPSTYPE:dance-single;
#DESCRIPTION:Fred-104;
#DIFFICULTY:Medium;
#METER:15;
#CREDIT:Fred-104;
#NOTES:
0000
0000
0000
0000
,
0000
0000
0000
0000
,
0000
0000
0000
0000
,
0000
0000
0000
0000
,
0000
0000
0000
0110
,
1001
0000
0000
0000
,
0000
0000
0200
0320
,
0130
0001
0100
0001
0010
0100
0010
0100
,
1000
0010
0100
0001
1000
0100
0010
0000
,
2002
0000
0000
3003
,
1001
0000
0110
0000
1000
0100
0010
0001
,
0100
0010
0100
0001
0010
0000
0011
0000
,
1001
0000
0011
0000
0001
1000
0010
1000
,
0001
0010
0100
1000
0001
0100
0001
0100
,
0110
0000
1001
0000
1000
0001
0010
0100
,
0010
1000
0010
0001
1000
0000
1001
0000
,
0001
1000
0100
0001
0100
0010
0100
1000
,
0001
0100
0010
0100
0001
1000
0001
0000
,
2001
0000
0000
0000
,
3020
0000
0000
0000
,
0032
0000
0000
0000
,
0203
0000
0000
1300
,
1001
0000
0001
0010
0000
0001
1000
0001
,
0100
0000
0000
0010
0100
0000
0001
0000
1000
0000
0000
0000
1001
0000
0000
0000
,
0001
0010
0001
0100
0010
1000
0100
0010
,
0001
0001
1000
1000
0001
1000
1001
0000
,
0001
0000
0010
0000
0010
0000
0000
0000
0001
0000
0100
0010
0000
0100
0010
0000
,
1000
0000
0100
0000
0100
0000
0000
0000
1000
0000
0001
0100
0000
0001
0100
0000
,
0010
0000
0100
0000
0100
0000
0000
0000
0001
0000
1000
0100
0000
1000
0100
0000
,
0010
0100
0100
1000
0010
0100
0100
0001
,
1000
0000
0001
0000
0010
0000
0000
0000
0001
0000
0100
0010
0000
0100
0001
0000
,
0010
0000
0100
0000
1000
0000
0000
0000
0001
0000
0100
0010
0000
1000
0010
0000
,
0100
0000
0001
0000
1000
0000
0000
0000
0100
0000
0010
0001
0000
1000
0001
0000
,
0100
0100
0010
0010
,
1000
0000
0100
0000
1000
0000
0001
0000
0100
0000
0001
0010
0000
0010
0001
0000
,
0100
0000
0010
0000
0100
0000
0001
0000
0010
0000
0100
1000
0000
1000
0100
0000
,
1000
0000
0001
0000
0100
0000
0010
0000
1000
0000
0001
0010
0000
0010
0001
0000
,
0100
0000
0010
0000
1000
0000
0001
0000
0010
0000
0100
1000
0000
1000
0100
0000
,
1000
0000
0001
0000
0100
0000
0010
0000
1000
0000
0001
0100
0000
0001
0100
0000
,
0010
0000
0100
0000
0001
0000
0010
0000
0100
0000
1000
0010
0000
1000
0010
0000
,
0100
0000
0001
0000
1000
0000
0100
0000
0010
0000
0001
1000
0000
0001
1000
0000
,
0100
0010
0001
1001
,
0110
0000
0001
0100
0000
0010
0100
0001
,
0010
0000
0100
0000
1000
0000
0100
0000
0010
0000
0000
0001
0000
0000
1000
0000
,
0001
0100
0001
0100
0010
0100
0010
1000
,
0010
1000
0100
0010
0100
1000
0001
0000
,
1001
0000
1000
0010
0000
1000
0100
1000
,
0001
0010
0100
1000
0001
0100
0010
0000
,
1000
0100
1000
0001
0010
0001
0100
0010
,
0100
0001
0100
0010
1000
0001
1000
0000
,
1001
0000
0110
0000
0001
0100
0010
1000
,
0100
0010
0100
1000
0010
0000
1010
0000
,
1100
0000
1010
0000
1000
0100
0010
0100
,
1000
0010
0100
0001
1000
0100
1000
0100
,
0110
0000
1001
0000
0001
1000
0010
0100
,
0010
0001
0010
1000
0001
1000
0100
0000
,
1000
0001
0100
1000
0100
0010
0100
0001
,
1000
0100
0010
0001
0200
0000
0320
0000
,
0130
0001
0010
0001
2000
0000
3002
0000
,
0013
0100
1000
0001
0200
0000
0320
0000
,
1030
2100
3001
0102
,
1003
2010
3001
0012
,
1003
0100
1000
0010
0100
0001
0010
0100
,
1000
0000
0001
0000
1000
0000
0001
0000
0100
0010
0100
0010
0200
0000
0000
0000
,
0000
0000
0000
0000
,
0000
0000
0300
0110
,
2001
0000
0000
0000
,
3200
0000
0320
0000
,
0032
0000
0000
0000
,
0203
0000
0310
1000
,
2002
0000
0000
3000
,
0203
0000
0320
0000
,
0230
0000
0000
0302
,
0023
2030
3020
0031
,
2002
0000
0000
3003
,
2200
3300
0202
0303
,
0220
0000
0000
0330
,
2002
3003
0001
0100
,
0220
0000
0000
0330
,
2020
3030
0202
0303
,
0220
0000
0000
0000
,
0000
0000
0330
0000
,
1000
0000
0000
0000
0001
0100
0010
1000
,
0000
0000
0100
0010
,
0001
0000
0000
0000
0100
0010
0000
0100
,
0000
0000
0001
1000
,
0001
0010
0001
0100
0001
0010
0001
0000
,
1000
0100
1000
0010
0100
0010
1000
0000
,
0001
0010
0001
0010
0100
1000
0100
1000
,
0001
0100
0010
1000
0100
0010
0001
2000
,
0001
0001
3001
1001
,
0001
0010
0100
0010
0001
0010
0001
1000
,
0000
0010
0000
1000
0100
0000
0110
0000
,
0010
0001
1000
0000
0010
1000
0100
1000
,
0001
0100
0010
1000
0100
0010
0001
0000
,
0100
0010
0100
0000
0001
0010
0100
1000
,
0010
1000
0100
1000
0001
0000
1001
0000
,
1000
0010
0100
0001
0100
0100
0010
0010
,
0000
0110
0000
0001
1000
0000
1001
0000
,
0001
0010
0100
1000
0001
0010
0100
1000
,
0000
0010
1000
0100
0010
0001
0100
0000
,
0010
1000
0100
1000
0010
0100
0010
1000
,
0000
0001
0010
0100
0010
0001
1000
0000
,
0001
0010
0001
1000
0001
0100
0010
0000
,
0100
0001
0010
0001
1000
0010
0100
0000
,
0001
0010
0100
1000
0001
0100
0010
1000
,
0001
1000
0001
1000
0001
1000
0001
1000
0001
0000
0000
0000
1000
0000
0000
0000
,
1001
0000
0000
0000
;

//--------------- dance-single - Fred-104 ----------------
#NOTEDATA:;
#STEPSTYPE:dance-single;
#DESCRIPTION:Fred-104;
#DIFFICULTY:Hard;
#METER:17;
#CREDIT:Fred-104;
#NOTES:
0000
0000
0000
0000
,
0000
0000
0000
0000
,
0000
0000
0000
0000
,
0000
0000
0000
0000
,
0000
0000
0000
1100
,
0011
0000
0000
0000
,
0000
0000
0002
2003
,
3001
0100
0001
0010
0100
1000
0010
0100
,
0001
0010
0001
0010
0001
0010
0001
0010
0100
1000
0100
1000
0100
1000
0100
1000
,
0002
0000
0000
0000
0000
0003
1001
0000
,
1000
0000
0100
0000
1100
0000
0000
0000
0001
0000
0100
0000
0010
0000
1000
0001
,
1000
0001
0010
0100
0010
0000
0011
0000
,
0001
0000
0100
0000
0110
0000
0000
0000
0010
0000
1000
0000
0100
0000
1000
0001
,
1000
0100
0010
0001
0100
0100
0010
0010
,
1000
0000
0100
0000
0110
0000
0000
0000
0010
0000
0001
0000
1000
0000
0001
0100
,
0001
0010
0100
0010
0001
1000
1001
0000
,
0001
0010
0001
1000
0010
0100
0001
1000
,
0100
1000
0100
1000
0001
0100
0001
0100
0001
1000
0001
1000
0001
0000
0000
0000
,
2001
0000
0000
0000
,
3020
0000
0000
0000
,
0230
0000
0000
0000
,
0302
0000
0003
0110
,
1001
0000
0001
0010
0001
0000
1000
0010
1000
0000
0100
0000
0010
0001
0010
0000
,
0001
0000
0000
0100
0010
0000
0100
0000
0001
0000
1000
0000
1001
0000
0000
0000
,
0001
1000
0100
0010
0100
1000
0001
0100
,
0001
0010
0001
0010
0100
1000
0100
1000
0001
1000
0001
1000
0001
0000
0000
0000
,
1000
0000
0100
0000
1000
0000
0010
0000
0100
0000
0001
0010
0000
0001
1000
0000
,
0001
0000
0010
0000
0100
0000
0010
0000
0001
0000
1000
0010
0000
1000
0010
0000
,
0100
0000
0001
0000
1000
0000
0001
0000
0010
0000
0100
1000
0000
0010
0100
0000
,
0010
0000
1000
0000
0100
0000
0010
0000
0001
0000
1000
0001
0000
0100
0001
0000
,
0010
0000
0100
0000
0010
0000
0001
0000
1000
0000
0001
0010
0000
0001
0100
0000
,
0010
0000
1000
0000
0100
0000
1000
0000
0001
0000
0100
0010
0000
1000
0001
0000
,
0010
0000
0100
0000
0010
0000
0001
0000
1000
0000
0010
0100
0000
0010
1000
0000
,
0001
0001
0001
0001
,
1000
0000
0100
0000
0110
0000
0000
0000
0010
0000
0001
1000
0000
0001
0010
0000
,
0001
0000
0100
0000
0110
0000
0000
0000
0010
0000
1000
0100
0000
1000
0001
0000
,
1000
0000
0010
0000
0110
0000
0000
0000
0100
0000
0001
1000
0000
0001
0100
0000
,
0001
0000
0010
0000
0110
0000
0000
0000
0100
0000
1000
0001
0000
0100
0010
0000
,
1000
0000
0100
0000
1000
0000
0001
0000
0100
0000
0001
0010
0000
0100
1000
0000
,
0010
0000
0100
0000
0001
0000
1000
0000
0001
0000
0010
0100
0000
0010
0001
0000
,
1000
0000
0001
0000
0100
0000
0010
0000
1000
0000
0010
0100
0000
0001
1000
0000
,
0100
0000
0100
0000
0100
0010
1001
0000
,
1000
0100
0001
0100
0000
1000
0001
0010
,
0100
0001
0100
0000
1000
0000
0001
0000
0100
0000
0001
0010
0000
0100
0010
0000
,
0001
0000
1000
0000
0100
0000
0001
0100
0010
0000
0001
0000
1000
0000
0001
0000
,
0100
0010
0001
0010
1000
0001
1001
0000
,
1100
0000
1000
0000
0001
0000
0100
0000
0010
0000
0100
0000
0001
1000
0001
0000
,
0010
0100
1000
0000
0001
0000
0010
0100
1000
0000
0001
0000
1000
0001
0100
0000
,
0001
0010
0001
1000
0010
0100
0001
1000
,
0010
1000
0010
1000
0001
0100
0001
0100
0001
1000
0001
1000
0001
0000
0000
0000
,
1000
0000
0010
0000
1010
0000
0000
0000
0001
0000
0010
0000
0100
0000
1000
0001
,
1000
0001
0100
0010
0100
0000
0101
0000
,
0001
0000
0010
0000
0110
0000
0000
0000
0100
0000
1000
0000
0010
0000
1000
0001
,
1000
0010
0100
0001
0010
0010
0100
0100
,
1000
0000
0010
0000
0110
0000
0000
0000
0100
0000
0001
0000
1000
0000
0001
0010
,
0001
0100
0010
0100
0001
1000
1001
0000
,
0001
0000
0100
0000
0001
0000
1000
0000
0100
0000
0010
0000
0001
0000
1000
0010
,
0100
0001
1000
0100
2000
3200
0302
0203
,
1300
0001
0010
0100
2000
3020
0032
0023
,
1030
0001
0100
0010
0002
0023
2030
3002
,
0103
0100
0010
0010
1000
1000
0100
0100
,
0010
0010
0001
0001
1000
1000
0001
0001
,
1000
0100
0010
0001
1000
0100
0010
0001
,
1000
0010
1000
0010
0100
0001
0100
0001
1000
0100
0010
0001
2000
0000
0000
0000
,
0000
0000
0000
0000
,
0000
0000
3000
1100
,
2002
0000
0000
0003
,
3020
0000
0032
0000
,
0203
0000
0000
0000
,
2300
0000
3001
1000
,
2002
0000
0000
3003
,
2000
0000
3002
0000
,
0203
0000
0000
0302
,
0023
2030
3020
0031
,
0202
0000
0000
0303
,
2020
3030
0022
0033
,
2200
0000
0000
3300
,
2002
3003
2000
3100
,
0220
0000
0000
0330
,
2002
3003
0220
0330
,
2002
0000
0000
0000
,
3003
0000
0001
0000
,
1000
0000
1000
0000
0001
0100
1000
0100
,
0000
0010
0000
1000
0001
0000
0100
0000
,
0001
0000
1000
0000
0001
0100
0000
0010
,
0001
0000
0010
0000
0100
0001
1000
0000
,
0001
0010
0100
1000
0001
0100
0010
0001
,
1000
0100
0001
1000
0100
0010
0001
1000
,
0001
0010
0100
1000
0001
0100
0010
1000
,
0001
1000
0001
1000
0001
1000
0001
1000
0100
0010
0100
0010
0100
0010
0100
0010
,
0001
0001
0001
0011
,
1000
0000
0001
0000
0010
0000
0100
1000
0100
0000
1000
0000
0001
0000
0100
0000
,
0010
0000
0100
0000
0001
0000
1000
0000
0001
0000
0100
0010
0100
0000
0001
0000
,
0010
0000
0100
0000
1000
0000
0001
0000
0100
0001
0100
0000
0001
0000
0010
0000
,
0001
0000
0100
0010
0100
0000
0001
0000
1000
0000
0100
0000
1100
0000
0000
0000
,
0001
0000
1000
0000
0001
0000
0100
0010
0100
0000
0001
0000
0010
0000
0100
0000
,
1000
0000
0001
0000
1000
0000
0100
1000
0100
0000
0010
0000
0001
0000
1000
0000
,
0010
0000
0100
0000
0001
0000
1000
0000
0100
0010
0001
1000
0010
0100
0001
0000
,
0000
0101
0000
1100
0011
0000
1010
0000
,
0001
0000
1000
0000
0001
0000
0010
0100
0010
0000
0001
0000
0100
0010
0100
0000
,
0001
0000
1000
0100
1000
0000
0001
0000
0100
0000
0010
1000
0010
0000
0100
0000
,
0001
0000
1000
0000
0100
0000
0010
0000
0001
1000
0001
1000
0001
0000
0100
0000
,
0010
0000
1000
0010
1000
0000
0100
0000
1000
0010
0100
0001
1000
0000
0000
0000
,
0001
0010
0100
1000
0010
0100
1000
0100
,
0010
0000
0001
0000
0010
0000
0100
0000
0001
0000
0010
0000
0100
1000
0001
0000
,
1000
0100
0010
0001
1000
0010
0100
0001
,
1000
0100
0010
0001
1000
0010
0100
0001
0100
0010
1000
0001
0010
0000
0000
0000
,
1001
0000
0000
0000
;

//--------------- dance-single - Fred-104† ----------------
#NOTEDATA:;
#STEPSTYPE:dance-single;
#DESCRIPTION:Fred-104†;
#DIFFICULTY:Challenge;
#METER:18;
#CREDIT:Fred-104†;
#NOTES:
0000
0000
0000
0000
,
0000
0000
0000
0000
,
0000
0000
0000
0000
,
0000
0000
0000
0000
,
0000
0000
0000
1010
,
0101
0000
0001
1000
0010
0000
1000
0001
0100
0000
0010
0000
1000
0000
0000
0000
,
0001
1000
0000
0010
0100
0010
1000
0010
0100
0000
0001
0000
2000
0000
0000
0000
,
3001
0010
0001
0100
0010
1000
0100
0010
,
0001
0100
0001
0100
0010
1000
0010
1000
0001
0010
0001
0010
0100
1000
0100
1000
,
0001
0010
0100
1000
0010
0100
0001
0010
0100
1000
0010
0100
0001
0000
0000
0000
,
1100
0000
0010
0000
0001
0000
0000
0000
0101
0000
0010
0000
1000
0000
0001
0100
,
0001
1000
0100
0010
0001
1000
1001
0000
,
0011
0000
0100
0000
1000
0000
0000
0000
1010
0000
0100
0000
0001
0000
1000
0010
,
0100
0000
0000
0000
0000
0000
0000
0000
0001
0000
0000
0000
0000
0000
0000
0000
1000
0000
0000
0000
0000
0000
0000
0000
0010
0000
0000
0000
0000
0000
0000
0000
0200
0300
0000
0000
0000
0000
0000
0000
0200
0300
0000
0000
0000
0000
0000
0000
0200
0300
0000
0000
0000
0000
0000
0000
0200
0300
0000
0000
0000
0000
0000
0000
,
1000
0000
0001
0100
0001
0000
0010
0000
0100
0000
0010
0100
1000
0000
0001
0100
,
0001
0000
1000
0001
0010
0000
0100
0000
1000
0000
0010
0000
2010
0000
0000
0000
,
3001
0100
0010
1000
0001
0010
0100
1000
,
0001
0100
0010
1000
0100
0010
0001
0010
0100
1000
0001
0010
0001
0000
0000
0000
,
0001
0100
0001
0100
1000
0100
2000
3100
,
0001
0010
0001
0010
1000
0010
2000
3010
,
0001
0010
1000
0010
0001
0010
2000
3010
,
0001
0100
1000
0100
0001
0100
0020
0000
,
1030
0000
0001
0100
0010
0000
1000
0000
0001
0000
0010
0000
0100
1000
0001
0000
,
1000
0000
0010
1000
0001
0000
0010
0100
1000
0000
0001
0000
0011
0000
0000
0000
,
0001
1000
0010
0100
0001
1000
0100
0010
,
0001
0100
0010
1000
0010
0100
0001
1000
0100
1000
0001
0100
0010
0000
0000
0000
,
1000
0000
0010
0000
0010
0000
0100
0000
0010
0000
1000
0001
0000
0100
0010
0000
,
0100
0000
0001
0000
0001
0000
0100
0000
0010
0000
1000
0100
0000
1000
0010
0000
,
1000
0000
0001
0000
0001
0000
0100
0000
0010
0000
0100
0001
0000
1000
0001
0000
,
1000
0000
0100
1000
0001
0000
1000
0100
0010
0000
0001
0100
0000
0001
1000
0000
,
0001
0000
1000
0000
0100
0000
1000
0000
0010
0000
1000
0100
1000
0100
0010
0000
,
0100
0000
1000
0000
0001
0000
0010
0000
0100
0000
0001
0100
0001
0100
0010
0000
,
0001
0000
1000
0000
0100
0000
1000
0000
0001
0000
1000
0100
0010
0001
1000
0000
,
0010
0010
0010
1001
,
1000
0000
0100
0000
2100
0000
0000
0000
3010
0000
1000
0100
1000
0001
0100
0000
,
0010
0000
0100
0000
0201
0000
0000
0000
0310
0000
1000
0001
0100
0010
1000
0000
,
0001
0000
1000
0000
1002
0000
0000
0000
0103
0000
0010
1000
0100
0010
0001
0000
,
1000
0000
0100
0000
0120
0000
0000
0000
0130
0000
0001
0100
0010
0001
1000
0000
,
0001
0000
0010
0000
0011
0000
0001
0000
1000
0000
0010
1000
0100
1000
0001
0000
,
1000
0000
0100
0000
0110
0000
0010
0000
0001
0000
0100
0010
1000
0010
0100
0000
,
0001
0000
1000
0000
1010
0000
0010
0000
0100
0000
0001
1000
0100
1000
0001
0000
,
0100
0010
1000
1001
,
1000
0100
0010
0001
0000
0100
0010
0001
,
0010
0000
1000
0001
1000
0000
0001
1000
0100
0000
0010
0100
0000
0010
0001
0000
,
1000
0000
0010
0000
1000
0000
0001
0100
0010
0100
0001
0000
0100
0000
0010
0000
,
1000
0001
0010
0100
1000
0001
1001
0000
,
0110
0000
1000
0000
0001
0010
0001
0000
1000
0000
0100
0000
0010
0100
0010
0000
,
0001
0000
1000
0000
0010
0000
0100
0010
0100
0000
0001
0000
1000
0010
0100
0000
,
0001
0100
0010
1000
0001
0010
0100
1000
,
0001
0010
0001
1000
0100
1000
0001
0100
0010
1000
0001
1000
0001
0000
0000
0000
,
0101
0000
0010
0000
1000
0000
0000
0000
1100
0000
0010
0000
0001
0000
1000
0100
,
1000
0001
0100
0010
1000
0001
1001
0000
,
1010
0000
0100
0000
0001
0000
0000
0000
0011
0000
0100
0000
1000
0000
0001
0010
,
0100
0000
0000
0000
0000
0000
0000
0000
1000
0000
0000
0000
0000
0000
0000
0000
0001
0000
0000
0000
0000
0000
0000
0000
0010
0000
0000
0000
0000
0000
0000
0000
0200
0300
0000
0000
0000
0000
0000
0000
0200
0300
0000
0000
0000
0000
0000
0000
0200
0300
0000
0000
0000
0000
0000
0000
0200
0300
0000
0000
0000
0000
0000
0000
,
0001
0000
1000
0100
1000
0000
0010
0000
0100
0000
0010
0100
0001
0000
1000
0100
,
1000
0000
0001
1000
0010
0000
0100
0000
0001
0000
0010
0000
0011
0000
0000
0000
,
1001
0000
1000
0000
0100
0000
0000
0000
1001
0000
0001
0000
0100
0000
0100
0010
,
1000
0100
0010
0001
2000
3002
2003
3002
,
0013
0000
0000
0000
0000
0000
0000
0000
0100
0000
0000
0000
0000
0000
0000
0000
0010
0000
0000
0000
0000
0000
0000
0000
0001
0000
0000
0000
0000
0000
0000
0000
0200
0300
0000
0000
0000
0000
0000
0000
0200
0300
0000
0000
0000
0000
0000
0000
0200
0300
0000
0000
0000
0000
0000
0000
0200
0300
0000
0000
0000
0000
0000
0000
,
1000
0000
0000
0000
0000
0000
0000
0000
0100
0000
0000
0000
0000
0000
0000
0000
0010
0000
0000
0000
0000
0000
0000
0000
0001
0000
0000
0000
0000
0000
0000
0000
0200
0300
0000
0000
0000
0000
0000
0000
0200
0300
0000
0000
0000
0000
0000
0000
0020
0030
0000
0000
0000
0000
0000
0000
0020
0030
0000
0000
0000
0000
0000
0000
,
2002
0003
0000
0000
0000
0000
0000
0000
3100
0000
0000
0000
0000
0000
0000
0000
0010
0000
0000
0000
0000
0000
0000
0000
0001
0000
0000
0000
0000
0000
0000
0000
2002
3000
0000
0000
0000
0000
0000
0000
0103
0000
0000
0000
0000
0000
0000
0000
0010
0000
0000
0000
0000
0000
0000
0000
1000
0000
0000
0000
0000
0000
0000
0000
,
2200
3300
0000
0000
0000
0000
0000
0000
1000
0000
0000
0000
0000
0000
0000
0000
0010
0000
0000
0000
0000
0000
0000
0000
0100
0000
0000
0000
0000
0000
0000
0000
0202
0303
0000
0000
0000
0000
0000
0000
0001
0000
0000
0000
0000
0000
0000
0000
0010
0000
0000
0000
0000
0000
0000
0000
0100
0000
0000
0000
0000
0000
0000
0000
,
1000
1000
0010
0010
0100
0100
0001
0001
,
1000
0010
0100
0001
0010
0100
1000
0100
0010
0001
0100
0010
2000
0000
0000
0000
,
0000
0000
0000
0000
,
0000
0000
3000
0110
,
2002
0000
0000
0003
,
3020
0000
0230
0000
,
0302
0000
0000
0000
,
2003
0000
3100
0101
,
2002
0000
0000
3003
,
0002
0000
0023
0000
,
2030
0000
0000
3001
,
0100
1000
0001
1000
,
2002
0000
0000
3003
,
2200
3300
0202
0303
,
2002
0000
0000
3003
,
0220
0330
0001
0110
,
2020
0000
0000
3030
,
0022
0033
2020
3030
,
2002
0000
0000
0000
,
0000
3003
0020
0030
,
1001
0000
0000
0000
2000
3020
0032
0023
,
0000
0000
0230
2300
,
3200
0000
0000
0000
0302
2003
0000
3200
,
0000
0000
0320
0230
,
1300
0010
0100
0010
0001
1000
0100
0010
,
0100
0001
1000
0001
0100
0010
0001
1000
,
0100
0001
1000
0010
0100
1000
0100
0010
,
1000
0001
0010
0100
1000
0010
0100
0001
0010
0100
1000
0100
0010
0001
0100
0010
,
0100
0000
0100
0000
0100
0000
2002
3003
,
1100
0000
0100
0000
0010
0000
0001
0100
0010
0000
0100
0000
0001
1000
0001
0000
,
1000
0000
0010
0000
0100
0000
0010
0000
1000
0000
0100
1000
0001
1000
0010
1000
,
0001
0000
0100
0000
0001
0000
0010
0001
1000
0000
0001
1000
0010
0100
0001
0000
,
1000
0000
0100
0000
0010
0000
0001
0000
1000
0000
0100
1000
0001
1000
0010
0100
,
0001
0000
0010
0000
0001
0000
1000
0010
1000
0000
0001
1000
0100
1000
0001
0000
,
1000
0000
0010
0000
0100
0000
0010
0000
1000
0000
0100
0010
0001
0010
0100
1000
,
0001
0000
1000
0000
0010
0000
0100
0000
0001
0010
0100
1000
0001
0100
0001
0000
,
0000
1100
0000
0101
1010
0000
0011
0000
,
1000
0000
0001
0010
0001
0000
1000
0000
0010
0100
0001
0100
0010
0000
1000
0000
,
0001
0000
1000
0100
0010
0000
0001
0000
0100
0000
0001
0010
0100
0010
0001
1000
,
0010
0000
0100
0000
0001
0010
0100
0000
1000
0000
0100
0010
0001
0000
0100
0010
,
1000
0000
0001
0100
0010
0000
0001
0000
0010
1000
0001
1000
0002
0000
0000
0000
,
1003
0100
1000
0000
0010
0000
0100
0000
0001
0010
0001
0000
0100
0010
1000
0001
,
0010
0000
0100
0010
0001
0000
1000
0001
0100
0000
0010
0100
0001
1000
0100
0000
,
1000
0001
1000
0010
0100
0001
0010
0001
0100
0010
1000
0010
0100
0001
0010
0001
,
1000
0010
0100
0001
0010
0100
1000
0010
0100
0001
0010
0100
1000
0000
0000
0000
,
1001
0000
0000
0000
;

//--------------- dance-double - Fred-104 ----------------
#NOTEDATA:;
#STEPSTYPE:dance-double;
#DESCRIPTION:Fred-104;
#DIFFICULTY:Easy;
#METER:11;
#CREDIT:Fred-104;
#NOTES:
00000000
00000000
00000000
00000000
,
00000000
00000000
00000000
00000000
,
00000000
00000000
00000000
00000000
,
00000000
00000000
00000000
00000000
,
00000000
00000000
00000000
00000100
,
00001001
00000000
00000000
00000000
,
00000000
00000000
00000020
00020030
,
00031000
00010000
00001000
00100000
,
00001000
00010000
00000010
00001000
,
00002002
00000000
00000000
00003003
,
00001000
00001010
00000001
00000011
,
00001000
00000001
00000100
00000000
00000010
00000000
00011000
00000000
,
00010000
00010010
00001000
00101000
,
00001000
00100000
00010000
00000000
10000000
00010000
01000000
00000000
,
00010000
01100000
10000000
01100000
,
00010000
10000000
01000000
00000000
00100000
00001000
00010000
00000000
,
00001000
00001000
00010000
00010000
,
00000010
00001000
00000001
00000000
00001000
00000100
00010000
00000000
,
00012000
00000000
00000000
00000000
,
00203000
00000000
00000000
00000000
,
00320000
00000000
00000000
00000000
,
20030000
00000000
00000000
31000000
,
01100000
00000000
10000000
01000000
00000000
00100000
00001000
00000000
,
00010000
00010000
00001000
00001000
,
00010000
00001000
00000100
00000001
,
00001000
00000001
00001000
00000000
00000010
00000100
00000010
00000000
,
00010000
00000000
00001000
00000000
00010000
00000100
00010000
00000000
,
00001000
00000000
01000000
00000000
00010000
00100000
00010000
00000000
,
10000000
00000000
00010000
00000000
00100000
01000000
00100000
00000000
,
00001000
00010000
00001000
00000100
,
00000001
00000000
00001000
00000000
00000100
00000010
00000100
00000000
,
00001000
00000000
00000010
00000000
00010000
00001000
00010000
00000000
,
00000100
00000000
00010000
00000000
00001000
01000000
00001000
00000000
,
00010000
00010000
00010000
00010000
,
00011000
00000000
00000000
00000000
00001000
00000000
00000000
00000000
01000000
00000000
00000000
01000000
00000000
00000000
00100000
00000000
,
01000000
00000000
00000000
00000000
00010000
00000000
00000000
00000000
10000000
00000000
00000000
10000000
00000000
00000000
01000000
00000000
,
00100000
00000000
00000000
00000000
00001000
00000000
00000000
00000000
00010000
00000000
00000000
00010000
00000000
00000000
00000010
00000000
,
00001000
00000000
00000000
00000000
00000100
00000000
00000000
00000000
00001000
00000000
00000000
00001000
00000000
00000000
00000001
00000000
,
00000100
00000000
00000000
00000000
00000010
00000000
00000000
00000000
00001000
00000000
00000000
00000100
00000000
00000000
00010000
00000000
,
00001000
00000000
00000000
00000000
00010000
00000000
00000000
00000000
00000010
00000000
00000000
00010000
00000000
00000000
00001000
00000000
,
00100000
00000000
00000000
00000000
00010000
00000000
00000000
00000000
10000000
00000000
00000000
00010000
00000000
00000000
01000000
00000000
,
00100000
00100000
01000000
01000000
,
10010000
00000000
10000000
01000000
00000000
00100000
00001000
00000000
,
00010000
00001000
00000010
00000001
,
00001000
00000100
00000010
00000001
,
00000100
00000000
00001000
00000000
00010000
00001000
00010000
00000000
,
00011000
00000000
00010000
00000010
00000000
00001000
00000010
00000000
,
00010000
00001000
01000000
00001000
,
00010000
00010000
00001000
00001000
,
00010000
00001000
00100000
00010000
10000000
00000000
10010000
00000000
,
00010000
00110000
10000000
10100000
,
00010000
10000000
01000000
00000000
00100000
00000000
00011000
00000000
,
00001000
00101000
00010000
00010010
,
00010000
00000010
00001000
00000000
00000001
00001000
00000100
00000000
,
00001000
00000110
00000001
00000110
,
00001000
00000001
00000100
00000000
00000010
00010000
00001000
00000000
,
00010000
00010000
00001000
00001000
,
00100000
00010000
10000000
00000000
00200000
00000000
02300000
00000000
,
03001000
00010000
00000020
00002030
,
00003100
00000010
00000002
00001003
,
00001001
00000000
00011000
00000000
,
10010000
00000000
00011000
00010000
,
00001000
00001000
00010000
00010000
,
00001000
00010000
00001000
00010000
00001000
00010000
00002000
00000000
,
00000000
00000000
00000000
00000000
,
00000000
00000000
00000000
00003000
,
00021000
00000000
00000000
00000000
,
00032000
00000000
00023000
00000000
,
00032000
00000000
00000000
00000000
,
02003000
00000000
03010000
10000000
,
00200000
00000000
00000000
00000000
,
20300000
00000000
30020000
00000000
,
02030000
00000000
00000000
03100000
,
10000000
01000000
00010000
00001000
,
00022000
00000000
00000000
00033000
,
00020000
00000000
00032000
00000000
,
00003020
00000000
00000000
00000000
,
00000032
00000000
00001003
00000001
,
00000200
00000000
00000000
00000000
,
00000320
00000000
00020030
00000000
,
00002000
00000000
00000000
00000000
,
00000000
00000000
00033000
00000000
,
00010000
00000000
00000000
00000000
00001000
01000000
00001000
01000000
,
00000000
00000000
00001000
00010000
,
00001000
00000000
00000000
00000000
00010000
00000100
00000000
00001000
,
00000000
00000000
00000001
00001000
,
00000001
00000100
00000010
00000100
,
00001000
00010000
00100000
10000000
,
00010000
10000000
01000000
00100000
,
00001000
00010000
00001000
00010000
00001000
00000000
00010000
00000000
,
00002000
00010000
00013000
00011000
,
00001000
00000000
00001000
00000000
01000000
00010000
01000000
00010000
,
00000000
10000000
00010000
01000000
,
00100000
00000000
10000000
00000000
00010000
10000000
00000000
01000000
,
00100000
00001000
00010000
00100000
,
10000000
00000000
01000000
00000000
00100000
00010000
00100000
00010000
,
00000000
01000000
00001000
00010000
,
00001000
00000000
00000100
00000000
00000010
00001000
00000010
00001000
,
00000000
00000001
00000000
00000100
00000010
00000000
00001000
00000000
,
00001001
00000000
00000000
00000000
00000010
00010000
00000010
00010000
,
00000000
00010000
00001000
00100000
,
00001000
00000000
00010000
00000000
00000100
00010000
00000000
00001000
,
00000000
00000000
00010000
00000000
00001000
01000000
00001000
00000000
,
00100000
00000000
00010000
00000000
01000000
00010000
01000000
00100000
,
00000000
01000000
00010000
10000000
,
01000000
00100000
00001000
00010000
,
00001000
00010000
00001000
00010000
00002000
00000000
00003000
00000000
,
00011000
00000000
00000000
00000000
;

//--------------- dance-double - Fred-104 ----------------
#NOTEDATA:;
#STEPSTYPE:dance-double;
#DESCRIPTION:Fred-104;
#DIFFICULTY:Medium;
#METER:15;
#CREDIT:Fred-104;
#NOTES:
00000000
00000000
00000000
00000000
,
00000000
00000000
00000000
00000000
,
00000000
00000000
00000000
00000000
,
00000000
00000000
00000000
00000000
,
00000000
00000000
00000000
00011000
,
01001000
00000000
00000000
00000000
,
00000000
00000000
00020000
00032000
,
00013000
00000100
00010000
00000100
00001000
00000001
00001000
00000001
,
00000010
00000100
00001000
00000100
00010000
00001000
00010000
00000000
,
00022000
00000000
00000000
00033000
,
00011000
00000000
00101000
00000000
00001000
00100000
00010000
00000000
,
01000000
00010000
10000000
00010000
01000000
00000000
01100000
00000000
,
10100000
00000000
01010000
00000000
10000000
01000000
00010000
00000000
,
00001000
00000010
00000100
00001000
00000001
00000010
00000100
00000010
,
00000011
00000000
00001001
00000000
00000001
00000100
00001000
00000000
,
00010000
00100000
01000000
00010000
00100000
00000000
10010000
00000000
,
10000000
01000000
00100000
01000000
00100000
00010000
00100000
00001000
,
00010000
00000100
00001000
00000001
00000100
00000010
00000100
00000000
,
00001002
00000000
00000000
00000000
,
00000203
00000000
00000000
00000000
,
00002300
00000000
00000000
00000000
,
00023000
00000000
00000000
00031000
,
00011000
00000000
00001000
00100000
00000000
00010000
10000000
00010000
,
01000000
00000000
00000000
01000000
00100000
00000000
01000000
00000000
00010000
00000000
00000000
00000000
10010000
00000000
00000000
00000000
,
10000000
01000000
00100000
00010000
01000000
00001000
00010000
00001000
,
00010000
00010000
00001000
00001000
00010000
00001000
00011000
00000000
,
00010000
00001000
00000010
00000001
00001000
00000100
00000010
00000000
,
00000001
00000100
00001000
00010000
00001000
01000000
00100000
00000000
,
10000000
00010000
00100000
01000000
00100000
00001000
00010000
00000000
,
00001000
00000100
00000010
00001000
00000001
00000010
00000001
00000000
,
00001000
00000001
00000010
00000100
00000010
00000100
00000010
00000001
,
00000100
00001000
00010000
00001000
00010000
00100000
01000000
00100000
,
01000000
00010000
10000000
01000000
00100000
00001000
00010000
00100000
,
10000000
01000000
00010000
00001000
,
00010000
00000000
00001000
00000000
00010000
00000000
00000000
00000000
00000010
00000000
00001000
00000001
00000000
00001000
00000001
00000000
,
00000010
00000000
00000100
00000000
00000010
00000000
00000000
00000000
00000001
00000000
00001000
00000100
00000000
00001000
00000100
00000000
,
00010000
00000000
00000010
00000000
00001000
00000000
00000000
00000000
00000100
00000000
00010000
00001000
00000000
00010000
00001000
00000000
,
01000000
00000000
00001000
00000000
00010000
00000000
00000000
00000000
00001000
00000000
00100000
00010000
00000000
00100000
00010000
00000000
,
01000000
00000000
00100000
00000000
10000000
00000000
00100000
00000000
01000000
00000000
00010000
00100000
00000000
00010000
00100000
00000000
,
00001000
00000000
01000000
00000000
00001000
00000000
00010000
00000000
00000100
00000000
00001000
00000001
00000000
00001000
00000001
00000000
,
00000010
00000000
00000100
00000000
00000010
00000000
00000001
00000000
00001000
00000000
00000100
00010000
00000000
00000100
00010000
00000000
,
00001000
00010000
00001000
00011000
,
01001000
00000000
00001000
00010000
00000000
00000010
00010000
00001000
,
00010000
00000000
00000100
00000000
00000010
00000000
00000001
00000000
00001000
00000000
00000000
00000010
00000000
00000000
00000100
00000000
,
00000001
00000100
00000010
00000100
00001000
00010000
00100000
01000000
,
00010000
10000000
01000000
00100000
00010000
10000000
00100000
00000000
,
01100000
00000000
10000000
01000000
00000000
00010000
00001000
00010000
,
00001000
00000010
00000100
00000010
00000100
00001000
00000001
00000000
,
00000100
00000001
00000010
00000001
00001000
00000010
00001000
00000100
,
00010000
00001000
00010000
00001000
00010000
00001000
00010000
00000000
,
00011000
00000000
00010010
00000000
00010000
00000010
00001000
00000000
,
00000100
00001000
00000001
00001000
00000100
00000000
00000110
00000000
,
00000011
00000000
00001100
00000000
00000001
00000100
00001000
00000000
,
00010000
00100000
01000000
00010000
10000000
00100000
01000000
00100000
,
10100000
00000000
10010000
00000000
10000000
01000000
00010000
00000000
,
00001000
00000010
00000100
00001000
00000001
00000000
00001001
00000000
,
00000001
00000010
00000100
00010000
00001000
00100000
01000000
00000000
,
10000000
00010000
00100000
01000000
20000000
00000000
30020000
00000000
,
01030000
00100000
10000000
01000000
00200000
00000000
00302000
00000000
,
00013000
00001000
00000010
00000001
00002000
00000000
00003200
00000000
,
00000310
00000102
00000013
00002100
,
00003001
00000210
00001300
00000120
,
00000031
00000100
00001000
00010000
00100000
01000000
00010000
10000000
,
01000000
00000000
00010000
00000000
00001000
00000000
00000010
00000000
00000100
00000010
00000100
00000010
00000200
00000000
00000000
00000000
,
00000000
00000000
00000000
00000000
,
00000000
00000000
00000300
00000110
,
00002001
00000000
00000000
00000000
,
00003020
00000000
00020030
00000000
,
00032000
00000000
00000000
00000000
,
00023000
00000000
00031000
01000000
,
02020000
00000000
00000000
00030000
,
03200000
00000000
20300000
00000000
,
30020000
00000000
00000000
20030000
,
32000000
03020000
00032000
00003020
,
00000230
00000000
00000000
00000000
,
00002300
00000000
00003002
00000000
,
00000203
00000000
00000000
00000000
,
00000320
00000000
00010030
00001000
,
00022000
00000000
00000000
00033000
,
00002000
00000000
02003000
00000000
,
00200000
00000000
00000000
00000000
,
00000000
00000000
03300000
00000000
,
10000000
00000000
00000000
00000000
01000000
00100000
00001000
00010000
,
00000000
00000000
00000100
00000010
,
00000001
00000000
00000000
00000000
00001000
00000001
00000000
00000100
,
00000000
00000000
00001000
00010000
,
00001000
00100000
01000000
10000000
00010000
01000000
00100000
00000000
,
10000000
01000000
00100000
01000000
00010000
00001000
00000010
00000000
,
00000100
00001000
00000001
00000010
00000100
00000010
00000001
00001000
,
00000100
00000010
00000001
00000100
00001000
00010000
00001000
00000000
,
00020000
00001000
00001000
00031000
,
00010000
00001000
00000010
00000001
00001000
00000010
00000100
00000001
,
00000000
00000010
00000100
00000010
00001000
00010000
01000000
00000000
,
00100000
00010000
10000000
00010000
01000000
00100000
10000000
01000000
,
00000000
00010000
00001000
00010000
00100000
10000000
00010000
00000000
,
10000000
01000000
00100000
00010000
01000000
00001000
00000100
00000010
,
00000000
00001000
00000100
00000010
00000001
00000100
00001000
00000000
,
00010000
00100000
01000000
00010000
01000000
00001000
00010000
00001000
,
00000000
00011000
00000000
00010000
00001000
00000000
01001000
00000000
,
00001000
00010000
00100000
10000000
00010000
00100000
01000000
00100000
,
00010000
10000000
01000000
00100000
00010000
01000000
00001000
00000100
,
00000010
00001000
00000010
00000001
00000010
00000100
00000001
00000010
,
00000100
00000010
00001000
00010000
01000000
00100000
00010000
00000000
,
10000000
01000000
00100000
00010000
01000000
00001000
00010000
00100000
,
00010000
00001000
01000000
00001000
00010000
00001000
00000010
00000100
,
00001000
00000001
00000010
00000100
00001000
00000100
00010000
00001000
,
00010000
00001000
00010000
00001000
00010000
00001000
00010000
00001000
00010000
00000000
00000000
00000000
00001000
00000000
00000000
00000000
,
00011000
00000000
00000000
00000000
;

//--------------- dance-double - Fred-104 ----------------
#NOTEDATA:;
#STEPSTYPE:dance-double;
#DESCRIPTION:Fred-104;
#DIFFICULTY:Hard;
#METER:17;
#CREDIT:Fred-104;
#NOTES:
00000000
00000000
00000000
00000000
,
00000000
00000000
00000000
00000000
,
00000000
00000000
00000000
00000000
,
00000000
00000000
00000000
00000000
,
00000000
00000000
00000000
00011000
,
00010010
00000000
00000000
00000000
,
00000000
00000000
00000002
00002003
,
00003001
00000010
00000100
00001000
00000100
00010000
00001000
00100000
,
00001000
00010000
00001000
00000000
00100000
00010000
00100000
00000000
00010000
10000000
00010000
00000000
01000000
00100000
01000000
00000000
,
02200000
00000000
00000000
03300000
,
11000000
00000000
00000000
00000000
01010000
00000000
00000000
00000000
10000000
00000000
01000000
00000000
00100000
00000000
00010000
01000000
,
00010000
00100000
00001000
00010000
00001000
00000010
00000100
00000000
,
00001100
00000000
00000000
00000000
00000011
00000000
00000000
00000000
00000001
00000000
00001000
00000000
00000010
00000000
00000100
00000001
,
00000100
00000001
00000010
00000100
00000010
00001000
00010000
01000000
,
00100000
00000000
00010000
00000000
10000000
00000000
00000000
00000000
00100000
00000000
01000000
00000000
00010000
00000000
10000000
00100000
,
10000000
00010000
00100000
01000000
00010000
00001000
00000100
00000000
,
00000010
00001000
00000001
00001000
00000010
00000100
00000010
00001000
,
00000100
00010000
00000100
00000000
00010000
00001000
00010000
00000000
00001000
00000000
01000000
00000000
01100000
00000000
00000000
00000000
,
20010000
00000000
00000000
00000000
,
32000000
00000000
00000000
00000000
,
03200000
00000000
00000000
00000000
,
00302000
00000000
00003000
00011000
,
00101000
00000000
00001000
00010000
00001000
00000000
00010000
00000010
00010000
00000000
00000100
00000000
00001000
00000000
00000001
00000000
,
00000100
00000000
00000000
00000001
00001000
00000000
00000100
00000000
00000010
00000000
00000000
00000000
00001001
00000000
00000000
00000000
,
00001000
00000001
00000010
00000100
00010000
00001000
00100000
01000000
,
10000000
00100000
10000000
00000000
00010000
01000000
00010000
00000000
10000000
01000000
00100000
00010000
01000000
00000000
00000000
00000000
,
00001000
00000000
00010000
00000000
00001000
00000000
00000010
00000000
00000001
00000000
00001000
00000010
00000000
00000100
00000010
00000000
,
00001000
00000000
00000001
00000000
00000010
00000000
00000100
00000000
00000010
00000000
00001000
00010000
00000000
01000000
00100000
00000000
,
00010000
00000000
10000000
00000000
00010000
00000000
00100000
00000000
01000000
00000000
10000000
00100000
00000000
01000000
00010000
00000000
,
10000000
00000000
01000000
00000000
00010000
00000000
00001000
00000000
00010000
00000000
00100000
10000000
00000000
00010000
10000000
00000000
,
00010000
00000000
01000000
00000000
00100000
00000000
10000000
00000000
00010000
00000000
00100000
00001000
00000000
00010000
00001000
00000000
,
01000000
00000000
00001000
00000000
00010000
00000000
00001000
00000000
00000100
00000000
00000001
00001000
00000000
00000001
00000010
00000000
,
00000100
00000000
00001000
00000000
00000001
00000000
00000100
00000000
00000010
00000000
00000001
00000010
00000000
00001000
00000001
00000000
,
00000100
00001000
00010000
00001000
,
00100000
00000000
01000000
00000000
11000000
00000000
00000000
00000000
10000000
00000000
00010000
00100000
00000000
01000000
00100000
00000000
,
00010000
00000000
01000000
00000000
01100000
00000000
00000000
00000000
00100000
00000000
00001000
00010000
00000000
00000010
00001000
00000000
,
00000100
00000000
00000010
00000000
00000011
00000000
00000000
00000000
00001000
00000000
00000001
00000010
00000000
00000001
00000100
00000000
,
00000001
00000000
00000010
00000000
00000100
00000000
00000010
00000000
00000001
00000000
00001000
00000010
00000000
00000100
00000010
00000000
,
00001000
00000000
00000001
00000000
00000001
00000000
00000010
00000000
00000100
00000000
00001000
00000100
00000000
00010000
00001000
00000000
,
00100000
00000000
00001000
00000000
00001000
00000000
00010000
00000000
00001000
00000000
01000000
00001000
00000000
00010000
00001000
00000000
,
00100000
00000000
00010000
00000000
00100000
00000000
00100000
00000000
01000000
00000000
10000000
00100000
00000000
01000000
00010000
00000000
,
10000000
00000000
01000000
00000000
00010000
00001000
00010000
00000000
,
00001000
00000100
00000010
00001000
00000000
00000100
00000010
00000001
,
00001000
00000010
00001000
00000000
00000001
00000000
00000010
00000000
00000100
00000000
00000010
00000001
00000000
00001000
00000001
00000000
,
00000100
00001000
00010000
00001000
01000000
00010000
00100000
00001000
,
00010000
00001000
00000010
00000100
00001000
00000001
00000101
00000000
,
00001001
00000001
00000010
00000100
00000000
00010000
00001000
00100000
,
00010000
00100000
01000000
00000000
10000000
00000000
00010000
00100000
01000000
00000000
10000000
00000000
00100000
10000000
00010000
00000000
,
01000000
00010000
00100000
00001000
00010000
00001000
01000000
00001000
,
00010000
00000100
00010000
00000100
00001000
00000100
00001000
00000100
00000010
00000001
00001000
00000010
00000100
00000000
00000000
00000000
,
00000101
00000000
00000000
00000000
00001100
00000000
00000000
00000000
00000001
00000000
00000100
00000000
00000010
00000000
00001000
00000100
,
00001000
00000010
00010000
00001000
00010000
00100000
01000000
00000000
,
01010000
00000000
00000000
00000000
10100000
00000000
00000000
00000000
10000000
00000000
00010000
00000000
00100000
00000000
01000000
10000000
,
01000000
10000000
00100000
01000000
00100000
00010000
00001000
00000100
,
00000010
00000000
00001000
00000000
00000001
00000000
00000000
00000000
00000010
00000000
00000100
00000000
00001000
00000000
00000001
00000010
,
00000001
00001000
00000010
00000100
00001000
00010000
01000000
00000000
,
00100000
00010000
10000000
00010000
00100000
01000000
00100000
00010000
,
10000000
01000000
00100000
00001000
00020000
00032000
00003200
00002300
,
00013000
00001000
00000010
00000001
00002000
00003200
00000302
00000203
,
00001300
00000001
00000100
00000010
00020000
00032000
00003200
00002300
,
00013000
00010000
00001000
00001000
00100000
00100000
00010000
00010000
,
10000000
10000000
01000000
01000000
00010000
00010000
00001000
00001000
,
00000010
00000010
00000100
00000100
00001000
00001000
00000001
00000001
,
00000010
00000001
00000010
00000001
00001000
00000100
00001000
00000100
00010000
00001000
00010000
00001000
00020000
00000000
00000000
00000000
,
00000000
00000000
00000000
00000000
,
00000000
00000000
00030000
00011000
,
00002002
00000000
00000000
00003000
,
00000203
00000000
00000320
00000000
,
00002030
00000000
00000000
00000000
,
00003200
00000000
00020300
00031000
,
00022000
00000000
00000000
00033000
,
00202000
00303000
00020020
00030030
,
00022000
00000000
00033000
00010000
,
00001000
00000010
00000001
00001000
,
00002002
00000000
00000000
00003003
,
00000002
00000000
00000203
00000000
,
00002300
00000000
00000000
00000000
,
00023000
00000000
02030000
03200000
,
00320000
00000000
00000000
00000000
,
20030000
00000000
30200000
00300000
,
00022000
00000000
00000000
00000000
,
00000000
00000000
00033000
00000000
,
00010000
00000000
00010000
00000000
00001000
00010000
00000010
00010000
,
00000000
00000100
00000000
00010000
00001000
00000000
00100000
00000000
,
00010000
00000000
01000000
00000000
00010000
00100000
00000000
00001000
,
01000000
00010000
00100000
00001000
,
00010000
00000100
00001000
00000100
00000010
00000001
00001000
00000001
,
00000100
00000010
00000100
00001000
00010000
00100000
01000000
00010000
,
01000000
00100000
10000000
01000000
00100000
00010000
01000000
00001000
,
00010000
00001000
00010000
00001000
00010000
00001000
00010000
00001000
00100000
00010000
00100000
00010000
00100000
00010000
00100000
00010000
,
10000000
10000000
10000000
10010000
,
10000000
01000000
00010000
00001000
00000010
00000100
00001000
00000010
,
00010000
00001000
00010000
01000000
00100000
00010000
01000000
00001000
,
00010000
00000010
00001000
00000100
00000010
00000100
00010000
00001000
,
00000100
00000001
00000010
00001000
00010000
01000000
00100000
00000000
,
00010000
01000000
00100000
10000000
00100000
00010000
00001000
00010000
,
00000010
00000100
00000010
00001000
00010000
01000000
00100000
00010000
,
00001000
00000000
00010000
00000000
01000000
00000000
10000000
00000000
00010000
00100000
01000000
10000000
01000000
00010000
00001000
00000000
,
00000000
00000010
00000000
00000100
00001000
00000000
00001001
00000000
,
00001000
00000010
00000001
00000010
00010000
00000100
00001000
00000010
,
00010000
00001000
00010000
01000000
00100000
00010000
01000000
00001000
,
00010000
00001000
00000010
00000100
00001000
00000001
00001000
00000010
,
00000100
00000000
00001000
00000000
00010000
00000000
00100000
00000000
01000000
00010000
10000000
00010000
00100000
00000000
00000000
00000000
,
00010000
10000000
01000000
00010000
00001000
00100000
00010000
01000000
,
00001000
00010000
00001000
00000100
00000010
00001000
00000100
00000001
,
00000100
00000010
00000001
00000100
00001000
00010000
00100000
10000000
,
00010000
01000000
00100000
10000000
00010000
00100000
00001000
00010000
00000100
00001000
00000001
00000100
00000010
00000000
00000000
00000000
,
00001001
00000000
00000000
00000000
;

//--------------- dance-double - Fred-104† ----------------
#NOTEDATA:;
#STEPSTYPE:dance-double;
#DESCRIPTION:Fred-104†;
#DIFFICULTY:Challenge;
#METER:18;
#CREDIT:Fred-104†;
#NOTES:
00000000
00000000
00000000
00000000
,
00000000
00000000
00000000
00000000
,
00000000
00000000
00000000
00000000
,
00000000
00000000
00000000
00000000
,
00000000
00000000
00000000
11000000
,
10000000
00000000
01000000
00000000
00100000
00000000
00001000
00000000
00000000
00000000
00010000
00000000
00001000
01000000
00001000
00000000
,
00010000
00001000
00000000
00100000
00010000
00000000
01000000
00001000
00100000
00000000
00010000
00000000
10000000
00000000
00000000
00000000
,
01000000
00100000
00001000
00010000
00001000
00000010
00000100
00001000
,
00000001
00000010
00000001
00000010
00000001
00000010
00000001
00000010
00000001
00000010
00000001
00000010
00000001
00000010
00000001
00000010
,
00000100
00001000
00000100
00010000
00001000
00100000
00010000
00100000
01000000
10000000
00010000
10000000
00200000
00000000
00000000
00000000
,
01300000
00000000
00100000
00000000
01100000
00000000
00000000
00000000
10000000
00000000
01000000
00000000
00100000
00000000
00010000
01000000
,
00001000
00010000
00001000
00000100
00000010
00001000
00000001
00000000
,
00000010
00000000
00000001
00000000
00001001
00000000
00000000
00000000
00000001
00000000
00000100
00000000
00000010
00000000
00001000
00000010
,
00000100
00000000
00000000
00000000
00000000
00000000
00000000
00000000
00000001
00000000
00000000
00000000
00000000
00000000
00000000
00000000
00001000
00000000
00000000
00000000
00000000
00000000
00000000
00000000
00000100
00000000
00000000
00000000
00000000
00000000
00000000
00000000
00020000
00030000
00000000
00000000
00000000
00000000
00000000
00000000
00020000
00030000
00000000
00000000
00000000
00000000
00000000
00000000
00020000
00030000
00000000
00000000
00000000
00000000
00000000
00000000
00020000
00030000
00000000
00000000
00000000
00000000
00000000
00000000
,
01000000
00000000
00010000
00100000
00010000
00000000
10000000
00000000
00010000
00000000
01000000
00100000
01000000
00000000
00010000
01000000
,
00010000
00000000
10000000
01000000
10000000
00000000
01000000
00000000
00100000
00001000
00010000
00000000
00001000
00000000
00000000
00000000
,
00000010
00000001
00001000
00000001
00000100
00001000
00010000
00001000
,
00010000
00001000
00100000
00001000
00010000
00000010
00001000
00000100
00010000
00001000
01000000
00001000
00010000
00000000
00000000
00000000
,
00001000
00010000
00100000
10000000
00010000
01000000
20000000
30000000
,
01000000
00100000
10000000
01000000
00100000
00001000
00020000
00030000
,
00001000
00000010
00000001
00001000
00000001
00000100
00000020
00000030
,
00001000
00000001
00000010
00000100
00010000
00001000
00020000
00030000
,
00001000
00000000
00100000
00010000
00100000
00000000
00010000
00000000
10000000
00000000
01000000
00100000
01000000
00000000
00100000
00000000
,
00001000
00000000
00010000
00000010
00010000
00000000
00000010
00001000
00000010
00000000
00000100
00000000
00000110
00000000
00000000
00000000
,
00000001
00000010
00001000
00010000
00001000
01000000
00100000
10000000
,
00010000
00100000
00010000
00100000
01000000
10000000
01000000
10000000
00010000
00100000
01000000
10000000
00020000
00000000
00000000
00000000
,
10030000
00000000
01000000
00000000
00100000
00000000
00010000
00000000
00100000
00000000
00001000
00010000
00000000
00001000
01000000
00000000
,
00001000
00000000
00010000
00000000
00001000
00000000
00000010
00000000
00001000
00000000
00010000
00001000
00000000
00010000
00001000
00000000
,
00010000
00000000
00000100
00000000
00001000
00000000
00000001
00000000
00000100
00000000
00000010
00000100
00000000
00000001
00000010
00000000
,
00000001
00000000
00000100
00000000
00001000
00000000
00010000
00000000
00100000
00000000
01000000
00010000
00000000
10000000
00010000
00000000
,
01000000
00000000
00010000
00000000
00100000
00000000
00010000
00000000
01000000
00000000
00010000
00100000
00000000
00001000
00010000
00000000
,
00000010
00000000
00001000
00000000
00000100
00000000
00010000
00000000
00000100
00000000
00001000
00000010
00000000
00010000
00001000
00000000
,
00010000
00000000
01000000
00000000
00100000
00000000
00010000
00000000
01000000
00000000
00001000
00010000
00000000
00001000
00000010
00000000
,
00000100
00001000
00000001
00001001
,
00010000
00000000
00001000
00000000
00012000
00000000
00000000
00000000
00103000
00000000
00010000
01000000
00100000
10000000
00100000
00000000
,
10000000
00000000
01000000
00000000
01200000
00000000
00000000
00000000
00301000
00000000
00010000
00000010
00001000
00000010
00000100
00000000
,
00000010
00000000
00001000
00000000
00002100
00000000
00000000
00000000
00003100
00000000
00000010
00000001
00001000
00000010
00000100
00000000
,
00000001
00000000
00000100
00000000
00000120
00000000
00000000
00000000
00001030
00000000
00000100
00010000
00001000
00010000
01000000
00000000
,
00100000
00000000
00010000
00000000
10000000
00000000
00100000
00000000
01000000
00000000
00001000
00010000
00000100
00010000
00001000
00000000
,
00010000
00000000
00000010
00000000
00001000
00000000
00000100
00000000
00000010
00000000
00000001
00001000
00000010
00000100
00000001
00000000
,
00001000
00000000
00000100
00000000
00000010
00000000
00000100
00000000
00000001
00000000
00000100
00000010
00000001
00001000
00000010
00000000
,
00000100
00000100
00000100
00000110
,
00000001
00001000
00000100
00000010
00000000
00000010
00000001
00001000
,
00000001
00000000
00000100
00000010
00000100
00000000
00001000
00000000
00010000
00000000
00100000
01000000
00000000
00010000
00100000
00000000
,
01000000
00000000
00100000
00000000
00010000
00000000
10000000
00100000
01000000
00100000
10000000
00000000
01000000
00000000
00010000
00000000
,
00001000
00000100
00000010
00001000
00000001
00000100
00000101
00000000
,
00001001
00000000
00001000
00000000
00000001
00000100
00000001
00000000
00000100
00000000
00000010
00000000
00001000
00000100
00010000
00000000
,
00001000
00000000
00100000
00000000
00010000
00000000
10000000
01000000
00100000
00000000
00010000
00000000
10000000
01000000
00100000
00000000
,
00010000
01000000
00001000
01000000
00010000
10000000
01000000
10000000
,
00010000
01000000
00010000
00100000
00001000
00010000
00000100
00001000
00000100
00000010
00000001
00001000
00000010
00000000
00000000
00000000
,
00001000
00000000
00000001
00000000
00001001
00000000
00000000
00000000
00001000
00000000
00000100
00000000
00000010
00000000
00000001
00000100
,
00000010
00000100
00001000
00010000
00100000
01000000
00010000
00000000
,
10000000
00000000
01000000
00000000
01100000
00000000
00000000
00000000
00010000
00000000
00100000
00000000
10000000
00000000
00100000
01000000
,
00100000
00000000
00000000
00000000
00000000
00000000
00000000
00000000
00010000
00000000
00000000
00000000
00000000
00000000
00000000
00000000
01000000
00000000
00000000
00000000
00000000
00000000
00000000
00000000
00001000
00000000
00000000
00000000
00000000
00000000
00000000
00000000
00020000
00030000
00000000
00000000
00000000
00000000
00000000
00000000
00020000
00030000
00000000
00000000
00000000
00000000
00000000
00000000
00020000
00030000
00000000
00000000
00000000
00000000
00000000
00000000
00020000
00030000
00000000
00000000
00000000
00000000
00000000
00000000
,
00001000
00000000
00000010
00000100
00001000
00000000
00000001
00000000
00000100
00000000
00000010
00000100
00000001
00000000
00001000
00000100
,
00001000
00000000
00000010
00000100
00000010
00000000
00001000
00000000
00000001
00000100
00000010
00000000
00001000
00000000
00000000
00000000
,
00000100
00000000
00010000
00000000
00011000
00000000
00000000
00000000
00010000
00000000
00001000
00000000
00000010
00000000
00001000
00010000
,
00001000
00100000
00010000
10000000
02000000
03200000
02300000
03200000
,
01300000
00000000
00000000
00000000
00000000
00000000
00000000
00000000
10000000
00000000
00000000
00000000
00000000
00000000
00000000
00000000
00100000
00000000
00000000
00000000
00000000
00000000
00000000
00000000
01000000
00000000
00000000
00000000
00000000
00000000
00000000
00000000
00020000
00030000
00000000
00000000
00000000
00000000
00000000
00000000
00020000
00030000
00000000
00000000
00000000
00000000
00000000
00000000
00020000
00030000
00000000
00000000
00000000
00000000
00000000
00000000
00020000
00030000
00000000
00000000
00000000
00000000
00000000
00000000
,
00001000
00000000
00000000
00000000
00000000
00000000
00000000
00000000
00010000
00000000
00000000
00000000
00000000
00000000
00000000
00000000
00000100
00000000
00000000
00000000
00000000
00000000
00000000
00000000
00001000
00000000
00000000
00000000
00000000
00000000
00000000
00000000
00000002
00000003
00000000
00000000
00000000
00000000
00000000
00000000
00000002
00000003
00000000
00000000
00000000
00000000
00000000
00000000
00000002
00000003
00000000
00000000
00000000
00000000
00000000
00000000
00000002
00000003
00000000
00000000
00000000
00000000
00000000
00000000
,
00000202
00000303
00000000
00000000
00000000
00000000
00000000
00000000
00000100
00000000
00000000
00000000
00000000
00000000
00000000
00000000
00000010
00000000
00000000
00000000
00000000
00000000
00000000
00000000
00001000
00000000
00000000
00000000
00000000
00000000
00000000
00000000
00002200
00003300
00000000
00000000
00000000
00000000
00000000
00000000
00000100
00000000
00000000
00000000
00000000
00000000
00000000
00000000
00010000
00000000
00000000
00000000
00000000
00000000
00000000
00000000
00001000
00000000
00000000
00000000
00000000
00000000
00000000
00000000
,
00022000
00033000
00000000
00000000
00000000
00000000
00000000
00000000
00001000
00000000
00000000
00000000
00000000
00000000
00000000
00000000
00100000
00000000
00000000
00000000
00000000
00000000
00000000
00000000
00010000
00000000
00000000
00000000
00000000
00000000
00000000
00000000
02020000
03030000
00000000
00000000
00000000
00000000
00000000
00000000
01000000
00000000
00000000
00000000
00000000
00000000
00000000
00000000
00100000
00000000
00000000
00000000
00000000
00000000
00000000
00000000
10000000
00000000
00000000
00000000
00000000
00000000
00000000
00000000
,
01000000
00100000
00001000
00010000
00000100
00000010
00000001
00001000
,
00000001
00000100
00000010
00001000
00000100
00010000
00001000
00100000
00010000
01000000
00100000
10000000
00010000
00100000
01000000
20000000
,
00000000
00000000
00000000
00000000
,
00000000
00000000
30000000
01100000
,
20020000
00000000
00000000
00030000
,
30200000
00000000
00320000
00000000
,
00032000
00000000
00000000
00003000
,
00002020
00003030
00000001
00001001
,
00022000
00000000
00000000
00033000
,
00202000
00303000
00020020
00030030
,
00022000
00000000
00033000
00001000
,
00010000
00100000
10000000
01000000
,
02200000
00000000
00000000
03300000
,
00022000
00033000
00000220
00000330
,
00002002
00000000
00000000
00003003
,
00000202
00000303
00000010
00001010
,
00020020
00000000
00000000
00030030
,
00202000
00303000
00022000
00033000
,
02200000
00000000
00000000
00000000
,
00000000
03300000
10010000
00000000
,
10000000
00000000
00000000
00000000
00100000
00010000
00000010
00001000
,
00000000
00000000
00000001
00001000
,
00000100
00000000
00000000
00000000
00000010
00000001
00000000
00001000
,
00000000
00000000
00000010
00000100
,
00000001
00000010
00000001
00001000
00000010
00000100
00000010
00010000
,
00000100
00010000
00000100
00001000
00000100
00010000
00001000
00100000
,
00010000
10000000
00010000
00100000
01000000
00100000
00010000
10000000
,
00100000
10000000
01000000
00100000
00010000
00100000
00001000
00010000
00000100
00001000
00000100
00000010
00000001
00000100
00001000
00010000
,
00001000
00000000
00001000
00000000
00001000
00000000
00022000
00033000
,
00011000
00000000
00010000
00000000
00001000
00000000
00100000
00010000
10000000
00000000
00010000
00000000
01000000
00100000
10000000
00000000
,
00010000
00000000
10000000
00000000
01000000
00000000
10000000
00000000
00100000
00000000
01000000
00010000
10000000
00010000
00100000
00000000
,
00001000
00000000
00010000
00000000
00001000
00000000
00000010
00000100
00001000
00000000
00000001
00000100
00000010
00000100
00000001
00000000
,
00000100
00000000
00000010
00000000
00000100
00000000
00001000
00000000
00000100
00000000
00000001
00001000
00000001
00000000
00000010
00000000
,
00000100
00000000
00000010
00000000
00000001
00000000
00001000
00000001
00000010
00000000
00001000
00000000
00010000
01000000
00100000
00000000
,
00010000
00000000
01000000
00000000
00100000
10000000
00010000
00000000
10000000
00000000
00100000
01000000
00010000
10000000
01000000
00100000
,
01000000
00000000
10000000
00000000
00010000
00000000
01000000
00000000
00010000
10000000
00100000
00010000
00001000
00000100
00000010
00000000
,
00000000
00001010
00000000
00000011
00000110
00000000
00001001
00000000
,
00000001
00000000
00000010
00000000
00001000
00000000
00010000
00001000
00010000
00000000
01000000
00100000
00010000
10000000
00010000
00000000
,
10000000
00000000
00100000
00010000
00100000
00000000
01000000
00000000
00010000
00000000
10000000
00010000
00100000
01000000
10000000
00010000
,
10000000
00000000
01000000
00000000
00100000
00010000
01000000
00000000
00010000
00000000
00100000
00001000
00010000
00001000
00000010
00000000
,
00000100
00000000
00001000
00000010
00000100
00000000
00000001
00000000
00001000
00000001
00000010
00000001
00000200
00000000
00000000
00000000
,
00000310
00000000
00001000
00000000
00000001
00000000
00000010
00000000
00000100
00000000
00000010
00000000
00001000
00010000
01000000
00100000
,
00010000
00000000
10000000
00000000
00100000
00000000
10000000
01000000
00010000
00000000
01000000
10000000
00010000
01000000
00100000
00000000
,
10000000
01000000
10000000
00100000
01000000
00010000
00100000
00001000
00010000
00000100
00001000
00000100
00000010
00000001
00001000
00000001
,
00000100
00000010
00000100
00001000
00010000
00100000
01000000
00010000
10000000
01000000
00100000
00010000
01000000
00000000
00000000
00000000
,
10010000
00000000
00000000
00000000
;
