#TITLE:Pink Rose;
#ARTIST:Kiyommy+Seiya;
#GENRE:HEART;
#BANNER:Pink Rose.png;
#BACKGROUND:Pink Rose-bg.png;
#CDTITLE:./CDTitles/KBM 3rdMIX.png;
#MUSIC:Pink Rose.ogg;
#SAMPLESTART:77.114;
#SAMPLELENGTH:15;
#BPMS:0=132.15,4=132,36=128,37=124,38=120,39=116,44=146;
#STAGE:18;

//--------------- dance-single - Fred-104 ----------------
#NOTES:
     dance-single:
     Fred-104:
     Beginner:
     3:
     :
0000
0000
0000
0000
,
0000
0000
0000
0000
,
0000
0000
0000
0000
,
0000
0000
0000
0000
,
0000
0000
0000
0000
,
0000
0000
0000
0000
,
0001
0000
1000
0000
,
0002
0000
0003
0000
,
1000
0000
0001
0000
,
2000
0000
0000
0000
,
3000
0000
0000
0000
,
1001
0000
0000
0000
,
0001
0000
1000
0000
,
0001
0000
0000
0000
,
1000
0000
0010
0000
,
1000
0000
0001
0000
,
1000
0000
0001
0000
,
0100
0000
0000
0000
,
0001
0000
1000
0000
,
0001
0000
1000
0000
,
0001
0000
0001
0000
,
0100
0000
0000
0000
,
0010
0000
1000
0000
,
1000
0000
0000
0000
,
0001
0000
1000
0000
,
0001
0000
0000
0000
,
1000
0000
0100
0000
,
0010
0000
0001
0000
,
1000
0000
0001
0000
,
1000
0000
0000
0000
,
0001
0000
0100
0000
,
0001
0000
0000
0000
,
1000
0000
0100
0000
,
1000
0000
0000
0000
,
0001
0000
0010
0000
,
0001
0000
1000
0000
,
1000
0000
0001
0000
,
1000
0000
0001
0000
,
0100
0000
0010
0000
,
0010
0000
0100
0000
,
0010
0000
1000
0000
,
0001
0000
1000
0000
,
0001
0000
1000
0000
,
0001
0000
0001
0000
,
2002
0000
0000
3003
,
0000
0000
0001
0001
,
0001
0000
1000
0000
,
0001
0000
1000
0000
,
0010
0000
0010
0000
,
0100
0000
0000
0001
,
0001
0000
1000
0000
,
0001
0000
1000
0000
,
0010
0000
1000
0000
,
1000
0000
0001
0001
,
0001
0000
1000
0000
,
0001
0000
0100
0000
,
0001
0000
1000
0000
,
0001
0000
0000
0100
,
0100
0000
0001
0000
,
1000
0000
0001
0001
,
0001
0000
1000
0000
,
1000
0000
0001
0000
,
1001
0000
0000
0000
,
0001
0000
1000
0000
,
2002
0000
0000
0000
,
0000
0000
0000
0000
,
3003
0000
0000
0000
;

//--------------- dance-single - Fred-104 ----------------
#NOTES:
     dance-single:
     Fred-104:
     Easy:
     5:
     :
0000
0000
0000
0000
,
0000
0000
0000
0000
,
0000
0000
0000
0000
,
0000
0000
0000
0000
,
0000
0000
0000
0000
,
0000
0000
0000
0000
,
0002
0000
2003
3002
,
0103
0000
0000
0010
0000
0000
0200
0000
,
0302
0000
1003
0010
,
2000
3200
0320
0032
,
2003
0000
0000
3000
,
2002
0000
0000
3003
,
1000
0000
0010
1000
,
0100
0000
1000
0001
,
1000
0001
0001
0100
,
0020
0030
0200
0300
,
0001
0000
0100
0001
,
0010
0000
0100
1000
,
0001
1000
1000
0010
,
0200
0300
0020
0030
,
0110
0000
0001
1000
,
0001
0000
0100
0010
,
1000
0000
0001
1000
,
0001
0000
0100
0100
,
0001
0000
0000
1000
0000
0000
0010
0000
,
1000
0000
0000
0100
0000
0000
1000
0000
,
0001
0000
0000
1000
0000
0000
0001
0000
,
0100
0100
0010
0010
,
0110
0000
0100
0001
,
1000
0000
0000
0001
0000
0000
0100
0000
,
0010
0000
0000
1000
0000
0000
0100
0000
,
1000
0000
0000
0001
0000
0000
0100
0000
,
0100
0000
0000
0010
0000
0000
0100
0000
,
0001
0000
0000
1000
0000
0000
0001
0000
,
1000
0000
0010
1000
,
0001
0000
1000
0001
,
1000
0100
0010
0001
,
1001
0000
0010
0000
,
1000
0100
0010
0100
,
1000
0000
0001
0000
,
0100
0010
0100
0001
,
1000
0000
0000
0001
0000
0000
0100
0000
,
0010
0000
0000
0100
0000
0000
0001
0000
,
1000
0000
0000
0001
0000
1000
0000
2002
,
0000
0000
0000
3003
,
0100
0010
0100
0100
,
1001
0000
1000
0010
,
0100
0000
0000
0010
0000
0000
0100
0000
,
0001
0000
0000
1000
0000
0000
0001
0000
,
2000
0000
3010
0100
,
0001
0000
0000
1000
0000
0000
0010
0000
,
0100
0000
0000
0100
0000
0000
0001
0000
,
1000
0000
0000
0001
0000
0000
1000
0000
,
0001
0100
0010
1000
,
1001
0000
0001
0000
,
0100
0010
0100
0100
,
0001
0000
0000
0010
0000
0000
0100
0000
,
2000
0000
3001
1000
,
0010
0000
1000
0100
,
0010
0000
0000
0001
0000
0000
1000
0000
,
0001
0000
0000
0100
0000
0000
0010
0000
,
0100
0100
0010
0010
,
2002
0000
0000
3003
,
1000
0100
0010
0001
,
2002
0000
0000
0000
,
0000
0000
0000
0000
,
3003
0000
0000
0000
;

//--------------- dance-single - Fred-104 ----------------
#NOTES:
     dance-single:
     Fred-104:
     Medium:
     9:
     :
0000
0000
0000
0000
,
0000
0000
0000
0000
,
0000
0000
0000
0000
,
0000
0000
0000
0000
,
0000
0000
0000
0000
,
0000
0000
0000
0200
,
0320
0000
0000
1030
0010
0100
0002
0000
,
2003
0000
3001
0200
0000
0000
0310
0000
,
2000
0000
0000
3001
0100
0010
0100
0000
,
0002
0023
0230
2300
,
0002
0000
0000
3003
,
2002
0000
0000
3003
,
0001
0100
0001
0100
0000
0000
0010
1000
,
0000
0000
1000
0100
0000
0100
0010
0100
,
0000
0010
0001
0000
1000
0000
0001
0000
,
0100
0010
0100
0001
,
1000
0100
1000
0100
0000
0100
0010
0100
,
0000
0010
0001
0010
0000
0001
1000
0001
,
0000
0100
0010
0000
1000
0000
0100
0000
,
1100
0010
0101
0010
,
2002
0000
3003
0000
0100
0010
0100
0000
,
0001
0000
0010
0100
0000
0100
1000
0000
,
0010
0000
1000
0100
0000
1000
0010
0000
,
0100
0000
0001
0100
0000
0010
0100
0000
,
0001
0000
1000
0001
0000
0000
0100
0000
,
0010
0000
0100
0010
0000
0000
0100
0000
,
0001
0000
0010
0100
0000
0000
1000
0000
,
0010
0000
0000
1000
0000
0000
0010
0000
0100
0000
0001
0000
1000
0000
0000
0000
,
1001
0000
0001
0000
0100
0010
0100
0000
,
0001
0000
0100
0010
0000
0100
0010
0000
,
1000
0000
0100
0010
0000
0001
0000
0000
,
1000
0000
0001
0100
0000
0000
0010
0100
,
0010
1000
0001
1000
0000
0000
1100
0000
,
0100
0010
0001
1000
0000
1010
0000
0010
,
0000
0000
0100
0000
0001
0000
0100
0010
,
0000
1000
0100
0000
1000
0000
1001
0000
,
0001
0000
0000
0001
0000
0000
0100
0000
0010
0000
1000
0000
0001
0000
0000
0000
,
2000
0000
0010
0000
3010
0000
0100
0001
,
0200
0320
2030
3002
,
0023
0000
0100
0000
0230
0000
1300
0001
,
0000
0100
0010
0000
1000
0000
1001
0000
,
0001
0000
0100
0100
0000
0020
0000
0000
,
1030
0000
0100
0100
0000
0020
0000
0000
,
0031
0000
0100
0010
0000
0110
0000
2002
,
0000
0000
0000
3003
,
0001
0100
0001
0100
0010
1000
0001
1000
,
0100
0000
0010
0000
0001
0100
0010
0100
,
0001
0000
0010
0100
0000
0100
1000
0000
,
0010
0000
1000
0100
0000
0010
0001
0000
,
2000
0100
3001
1001
,
0100
0000
0001
0100
0000
0100
0010
1000
,
0001
0000
1000
0100
0000
0100
0010
0001
,
2000
0000
3100
0000
0001
0100
1000
0000
,
1001
0110
1010
0101
,
0001
0010
0001
0000
1000
0010
1000
0100
,
0010
0000
0001
0001
0000
1000
0001
0000
,
0100
0000
0010
0100
0000
0010
1000
0000
,
1020
1000
0031
1001
,
0100
0000
0000
0001
0100
0100
0010
0000
,
1000
0100
1000
0100
0000
0001
0100
0001
,
0100
0000
1000
0000
0010
0100
0010
0000
,
1100
0010
0101
0010
,
2002
0000
0000
3003
,
1001
0100
0110
0010
,
2002
0000
0000
0000
,
0000
0000
0000
0000
,
3003
0000
0000
0000
;

//--------------- dance-single - Fred-104 ----------------
#NOTES:
     dance-single:
     Fred-104:
     Hard:
     12:
     :
0000
0000
0000
0000
,
0000
0000
0000
0000
,
0000
0000
0000
0000
,
0000
0000
0000
0000
,
0000
0000
0000
0000
,
0000
0000
0000
2000
,
3002
0000
0000
0103
0001
0100
0010
1000
,
0002
0000
1003
0200
0000
0310
0001
1000
,
0002
0000
0000
0103
0001
0100
0010
1000
,
0002
0203
2300
3020
,
0032
0000
0000
0003
,
2002
0000
0000
0000
0000
0000
3003
0000
0001
1000
0001
0000
1000
0001
1000
0000
,
0001
0010
0001
2000
0000
3001
0100
0020
,
0000
1030
0100
0020
0000
0031
1000
0020
,
0000
0130
0110
0000
0001
0100
0010
0100
,
0101
0011
1100
1001
,
1000
0100
0010
0200
0000
1300
0100
0002
,
0000
1003
0010
0002
0000
1003
0010
0200
,
0000
0000
0301
0000
0101
0000
0000
0000
0001
0000
1000
0000
0001
0000
0100
0010
,
0100
0001
0100
0001
1000
0100
1000
0010
,
1000
0000
0000
0010
0000
0000
1000
0000
0000
0100
0000
0000
0010
0000
0001
0000
,
0100
0000
0000
0010
0000
0000
0100
0000
0000
0001
0000
0000
1000
0000
0001
0000
,
0010
0000
0000
0001
0000
0000
0100
0000
0000
0010
0000
0000
1000
0000
0010
0000
,
1000
0000
0000
0001
0000
0000
1000
0000
0000
0010
0000
0000
0100
0000
0001
0000
,
1000
0100
0010
0002
0000
0103
0010
0100
,
0001
0010
0100
0020
0000
0031
1000
1000
,
0100
0010
0100
0002
0000
0000
0003
0000
,
1010
0000
0000
1000
0000
0000
0001
0000
0100
0000
0010
0000
0100
0000
0001
0000
,
1000
0000
0000
0010
0000
0000
1000
0000
0000
0100
0010
0000
0001
0000
0100
0000
,
0010
0000
0000
0100
0000
0000
0001
0000
0000
0010
0100
0000
1000
0000
0010
0000
,
1000
0000
0000
0100
0000
0000
0001
0000
0000
0100
1000
0000
0010
0000
0100
0000
,
0001
0000
0000
0010
0000
0000
0100
0000
0000
1000
0100
0000
1000
0000
0001
0000
,
1000
0100
0001
0100
0000
1000
0100
0001
,
0100
1000
0010
0100
0001
0100
0010
1000
,
0100
0000
0000
0010
0000
0000
0001
0000
1000
0000
0010
0000
0001
0000
0010
0000
,
1000
0000
0001
0000
1000
0000
1000
0000
0010
0000
0000
0100
0000
0000
0100
0000
,
0001
0000
0100
0010
0000
0100
0010
0000
1000
0000
1000
0000
0001
1000
0001
1000
,
0002
0000
0103
0000
0020
0000
0130
0001
,
2000
3200
0302
0203
,
1300
0100
0010
0000
0001
0100
0010
2000
,
0000
0010
3010
0000
0100
0001
0100
0010
,
1000
0100
0001
0100
0000
1000
0001
0100
,
0001
0010
0100
0020
0000
0031
1000
0001
,
1000
0100
0010
0001
0000
1010
0000
0202
,
0000
0000
0000
0303
,
0001
0100
0001
0000
1000
0010
1000
0000
0001
0000
0010
0000
0100
0000
1000
0000
,
0001
0010
0000
0010
0001
0000
0001
1000
0000
1000
0100
0000
1000
0000
0010
0000
,
0100
0001
0010
0002
0000
0103
0001
0100
,
0010
1000
0001
0200
0000
1300
0100
0001
,
1000
0000
0010
0100
0000
0100
0010
0000
0100
0000
0001
0000
2001
0000
0000
0000
,
3002
0000
0000
0000
0000
0000
0000
0000
0000
0000
0000
0000
0000
0000
0000
0000
0203
0300
0000
0000
0000
0000
0000
0000
0200
0300
0000
0000
0000
0000
0000
0000
1000
0000
0000
0000
0000
0000
0000
0000
0010
0000
0000
0000
0000
0000
0000
0000
0100
0000
0000
0000
0000
0000
0000
0000
0001
0000
0000
0000
0000
0000
0000
0000
,
2000
0000
0000
0000
0000
0000
0000
0000
0000
0000
0000
0000
0000
0000
0000
0000
3020
0030
0000
0000
0000
0000
0000
0000
0020
0030
0000
0000
0000
0000
0000
0000
0001
0000
0000
0000
0000
0000
0000
0000
1000
0000
0000
0000
0000
0000
0000
0000
0010
0000
0000
0000
0000
0000
0000
0000
0100
0000
0000
0000
0000
0000
0000
0000
,
0201
0000
0010
0010
0000
1300
0010
0100
,
0110
0000
1001
0000
0001
0100
1000
0100
,
0001
0010
0000
0010
0100
0000
0100
1000
0000
1000
0100
0000
1000
0000
0001
0000
,
0100
0000
0010
0000
1000
0000
0010
0000
0000
0000
1000
0001
1000
0000
0100
0000
,
0010
0001
0100
0020
0000
0130
0001
1000
,
0002
0100
1003
1001
,
0012
0000
0000
0000
0000
0000
0000
0000
0000
0000
0000
0000
0000
0000
0000
0000
0203
0300
0000
0000
0000
0000
0000
0000
0200
0300
0000
0000
0000
0000
0000
0000
1000
0000
0000
0000
0000
0000
0000
0000
0001
0000
0000
0000
0000
0000
0000
0000
0100
0000
0000
0000
0000
0000
0000
0000
0010
0000
0000
0000
0000
0000
0000
0000
,
1000
0010
0100
0001
0000
0001
1000
0100
,
0120
0000
0031
1000
0100
0010
0001
0100
,
0101
0000
1010
0000
1001
0100
0110
0010
,
1000
0010
0000
0010
0100
0000
0001
0010
0000
0010
0100
0000
1000
0000
0001
0000
,
0011
1100
0101
1010
,
2002
0000
0000
0000
,
0000
0000
0000
0000
,
3003
0000
0000
0000
;

//--------------- dance-double - Fred-104 ----------------
#NOTES:
     dance-double:
     Fred-104:
     Easy:
     5:
     :
00000000
00000000
00000000
00000000
,
00000000
00000000
00000000
00000000
,
00000000
00000000
00000000
00000000
,
00000000
00000000
00000000
00000000
,
00000000
00000000
00000000
00000000
,
00000000
00000000
00000000
00000000
,
20000000
00000000
30200000
02300000
,
03100000
00000000
00000000
10000000
00000000
00000000
02000000
00000000
,
03200000
00000000
00301000
00010000
,
00002000
00023000
00032000
00023000
,
00032000
00000000
00000000
00003000
,
00022000
00000000
00000000
00033000
,
00010000
00000000
00001000
00010000
,
00001000
00000000
00100000
00010000
,
10000000
00100000
01000000
00100000
,
20000000
30000000
02000000
03000000
,
00100000
00000000
00001000
00010000
,
00001000
00000000
00010000
00000010
,
00001000
00000100
00000010
00000001
,
00000200
00000300
00000020
00000030
,
00001001
00000000
00000001
00001000
,
00000001
00000000
00001000
00000010
,
00001000
00000000
00000100
00010000
,
00000100
00000000
00010000
00001000
,
00010000
00000000
00001000
00000000
,
00100000
00000000
00010000
00000000
,
01000000
00000000
00100000
00000000
,
10000000
01000000
00100000
00001000
,
00011000
00000000
00010000
00001000
,
00010000
00000000
00000000
00000100
,
00001000
00000000
00000000
00000010
,
00000100
00000000
00000000
00000001
,
00000100
00000000
00000010
00000000
,
00001000
00000000
00000100
00000000
,
00010000
00000000
00001000
00010000
,
00001000
00000000
00100000
00010000
,
00100000
00010000
10000000
00100000
,
01100000
00000000
01000000
00000000
,
00010000
10000000
00100000
01000000
,
00010000
00000000
10000000
00000000
,
01000000
00100000
00001000
00010000
,
00001000
00000000
00000000
00010000
00000000
00000000
00010000
00000000
,
00000100
00000000
00000000
00010000
00000000
00000000
00001000
00000000
,
00000100
00000000
00000000
00000010
00000000
00000001
00000000
00002002
,
00000000
00000000
00000000
00003003
,
00000001
00000100
00001000
00010000
,
00011000
00000000
00001000
00010000
,
01000000
00000000
00000000
10000000
00000000
00000000
00010000
00000000
,
01000000
00000000
00000000
00100000
00000000
00000000
10000000
00000000
,
00200000
00000000
01300000
00100000
,
01000000
00000000
00000000
00100000
00000000
00000000
00001000
00000000
,
00010000
00000000
00000000
00000010
00000000
00000000
00010000
00000000
,
00001000
00000000
00000000
00010000
00000000
00000000
00000100
00000000
,
00010000
00001000
00000010
00000001
,
00001001
00000000
00000010
00000000
,
00010000
00001000
00010000
00010000
,
00001000
00000000
00000000
00100000
00000000
00000000
00001000
00000000
,
00020000
00000000
00030010
00010000
,
00001000
00000000
00010000
00000010
,
00001000
00000000
00000000
00000001
00000000
00000000
00000100
00000000
,
00000010
00000000
00000000
00001000
00000000
00000000
00000100
00000000
,
00010000
00001000
00100000
00010000
,
00022000
00000000
00000000
00033000
,
00001000
00010000
01000000
10000000
,
20020000
00000000
00000000
00000000
,
00000000
00000000
00000000
00000000
,
30030000
00000000
00000000
00000000
;

//--------------- dance-double - Fred-104 ----------------
#NOTES:
     dance-double:
     Fred-104:
     Medium:
     9:
     :
00000000
00000000
00000000
00000000
,
00000000
00000000
00000000
00000000
,
00000000
00000000
00000000
00000000
,
00000000
00000000
00000000
00000000
,
00000000
00000000
00000000
00000000
,
00000000
00000000
00000000
00020000
,
00032000
00000000
00000000
00013000
00001000
00010000
00000200
00000000
,
00001300
00000000
00000100
00000020
00000000
00000000
00000031
00000000
,
00002000
00000000
00000000
00003010
00000100
00000001
00001000
00000000
,
00000002
00000203
00002300
00023000
,
00002000
00000000
00000000
00033000
,
00002002
00000000
00000000
00003003
,
00000010
00000100
00000010
00001000
00000000
00000000
00000001
00000010
,
00000000
00000000
00000010
00000100
00000000
00010000
00001000
00100000
,
00000000
00010000
10000000
00000000
00100000
00000000
01000000
00000000
,
00010000
10000000
00100000
01000000
,
00010000
01000000
00100000
10000000
00000000
01000000
00100000
01000000
,
00000000
00001000
00100000
00001000
00000000
00010000
00001000
00010000
,
00000000
00000100
00001000
00000000
00000100
00000000
00000010
00000000
,
00000011
00000001
00001010
00001000
,
00002002
00000000
00003003
00000000
00000001
00000100
00000001
00000000
,
00000010
00000000
00000100
00001000
00000000
00000100
00010000
00000000
,
00001000
00000000
00010000
00001000
00000000
00010000
00001000
00000000
,
00100000
00000000
00010000
10000000
00000000
00100000
01000000
00000000
,
00010000
00000000
10000000
01000000
00000000
00000000
00100000
00000000
,
00001000
00000000
00010000
00001000
00000000
00000000
00010000
00000000
,
00000100
00000000
00001000
00000100
00000000
00000000
00000010
00000000
,
00000001
00000000
00000000
00000001
00000000
00000000
00000001
00000000
00001000
00000000
00000010
00000000
00000100
00000000
00000000
00000000
,
00000110
00000000
00000010
00000000
00000001
00000100
00000001
00000000
,
00000100
00000000
00001000
00010000
00000000
00010000
01000000
00000000
,
10000000
00000000
00100000
10000000
00000000
00100000
00000000
00000000
,
01000000
00000000
00010000
00100000
00000000
00000000
01000000
10000000
,
00010000
10000000
00100000
00010000
00000000
00000000
00011000
00000000
,
00001000
00000010
00000001
00001000
00000000
00001001
00000000
00000010
,
00000000
00000000
00000100
00000000
00010000
00000000
00001000
00010000
,
00000000
00010000
00001000
00000000
00100000
00000000
00110000
00000000
,
01000000
00000000
00000000
01000000
00000000
00000000
01000000
00000000
00100000
00000000
10000000
00000000
00010000
00000000
00000000
00000000
,
02000000
00000000
00100000
00000000
03100000
00000000
10000000
01000000
,
00200000
00302000
00023000
00032000
,
00023000
00000000
00000100
00000000
00030200
00000000
00010300
00001000
,
00000000
00010000
00000010
00000000
00010000
00000000
00011000
00000000
,
00001000
00000000
00000100
00000100
00000000
00000020
00000000
00000000
,
00000031
00000000
00000100
00000100
00000000
00000020
00000000
00000000
,
00001030
00000000
00000010
00010000
00000000
00011000
00000000
00202000
,
00000000
00000000
00000000
00303000
,
00001000
00100000
00001000
00100000
00010000
10000000
00100000
10000000
,
00010000
00000000
10000000
00000000
00010000
01000000
00010000
01000000
,
00010000
00000000
10000000
01000000
00000000
00100000
00001000
00000000
,
00010000
00000000
00001000
00100000
00000000
00001000
00010000
00000000
,
00002000
00010000
00013000
00011000
,
00000100
00000000
00000010
00000100
00000000
00000100
00000010
00001000
,
00000001
00000000
00000010
00000100
00000000
00000100
00010000
00001000
,
00100000
00000000
01000000
00000000
00100000
00010000
10000000
00000000
,
10100000
01010000
00110000
00101000
,
00001000
00010000
00001000
00000000
00100000
00001000
00010000
00001000
,
00010000
00000000
00000100
00001000
00000000
00000100
00000100
00000000
,
00000010
00000000
00000001
00000100
00000000
00000010
00000010
00000000
,
00001020
00001000
00000031
00001001
,
00000010
00000000
00000000
00000100
00000010
00001000
00000001
00000000
,
00000010
00000100
00000010
00000100
00000000
00010000
00001000
00010000
,
00001000
00000000
00100000
00000000
00010000
00100000
00010000
00000000
,
11000000
00100000
01010000
00100000
,
02200000
00000000
00000000
03300000
,
10100000
01000000
00110000
00001000
,
00022000
00000000
00000000
00000000
,
00000000
00000000
00000000
00000000
,
00033000
00000000
00000000
00000000
;

//--------------- dance-double - Fred-104 ----------------
#NOTES:
     dance-double:
     Fred-104:
     Hard:
     11:
     :
00000000
00000000
00000000
00000000
,
00000000
00000000
00000000
00000000
,
00000000
00000000
00000000
00000000
,
00000000
00000000
00000000
00000000
,
00000000
00000000
00000000
00000000
,
00000000
00000000
00000000
00002000
,
00023000
00000000
00000000
00031000
00100000
00010000
10000000
00100000
,
02000000
00000000
03010000
02000000
00000000
13000000
01000000
00010000
,
00200000
00000000
00000000
01300000
10000000
00100000
01000000
00001000
,
00020000
00030020
00002030
00003002
,
00000203
00000000
00000000
00000300
,
00022000
00000000
00000000
00033000
00001000
00000000
00010000
00000000
,
00001000
00100000
01000000
20000000
00000000
30100000
01000000
00200000
,
00000000
10300000
01000000
00200000
00000000
00301000
00010000
00002000
,
00000000
00013000
00010020
00000000
00001030
00000001
00000100
00000010
,
00000110
00001010
00011000
00110000
,
10000000
01000000
00010000
20000000
00000000
30010000
01000000
20000000
,
00000000
30100000
01000000
00020000
00000000
00130000
00001000
00020000
,
00000000
00000000
00031000
00000000
00012000
00000000
00000000
00000000
00013000
00000000
00001000
00000000
00000100
00000000
00000010
00000100
,
00000010
00000001
00000010
00000001
00001000
00000001
00000100
00000010
,
00001000
00000000
00000000
00000100
00000000
00000000
00000001
00000000
00000000
00000100
00000000
00000000
00001000
00000000
00000010
00000000
,
00000100
00000000
00000000
00000001
00000000
00000000
00000010
00000000
00000000
00001000
00000000
00000000
00010000
00000000
00001000
00000000
,
00010000
00000000
00000000
00100000
00000000
00000000
10000000
00000000
00000000
00010000
00000000
00000000
01000000
00000000
00100000
00000000
,
10000000
00000000
00000000
01000000
00000000
00000000
00100000
00000000
00000000
00001000
00000000
00000000
00010000
00000000
00000100
00000000
,
00000010
00000001
00001000
00000200
00000000
00000310
00000100
00001000
,
00000001
00000100
00000010
00002000
00000000
00013000
00100000
01000000
,
00100000
00001000
00010000
00002000
00000000
00000000
00003000
00000000
,
00011000
00000000
00000000
00010000
00000000
00000000
00000010
00000000
00001000
00000000
00000100
00000000
00010000
00000000
00001000
00000000
,
00100000
00000000
00000000
00010000
00000000
00000000
10000000
00000000
00000000
00100000
00000000
00000000
01000000
00000000
00100000
00000000
,
10000000
00000000
00000000
01000000
00000000
00000000
00100000
00000000
00000000
01000000
00000000
00000000
10000000
00000000
00010000
00000000
,
01000000
00000000
00000000
00100000
00000000
00000000
00010000
00000000
00000000
00001000
00000000
00000000
00000100
00000000
00000010
00000000
,
00000001
00000000
00000000
00000100
00000000
00000000
00001000
00000000
00000000
00000100
00000000
00000000
00000001
00000000
00000010
00000000
,
00000100
00001000
00000010
00000100
00000000
00000100
00000010
00001000
,
00000001
00000010
00000100
00010000
00000000
00010000
00001000
00100000
,
01000000
00000000
00000000
00100000
00000000
00000000
00010000
00000000
10000000
00000000
01000000
00000000
00010000
00000000
01000000
00000000
,
10000000
00000000
00100000
00000000
01000000
00000000
00100000
00000000
00001000
00000000
00000000
00010000
00000000
00000000
00001000
00000000
,
00010000
00000000
00000100
00001000
00000000
00000100
00001000
00000000
00000010
00000000
00000100
00000000
00000100
00000001
00000100
00000000
,
00000020
00000000
00001030
00000000
00000020
00000000
00000130
00000001
,
00000020
00002030
00023000
00230000
,
10300000
01000000
00010000
00000000
00001000
00000100
00000001
00002000
,
00000000
00000001
00003001
00000000
00000100
00000100
00000001
00000010
,
00000100
00000010
00000001
00001000
00000000
00000001
00000100
00001000
,
00010000
01000000
10000000
00010000
00000000
01000000
00100000
10000000
,
01000000
00100000
00001000
00010000
00000000
00101000
00000000
00022000
,
00000000
00000000
00000000
00033000
,
00010000
00001000
00000100
00000001
00001000
00000100
00000010
00000001
,
00000100
00000010
00000000
00000100
00000010
00000000
00001000
00000010
00000000
00001000
00000010
00000000
00000100
00000000
00000001
00000000
,
00001000
00000100
00000010
00000200
00000000
00010300
00001000
00100000
,
00001000
00010000
00100000
02000000
00000000
03100000
00001000
00010000
,
00001000
00100000
01000000
20010000
,
30010000
00000000
10000000
01000000
00010000
00001000
00000100
00000001
,
00002000
00000000
00003001
00000010
00001000
00010000
00100000
10000000
,
00010000
00000000
01000000
00100000
10000000
01000000
00100000
00001000
,
00011000
00000000
00101000
00000000
00001000
00010000
00000010
00001000
,
00000100
00001000
00000000
00001000
00000010
00000000
00000010
00000100
00000000
00000100
00000001
00000000
00000010
00000000
00000100
00000000
,
00000010
00000000
00000001
00000010
00000100
00010000
00001000
00000100
,
00000001
00000000
00000010
00000100
00010000
00001000
00100000
01000000
,
00200000
00001000
00310000
00011000
,
00102000
00000000
00013000
00100000
01000000
00001000
00010000
00000100
,
00001200
00000000
00000310
00000001
00001000
00000010
00000100
00000001
,
00000201
00000000
00000301
00000010
00000100
00001000
00000100
00010000
,
00011000
00010010
00011000
00101000
,
00001000
00010000
00000000
00010000
00100000
00000000
01000000
10000000
00000000
10000000
00100000
00000000
01000000
00000000
00010000
00000000
,
11000000
01010000
00011000
00001010
,
00000022
00000000
00000000
00000000
,
00000000
00000000
00000000
00000000
,
00000033
00000000
00000000
00000000
;
