#TITLE:Phantasmagoria;
#ARTIST:Maozon;
#BANNER:Phantasmagoria.png;
#BACKGROUND:Phantasmagoria-bg.png;
#CDTITLE:./CDTitles/jb festo.png;
#MUSIC:Phantasmagoria.ogg;
#SAMPLESTART:78.4;
#SAMPLELENGTH:15;
#BPMS:0=150;
#BGSTAGE:15;

//--------------- dance-single - Fred-104 ----------------
#NOTES:
     dance-single:
     Fred-104:
     Beginner:
     2:
     :
0000
0000
0000
0000
,
0000
0000
0000
0000
,
0000
0000
0000
0000
,
0000
0000
0000
0000
,
0000
0000
0000
0000
,
0000
0000
0000
0000
,
0000
0000
0000
0000
,
0000
0000
0000
0000
,
0000
0000
0000
0000
,
1000
0000
0000
0000
,
0000
0000
0000
0000
,
0001
0000
0000
0000
,
0000
0000
0000
0000
,
1000
0000
0000
0000
,
0000
0000
0000
0000
,
0001
0000
0000
0000
,
1001
0000
0000
0000
,
2000
0000
0000
0000
,
3002
0000
0000
0000
,
2003
0000
0000
0000
,
3002
0000
0000
0000
,
1003
0000
0000
0001
,
0000
0000
1000
0000
,
0001
0000
1000
0000
,
1001
0000
0000
0000
,
0001
0000
0000
0000
,
0010
0000
0000
0000
,
0100
0000
0000
0000
,
1000
0000
0000
0000
,
0001
0000
0000
0000
,
0100
0000
0000
0000
,
0010
0000
0000
0000
,
1000
0000
0000
0000
,
0001
0000
0000
0000
,
1000
0000
0000
0000
,
0001
0000
0000
0000
,
1000
0000
0000
0000
,
0100
0000
0000
0000
,
0010
0000
0000
0000
,
0001
0000
0000
0000
,
1000
0000
0000
0000
,
0002
0000
0000
0000
,
0003
0000
0000
0000
,
2000
0000
0000
0000
,
3000
0000
0000
0000
,
0002
0000
0000
0000
,
0000
0000
0000
0000
,
0003
0000
0000
0000
,
1001
0000
0000
0000
,
1000
0000
0000
0000
,
0010
0000
0000
0000
,
0001
0000
0000
0000
,
0100
0000
0000
0000
,
1000
0000
0000
0000
,
0001
0000
0000
0000
,
0100
0000
0000
0000
,
1001
0000
0000
0000
,
0001
0000
0000
0000
,
1000
0000
0000
0000
,
0100
0000
0000
0000
,
1000
0000
0000
0000
,
0001
0000
0000
0000
,
1000
0000
0000
0000
,
0001
0000
1000
0000
,
1001
0000
0000
0000
,
2000
0000
0000
0000
,
3002
0000
0000
0000
,
2003
0000
0000
0000
,
3002
0000
0000
0003
,
2000
0000
0000
0000
,
3002
0000
0000
0000
,
2003
0000
0000
0000
,
0000
0000
0000
0000
0000
0000
0000
0000
0000
0000
0000
3000
0000
0000
0000
0000
;

//--------------- dance-single - Fred-104 ----------------
#NOTES:
     dance-single:
     Fred-104:
     Easy:
     5:
     :
0000
0000
0000
0000
,
0000
0000
0000
0000
,
0000
0000
0000
0000
,
0000
0000
0000
0000
,
0000
0000
0000
0000
,
0000
0000
0000
0000
,
0000
0000
0000
0000
,
0000
0000
0000
0000
,
0000
0000
0000
0000
,
0001
0000
1000
0000
,
0010
0000
0100
0001
,
0100
0000
0010
0000
,
1000
0000
0001
1000
,
0001
0000
0010
0000
,
0100
1000
0100
1000
,
0100
0100
1000
0001
,
2002
0000
0000
3003
,
0002
0000
2003
0000
,
3002
0000
2003
0000
,
3002
0000
2003
0000
,
3002
0000
2000
3003
,
0001
1000
0100
0010
,
0001
1000
0010
0000
,
0100
0001
0100
0010
,
0110
0000
1001
0000
,
0002
0003
2000
3000
,
0200
0300
0020
0030
,
0002
0003
2000
3000
,
0002
0003
0200
0300
,
0010
0010
0100
0000
,
0001
0001
1000
0000
,
0100
0100
0010
0010
,
0001
1000
0001
1000
,
1001
0000
0000
0001
0000
0000
0001
0000
,
1000
0000
0000
1000
0000
0000
0100
0000
,
0010
0000
0000
0001
0000
0000
1000
0000
,
0001
0100
0010
0100
,
0110
0000
0000
0010
0000
0000
0100
0000
,
0001
1000
0001
0000
,
1000
0000
0000
1000
0000
0000
1000
0000
,
2002
0000
0000
3003
,
0002
0000
0000
0000
,
2003
0000
0000
0000
,
3020
0000
0000
0000
,
0230
0000
0000
0000
,
0302
0000
0000
0000
,
2003
0000
0000
0000
,
0002
0000
0000
0000
,
3003
0000
0000
0000
,
0002
0013
0001
0010
,
2000
3000
0100
0001
,
2000
3001
1000
0100
,
0010
0001
1000
0000
,
0002
0103
0001
0100
,
2000
3010
1000
0000
,
0020
0031
1000
0001
,
1001
0000
0110
0000
,
1001
0001
1000
0010
,
0100
0100
0001
1000
,
0100
0100
0010
0001
,
1000
0001
1001
0000
,
0001
0001
0010
0010
,
0100
0100
1000
1000
,
0001
0001
1000
1000
,
2002
0000
0000
3003
,
0002
0000
0000
0000
,
2003
0000
3002
0000
,
0203
0000
0000
0000
,
0020
0000
0000
0330
,
2000
0000
0000
0000
,
3002
0000
2003
0000
,
3200
0000
0000
0000
,
0000
0000
0000
0000
0000
0000
0000
0000
0000
0000
0000
0300
0000
0000
0000
0000
;

//--------------- dance-single - Fred-104 ----------------
#NOTES:
     dance-single:
     Fred-104:
     Medium:
     10:
     :
0000
0000
0000
0000
,
0000
0000
0000
0000
,
0000
0000
0000
0000
,
0000
0000
0000
0000
,
0000
0000
0000
0000
,
0000
0000
0000
0000
,
0000
0000
0000
0000
,
0000
0000
0000
0000
,
0000
0000
0000
0000
,
0001
0000
0010
0100
0000
0100
1000
0000
,
0001
0000
0100
0010
0000
0010
1000
0010
,
0100
0000
0010
1000
0000
1000
0100
0000
,
0010
0000
0001
1000
0001
0100
0001
0100
,
0010
0000
1000
0100
0010
0001
0010
0000
,
0001
0000
0100
0010
1000
0010
0100
0000
,
0001
0100
0001
0100
0010
1000
0010
1000
,
2002
0000
0000
3003
,
2000
3200
0320
0032
,
2003
0000
3200
0000
0320
0000
0031
1000
,
0002
0203
0320
2030
,
3002
0203
0320
2030
,
3001
0000
0000
0100
0000
0000
0010
0000
0000
1000
0000
0000
0100
0000
0000
0010
,
0000
0000
0100
0000
0000
1000
0000
0000
0001
0000
0000
0001
0000
0000
0001
0000
,
0100
0000
0000
0010
0000
0000
1000
0000
0000
0010
0000
0000
0100
0000
0001
0000
,
1001
0000
0000
0110
0000
0000
1001
0000
0001
0000
1000
0000
0010
0000
0000
0000
,
0200
0000
0000
0000
0300
0000
0001
0000
1000
0000
0000
0001
0000
0000
0010
0000
,
0200
0000
0000
0000
0300
0000
0010
0000
0100
0000
0000
1000
0000
0000
0001
0000
,
0200
0000
0000
0000
0300
0000
0010
0000
1000
0000
0000
0100
0000
0000
0001
0000
,
0100
0000
0000
0010
0000
0000
0001
0000
1000
0000
0000
0001
0000
0000
0100
0000
,
0010
0000
0000
0000
1000
0000
0010
0000
0100
0000
0000
0001
0000
0000
1000
0000
,
0100
0000
0000
0000
0010
0000
0001
0000
1000
0000
0000
0010
0000
0000
0100
0000
,
0001
1000
0100
0010
0001
0100
0010
1000
,
0001
0000
0010
0000
0001
0000
0010
0000
0100
0000
0000
1000
0000
0000
1000
0000
,
0001
0100
0100
0001
0100
0100
0001
0000
,
1000
0100
0100
1000
0100
0100
1000
0000
,
0001
0010
0010
0001
0010
0010
0001
0000
,
1000
0000
0001
0000
1000
0000
0000
0100
0000
1000
0001
0000
0100
0000
0010
0000
,
0100
0000
0000
0000
0001
0000
0001
0000
0000
1000
0001
0000
0010
0000
0100
0000
,
1000
0000
0001
0000
1001
0000
0000
0000
0001
0000
0000
1001
0000
0000
1000
0000
,
0100
0000
0000
0000
0010
0000
0010
0000
0000
0001
1000
0000
0001
0000
0100
0000
,
0020
0000
0000
0030
,
1002
0000
0000
0000
,
2003
0000
0000
0000
,
3002
0000
0000
0000
,
2003
0000
0000
3000
,
0001
1000
0001
1000
0001
1000
0001
1000
,
0100
0010
0100
0010
0100
0010
0100
0010
,
0002
0000
0000
0003
,
1000
0000
0000
0001
0000
0000
0100
0000
0010
0000
0010
0100
0000
0000
0001
0000
,
1002
0000
1003
0000
0100
0010
0001
0000
,
2000
0000
0000
0000
3001
0000
1000
0000
0100
0000
0000
0001
0000
0000
0100
0000
,
2000
0000
3001
0100
0010
1000
0010
0001
,
0010
0000
0100
0000
0010
0000
1000
0000
0000
0001
0000
0001
0000
0000
0100
0000
,
0120
0000
1030
0001
0010
0100
1000
0001
,
0200
0000
0000
0000
0310
0000
1000
0000
0100
0000
0000
0100
0000
0000
0100
0000
,
0020
0000
0031
1000
0001
0100
0010
1000
,
0001
0000
0000
0001
0000
0000
0001
0000
2000
0000
0000
3002
0000
0000
0203
0000
,
0310
1000
0001
0010
0100
1000
0001
1000
,
0010
0100
0010
1000
0100
0010
0001
1000
,
0001
0100
0010
0100
0001
0010
0001
1000
,
0010
0000
0100
0000
0001
0000
0000
1000
0000
1000
0000
1000
0000
0000
0100
0000
,
0010
0001
0010
0000
0100
1000
0100
0000
,
1000
0010
1000
0000
0001
0100
0001
0000
,
1000
0100
0010
0001
0100
0010
1000
0100
,
0220
0000
0000
0330
,
2001
0000
0000
0000
,
3200
0000
0320
0032
,
2003
0000
0000
0000
,
0002
0000
3003
0000
,
0120
0000
0000
0000
,
0230
0000
0302
2003
,
3200
0000
0000
0000
0000
0000
0000
0000
0000
0000
0000
0000
0010
0000
0000
0010
,
0000
0000
0010
0000
0000
0010
0000
0000
0010
0000
0000
0310
0000
0000
0000
0000
;

//--------------- dance-single - Fred-104 ----------------
#NOTES:
     dance-single:
     Fred-104:
     Hard:
     15:
     :
0000
0000
0000
0000
,
0000
0000
0000
0000
,
0000
0000
0000
0000
,
0000
0000
0000
0000
,
0000
0000
0000
0000
,
0000
0000
0000
0000
,
0000
0000
0000
0000
,
0000
0000
0000
0000
,
0000
0000
0000
0000
,
1000
0001
0010
0100
1000
0010
0100
0001
,
1000
0000
0100
0000
0010
0000
0001
0000
1000
0000
0010
0000
0100
0010
0100
0010
,
0100
0001
1000
0100
0010
0100
1000
0001
,
0100
0000
0010
0000
1000
0000
0001
0000
0010
0100
0010
0100
1000
0100
1000
0100
,
0010
0000
0001
0000
1000
0000
0001
0000
0100
0010
0000
0100
0010
0000
1000
0001
,
1000
0000
0010
0000
0100
0000
0001
0000
1000
0100
0000
1000
0100
0000
1000
0001
,
1000
0000
0001
0000
1000
0000
0010
0000
0100
0001
0100
0001
0100
0001
0100
0001
,
2000
0000
0000
0000
0000
0000
0000
3000
,
0001
0010
0001
0000
1000
0100
1000
0000
0001
0010
0001
0000
1000
0100
1000
0000
,
0001
0100
0001
0000
1000
0010
1000
0000
0001
0100
0001
0000
1000
0010
1000
0000
,
0001
1000
0001
0000
0100
0010
0100
0000
0001
1000
0001
0000
0100
0010
0100
0000
,
0001
1000
0001
0000
0010
0100
0010
0000
0001
1000
0001
1000
0002
0000
0000
0000
,
1003
0000
0010
1000
0000
0001
1000
0000
0100
0010
0000
0001
1000
0000
0010
0100
,
0000
0001
1000
0000
0001
0010
0000
0100
1000
0000
0000
1000
0000
0000
1000
0001
,
0100
0000
0001
1000
0000
0001
0010
0000
0100
0010
0000
0001
1000
0000
0010
0100
,
0010
0000
0000
0110
0000
0000
1001
0000
0001
1000
0001
1000
0100
0010
0100
0010
,
0002
0000
0000
0000
0003
0000
0100
1000
0100
0000
0000
0010
0000
0000
1000
0000
,
0002
0000
0000
0000
0003
0000
0010
0100
0001
0000
0000
0100
0000
0000
1000
0000
,
0020
0000
0000
0000
0030
0000
0100
1000
0100
0000
0000
0001
0000
0000
1000
0000
,
0100
0000
0000
0001
0000
0000
1000
0000
0010
0000
0000
0100
0000
0000
0010
0000
,
0001
0000
0100
0000
0010
0000
1000
0001
1000
0000
0001
0010
0000
0100
1000
0000
,
0001
0000
1000
0000
0100
0000
0010
0001
0010
0000
0001
1000
0000
0010
0100
0000
,
0001
1000
0001
0000
0100
0010
0100
0000
0001
1000
0001
1000
0100
0010
0100
0010
,
0001
1000
0001
0100
0010
1000
0010
0100
0001
0000
1000
0100
0000
0010
0001
0000
,
1001
0000
1000
0010
1000
0010
1000
0000
0001
0010
0001
0010
0100
1000
0100
1000
,
0001
0000
1000
0010
1000
0010
1000
0000
0001
1000
0001
1000
0100
0010
0100
0010
,
0001
0000
1000
0100
1000
0100
1000
0000
0001
0100
0001
0100
0010
1000
0010
1000
,
0001
0000
1000
0001
0100
0000
0001
1000
0000
1000
0100
0010
0001
1000
0001
1000
,
0010
0000
0000
0000
0100
0000
0101
0000
0000
0001
1000
0000
0100
0000
0010
0001
,
1000
0000
1010
0000
1001
0000
0000
0000
1100
0000
0000
0101
0000
0000
1000
0100
,
0010
0000
0000
0000
0001
0000
1001
0000
0000
1000
0001
0100
0010
0000
1000
0001
,
2000
0000
0000
0000
0000
0000
0000
3000
,
1002
0000
0000
0000
,
2003
0000
0000
0000
,
3200
0000
0000
0000
,
0320
0000
0000
0030
,
0001
1000
0001
1000
0001
1000
0001
1000
0001
1000
0001
1000
0001
1000
0001
1000
,
0010
0100
0010
0100
0010
0100
0010
0100
0010
0100
0010
0100
0010
0100
0010
0100
,
0002
0000
0000
0000
,
1003
0000
0001
0100
0000
0010
1000
0001
0010
0000
0100
0010
0000
0000
1001
0000
,
1000
0000
0001
0000
0100
0010
1000
0000
0001
0010
0100
0000
0010
0001
1000
0010
,
0200
0000
0000
0000
0301
1000
0100
1000
0001
0000
0100
1000
0000
0100
0001
0000
,
2000
0000
0000
0000
3001
1000
0100
0000
0010
0001
1000
0010
0100
0001
1000
0000
,
0100
0010
0001
0000
1000
0100
0010
0000
0000
0011
0000
1010
0000
0000
1001
0000
,
0002
0000
1003
0000
0001
0100
0010
0000
1000
0001
0010
0100
0020
0000
0000
0000
,
0032
0000
0000
0000
1003
0001
0100
0001
2000
0000
0000
3200
0000
0000
0320
0000
,
0032
0000
0000
0000
1003
0001
0100
0000
0010
1000
0001
0010
0100
0010
0001
0000
,
0101
0000
0000
1010
0000
0000
0011
0000
2100
0000
0000
3002
0000
0000
0203
0000
,
0310
0000
1000
0001
0100
0010
1000
0000
0001
0010
0001
0010
0100
0000
1000
0000
,
0001
0000
0100
0010
1000
0010
0100
0000
0001
1000
0001
1000
0100
0010
0100
0010
,
0001
0000
1000
0001
0100
0001
1000
0000
0001
0010
0001
0010
0100
1000
0100
1000
,
0001
0000
0100
0001
1000
0001
0100
0001
0000
1001
0000
1100
0000
0000
0011
0000
,
0001
0001
1000
1000
0010
0010
0100
0100
,
0001
0001
1000
1000
0100
0100
0010
0010
,
0001
1000
0001
1000
0001
1000
0001
1000
0010
0100
0010
0100
0010
0100
0010
0100
,
0002
0000
0000
0003
,
2001
0000
0000
0000
,
3002
0000
0203
2300
,
3200
0000
0000
0000
,
0320
0000
0200
0330
,
1002
0000
0000
0000
,
2003
0000
3002
2003
,
3200
0000
0000
0000
0000
0000
0000
0000
0000
0000
0000
0000
0310
0000
0000
0010
,
0000
0000
0001
0000
0000
1000
0000
0000
0001
0000
0000
0100
0000
0000
0000
0000
;

//--------------- dance-double - Fred-104 ----------------
#NOTES:
     dance-double:
     Fred-104:
     Easy:
     5:
     :
00000000
00000000
00000000
00000000
,
00000000
00000000
00000000
00000000
,
00000000
00000000
00000000
00000000
,
00000000
00000000
00000000
00000000
,
00000000
00000000
00000000
00000000
,
00000000
00000000
00000000
00000000
,
00000000
00000000
00000000
00000000
,
00000000
00000000
00000000
00000000
,
00000000
00000000
00000000
00000000
,
00001000
00000000
00010000
00000000
,
00001000
00000000
00010000
00100000
,
01000000
00000000
00010000
00000000
,
01000000
00000000
00010000
10000000
,
01000000
00000000
00100000
00000000
,
00010000
00100000
00001000
00010000
,
00001000
00001000
00010000
00010000
,
00022000
00000000
00000000
00033000
,
00002000
00000000
00023000
00000000
,
00032000
00000000
00023000
00000000
,
00032000
00000000
00023000
00000000
,
00032000
00000000
00020000
00033000
,
00001000
00010000
00000010
00010000
,
00001000
00010000
00000100
00000000
,
00001000
00000100
00000010
00000001
,
00001001
00000000
00000110
00000000
,
00000002
00000003
00000200
00000300
,
00002000
00003000
00020000
00030000
,
00002000
00003000
02000000
03000000
,
00002000
00003000
00020000
00030000
,
00001000
01000000
00010000
00000000
,
01000000
00100000
10000000
00000000
,
01000000
00100000
00010000
00100000
,
00001000
00010000
00001000
00010000
,
00011000
00000000
00000000
00010000
00000000
00000000
00001000
00000000
,
00010000
00000000
00000000
00000010
00000000
00000000
00001000
00000000
,
00000010
00000000
00000000
00001000
00000000
00000000
00000010
00000000
,
00000100
00000001
00001000
00000100
,
00000110
00000000
00000000
00000001
00000000
00000000
00000100
00000000
,
00001000
00010000
00001000
00000000
,
00010000
00000000
00000000
00000100
00000000
00000000
00001000
00000000
,
00002002
00000000
00000000
00003003
,
00000002
00000000
00000000
00000000
,
00000203
00000000
00000000
00000000
,
00002300
00000000
00000000
00000000
,
00023000
00000000
00000000
00000000
,
00032000
00000000
00000000
00000000
,
00023000
00000000
00000000
00000000
,
00002000
00000000
00000000
00000000
,
00033000
00000000
00000000
00000000
,
00002000
00013000
00100000
10000000
,
00020000
00030000
10000000
01000000
,
00200000
00310000
00100000
00001000
,
00010000
00001000
00000100
00000000
,
00000020
00000130
00000010
00001000
,
00000001
00000010
00001000
00000000
,
00020000
00031000
00010000
00001000
,
00011000
00000000
00000110
00000000
,
00001001
00000001
00000100
00001000
,
00010000
00001000
00010000
00000100
,
00010000
00001000
00100000
00010000
,
00100000
00001000
00011000
00000000
,
00010000
00001000
00000100
00000001
,
00001000
00000010
00000100
00001000
,
00010000
00100000
01000000
00010000
,
20020000
00000000
00000000
30030000
,
20000000
00000000
00000000
00000000
,
32000000
00000000
03200000
00000000
,
00302000
00000000
00000000
00000000
,
00020000
00000000
00000000
00033000
,
00002000
00000000
00000000
00000000
,
00203000
00000000
02300000
00000000
,
23000000
00000000
00000000
00000000
,
00000000
00000000
00000000
00000000
00000000
00000000
00000000
00000000
00000000
00000000
00000000
30000000
00000000
00000000
00000000
00000000
;

//--------------- dance-double - Fred-104 ----------------
#NOTES:
     dance-double:
     Fred-104:
     Medium:
     10:
     :
00000000
00000000
00000000
00000000
,
00000000
00000000
00000000
00000000
,
00000000
00000000
00000000
00000000
,
00000000
00000000
00000000
00000000
,
00000000
00000000
00000000
00000000
,
00000000
00000000
00000000
00000000
,
00000000
00000000
00000000
00000000
,
00000000
00000000
00000000
00000000
,
00000000
00000000
00000000
00000000
,
00010000
00000000
00001000
00100000
00000000
00100000
00010000
00000000
,
10000000
00000000
01000000
00100000
00000000
00100000
00001000
00010000
,
00001000
00000000
00010000
00001000
00000000
00001000
00000100
00000000
,
00000001
00000000
00001000
00000100
00000010
00000100
00001000
00000001
,
00000100
00000000
00000010
00010000
00001000
00010000
00001000
00000000
,
00100000
00000000
00001000
00010000
01000000
00100000
01000000
00000000
,
00010000
01000000
10000000
00010000
01000000
00100000
00010000
00001000
,
00022000
00000000
00000000
00033000
,
00020000
00032000
00003200
00000320
,
00020030
00032000
00003200
00000320
,
00020030
00032000
00003020
00000230
,
00020300
00032000
00003020
00000230
,
00010300
00000000
00000000
00001000
00000000
00000000
01000000
00000000
00000000
00010000
00000000
00000000
00100000
00000000
00000000
01000000
,
00000000
00000000
00010000
00000000
00000000
00001000
00000000
00000000
00000100
00000000
00000000
00000010
00000000
00000000
00001000
00000000
,
00000100
00000000
00000000
00000010
00000000
00000000
00001000
00000000
00000000
00010000
00000000
00000000
00100000
00000000
01000000
00000000
,
00010000
00000000
00000000
10010000
00000000
00000000
10000000
00000000
01000000
00000000
00100000
00000000
00001000
00000000
00000000
00000000
,
00020000
00000000
00000000
00000000
00030000
00000000
00001000
00000000
00000010
00000000
00000000
00000001
00000000
00000000
00000010
00000000
,
00000200
00000000
00000000
00000000
00000300
00000000
00001000
00000000
00000010
00000000
00000000
00000100
00000000
00000000
00001000
00000000
,
00020000
00000000
00000000
00000000
00030000
00000000
00001000
00000000
00010000
00000000
00000000
01000000
00000000
00000000
00100000
00000000
,
00010000
00000000
00000000
10000000
00000000
00000000
00100000
00000000
00010000
00000000
00000000
00001000
00000000
00000000
00010000
00000000
,
00001000
00000000
00000000
00000000
00010000
00000000
00000010
00000000
00001000
00000000
00000000
00000100
00000000
00000000
00010000
00000000
,
00001000
00000000
00000000
00000000
01000000
00000000
00001000
00000000
00100000
00000000
00000000
00010000
00000000
00000000
10000000
00000000
,
00100000
01000000
00100000
00010000
00001000
00000100
00000001
00001000
,
00000100
00000000
00000010
00000000
00000001
00000000
00000100
00000000
00001000
00000000
00000000
00010000
00000000
00000000
00001000
00000000
,
00011000
00000000
00001000
01000000
00000000
00010000
10000000
01000000
,
00100000
00000000
00001000
00010000
00001000
00000100
00000010
00000100
,
00001000
00000000
00010000
00001000
00000000
01000000
00001000
00010000
,
00001000
00000000
00000000
00000000
00100000
00000000
00010000
00000000
00000000
00010000
10000000
00000000
00100000
00000000
01000000
00000000
,
00010000
00000000
00000000
00000000
10000000
00000000
10000000
00000000
00000000
01000000
00100000
00000000
00001000
00000000
00010000
00000000
,
00000010
00000000
00001000
00000000
00001001
00000000
00000000
00000000
00000001
00000000
00000000
00001100
00000000
00000000
00000010
00000000
,
00010000
00000000
00000000
00000000
00001000
00000000
00001000
00000000
00000000
01000000
00010000
00000000
00100000
00000000
01000000
00000000
,
20000000
00000000
00000000
30000000
,
20010000
00000000
00000000
00000000
,
30200000
00000000
00000000
00000000
,
00320000
00000000
00000000
00000000
,
00032000
00000000
00000000
00003000
,
00010000
00001000
00010000
00001000
00000010
00000100
00000010
00000100
,
00000010
00000001
00000100
00001000
00010000
01000000
10000000
00100000
,
02000000
00000000
00000000
03000000
,
00010000
00000000
00000000
10000000
00000000
00000000
01000000
00000000
00100000
00000000
00100000
00001000
00000000
00000000
00001000
00000000
,
00021000
00000000
00031000
00000000
00010000
00000100
00001000
00000000
,
00000020
00000000
00000000
00000000
00010030
00000000
00000100
00000000
00001000
00000000
00000000
00000100
00000000
00000000
00000010
00000000
,
00000002
00000000
00000103
00001000
00010000
00001000
00010000
00000000
,
00100000
00000000
01000000
00000000
00010000
00000000
00100000
00000000
00000000
01000000
00000000
01000000
00000000
00000000
10000000
00000000
,
10020000
00000000
10030000
00100000
01000000
00100000
00010000
00001000
,
00020000
00000000
00000000
00000000
00030010
00000000
00010000
00000000
00001000
00000000
00000000
00001000
00000000
00000000
00001000
00000000
,
00020000
00000000
00031000
00000100
00000001
00001000
00000100
00000000
,
00000010
00000000
00000000
00000001
00000000
00000000
00000100
00000000
00002000
00000000
00000000
00023000
00000000
00000000
00031000
00000000
,
00010000
00001000
01000000
00010000
01000000
00001000
00010000
00000000
,
00001000
00010000
00001000
01000000
00010000
00100000
00001000
00000000
,
00010000
00000100
00001000
00000010
00010000
00001000
00010000
00000000
,
00001000
00000000
00100000
00000000
00010000
00000000
00000000
01000000
00000000
01000000
00000000
01000000
00000000
00000000
00100000
00000000
,
10000000
01000000
10000000
01000000
00100000
00010000
00100000
00000000
,
00001000
00010000
00000010
00010000
00001000
00010000
00000100
00000000
,
00001000
00000100
00000010
00000001
00001000
00000010
00010000
00001000
,
00020000
00000000
00000000
00030000
,
00012000
00000000
00000000
00000000
,
02003000
00000000
03020000
20030000
,
32000000
00000000
00000000
00000000
,
03200000
00000000
00002000
00303000
,
00021000
00000000
00000000
00000000
,
00032000
00000000
00003200
00020300
,
00032000
00000000
00000000
00000000
00000000
00000000
00000000
00000000
00000000
00000000
00000000
00000000
00010000
00000000
00000000
00010000
,
00000000
00000000
00010000
00000000
00000000
00010000
00000000
00000000
00010000
00000000
00000000
00013000
00000000
00000000
00000000
00000000
;

//--------------- dance-double - Fred-104 ----------------
#NOTES:
     dance-double:
     Fred-104:
     Hard:
     15:
     :
00000000
00000000
00000000
00000000
,
00000000
00000000
00000000
00000000
,
00000000
00000000
00000000
00000000
,
00000000
00000000
00000000
00000000
,
00000000
00000000
00000000
00000000
,
00000000
00000000
00000000
00000000
,
00000000
00000000
00000000
00000000
,
00000000
00000000
00000000
00000000
,
00000000
00000000
00000000
00000000
,
00010000
00001000
00000100
00000001
00000100
00000010
00001000
00000001
,
00000010
00000000
00000100
00000000
00000010
00000000
00001000
00000000
00010000
00000000
01000000
00000000
00100000
00010000
00100000
00010000
,
10000000
00100000
00010000
00001000
00000100
00000010
00001000
00000100
,
00000010
00000000
00000001
00000000
00000100
00000000
00001000
00000000
00010000
00001000
00010000
00001000
01000000
00001000
01000000
00001000
,
00010000
00000000
00001000
00000000
00000100
00000000
00000001
00000000
00001000
00000100
00000000
00001000
00000100
00000000
00000010
00000001
,
00000010
00000000
00000001
00000000
00000100
00000000
00001000
00000000
00010000
00001000
00000000
00010000
00001000
00000000
01000000
00010000
,
01000000
00000000
00001000
00000000
00010000
00000000
00001000
00000000
00100000
00010000
00100000
00010000
00100000
00001000
00010000
00000000
,
00022000
00000000
00000000
00000000
00000000
00000000
00000000
00033000
,
00001000
00010000
00001000
00000000
00010000
00000010
00010000
00000000
00001000
00010000
00001000
00000000
00010000
00000010
00010000
00000000
,
00001000
00010000
00001000
00000000
00100000
00010000
00100000
00000000
00001000
00010000
00001000
00000000
00100000
00010000
00100000
00000000
,
00001000
00010000
00001000
00000000
00010000
00000100
00010000
00000000
00001000
00010000
00001000
00000000
01000000
00010000
01000000
00000000
,
00001000
00010000
00001000
00000000
00010000
00000100
00010000
00000000
00001000
01000000
00001000
01000000
00002000
00000000
00000000
00000000
,
00013000
00000000
00001000
00010000
00000000
00000010
00001000
00000000
00000010
00000100
00000000
00000001
00001000
00000000
00000100
00000010
,
00000000
00000001
00001000
00000000
00000010
00010000
00000000
00001000
00100000
00000000
00000000
00100000
00000000
00000000
00100000
00010000
,
00100000
00000000
01000000
10000000
00000000
00010000
01000000
00000000
00100000
10000000
00000000
00010000
00100000
00000000
00001000
00010000
,
00001000
00000000
00000000
00011000
00000000
00000000
00010010
00000000
00000010
00001000
00000010
00001000
00000001
00001000
00000001
00001000
,
00000200
00000000
00000000
00000000
00000300
00000000
00000001
00000100
00001000
00000000
00000000
00000001
00000000
00000000
00000100
00000000
,
00002000
00000000
00000000
00000000
00003000
00000000
00010000
00001000
00010000
00000000
00000000
01000000
00000000
00000000
00100000
00000000
,
00020000
00000000
00000000
00000000
00030000
00000000
10000000
00100000
00010000
00000000
00000000
00001000
00000000
00000000
00010000
00000000
,
00001000
00000000
00000000
00000010
00000000
00000000
00000100
00000000
00001000
00000000
00000000
00000010
00000000
00000000
00000100
00000000
,
00001000
00000000
00010000
00000000
00100000
00000000
01000000
00010000
01000000
00000000
00010000
10000000
00000000
01000000
10000000
00000000
,
00010000
00000000
10000000
00000000
01000000
00000000
00100000
00001000
00100000
00000000
00001000
00010000
00000000
00000010
00010000
00000000
,
00000010
00001000
00000010
00000000
00000100
00000001
00000100
00000000
00000001
00001000
00000001
00001000
00000100
00000010
00000100
00000010
,
00000001
00001000
00000100
00000010
00000001
00001000
00000010
00000100
00000001
00000000
00001000
00000100
00000000
00000100
00010000
00000000
,
00011000
00000000
00001000
01000000
00001000
01000000
00001000
00000000
01000000
00010000
01000000
00000000
00100000
10000000
00010000
00000000
,
10000000
00000000
01000000
00100000
01000000
00100000
01000000
00000000
00100000
00001000
00100000
00001000
00010000
00001000
00010000
00001000
,
00010000
00000000
00000010
00001000
00000010
00001000
00000010
00000000
00000100
00000001
00000100
00000000
00000001
00001000
00000100
00000000
,
00000010
00000000
00000100
00001000
00000100
00000000
00010000
00001000
00000000
00001000
01000000
00010000
01000000
00010000
10000000
00010000
,
10000000
00000000
00000000
00000000
01000000
00000000
01100000
00000000
00000000
00010000
01000000
00000000
00100000
00000000
10000000
01000000
,
00100000
00000000
00110000
00000000
00101000
00000000
00000000
00000000
00010010
00000000
00000000
00011000
00000000
00000000
00010000
00001000
,
00000100
00000000
00000000
00000000
00000001
00000000
00000101
00000000
00000000
00000010
00001000
00000001
00000010
00000000
00000100
00010000
,
00002000
00000000
00000000
00000000
00000000
00000000
00000000
00003000
,
00021000
00000000
00000000
00000000
,
00032000
00000000
00000000
00000000
,
02003000
00000000
00000000
00000000
,
03020000
00000000
00000000
00030000
,
10000000
01000000
10000000
01000000
10000000
01000000
10000000
01000000
10000000
01000000
10000000
01000000
10000000
01000000
10000000
01000000
,
00100000
00010000
00100000
00010000
00100000
00010000
00100000
00010000
00100000
00010000
00100000
00010000
00100000
00010000
00100000
00001000
,
00020000
00000000
00000000
00000000
,
00031000
00000000
00010000
00001000
00000000
00010000
00000010
00001000
00000010
00000000
00001000
00000100
00000000
00000000
00000011
00000000
,
00001000
00000000
00000001
00000000
00000010
00000100
00001000
00000000
00000100
00010000
00001000
00000000
01000000
00010000
01000000
00001000
,
00020000
00000000
00000000
00000000
00031000
00100000
00010000
00100000
00001000
00000000
00010000
00100000
00000000
00010000
00001000
00000000
,
00020000
00000000
00000000
00000000
00031000
00010000
00100000
00000000
01000000
00010000
10000000
01000000
00100000
00000000
00010000
00000000
,
00100000
00001000
00010000
00000000
00000010
00001000
00000100
00000000
00000000
00000110
00000000
00000011
00000000
00000000
00001001
00000000
,
00000002
00000000
00000103
00000000
00001000
00010000
00001000
00000000
00010000
00100000
01000000
00100000
20000000
00000000
00000000
00000000
,
30020000
00000000
00000000
00000000
10030000
01000000
00100000
00010000
00200000
00000000
00000000
00302000
00000000
00000000
00003020
00000000
,
00000230
00000000
00000000
00000000
00001300
00000001
00000100
00000000
00000001
00001000
00000100
00010000
00001000
00010000
00001000
00000000
,
00011000
00000000
00000000
00010100
00000000
00000000
00011000
00000000
00002000
00000000
00000000
00023000
00000000
00000000
00230000
00000000
,
01300000
00000000
00010000
10000000
00010000
10000000
00010000
00000000
10000000
01000000
00100000
00010000
00100000
00000000
00001000
00000000
,
00010000
00000000
00000010
00001000
00000010
00001000
00000001
00000000
00000010
00000100
00000010
00000100
00001000
00000100
00001000
00000100
,
00000010
00000000
00000001
00001000
00000010
00001000
00000001
00000000
00000010
00000100
00000010
00000100
00001000
00000100
00001000
00000100
,
00010000
00000000
00001000
00010000
00001000
01000000
00010000
01000000
00000000
01010000
00000000
10010000
00000000
00000000
11000000
00000000
,
10000000
10000000
01000000
01000000
00100000
00100000
00001000
00001000
,
00010000
00010000
00000100
00000100
00000010
00000010
00000001
00000001
,
00000100
00000010
00000100
00000010
00000100
00000010
00000100
00000010
00000100
00000010
00000100
00000010
00000100
00000010
00000100
00000010
,
00000200
00000000
00000000
00000300
,
00001002
00000000
00000000
00000000
,
00002003
00000000
00003200
00000320
,
00002030
00000000
00000000
00000000
,
00023000
00000000
00002000
00033000
,
00012000
00000000
00000000
00000000
,
00023000
00000000
02030000
03200000
,
00320000
00000000
00000000
00000000
00000000
00000000
00000000
00000000
00000000
00000000
00000000
00000000
10030000
00000000
00000000
00100000
,
00000000
00000000
00010000
00000000
00000000
00001000
00000000
00000000
00000100
00000000
00000000
00000001
00000000
00000000
00000000
00000000
;
