#VERSION:0.83;
#TITLE:Pārvatī;
#ARTIST:BEMANI Sound Team "U1 overground";
#TITLETRANSLIT:Parvati;
#ARTISTTRANSLIT:U1 overground;
#GENRE:ORBITALIC WORLD MUSIC;
#BANNER:Parvati.png;
#BACKGROUND:Parvati-bg.png;
#CDTITLE:./CDTitles/bm IIDX 28 BISTROVER.png;
#MUSIC:Parvati.ogg;
#SAMPLESTART:15.221;
#SAMPLELENGTH:15;
#DISPLAYBPM:102.5:205;
#BPMS:0=205,116=102.5,132=205,160=102.5,162=205,163=162.158,163.395833=128.125,163.708333=76.875,163.895833=43,163.9375=86,164=205,165=162.158,165.395833=128.125,165.708333=76.875,165.895833=42.708,165.9375=83.515,166=205,168=162.158,168.395833=128.125,168.708333=76.875,168.895833=42.708,169=205,170.5=273.333,171=136.667,171.25=68.333,171.4375=136.667,171.5=205,173=324.317,173.395833=256.25,173.708333=153.75,173.895833=85.417,174=102.5,190=205,218=410,226=205,254=102.5,256=205,352=102.5;
#STOPS:163.9375=0.044,165.9375=0.043,168.9375=0.148,171.4375=0.026;
#TIMESIGNATURES:0=4=4,160=2=4,162=3=4,174=4=4,254=2=4,256=4=4;

//--------------- dance-single - Fred-104 ----------------
#NOTEDATA:;
#STEPSTYPE:dance-single;
#DESCRIPTION:Fred-104;
#DIFFICULTY:Beginner;
#METER:7;
#CREDIT:Fred-104;
#NOTES:
0000
0000
0000
0000
,
0000
0000
0000
0000
,
0000
0000
0000
0000
,
0000
0000
0000
0000
,
0000
0000
0000
0000
,
1000
0100
1000
0000
,
0001
1000
2002
3003
,
0001
0100
0001
0000
,
1000
0010
1000
0000
,
1000
0000
1000
0000
,
1000
0000
1000
0000
,
0001
0000
0001
0000
,
0010
0000
0100
0000
,
1001
0000
0001
0000
,
1000
0010
1000
0000
,
0100
0000
0010
0000
,
0001
1000
0001
0000
,
0100
0000
0010
0000
,
0100
0010
1000
0000
,
0001
0001
0001
0001
,
1000
1000
2002
3003
,
1001
0000
1000
0000
,
0010
1000
0100
0000
,
0010
0000
0001
0000
,
1000
0001
0100
0000
,
0001
0010
0001
1000
,
0001
0000
0100
0000
,
0010
1000
0010
1000
,
0001
1000
0001
0000
,
1000
0200
0301
0000
,
1000
0020
0031
0000
,
1000
0010
1000
0000
,
0001
0010
0100
0000
,
1000
0000
0010
0000
,
1000
1000
0100
0000
,
0010
0000
0001
0000
,
1000
1000
0001
0001
,
1000
0000
0010
1000
,
0100
0000
1000
0001
,
1000
0000
0001
1000
,
2002
0000
0000
3003
2000
0000
0000
0000
,
0000
0000
3002
0000
,
0000
0003
0000
0000
0000
0000
0000
2000
,
0000
3000
0001
0100
,
0010
1000
0002
0000
,
2003
0000
3010
0100
,
0001
0001
0001
0000
1000
0000
0100
0000
,
1000
1000
0001
0001
2000
0000
0000
0000
,
0000
0000
3200
0000
,
0000
0000
0320
0000
,
0000
0000
0032
0000
,
0000
0000
1003
0000
,
0100
0000
0010
0000
,
0001
0000
1000
1000
,
0001
0001
2002
0000
,
0000
0000
0000
0000
,
3003
0000
1000
0000
,
0100
0000
1000
1000
,
1000
0000
0001
0000
,
1000
0000
0001
0001
,
0001
0000
0100
0000
,
0010
0000
0100
0100
,
0100
0000
0001
0000
,
1000
0000
0000
0000
2002
0000
0000
3003
,
1000
1000
0010
1000
,
0200
0000
0320
0000
,
0031
0000
1000
0000
,
0010
1000
1001
0000
,
0001
0100
0001
0000
,
0010
0100
1000
0000
,
0010
1000
0100
0000
,
1000
0001
0010
0000
,
0001
1000
0010
0000
,
1000
0100
0010
0000
,
0001
1000
0001
1000
,
0020
0000
0230
0000
,
0310
1000
0100
1000
,
0010
0100
0001
0000
,
1000
0100
1000
0100
,
0010
0001
1000
0000
,
0001
0001
0100
0100
,
0010
0010
1000
1000
,
0100
0100
0010
0010
,
0001
0001
1001
0000
,
1000
1000
0100
0100
,
0010
0010
0001
0001
,
0100
0100
0010
0010
,
1000
0001
1001
0000
,
2000
0000
3001
1000
,
0002
0000
0103
0010
,
0110
0000
0000
0000
;

//--------------- dance-single - Fred-104 ----------------
#NOTEDATA:;
#STEPSTYPE:dance-single;
#DESCRIPTION:Fred-104;
#DIFFICULTY:Easy;
#METER:12;
#CREDIT:Fred-104;
#NOTES:
0000
0000
0000
0000
,
0000
0000
0000
0000
,
0000
0000
0000
0000
,
0000
0000
0000
0000
,
0000
0000
0000
0000
,
1000
0100
1000
0000
0010
0000
0100
0000
,
0010
1000
2002
3003
,
0001
0100
1000
0100
,
0001
1000
0001
0000
1000
0001
1000
0000
,
1000
0100
0001
0000
1100
0000
0101
0000
,
1000
0001
1000
0100
,
0001
0100
1000
0000
0101
0000
1100
0000
,
0010
1000
0100
0000
,
1001
0000
1000
0010
0100
0010
1000
0000
,
0100
0010
0001
0000
0010
0000
0011
0000
,
0001
0000
0100
0000
0010
1000
0010
0000
,
2000
3001
1000
1001
,
2000
0000
3200
0000
1300
0010
1000
0000
,
0002
0000
0023
0000
0031
0100
0001
0000
,
0100
0010
0100
0100
,
0001
0000
1000
0001
2002
0000
3003
0000
,
2000
0000
3200
0000
0310
0001
0010
0000
,
0002
0000
0203
0000
0310
1000
0010
0000
,
0200
0000
0302
0000
1003
0100
0010
0000
,
0001
1000
2002
3003
,
1000
1000
0100
0100
,
0010
0000
0001
0000
1000
0001
1000
0000
,
0001
0100
0010
1000
,
0001
0000
1000
0001
2000
0000
3000
0000
,
1000
0000
0000
0000
0000
0000
0100
0000
0000
0000
0000
0000
2000
0000
0000
0000
0000
0000
0000
0000
0000
0000
0000
0000
3001
0000
0000
0000
1000
0000
0000
0000
0001
0000
0000
0000
0100
0000
0000
0000
0000
0000
0010
0000
0000
0100
0000
0000
,
0010
1000
1001
0001
0100
0010
2000
0000
,
3001
0010
1000
0010
0001
1000
1100
0000
,
1000
0010
0000
0010
0100
0000
0001
0000
1000
0001
1000
0000
0002
0000
2003
0000
,
3001
0100
0010
0100
,
0001
0010
0001
0010
0100
0000
1000
0100
,
1000
0100
1000
0000
1001
0000
0001
0100
,
0001
0000
0100
0000
0010
1000
0001
0000
,
1001
0000
1000
0100
1000
0010
0100
0000
,
0001
1000
0001
0000
0100
0010
0100
0000
,
0001
0000
1000
0001
1000
0001
1000
0000
,
2002
0000
0000
3003
1000
0000
0200
0000
,
0301
0200
1300
0010
,
0200
0000
0301
0000
2002
0000
3003
1000
,
0000
0000
0002
0003
1001
0001
0100
0000
,
0010
1000
0001
0000
1000
0100
0001
0010
,
1000
0100
0001
0010
1000
0100
0110
0000
,
0010
0000
0001
0000
1000
0000
0001
1000
0001
0000
0010
0000
0011
0000
0000
0000
,
0001
0000
1000
0000
0010
1000
0010
0000
1000
0000
0000
0000
0100
0000
0000
0000
,
0001
0000
1000
0010
,
0001
0000
1000
0010
,
0001
0000
1000
0100
,
0001
0000
1000
0100
,
1000
0010
0100
0001
,
0010
0000
0001
0000
0100
0010
0100
0010
,
0100
0010
0100
0010
0200
0000
0000
0000
,
0000
0000
0000
0000
,
0300
0000
1001
0001
,
0100
0100
0010
1000
,
0100
1000
0010
0100
,
0001
1000
0100
0010
,
0001
1000
0001
0000
1001
0000
1000
0000
,
0010
0001
1000
0100
,
0001
0000
2000
0000
3001
0000
1000
0001
,
1000
0001
1000
0000
2002
0000
0000
3003
,
1100
1000
0101
0001
,
2000
3200
0320
0032
,
1003
0000
0010
0000
0100
0001
0100
0000
,
0001
0000
0001
0000
1000
0000
2002
0000
0000
3003
0000
0000
,
0002
0000
0203
0000
0310
1000
0010
0000
,
2000
0000
3200
0000
0310
0001
0010
0000
,
0001
0000
1000
0000
0010
1000
0100
0000
,
1000
0001
1000
0001
0200
0000
0320
0000
,
2030
0000
3100
1000
0010
0000
0100
0000
,
0001
0100
0001
0000
0010
0000
0001
0000
,
0100
0010
0100
0000
0001
1000
0001
0000
,
1000
0100
0010
0011
,
1001
0000
1000
0010
,
0100
0000
0010
1000
,
0001
0100
0010
1000
,
0001
0100
0001
0000
1000
0010
1000
0000
,
0001
0001
0100
0100
,
0010
0010
1000
1000
,
0100
0100
0010
0010
,
0001
0000
0000
0100
0000
0000
0010
0000
1000
0000
0010
0000
,
0100
0001
0010
1000
,
0100
0001
0010
1000
,
0100
1000
0100
0000
0010
0001
0010
0000
,
0001
0100
0001
0000
1000
0010
2000
0000
,
3001
0100
1000
0100
0001
0010
0011
0000
,
1000
0010
0001
0100
1000
0001
2002
0000
,
3003
0000
0000
0000
;

//--------------- dance-single - Fred-104 ----------------
#NOTEDATA:;
#STEPSTYPE:dance-single;
#DESCRIPTION:Fred-104;
#DIFFICULTY:Medium;
#METER:15;
#CREDIT:Fred-104;
#NOTES:
0000
0000
0000
0000
,
0000
0000
0000
0000
,
0000
0000
0000
0000
,
0000
0000
0000
0000
,
0000
0000
0000
0000
,
0001
0010
0001
1000
0001
0000
0100
0000
,
0010
1000
2002
3003
,
1000
0100
0001
0010
,
1000
0100
1000
0100
0001
0100
1000
0010
,
0100
0010
1000
0000
0110
0000
0011
0000
,
1000
0000
0001
1000
0000
0000
0001
0000
,
0100
0010
1000
0000
0101
0000
1100
0000
,
0010
0010
1001
0000
,
1001
0000
1000
0100
0010
0100
1000
0010
,
1000
0100
0010
0001
1000
0100
0110
0000
,
0010
0001
1000
0001
0100
0100
0010
0100
,
0002
0000
0000
1003
0010
1000
0001
0100
0001
1000
0000
0000
,
1001
0000
2100
0000
3001
1000
0010
0100
,
0001
0000
0201
0000
0310
0100
0001
1000
,
0100
1000
0010
0100
0001
0001
1000
1000
,
1002
0000
1003
0100
0220
0000
0330
0000
,
1002
0000
0103
0001
0010
0001
1000
0010
,
1000
0100
0001
0100
1000
0001
2000
3002
,
1003
0010
0010
0010
1000
0100
0010
0001
,
2000
0000
0000
3001
0010
0001
1000
0100
1000
0010
0000
0000
,
0100
0000
0010
0000
1000
0010
1000
0000
0100
0000
0010
0001
0010
0000
0001
0000
,
2000
0000
3002
0203
0310
0100
0001
1000
,
0001
0001
1000
1000
0010
0010
0100
0100
,
0002
0000
0000
0000
1003
0000
0100
0000
1000
0001
1000
0001
1000
0000
0000
0000
,
0001
0000
0000
0000
0000
0000
0100
0000
0000
0000
0000
0000
0001
0000
1000
0000
0001
0000
1000
0000
0001
0000
1000
0000
0001
0000
0000
0000
0100
0000
0000
0000
0010
0000
0000
0000
1010
0000
0000
0000
0000
0000
2000
0000
0000
3200
0000
0000
,
1300
0010
0000
0010
0100
0000
0001
1000
0001
0000
0100
0100
2000
0000
0000
0000
,
3001
0000
0100
0000
0010
0000
1000
0000
0000
0000
0000
0000
0100
0000
0010
0000
0001
0000
1000
0000
0000
0000
0000
0000
0001
0000
0000
0000
0000
0000
0100
0000
0000
0010
0000
0000
0110
0000
0000
0000
0000
0000
0010
0000
0000
0000
0000
0000
,
1000
0000
0000
0100
0000
0000
0000
0000
0000
0100
0000
0000
0010
0000
0000
0000
0000
0000
0001
0000
0000
0000
0000
0000
1000
0000
0000
0001
0000
0000
0020
0000
0000
0000
0000
0000
0031
0000
1000
0000
0001
0000
1000
0000
0100
0000
0010
0000
,
0001
0000
0010
0100
1000
0010
0100
0001
,
1000
0100
0001
0100
1000
0000
0001
0100
,
0010
1000
0001
0000
1001
0000
1000
0100
,
0010
0000
0002
0000
1003
0000
0010
0000
0100
0000
0100
0000
0001
1000
0001
0000
,
1001
0000
1000
0100
0010
0001
0100
0010
,
0100
0001
0010
1000
0010
0001
0100
0010
,
2000
0000
0000
0000
3001
1000
0001
1000
0001
1000
0001
1000
0002
0000
0000
0000
,
1003
0100
0001
0000
1000
0010
0001
0000
1000
0000
1000
0000
1200
0000
0000
0000
,
0301
0001
0201
0000
1300
0100
0010
0001
,
2001
0000
3001
0100
0010
2010
0000
3100
,
0010
0001
0021
0000
0031
0100
1000
0100
,
0001
0000
0000
0010
0000
0000
1000
0000
0000
0010
0000
0000
0001
0100
0001
0100
0000
0000
0010
1000
0010
1000
0000
0000
,
0100
0010
0001
0100
0010
1000
0100
0010
0001
0000
0100
0010
0110
0000
0010
1000
,
0100
0000
0010
0001
1000
0000
0002
2003
3100
0010
0001
0100
0010
0000
1000
0000
,
0001
0000
0000
0000
0000
0000
1000
0000
0100
0000
0010
0000
0001
0000
0000
0100
0000
0000
0010
0000
0000
1000
0000
0000
0001
0000
0000
0000
0000
0000
0000
0000
0000
0000
0000
0000
0100
0000
0000
0000
0000
0000
0000
0000
0000
0000
0000
0000
,
1000
0010
0001
0010
,
1000
0100
0001
0100
,
1000
0001
0010
1000
,
0001
0000
1000
0000
0001
0100
0001
0100
,
0010
1000
0010
1000
0100
0010
0100
0010
,
0001
1000
0001
1000
0001
1000
0001
1000
,
0001
1000
0001
1000
0001
1000
0001
1000
0002
0000
0000
0000
0000
0000
0000
0000
,
0000
0000
0000
0000
,
0003
0000
0000
0000
0000
0000
1000
0000
0001
1000
0000
0100
,
1000
0000
0010
1000
0000
0010
0100
0000
0100
0001
0000
0001
,
1000
0000
0000
1001
0000
0001
0100
0010
0100
0010
0000
0000
,
1000
0001
1000
0001
0000
0000
1100
0000
0000
1001
0000
0000
,
0001
0000
0000
0100
0000
0000
0010
0000
0000
1000
0000
0000
0001
0000
0000
0000
0000
0000
1100
0000
0000
0000
0010
0000
,
0001
0000
0000
0101
0000
0010
1000
0000
0001
0100
0000
0010
,
1000
0000
0000
0000
0000
0000
0000
0000
0100
0000
0000
0000
0020
0000
0000
0000
0000
0000
0000
0000
0000
0000
0000
0000
0031
0000
0000
0000
0000
0000
0000
0000
0000
0000
0000
0000
1000
0000
0000
0001
0000
0000
1000
0000
0000
0001
0000
0000
,
1000
0000
0000
0001
0000
0000
1000
0000
0000
0001
0000
0000
2000
0000
0000
0000
0000
0000
0000
0000
0000
0000
0000
0000
3001
0000
0000
0000
0100
0000
1000
0000
0000
0000
0000
0000
0001
0000
0000
0000
0010
0000
1000
0000
0000
0000
0000
0000
,
0001
0001
0100
0010
0100
0100
0010
1000
,
0100
1000
0010
0100
0001
1000
0100
0010
,
0001
0000
1000
0100
0001
0100
1000
0010
,
0100
0000
0010
0000
0100
0000
2002
0000
0000
3003
0000
0000
,
1000
0100
1000
0010
0100
0100
0001
0001
,
1000
0100
0010
0001
0100
0100
0010
0010
,
0100
0001
1000
0100
1000
0010
0001
0010
,
0100
0000
0000
0001
0000
0000
1000
0000
0000
0001
0000
0000
1000
0000
0100
0000
0010
0000
0002
0000
0000
0000
0000
0000
,
2003
0000
0000
0000
3010
1000
0010
0000
0100
0000
0001
0000
1000
0000
0001
0000
,
1000
0100
0010
0001
0100
1000
1200
0000
,
0301
0010
0010
0010
0001
0100
0010
1000
,
0002
0000
0000
1003
0100
0010
0100
1000
0010
0100
0000
0000
,
0001
0010
0100
0010
0001
1000
0001
0100
,
0001
0001
1000
1000
0001
0100
0020
2030
,
3001
1000
0010
0100
0010
0010
1000
1000
,
0001
0010
0100
1000
0001
0100
0020
0000
,
1030
0100
1000
0010
0100
0010
1000
0100
,
0010
0001
0100
0001
0010
0001
0100
0010
,
0100
0001
0010
0100
1000
0010
0100
0001
,
1000
0000
0000
0100
0000
0000
0010
0000
0000
0001
0000
0000
0100
0000
0000
0000
0010
0000
0000
0000
0100
0000
0000
0000
,
0001
0100
0001
0000
0010
0000
0100
0000
1000
0100
1000
0000
0010
0000
0100
0000
,
0001
0010
0001
0000
1000
0010
1000
0000
0001
0100
0001
0000
1000
0100
1000
0000
,
0001
0010
0001
0010
0100
1000
0100
1000
,
0001
0100
0001
0000
0100
0000
0001
0010
0001
0000
1000
0000
0200
0000
0000
0000
,
1300
0010
0100
0001
1000
0000
0100
0000
0110
0000
0010
0000
0022
0000
0033
0000
,
0001
0100
1000
0100
0001
0010
0100
1000
,
1001
0000
0000
0000
;

//--------------- dance-single - Fred-104 ----------------
#NOTEDATA:;
#STEPSTYPE:dance-single;
#DESCRIPTION:Fred-104;
#DIFFICULTY:Hard;
#METER:17;
#CREDIT:Fred-104;
#NOTES:
0000
0000
0000
0000
,
0000
0000
0000
0000
,
0000
0000
0000
0000
,
0000
0000
0000
0000
,
0000
0000
0000
0000
,
1000
0100
1000
0001
0100
0000
0010
0000
,
0100
0000
0001
1000
2002
0000
3003
0000
,
0001
0000
0010
0001
0010
0000
0001
0000
,
0100
0001
0010
0001
1000
0001
0010
0100
,
1000
0001
0100
0001
1000
0000
0110
0000
,
1000
0010
0100
0001
0010
0000
1100
0000
,
0001
0100
1000
0010
0001
0000
1010
0000
,
0001
0010
1000
0010
0100
0000
1001
0000
,
0102
0000
0000
0000
0013
0100
1000
0010
1000
0001
0100
0010
0100
0000
0001
0000
,
1000
0100
0010
0001
1000
0100
0010
0001
1000
0000
0100
0000
0110
0000
0000
0000
,
0010
0001
0010
0000
0001
0000
1000
0000
0001
0100
0001
0100
0010
1000
0100
0000
,
2000
0000
0000
3001
1000
0100
0001
1000
0010
0001
0000
0000
,
1001
0000
1200
0000
2300
3020
2030
3002
,
0203
0000
0302
0000
2003
0000
0000
0000
3002
0000
0203
0000
0301
0010
0100
0000
,
2000
0000
3020
0000
0130
0001
0100
0000
0002
0000
2003
0000
3002
0000
2003
3000
,
1002
0000
0000
0000
1003
0000
0010
0100
0002
2000
0000
0000
3003
0000
0000
0000
,
2000
0000
0000
0000
3100
1000
0100
0010
0001
0000
0100
0010
0100
0000
0001
0000
,
0100
0001
0100
0001
0010
0100
1000
0001
0100
0000
0001
0000
2000
0000
3002
0000
,
1003
0000
0100
0000
0100
0000
0100
0000
1000
0001
0100
0001
1000
0001
0010
0001
,
2000
0000
0000
3001
0010
1000
0001
0100
1000
0001
0000
0000
,
1000
0000
0010
0000
0100
0010
0100
0010
1000
0000
0001
0010
0100
0000
1000
0000
,
0002
0000
0000
0000
2003
0000
3020
0000
0130
0000
0100
0000
0001
1000
0001
0000
,
1001
1000
0001
0100
0010
0010
0100
0100
,
0002
0000
0000
0000
1003
0000
0001
0000
1000
0100
0010
0001
0020
0000
0000
0000
,
0032
0000
0000
0000
0000
0000
2003
0000
0000
0000
0000
0000
3001
0000
0100
0000
1000
0000
0100
0000
0001
0000
0010
0000
0001
0000
0000
0000
0011
0000
0000
0000
1010
0000
0000
0000
1001
0000
0000
0000
0000
0000
0002
0000
0000
0203
0000
0000
,
0301
0000
0000
0000
0000
0000
0010
0000
0000
0000
0000
0000
0000
0000
0000
0000
0000
0000
0010
0000
0000
0000
0000
0000
1001
0000
0000
0000
0000
0000
0000
0000
0000
0000
0000
0000
1000
0000
0000
0100
0000
0000
1000
0000
0000
0100
0000
0000
1000
0000
0000
0000
0000
0000
0000
0000
0000
0000
0000
0000
0002
0000
0000
0000
0000
0000
0023
0000
0000
0000
0000
0000
0031
0000
0000
0000
1000
0000
0000
0000
0010
0000
0000
0000
1000
0000
0000
0000
0100
0000
0000
0000
0010
0000
0000
0000
,
0001
0000
0000
0000
1000
0000
0000
0000
0010
0000
0000
0000
0100
0000
0000
0000
0001
0000
0000
0000
1000
0000
0000
0000
0001
0000
0000
0000
0100
0000
0000
0000
0010
0000
0000
0000
1000
0000
0000
0000
0010
0000
0000
0000
0100
0000
0000
0000
0001
0000
0000
0000
0000
0000
0000
0000
0000
0000
0000
0000
1000
0000
0000
0000
0000
0000
0001
0000
0000
0000
0000
0000
0010
0000
0000
0000
0000
0000
0001
0000
0000
1000
0000
0000
0020
0000
0000
0000
0000
0000
0230
0000
0000
0000
0000
0000
,
0301
0000
0000
0000
0000
0000
0100
0000
0000
0000
0000
0000
0000
0000
0000
0000
0000
0000
0100
0000
0000
0000
0000
0000
1001
0000
0000
0000
0000
0000
0000
0000
0000
0000
0000
0000
0001
0000
0000
0000
0000
0000
0000
0000
0000
0000
0000
0000
1000
0000
0000
0000
0000
0000
0200
0000
0000
0000
0000
0000
0320
0000
0000
0000
0000
0000
0000
0000
0000
0000
0000
0000
0031
0000
0000
0000
0010
0000
0000
0000
0100
0000
0000
0000
1000
0000
0000
0001
0000
0000
1000
0000
0000
0001
0000
0000
,
1000
0000
1000
0010
1000
0100
0010
0001
,
1000
0010
0100
0001
1000
0000
0100
0001
,
0100
1000
0010
0000
0110
0000
0001
0100
,
0001
0000
0100
0001
0010
0000
0100
0000
1000
0000
1000
0000
0001
1000
0001
1000
,
0001
0000
0000
0000
1100
0000
1000
0000
0010
0000
0010
0000
0100
0000
0100
0001
,
1000
0000
0010
0000
1000
0000
0100
0000
0010
0001
0100
0000
0010
0000
0001
0000
,
0020
0000
0000
0000
0130
0001
0100
0001
0010
0100
0010
0100
2000
0000
0000
0000
,
3001
0010
1000
0001
0100
1000
0002
0000
1003
0000
1100
0000
2100
0000
0000
0000
,
3001
0101
0102
0000
1003
1010
0001
0011
,
2000
0000
3001
0101
1000
2010
0000
3001
,
0100
0000
0010
0000
2000
0000
0000
0000
3001
0100
0001
0100
1000
0100
1000
0100
,
0001
0000
0000
0100
0000
0000
0010
0000
0000
1000
0000
0000
0100
0000
0000
0010
0000
0000
0001
0000
0000
1000
0000
0000
0001
0000
0010
0000
0100
0000
1000
0000
0100
0000
0010
0000
0001
0000
0100
0000
0010
0000
1000
0000
0010
0000
0100
0000
,
0001
0100
0001
0000
1000
0010
1000
0000
0001
0010
0001
0010
0100
1000
0100
1000
0001
0000
0000
0000
0010
0000
0100
0000
1100
0000
1000
0000
0010
0000
0100
0000
,
0001
0000
0000
0000
0000
0000
0000
0000
0000
0000
0000
0000
0000
0000
0000
0000
0000
0000
0000
0000
0000
0000
0000
0000
0100
0000
0000
0000
0000
0000
0000
0000
0000
0000
0000
0000
0001
0000
0000
0000
0000
0000
0000
0000
0000
0000
0000
0000
1000
0000
0000
0000
0000
0000
0000
0000
0000
0000
0000
0000
0001
0000
0000
0000
0000
0000
0000
0000
0000
0000
0000
0000
0020
0030
0000
0000
0000
0000
0000
0000
0000
0000
0000
0000
0020
0030
0000
0000
0000
0000
0000
0000
0000
0000
0000
0000
1000
0000
0000
0000
0000
0000
0000
0000
0000
0000
0000
0000
0100
0000
0000
0000
0000
0000
0000
0000
0000
0000
0000
0000
0010
0000
0000
0000
0000
0000
0000
0000
0000
0000
0000
0000
0001
0000
0000
0000
0000
0000
0000
0000
0000
0000
0000
0000
1000
0000
0000
0000
0000
0000
0000
0000
0010
0000
0000
0000
0000
0000
0000
0000
1000
0000
0000
0000
0000
0000
0000
0000
0100
0000
0000
0000
0000
0000
0000
0000
1000
0000
0000
0000
0000
0000
0000
0000
0001
0000
0000
0000
0000
0000
0000
0000
,
0100
0000
0000
0000
0000
0000
0000
0000
0000
0000
0000
0000
0001
0000
0000
0000
0010
0000
0000
0000
0100
0000
0000
0000
1000
0000
0000
0010
0000
0000
1000
0000
0000
0000
0000
0000
0001
0000
0000
0100
0000
0000
0001
0000
0000
0000
0000
0000
2000
0000
0000
0000
0000
0000
0000
0000
0000
0000
0000
0000
0000
0000
0000
0000
0000
0000
0000
0000
0000
0000
0000
0000
0000
0000
0000
0000
0000
0000
0000
0000
0000
0000
0000
0000
0000
0000
0000
0000
0000
0000
0000
0000
0000
0000
0000
0000
,
0000
0000
3020
0000
,
0000
0000
0230
0000
,
0000
0000
0302
0000
,
0000
0000
0000
0000
1003
0100
0010
0001
,
1000
0000
0100
0000
0010
0000
0001
0000
1000
0010
1000
0000
0001
0100
0001
0000
,
1000
0100
1000
0000
0001
0010
0001
0000
1000
0100
1000
0100
1000
0100
1000
0100
,
0010
0001
0010
0001
0010
0001
0010
0001
0020
0000
0000
0000
0000
0000
0000
0000
,
0000
0000
0000
0000
,
0030
0000
0000
0000
0000
0000
1001
0000
0001
0010
0000
0010
,
0100
0000
0100
1000
0000
1000
0010
0000
0010
0100
0000
0100
,
0001
0000
0000
0011
0000
0001
1000
0100
0010
0001
0100
0010
,
1000
0001
0010
0100
0001
0100
1000
0000
0010
0100
0000
0001
,
1000
0000
0000
0000
0000
0000
0100
0000
0000
0000
0000
0000
0010
0000
0000
0001
0000
0000
0010
0000
0000
0000
0000
0000
0011
0000
0000
0000
0000
0000
0000
0000
0000
0000
0000
0000
1001
0000
0000
0000
0000
0000
0000
0000
0001
0000
0000
0000
,
1000
0000
0010
0100
0000
0010
1000
0000
0100
0001
0000
1000
,
0010
0000
0000
0000
0000
0000
0000
0000
0001
0000
0000
0000
2000
0000
0000
0000
0000
0000
0000
0000
0000
0000
0000
0000
3001
0000
0000
0000
0000
0000
0000
0000
0000
0000
0000
0000
1000
0000
0000
0001
0000
0000
0100
0000
0000
0010
0000
0000
,
1000
0000
0000
0001
0000
0000
0100
0000
0000
0010
0000
0000
2000
0000
0000
0000
0000
0000
0000
0000
0000
0000
0000
0000
3001
0000
0000
0000
0010
0000
0100
0000
0000
0000
1000
0000
0100
0000
0000
0000
0010
0000
0001
0000
0000
0000
0000
0000
,
0001
0000
0100
0000
0010
1000
0010
0100
0010
0000
1000
0001
0010
0000
0100
0000
,
1000
0100
1000
0100
0010
0001
0010
0001
1000
0010
1000
0010
0100
0001
0100
0001
,
0100
0000
0000
0000
0002
0000
2003
0000
3002
0000
0203
0000
0310
1000
0001
0000
,
1001
0000
0000
0000
1010
0000
0000
0000
0101
0000
0000
0000
2000
0000
0000
3020
0000
0000
0230
0000
0000
0301
0000
0000
,
1001
1000
1010
0010
0200
0302
2003
3002
,
2003
0000
0000
0000
3002
0000
0013
0000
0200
0000
1300
0000
0001
0100
0001
0000
,
1000
0001
0100
0010
0120
0230
0302
2003
,
3001
0000
0000
1000
0000
0000
0010
0000
0000
0100
0000
0000
0001
0000
0000
1000
0000
0000
0100
0000
0000
0010
0000
0000
0001
0000
0000
0000
1000
0000
0000
0000
0100
0000
0000
0000
1000
0000
0000
0000
0001
0000
0000
0000
0010
0000
0000
0000
,
0200
0000
0000
0000
1300
0010
1000
0100
1000
0000
0001
0010
0100
0000
0010
0000
,
0001
1000
0100
0010
0001
1000
0100
0010
0001
0000
1000
0000
1200
0000
0000
0000
,
1300
0000
0010
0000
0010
0000
0010
0000
1000
0010
0100
0001
1000
0000
0001
0000
,
0200
0000
0000
0301
0010
1000
0001
0100
1000
0001
0000
0000
,
1000
0100
0010
0100
1001
0001
0100
0010
,
0100
0001
0100
0000
0100
0010
0100
0000
0001
0000
0100
0000
0002
0000
2003
0000
,
3001
0100
1000
0100
0001
0001
0001
0001
,
1000
0000
0100
0000
1000
0000
0010
1000
0100
0010
0001
0100
0010
1000
0100
0010
,
0001
0001
0100
0100
0010
0010
1000
1000
,
0100
0010
0100
0000
0010
0001
0010
0000
0001
1000
0001
0000
1000
0100
1000
0000
,
0010
0010
0100
0100
0001
0001
1000
1000
,
0010
0000
0000
1000
0000
0000
0010
0000
0000
0000
0000
0000
0100
0000
0000
0001
0000
0000
0100
0000
0000
0000
0000
0000
0001
0000
0000
0000
0000
0000
0000
0000
0011
0000
0000
0000
0000
0000
0000
0000
1001
0000
0000
0000
0000
0000
0000
0000
,
1000
0100
1000
0000
0100
0010
0100
0000
0010
0001
0010
0000
0001
1000
0001
0000
,
0100
0001
0100
0000
0010
1000
0010
0000
1000
0100
1000
0000
0001
0010
0001
0000
,
1000
0001
0001
0001
0010
0100
0100
0100
,
1000
0010
0100
0001
1000
0000
0001
1000
0001
0100
0010
1000
0200
0000
0000
0000
,
1300
0100
1000
0010
0100
0000
0001
0000
0011
0000
1100
0000
2002
0000
3003
0000
,
0001
0000
0010
0000
1000
0000
0100
0000
0001
0000
0010
0100
1000
0001
1000
0001
,
1001
0000
0000
0000
;

//--------------- dance-single - Fred-104† ----------------
#NOTEDATA:;
#STEPSTYPE:dance-single;
#DESCRIPTION:Fred-104†;
#DIFFICULTY:Challenge;
#METER:18;
#CREDIT:Fred-104†;
#NOTES:
0000
0000
0000
0000
,
0000
0000
0000
0000
,
0000
0000
0000
0000
,
0000
0000
0000
0000
,
0000
0000
0000
0000
,
0001
0100
1000
0010
0001
0000
1000
0000
,
0001
0100
0120
1030
,
0001
0000
1000
0100
0001
0000
0100
0000
,
0010
0001
1000
0001
0100
0010
1000
0100
,
1000
0000
0001
1000
0010
0100
0001
0000
,
1000
0000
0100
0010
0001
1000
0010
0100
,
0001
0000
0100
1000
0100
0001
0010
0000
,
0100
1000
0010
0100
0001
1000
0010
1000
,
2100
0000
0000
0000
3001
1000
0100
1000
0010
0100
0001
1000
0001
0000
0100
0000
,
0001
0010
0100
0010
0001
1000
0010
0100
0010
0000
1000
0001
1000
0000
0100
0000
,
0001
0100
1000
0000
0010
0000
0100
0000
0001
0010
0100
1000
0001
0010
0100
1000
,
0200
0000
0000
1300
0100
0100
0001
0010
0010
1000
0000
0000
,
2200
3300
0202
0303
2001
3020
0230
0301
,
0022
0000
0033
0000
2020
0000
3030
0000
0021
0000
0032
0000
1003
0100
0010
0000
,
0002
0203
2300
3200
0320
2030
3002
2003
,
3200
0000
0000
0000
0000
0000
1300
0000
0000
0001
0100
0010
2000
0000
0000
0002
0000
0000
0000
0000
0000
3003
0000
0000
,
2100
0000
0000
0000
3010
1000
0100
1000
0001
1000
0100
0010
0100
0000
1000
0000
,
0001
0100
0010
0100
0001
0010
0100
1000
0010
0000
1000
0000
1001
0000
0000
0000
,
0001
0100
0010
0000
0100
0000
0001
0000
1000
0100
1000
0010
0100
0001
1000
0100
,
0010
0000
0000
0001
0100
0100
1000
0010
0010
0001
0000
0000
,
1000
0000
0010
0000
0100
1000
0100
1000
0100
0000
0001
1000
0010
0000
0100
0000
,
0102
0000
0000
0000
2003
0000
0000
0000
3001
0000
0100
0000
1000
0100
0001
0000
,
1002
2003
3020
0230
0302
0023
2030
3020
,
0032
0000
0000
0000
1003
0000
0010
0100
0001
0000
1001
0000
1001
0000
0000
0000
,
2000
0000
0000
0000
0000
0000
3200
0000
0000
0000
0000
0000
1300
0000
0100
0000
0010
0000
1000
0000
0010
0000
0001
0000
1000
0000
0000
0000
0101
0000
0000
0000
1100
0000
0000
0000
0110
0000
0000
0000
0000
0000
0002
0000
0000
2003
0000
0000
,
3001
0000
0000
0100
0000
0000
0001
0000
0000
0100
0000
0000
0010
0000
0000
1000
0000
0000
0010
0000
0000
1000
0000
0000
0001
0000
0000
0000
0000
0000
0000
0000
0000
0000
0000
0000
1000
0000
0000
0100
0000
0000
0010
0000
0000
0001
0000
0000
1000
0000
0000
0000
0000
0000
0000
0000
0000
0000
0000
0000
0020
0000
0000
0000
0000
0000
0230
0000
0000
0000
0000
0000
0301
0000
0000
0000
0100
0000
0000
0000
0010
0000
0000
0000
1000
0000
0000
0000
0010
0000
0000
0000
0100
0000
0000
0000
,
0001
0000
0000
0000
0001
0000
0000
0000
0100
0000
0000
0000
1000
0000
0000
0000
1000
0000
0000
0000
0100
0000
0000
0000
0001
0000
0000
0000
0010
0000
0000
0000
0100
0000
0000
0000
1000
0000
0000
0010
0000
0000
0100
0000
0000
0001
0000
0000
1000
0000
0000
0000
0000
0000
0000
0000
0000
0001
0000
0000
0010
0000
0000
0100
0000
0000
0010
0000
0000
0000
0000
0000
0011
0000
0000
0000
0000
0000
0000
0000
0000
0000
0000
0000
0002
0000
0000
0000
0000
0000
2003
0000
0000
0000
0000
0000
,
3100
0000
1000
0100
0010
0000
0001
0000
0100
0000
0010
0001
0010
0000
0100
0000
0001
0000
0020
0000
0230
0000
0000
0000
1300
0001
0100
0001
1000
0010
0100
0001
,
1000
0000
1100
0100
0110
0010
0011
0001
,
0101
0001
1100
1000
1001
0000
0120
1030
,
0210
0301
0120
0030
1001
0000
2100
3010
,
0100
0000
0001
0010
0100
0000
0001
0000
0100
0000
1000
0000
0001
1000
0010
1000
,
0100
0000
0000
0000
1000
0100
0010
0001
1000
0000
0001
0100
0001
0000
0010
0000
,
0001
0100
1000
0001
0010
1000
0100
0001
,
2000
0000
0000
0000
3010
0001
0010
0001
1000
0001
0100
0010
2000
0000
0000
0000
,
3001
0100
1000
0001
0010
1000
1001
0000
1100
0000
0100
0000
0120
0000
0000
0000
,
0031
0101
0210
0000
0310
2100
3010
0102
,
0023
0000
0031
0100
0010
2010
0000
3100
,
0010
0000
0001
0000
2001
0000
0000
0000
3001
0100
1000
0100
0001
0010
1000
0010
,
0001
0000
0000
0100
0000
0000
0010
0000
0000
1000
0000
0000
0010
0000
0000
0100
0000
0000
0001
0000
0000
1000
0000
0000
0001
0000
0010
0000
0100
0000
1000
0000
0010
0000
1000
0000
0100
0000
1000
0000
0010
0000
0100
0000
0001
0000
1000
0000
,
0100
1000
0100
1000
0001
0100
0001
0100
0001
0010
0001
0010
0100
1000
0001
0010
0100
0000
0000
0000
1000
0000
0010
0000
0110
0000
0100
0000
0001
0000
1000
0000
,
0001
0000
0000
0000
0000
0000
0000
0000
0000
0000
0000
0000
0100
0000
0000
0000
0000
0000
0010
0000
0000
0000
0000
0000
1010
0000
0000
0000
0000
0000
1000
0000
0000
0001
0000
0000
0200
0000
0000
0000
0000
0000
0320
0000
0000
0000
0000
0000
1030
0000
0000
0000
0010
0000
0000
0000
1000
0000
0000
0000
0100
0000
0000
0000
0010
0000
0000
0000
0001
0000
0000
0000
0100
0000
0000
0000
1000
0000
0000
0000
0100
0000
0000
0000
0001
0000
0000
0000
0010
0000
0000
0000
0100
0000
0000
0000
,
0010
0000
0000
0000
0000
0000
0000
0000
0001
0000
0000
0000
0000
0000
0000
0000
1000
0000
0000
0000
0000
0000
0000
0000
0001
0000
0000
0000
0000
0000
0000
0000
0200
0300
0000
0000
0000
0000
0000
0000
0200
0300
0000
0000
0000
0000
0000
0000
1000
0000
0000
0000
0000
0000
0010
0000
0000
0000
0000
0000
1000
0000
0000
0000
0000
0000
0001
0000
0000
0000
0000
0000
0010
0000
0000
0000
0000
0000
0100
0000
0000
0000
0000
0000
1000
0000
0000
0000
0000
0000
0001
0000
0000
0000
0000
0000
2000
0000
0000
0000
0000
0000
0000
0000
0000
0000
0000
0000
0000
0000
0000
0000
0000
0000
0000
0000
0000
0000
0000
0000
0000
0000
0000
0000
0000
0000
0000
0000
0000
0000
0000
0000
0000
0000
0000
0000
0000
0000
0000
0000
0000
0000
0000
0000
0000
0000
0000
0000
0000
0000
0000
0000
0000
0000
0000
0000
0000
0000
0000
0000
0000
0000
0000
0000
0000
0000
0000
0000
0000
0000
0000
0000
0000
0000
0000
0000
0000
0000
0000
0000
0000
0000
0000
0000
0000
0000
0000
0000
0000
0000
0000
0000
,
0000
0000
3002
0000
,
0000
0000
2003
0000
,
3002
0000
2003
0000
,
3002
0000
0000
0000
1003
0001
0010
0100
,
1000
0000
0010
0000
0100
0000
0001
0000
1000
0100
0010
0001
1000
0001
0100
0010
,
1000
0010
0100
0001
1000
0001
0010
0100
1000
0010
0100
0001
0010
0100
1000
0010
,
0100
0001
1000
0010
1000
0100
0010
0100
2000
0000
0000
0000
0000
0000
0000
0000
,
0000
0000
0000
0000
,
3000
0000
0000
0000
0000
0000
1100
0000
1000
0010
0000
0001
,
1000
0000
0100
0001
0000
1000
0010
0000
0001
1000
0000
0100
,
0002
0000
0000
1003
0000
0001
0010
0100
1000
0001
0100
1000
,
0100
0001
0010
1000
0010
0001
1000
0010
0100
1000
0100
0010
,
1000
0000
0000
0000
0000
0000
0100
0000
0000
0010
0000
0000
0001
0000
0000
1000
0000
0000
0001
0000
0000
0000
0000
0000
1001
0000
0000
0000
0000
0000
0000
0000
0000
0000
0000
0000
0011
0000
0000
0000
0000
0000
0000
0000
0100
0000
0000
0000
,
1000
0000
0001
0010
0000
1000
0001
0000
0100
1000
0000
0001
,
0010
0000
0000
0000
0000
0000
0000
0000
1000
0000
0000
0000
0002
0000
0000
0000
0000
0000
0000
0000
0000
0000
0000
0000
2003
0000
0000
0000
0000
0000
0000
0000
0000
0000
0000
0000
3001
0000
0000
0010
0000
0000
0100
0000
0000
1000
0000
0000
,
0010
0000
0000
1000
0000
0000
0100
0000
0000
0010
0000
0000
0002
0000
0000
0000
0000
0000
0000
0000
0000
0000
0000
0000
1003
0000
0000
0000
0100
0000
0001
0000
0000
0000
1000
0000
0010
0000
0000
0000
0001
0000
1001
0000
0000
0000
0000
0000
,
1000
0000
0100
0000
1000
0001
0010
0001
0100
0000
0001
0010
1000
0000
0010
0000
,
0001
0100
0010
1000
0100
0010
0001
1000
0010
0100
0001
0010
0100
0010
0001
0100
,
1000
0000
0200
0302
2003
3002
0203
0320
,
1030
0000
0000
0000
1010
0000
0000
0000
0101
0000
0000
0000
2002
0000
0000
0000
0000
0000
0000
0000
0000
3003
0000
0000
,
2100
0000
3010
0000
0102
0000
0013
0000
2000
0000
3200
0000
0320
0000
0032
0003
,
0012
0000
1003
0000
2010
0000
3001
0000
2000
0000
3020
0000
0031
0010
0200
0000
,
0302
0000
0203
0000
0320
0000
2030
3000
2100
0000
3020
0000
2030
0000
3002
0000
,
1003
0000
0000
0100
0000
0000
0010
0000
0000
0001
0000
0000
0100
0000
0000
0010
0000
0000
1000
0000
0000
0100
0000
0000
1000
0000
0000
0000
0010
0000
0000
0000
0010
0000
0000
0000
0001
0000
0000
0000
0100
0000
0000
0000
0100
0000
0000
0000
,
2000
0000
0000
0000
3001
1000
0100
0010
0001
0100
0010
0001
0010
0000
1000
0000
,
0001
1000
0001
0100
1000
0100
0010
1000
0001
0000
1000
0000
1001
0000
0000
0000
,
1000
0010
0100
0000
0010
0000
1000
0000
0001
0100
0010
0100
1000
0100
0010
1000
,
0002
0000
0000
1003
0100
0001
1000
0010
0001
1001
0000
0000
,
1000
0001
0100
0010
0210
0301
1000
0100
,
1000
0100
0001
0000
1000
0010
0001
0000
2000
0000
3002
0000
0203
0000
0320
0000
,
2030
3200
0302
0203
0320
0032
2003
3002
,
1003
0000
1100
0000
0010
0000
0001
1000
0002
0000
0000
0000
0000
0000
0000
0000
,
1003
0100
1000
0100
0010
0001
0010
0001
1000
0010
1000
0010
0100
0001
0100
0001
,
1000
0100
0001
0100
0010
0001
1000
0001
,
0010
0001
0010
0001
1000
0010
1000
0010
0100
0001
0100
0001
0010
0100
0010
0100
,
1000
0000
0000
0010
0000
0000
0100
0000
0000
0001
0000
0000
0010
0000
0000
0100
0000
0000
1000
0000
0000
0001
0000
0000
1000
0000
0000
0000
0000
0000
0000
0000
1100
0000
0000
0000
0000
0000
0000
0000
0110
0000
0000
0000
0000
0000
0000
0000
,
0010
0001
0010
0001
1000
0001
1000
0001
0100
0010
0100
0010
1000
0010
1000
0010
,
1000
0100
0010
0001
0100
0010
1000
0001
0010
0100
0010
0001
0100
0010
0100
0001
,
1000
0000
0000
0000
0000
0000
0000
0000
0000
0000
0000
0000
0000
0000
0000
0000
0000
0000
0000
0000
0000
0000
0000
0000
0200
0300
0000
0000
0000
0000
0000
0000
0000
0000
0000
0000
0000
0000
0000
0000
0000
0000
0000
0000
0000
0000
0000
0000
0200
0300
0000
0000
0000
0000
0000
0000
0000
0000
0000
0000
0000
0000
0000
0000
0000
0000
0000
0000
0000
0000
0000
0000
0001
0000
0000
0000
0000
0000
0000
0000
0000
0000
0000
0000
0000
0000
0000
0000
0000
0000
0000
0000
0000
0000
0000
0000
1000
0000
0000
0000
0000
0000
0000
0000
0000
0000
0000
0000
0000
0000
0000
0000
0000
0000
0000
0000
0000
0000
0000
0000
0001
0000
0000
0000
0000
0000
0000
0000
0000
0000
0000
0000
0000
0000
0000
0000
0000
0000
0000
0000
0000
0000
0000
0000
0020
0030
0000
0000
0000
0000
0000
0000
0000
0000
0000
0000
0000
0000
0000
0000
0000
0000
0000
0000
0000
0000
0000
0000
0020
0030
0000
0000
0000
0000
0000
0000
0000
0000
0000
0000
0000
0000
0000
0000
0000
0000
0000
0000
0000
0000
0000
0000
,
1000
0010
1000
0100
0010
0001
0100
0010
1000
0100
0001
0100
2000
0000
0000
0000
,
3001
0010
1000
0100
0001
0000
0100
0000
0110
0000
1010
0000
2002
0000
3003
0000
,
1000
0000
0010
0001
0100
0000
1000
0000
0001
0000
0100
1000
0001
0010
1000
0002
,
0003
0000
0000
0000
;

//--------------- dance-double - Fred-104 ----------------
#NOTEDATA:;
#STEPSTYPE:dance-double;
#DESCRIPTION:Fred-104;
#DIFFICULTY:Easy;
#METER:12;
#CREDIT:Fred-104;
#NOTES:
00000000
00000000
00000000
00000000
,
00000000
00000000
00000000
00000000
,
00000000
00000000
00000000
00000000
,
00000000
00000000
00000000
00000000
,
00000000
00000000
00000000
00000000
,
01000000
00100000
01000000
00000000
00010000
00000000
10000000
00000000
,
01000000
00100000
00220000
00330000
,
00100000
00001000
00010000
00001000
,
00000010
00001000
00010000
00000000
00001000
00100000
00010000
00000000
,
00100000
00100000
10000000
10000000
,
01000000
01000000
00010000
00010000
,
00001000
00000100
00000001
00000010
,
00000001
00000100
00001000
00000000
,
00011000
00000000
00001000
00100000
00010000
00100000
00010000
00000000
,
01000000
00100000
01000000
00000000
00010000
00000000
10000000
00000000
,
01000000
00000000
00100000
00000000
01000000
00100000
00001000
00000000
,
00020000
00031000
00010000
00011000
,
00020000
00000000
00030200
00000000
00001300
00000100
00001000
00000000
,
00000020
00000000
00000230
00000000
00000301
00000100
00000001
00000000
,
00000010
00000100
00001000
00000100
,
00010000
00001000
00022000
00033000
,
00002000
00000000
00203000
00000000
00310000
10000000
00010000
00000000
,
20000000
00000000
32000000
00000000
03010000
01000000
00010000
00000000
,
02000000
00000000
23000000
00000000
30100000
01000000
00100000
00000000
,
01000000
00001000
00022000
00033000
,
00010000
00000100
00010000
00000100
,
00001000
00000000
00000100
00000000
00000010
00000100
00000010
00000000
,
00000001
00000010
00001000
00010000
,
01000000
00000000
10000000
00010000
20000000
00000000
30000000
00000000
,
00100000
00000000
00000000
00000000
00000000
00000000
01000000
00000000
00000000
00000000
00000000
00000000
00200000
00000000
00000000
00000000
00000000
00000000
00000000
00000000
00000000
00000000
00000000
00000000
10300000
00000000
00000000
00000000
01000000
00000000
00000000
00000000
00100000
00000000
00000000
00000000
01000000
00000000
00000000
00000000
00000000
00000000
10000000
00000000
00000000
00100000
00000000
00000000
,
00010000
00001000
00011000
00010000
01000000
10000000
00020000
00000000
,
01030000
00001000
00010000
00001000
00000010
00000001
00001001
00000000
,
00000001
00000010
00000000
00000010
00000100
00000000
00000010
00000000
00000001
00000100
00001000
00000000
00020000
00000000
00032000
00000000
,
00013000
00001000
00100000
00001000
,
00010000
00001000
01000000
00001000
00010000
00000000
00001000
00010000
,
00000100
00001000
00000100
00000000
00000110
00000000
00000010
00000001
,
00001000
00000000
00000001
00000000
00000100
00000010
00000100
00000000
,
00000110
00000010
00001000
00000100
,
00010000
00001000
00010000
00000000
00001000
01000000
00001000
00000000
,
00010000
00000000
01000000
00000000
10000000
00010000
10000000
00000000
,
20020000
00000000
00000000
30030000
10000000
00000000
02000000
00000000
,
03010000
00002000
00003010
00000001
,
00000200
00000000
00001300
00000000
00022000
00000000
00033000
00010000
,
00000000
00000000
00002000
00003000
00011000
00000000
00100000
00000000
,
00001000
00000000
00010000
00000000
00001000
00010000
01000000
00100000
,
00001000
00010000
01000000
00100000
00001000
00010000
00011000
00000000
,
00010000
00000000
00000100
00000000
00001000
00000000
00000010
00000100
00000010
00000000
00001000
00000000
00001001
00000000
00000000
00000000
,
00000001
00000000
00000100
00000000
00000010
00001000
00000010
00000000
00002000
00000000
00000000
00000000
00000000
00000000
00000000
00000000
,
00023000
00000000
00032000
00000000
,
00023000
00000000
00032000
00000000
,
00023000
00000000
00032000
00000000
,
00023000
00000000
00031000
00010000
,
00001000
00010000
00001000
00010000
,
00001000
00000000
00010000
00000000
00001000
00010000
00001000
00010000
,
00001000
00010000
00001000
00010000
00002000
00000000
00000000
00000000
,
00000000
00000000
00000000
00000000
,
00003000
00000000
00011000
00001000
,
00100000
00010000
10000000
00100000
,
01000000
00010000
10000000
00010000
,
00100000
00010000
10000000
01000000
,
10000000
00100000
10000000
00000000
11000000
00000000
01000000
00000000
,
00100000
00001000
00010000
00001000
,
00000010
00000002
00001003
00000001
,
00000100
00000010
00000100
00000000
00002002
00000000
00000000
00003003
,
00001100
00000010
00000101
00000010
,
00002000
00003200
00020300
00032000
,
00013000
00000000
00001000
00000000
00100000
00010000
00100000
00000000
,
00010000
00000000
10000000
00000000
00010000
00000000
20020000
00000000
00000000
30030000
00000000
00000000
,
02000000
00000000
03020000
00000000
00031000
00010000
00001000
00000000
,
00020000
00000000
00230000
00000000
00310000
00001000
00010000
00000000
,
00001000
00000000
00000010
00000000
00001000
00010000
00001000
00000000
,
00010000
00001000
00010000
00100000
00020000
00000000
00032000
00000000
,
00013000
00000000
00001000
00010000
00000100
00000000
00001000
00000000
,
00000010
00000100
00000010
00000000
00001000
00000100
00001000
00000000
,
00000001
00000100
00000010
00000000
00001000
00000100
00010000
00000000
,
00001000
00010000
00001000
00101000
,
00011000
00000000
01000000
00001000
,
00010000
00000000
00000010
00001000
,
00000100
00010000
00001000
01000000
,
00100000
01000000
00100000
00000000
10000000
00010000
10000000
00000000
,
00010000
01000000
10000000
00100000
,
00010000
00001000
00000100
00000001
,
00000010
00001000
00010000
01000000
,
10000000
00000000
00000000
00100000
00000000
00000000
00010000
00000000
00010000
00000000
00010000
00000000
,
00001000
00000100
00000001
00000010
,
00001000
00010000
01000000
10000000
,
00010000
10000000
00010000
00000000
01000000
00100000
01000000
00000000
,
10000000
00100000
01000000
00100000
10000000
00010000
20000000
00000000
,
30010000
00100000
10000000
01000000
00010000
00001000
00011000
00000000
,
00010000
00000000
00001000
00000000
00000010
00000000
00000001
00000000
00000100
00000000
00001000
00000000
00010000
00001000
00010000
00002000
,
00003000
00000000
00000000
00000000
;

//--------------- dance-double - Fred-104 ----------------
#NOTEDATA:;
#STEPSTYPE:dance-double;
#DESCRIPTION:Fred-104;
#DIFFICULTY:Medium;
#METER:15;
#CREDIT:Fred-104;
#NOTES:
00000000
00000000
00000000
00000000
,
00000000
00000000
00000000
00000000
,
00000000
00000000
00000000
00000000
,
00000000
00000000
00000000
00000000
,
00000000
00000000
00000000
00000000
,
00000010
00001000
00000001
00001000
00000001
00000000
00000100
00000000
,
00000010
00001000
00022000
00033000
,
00001000
00000000
00010000
00100000
10000000
00000000
00010000
00000000
,
01000000
00100000
10000000
00100000
01000000
00100000
10000000
00000000
,
00100000
10000000
00100000
00000000
01000000
00000000
10010000
00000000
,
01000000
01000000
00000000
00010000
,
00001000
00000000
00000100
00000000
00000001
00001000
00000010
00000000
,
00000001
00000100
00001001
00000000
,
00001001
00000000
00000001
00000100
00000001
00000100
00001000
00000100
,
00001000
00010000
00001000
00010000
01000000
10000000
10010000
00000000
,
10000000
00100000
01000000
00010000
00100000
00100000
01000000
01000000
,
20000000
00000000
00000000
31000000
00100000
01000000
00100000
00001000
00010000
00001000
00000000
00000000
,
00011000
00000000
00020010
00000000
00031000
00010000
00000010
00001000
,
00000100
00000000
00021000
00000000
00031000
00100000
00010000
01000000
,
00010000
00100000
01000000
00100000
00010000
00010000
10000000
10000000
,
10200000
00000000
01300000
00010000
20020000
00000000
30030000
00000000
,
01100000
00000000
01000000
00010000
00100000
00010000
10000000
00100000
,
10000000
01000000
00010000
00001000
00010000
00100000
20000000
30020000
,
10030000
01000000
01000000
01000000
10000000
00100000
00010000
00001000
,
00000200
00000000
00000000
00000301
00001000
00000001
00000010
00000100
00000010
00000001
00000000
00000000
,
00000100
00000000
00000010
00000000
00001000
00000010
00001000
00000000
00000100
00000000
00010000
00001000
00010000
00000000
00001000
00000000
,
02000000
00000000
03200000
02300000
03010000
10000000
01000000
10000000
,
00100000
01000000
00010000
00100000
00001000
00001000
00010000
00010000
,
00002000
00000000
00013000
00001000
00010000
00010000
00011000
00000000
,
00001000
00000000
00000000
00000000
00000000
00000000
00000001
00000000
00000000
00000000
00000000
00000000
00000100
00000000
00000010
00000000
00000100
00000000
00000010
00000000
00000100
00000000
00000010
00000000
00000100
00000000
00000000
00000000
00000001
00000000
00000000
00000000
00001000
00000000
00000000
00000000
00001001
00000000
00000000
00000000
00000000
00000000
00000002
00000000
00000000
00000203
00000000
00000000
,
00000301
00000010
00000000
00000010
00000100
00000000
00010000
00001000
00010000
00000000
00001000
00010000
00200000
00000000
00000000
00000000
,
10300000
00000000
01000000
00000000
00100000
00000000
00010000
00000000
00000000
00000000
00000000
00000000
10000000
00000000
01000000
00000000
00100000
00000000
00010000
00000000
00000000
00000000
00000000
00000000
00001000
00000000
00000000
00000000
00000000
00000000
00010000
00000000
00000000
00001000
00000000
00000000
00011000
00000000
00000000
00000000
00000000
00000000
00010000
00000000
00000000
00000000
00000000
00000000
,
00000100
00000000
00000000
00001000
00000000
00000000
00000000
00000000
00000000
00001000
00000000
00000000
00000100
00000000
00000000
00000000
00000000
00000000
00000010
00000000
00000000
00000000
00000000
00000000
00000001
00000000
00000000
00000100
00000000
00000000
00000020
00000000
00000000
00000000
00000000
00000000
00001030
00000000
00000010
00000000
00001000
00000000
00000100
00000000
00010000
00000000
00001000
00000000
,
00100000
00000000
00001000
00010000
00001000
00000010
00001000
00010000
,
00001000
00000100
00001000
00010000
01000000
00000000
00010000
00001000
,
00010000
00100000
00010000
00000000
00011000
00000000
00001000
00000100
,
00001000
00000000
00000020
00000000
00000130
00000000
00000001
00000000
00001000
00000000
00001000
00000000
00000001
00001000
00000001
00000000
,
00001001
00000000
00000001
00000100
00001000
00010000
00000100
00000010
,
00000001
00000100
00001000
00010000
00100000
10000000
00010000
10000000
,
00020000
00000000
00000000
00000000
10030000
00010000
10000000
00000000
00010000
10000000
00010000
10000000
00020000
00000000
00000000
00000000
,
10030000
01000000
00100000
00000000
00001000
00010000
00100000
00000000
10000000
00000000
01000000
00000000
00200000
00000000
00000000
00000000
,
00301000
00010000
00002000
00000000
00013000
00001000
00000010
00000001
,
00002000
00000000
00003001
00000100
00001000
00020000
00000000
00130000
,
10000000
00010000
20000000
00000000
30100000
01000000
00010000
00100000
,
00001000
00000000
00000000
00010000
00000000
00000000
00000100
00000000
00000000
00010000
00000000
00000000
00001000
00010000
00001000
00010000
00000000
00000000
00000100
00001000
00000001
00001000
00000000
00000000
,
00000010
00001000
00000100
00000010
00000100
00001000
00000001
00000100
00000010
00000000
00001000
00000010
00001010
00000000
00001000
00000100
,
00000001
00000000
00000100
00001000
00000010
00000000
00020000
00032000
00013000
00001000
00100000
00001000
00010000
00000000
00001000
00000000
,
00100000
00000000
00000000
00000000
00000000
00000000
00010000
00000000
00100000
00000000
01000000
00000000
00100000
00000000
00000000
00010000
00000000
00000000
10000000
00000000
00000000
00010000
00000000
00000000
10000000
00000000
00000000
00000000
00000000
00000000
00000000
00000000
00000000
00000000
00000000
00000000
01000000
00000000
00000000
00000000
00000000
00000000
00000000
00000000
00000000
00000000
00000000
00000000
,
00010000
00100000
10000000
01000000
,
00010000
00001000
00000010
00000001
,
00000100
00001000
00010000
00000100
,
00000010
00000000
00000001
00000000
00001000
00000100
00001000
00000001
,
00000010
00000001
00000100
00000010
00001000
00000100
00010000
00001000
,
00100000
00010000
10000000
00010000
01000000
00100000
01000000
00100000
,
01000000
00100000
01000000
00100000
01000000
00100000
01000000
00100000
02000000
00000000
00000000
00000000
00000000
00000000
00000000
00000000
,
00000000
00000000
00000000
00000000
,
03000000
00000000
00000000
00000000
00000000
00000000
10000000
00000000
10000000
01000000
00000000
01000000
,
00100000
00000000
00100000
00001000
00000000
00001000
00010000
00000000
00010000
00000100
00000000
00000100
,
00001000
00000000
00000000
00001001
00000000
00000001
00000010
00000001
00000010
00000001
00000000
00000000
,
00001000
00000100
00001000
00000100
00000000
00000000
00011000
00000000
00000000
00010010
00000000
00000000
,
00010000
00000000
00000000
00001000
00000000
00000000
00100000
00000000
00000000
00001000
00000000
00000000
00010000
00000000
00000000
00000000
00000000
00000000
00101000
00000000
00000000
00000000
00100000
00000000
,
01000000
00000000
00000000
01100000
00000000
00010000
10000000
00000000
10000000
01000000
00000000
01000000
,
00100000
00000000
00000000
00000000
00000000
00000000
00000000
00000000
00001000
00000000
00000000
00000000
00020000
00000000
00000000
00000000
00000000
00000000
00000000
00000000
00000000
00000000
00000000
00000000
00031000
00000000
00000000
00000000
00000000
00000000
00000000
00000000
00000000
00000000
00000000
00000000
00010000
00000000
00000000
00001000
00000000
00000000
00010000
00000000
00000000
00000000
00000000
00000000
,
00001000
00000000
00000000
00010000
00000000
00000000
00001000
00000000
00000000
00010000
00000000
00000000
00002000
00000000
00000000
00000000
00000000
00000000
00000000
00000000
00000000
00000000
00000000
00000000
00013000
00000000
00000000
00000000
00100000
00000000
01000000
00000000
00000000
00000000
00000000
00000000
00100000
00000000
00000000
00000000
00001000
00000000
00010000
00000000
00000000
00000000
00000000
00000000
,
00001000
00001000
00010000
00000100
00001000
00001000
00000010
00000100
,
00000001
00000010
00001000
00010000
01000000
10000000
00010000
00000000
,
10000000
00000000
00010000
00100000
01000000
00100000
00010000
00001000
,
00000010
00000000
00000100
00000000
00000010
00000000
00002020
00000000
00000000
00003030
00000000
00000000
,
00001000
00000000
00010000
00001000
00010000
00010000
00001000
00001000
,
00100000
00010000
10000000
00100000
01000000
01000000
00100000
00100000
,
10000000
01000000
00100000
01000000
00100000
00001000
00010000
00000100
,
00001000
00000000
00000000
00000010
00000000
00000000
00000100
00000000
00000000
00000001
00000000
00000000
00000100
00000000
00000010
00000000
00001000
00000000
00000002
00000000
00000000
00000000
00000000
00000000
,
00000203
00000000
00000000
00000000
00000310
00000100
00000010
00000000
00001000
00000000
00000001
00000000
00000100
00000000
00000010
00000000
,
00001000
00000100
00010000
00001000
00010000
01000000
01200000
00000000
,
10300000
00100000
00100000
00100000
10000000
00010000
01000000
00010000
,
00200000
00000000
00000000
00301000
00010000
00001000
00100000
00001000
00010000
00000100
00000000
00000000
,
00001000
00000010
00000100
00000010
00001000
00000100
00000010
00000001
,
00000100
00000100
00001000
00001000
00010000
00100000
20000000
30020000
,
10030000
01000000
00100000
01000000
10000000
10000000
00100000
00100000
,
01000000
00010000
00100000
00001000
00010000
00001000
02000000
00000000
,
03001000
00010000
00001000
00100000
00001000
00010000
00000100
00001000
,
00000100
00000010
00000001
00000100
00000010
00001000
00000100
00010000
,
00001000
00100000
00010000
10000000
00100000
01000000
00010000
10000000
,
01000000
00000000
00000000
00100000
00000000
00000000
00010000
00000000
00000000
01000000
00000000
00000000
00100000
00000000
00000000
00000000
00100000
00000000
00000000
00000000
00100000
00000000
00000000
00000000
,
10000000
01000000
10000000
00000000
01000000
00000000
00100000
00000000
01000000
00100000
01000000
00000000
00001000
00000000
00010000
00000000
,
00000100
00001000
00000100
00000000
00010000
00001000
00010000
00000000
00000010
00001000
00000010
00000000
00000100
00000001
00000100
00000000
,
00000001
00000010
00000001
00000100
00000010
00001000
00000100
00010000
,
00001000
00010000
00001000
00000000
00100000
00000000
00001000
00010000
00001000
00000000
00000010
00000000
00002000
00000000
00000000
00000000
,
00003010
00001000
00000100
00000010
00000001
00000000
00000100
00000000
00001000
00000000
00010000
00000000
00022000
00000000
00033000
00000000
,
00001000
00000000
00010000
00000000
00100000
00000000
10000000
00000000
01000000
00000000
00010000
00000000
00001000
00000010
00000001
00002000
,
00003000
00000000
00000000
00000000
;

//--------------- dance-double - Fred-104 ----------------
#NOTEDATA:;
#STEPSTYPE:dance-double;
#DESCRIPTION:Fred-104;
#DIFFICULTY:Hard;
#METER:17;
#CREDIT:Fred-104;
#NOTES:
00000000
00000000
00000000
00000000
,
00000000
00000000
00000000
00000000
,
00000000
00000000
00000000
00000000
,
00000000
00000000
00000000
00000000
,
00000000
00000000
00000000
00000000
,
00001000
00010000
00001000
00000010
00001000
00000000
00010000
00000000
,
00001000
00000000
00010000
01000000
22000000
00000000
33000000
00000000
,
00010000
00000000
01000000
10000000
00100000
00000000
00010000
00000000
,
00001000
00000010
00000100
00000010
00001000
00010000
00100000
00000000
,
01000000
10000000
00100000
01000000
00010000
10000000
00010000
00100000
,
01000000
10000000
00010000
01000000
00001000
00010000
00000010
00001000
,
00000001
00000100
00000010
00001000
00000100
00001000
00000010
00000100
,
00001000
00010000
00001000
00010000
01000000
10000000
00010000
00000000
,
10020000
00000000
00000000
00000000
01030000
00100000
01000000
00000000
00010000
01000000
00010000
01000000
00001000
00000000
00010000
00000000
,
00000100
00010000
00001000
00000000
00010000
00001000
00010000
00001000
00100000
00000000
00010000
00000000
10010000
00000000
00000000
00000000
,
10000000
01000000
10000000
00000000
01000000
00000000
00100000
00000000
00001000
00010000
00001000
00010000
00000100
00010000
00001000
00000000
,
00020000
00000000
00000000
00031000
00000010
00001000
00010000
00100000
00010000
00001000
00000000
00000000
,
00011000
00000000
00010020
00000000
00001030
00000100
00000100
00000100
,
00002000
00000000
00003200
00000000
00000320
00000000
00000000
00000000
00000032
00000000
00002003
00000000
00003001
00001000
00000010
00000000
,
00001000
00000000
00000010
00000000
00000001
00000010
00000100
00000000
00000001
00000000
00001000
00000000
00000001
00000000
00001000
00000000
,
00000020
00000000
00000000
00000000
00010030
00000000
00001000
00020000
00002000
00000000
00000000
00000000
00033000
00000000
00000000
00000000
,
00002000
00000000
00000000
00000000
00103000
00001000
00010000
00001000
00100000
00000000
01000000
00010000
10000000
00000000
00010000
00000000
,
01000000
00010000
01000000
00010000
01000000
00100000
01000000
00100000
01000000
00000000
00010000
00000000
20000000
00000000
30020000
00000000
,
10030000
00000000
10000000
00000000
00010000
00000000
00010000
00000000
10000000
00010000
01000000
00010000
00100000
00001000
00010000
00001000
,
00020000
00000000
00000000
00031000
00000100
00001000
00010000
01000000
00010000
00001000
00000000
00000000
,
00010000
00000000
00001000
00000000
00000010
00000100
00000010
00000100
00000010
00000000
00001000
00010000
00001000
00000000
00100000
00000000
,
02000000
00000000
00000000
00000000
03200000
00000000
00000000
00000000
00310000
00000000
00001000
00000000
00010000
00001000
00010000
00000000
,
00011000
00001000
00010000
00000100
00001000
00001000
00000001
00000001
,
00002000
00000000
00000000
00000000
00003001
00000000
00000100
00000000
00000001
00000010
00000100
00001000
00000020
00000000
00000000
00000000
,
00020030
00000000
00000000
00000000
00000000
00000000
00032000
00000000
00000000
00000000
00000000
00000000
00013000
00000000
00001000
00000000
00010000
00000000
00000100
00000000
00001000
00000000
00000100
00000000
00010000
00000000
00000000
00000000
00001000
00000000
00000000
00000000
01000000
00000000
00000000
00000000
01100000
00000000
00000000
00000000
00000000
00000000
00020000
00000000
00000000
20030000
00000000
00000000
,
30010000
00000000
00000000
00000000
00000000
00000000
01000000
00000000
00000000
00000000
00000000
00000000
00000000
00000000
00000000
00000000
00000000
00000000
01000000
00000000
00000000
00000000
00000000
00000000
01100000
00000000
00000000
00000000
00000000
00000000
00000000
00000000
00000000
00000000
00000000
00000000
10000000
00000000
00000000
00100000
00000000
00000000
10000000
00000000
00000000
00100000
00000000
00000000
10000000
00000000
00000000
00000000
00000000
00000000
00000000
00000000
00000000
00000000
00000000
00000000
02000000
00000000
00000000
00000000
00000000
00000000
03200000
00000000
00000000
00000000
00000000
00000000
00301000
00000000
00000000
00000000
00010000
00000000
00000000
00000000
00001000
00000000
00000000
00000000
00000010
00000000
00000000
00000000
00001000
00000000
00000000
00000000
00010000
00000000
00000000
00000000
,
00100000
00000000
00000000
00000000
00010000
00000000
00000000
00000000
00001000
00000000
00000000
00000000
00000100
00000000
00000000
00000000
00001000
00000000
00000000
00000000
00010000
00000000
00000000
00000000
01000000
00000000
00000000
00000000
00010000
00000000
00000000
00000000
01000000
00000000
00000000
00000000
00010000
00000000
00000000
00000000
00001000
00000000
00000000
00000000
00000100
00000000
00000000
00000000
00001000
00000000
00000000
00000000
00000000
00000000
00000000
00000000
00000000
00000000
00000000
00000000
00010000
00000000
00000000
00000000
00000000
00000000
00001000
00000000
00000000
00000000
00000000
00000000
00000010
00000000
00000000
00000000
00000000
00000000
00000001
00000000
00000000
00000010
00000000
00000000
00002000
00000000
00000000
00000000
00000000
00000000
00003020
00000000
00000000
00000000
00000000
00000000
,
00000031
00000000
00000000
00000100
00000000
00000000
00000000
00000000
00000000
00000100
00000000
00000000
00001100
00000000
00000000
00000000
00000000
00000000
00010000
00000000
00000000
00000000
00000000
00000000
00001000
00000000
00000000
00100000
00000000
00000000
00020000
00000000
00000000
00000000
00000000
00000000
01030000
00000000
00010000
00000000
00100000
00000000
01000000
00000000
10000000
00000000
00100000
00000000
,
10000000
00000000
00010000
10000000
01000000
00010000
00001000
00000010
,
00000001
00001000
00000001
00000100
00000010
00000000
00001000
00000100
,
00000001
00000100
00010000
00000000
00011000
00000000
00001000
00100000
,
01000000
00000000
10000000
00010000
10000000
00000000
01000000
00000000
00100000
00000000
00100000
00000000
00001000
00010000
00001000
00010000
,
00001000
00000000
00000000
00000000
00011000
00000000
00010000
00000000
00000100
00000000
00000100
00000000
00001000
00000000
00000001
00000010
,
00000100
00000000
00001000
00000000
00000010
00000000
00000100
00000000
00001000
00000100
00000010
00000000
00001000
00000000
00000100
00000000
,
00000020
00000000
00000000
00000000
00000031
00001000
00000001
00001000
00000010
00010000
00001000
00100000
00020000
00000000
00000000
00000000
,
10030000
01000000
00010000
00001000
00000010
00000001
00002000
00000000
00003001
00000000
00000100
00000000
00020000
00000000
00000000
00000000
,
00031000
01000000
20000000
00000000
30100000
00001000
00000010
00001000
,
00020000
00000000
00031000
00000100
00000001
00000200
00000000
00010300
,
00001000
00000000
00010000
00000000
00012000
00000000
00000000
00000000
00103000
00010000
10000000
00100000
10000000
01000000
10000000
00100000
,
01000000
00000000
00000000
00010000
00000000
00000000
10000000
00000000
00000000
01000000
00000000
00000000
00100000
00000000
00000000
00010000
00000000
00000000
00100000
00000000
00000000
01000000
00000000
00000000
10000000
00000000
01000000
00000000
00100000
00000000
00010000
00000000
00100000
00000000
01000000
00000000
00100000
00000000
00010000
00000000
00001000
00000000
00010000
00000000
00100000
00000000
00010000
00000000
,
00001000
00010000
00001000
00000000
00010000
00000100
00010000
00000000
00000100
00001000
00000100
00000000
00001000
00000001
00001000
00000001
00001000
00000000
00000000
00000000
00000001
00000000
00001000
00000000
00001100
00000000
00001000
00000000
00000010
00000000
00000100
00000000
,
00000001
00000000
00000000
00000000
00000000
00000000
00000100
00000000
00000000
00001000
00000000
00000000
00000100
00000000
00000000
00000010
00000000
00000000
00020000
00000000
00000000
00032000
00000000
00000000
00013000
00000000
00000000
00100000
00000000
00000000
00010000
00000000
00000000
00001000
00000000
00000000
00010000
00000000
00000100
00000000
00001000
00000000
00000100
00000000
00000001
00000000
00000100
00000000
,
00001000
00000000
00000000
00000000
00000000
00000000
00000000
00000000
00000000
00000000
00000000
00000000
00000001
00000000
00000000
00000000
00000010
00000000
00000000
00000000
00001000
00000000
00000000
00000000
00010000
00000000
00000000
00001000
00000000
00000000
00010000
00000000
00000000
00000000
00000000
00000000
00001000
00000000
00000000
00100000
00000000
00000000
00001000
00000000
00000000
00000000
00000000
00000000
00200000
00000000
00000000
00000000
00000000
00000000
00000000
00000000
00000000
00000000
00000000
00000000
00000000
00000000
00000000
00000000
00000000
00000000
00000000
00000000
00000000
00000000
00000000
00000000
00000000
00000000
00000000
00000000
00000000
00000000
00000000
00000000
00000000
00000000
00000000
00000000
00000000
00000000
00000000
00000000
00000000
00000000
00000000
00000000
00000000
00000000
00000000
00000000
,
00310000
10000000
02000000
00000000
,
03100000
00001000
00010000
00000100
,
00001000
00000001
00001000
00000100
,
00000001
00000000
00000100
00000000
00001000
00000100
00000010
00000001
,
00000100
00000000
00000010
00000000
00001000
00000000
00000100
00000000
00010000
00001000
00010000
00000000
00001000
00100000
00001000
00000000
,
01000000
00010000
01000000
00000000
00010000
10000000
00010000
00000000
10000000
01000000
10000000
01000000
10000000
01000000
10000000
01000000
,
00100000
00010000
00100000
00010000
00100000
00010000
00100000
00001000
00020000
00000000
00000000
00000000
00000000
00000000
00000000
00000000
,
00000000
00000000
00000000
00000000
,
00030000
00000000
00000000
00000000
00000000
00000000
00011000
00000000
00010000
00001000
00000000
00001000
,
00000010
00000000
00000010
00000100
00000000
00000100
00010000
00000000
00010000
00001000
00000000
00001000
,
00010000
00000000
00000000
00011000
00000000
00001000
00100000
00010000
01000000
00010000
01000000
00100000
,
10000000
00010000
00100000
01000000
00010000
01000000
10000000
00000000
00010000
01000000
00000000
00100000
,
01000000
00000000
00000000
00000000
00000000
00000000
00010000
00000000
00000000
00000000
00000000
00000000
00100000
00000000
00000000
00001000
00000000
00000000
00010000
00000000
00000000
00000000
00000000
00000000
00011000
00000000
00000000
00000000
00000000
00000000
00000000
00000000
00000000
00000000
00000000
00000000
00000110
00000000
00000000
00000000
00000000
00000000
00000000
00000000
00000001
00000000
00000000
00000000
,
00001000
00000000
00000100
00000010
00000000
00000001
00001000
00000000
00000001
00000010
00000000
00001000
,
00010000
00000000
00000000
00000000
00000000
00000000
00000000
00000000
00001000
00000000
00000000
00000000
00000200
00000000
00000000
00000000
00000000
00000000
00000000
00000000
00000000
00000000
00000000
00000000
00001300
00000000
00000000
00000000
00000000
00000000
00000000
00000000
00000000
00000000
00000000
00000000
00010000
00000000
00000000
00001000
00000000
00000000
00010000
00000000
00000000
00001000
00000000
00000000
,
00100000
00000000
00000000
00010000
00000000
00000000
10000000
00000000
00000000
00100000
00000000
00000000
02000000
00000000
00000000
00000000
00000000
00000000
00000000
00000000
00000000
00000000
00000000
00000000
03010000
00000000
00000000
00000000
10000000
00000000
01000000
00000000
00000000
00000000
00010000
00000000
00001000
00000000
00000000
00000000
00000010
00000000
00000001
00000000
00000000
00000000
00000000
00000000
,
00001000
00000000
00000100
00000000
00001000
00000010
00001000
00000010
00000100
00000000
00000001
00000010
00000100
00000000
00000010
00000000
,
00000001
00000100
00000001
00000100
00000010
00000100
00000010
00000000
00001000
00000100
00001000
00000100
00010000
00001000
00010000
00000000
,
00011000
00000000
00000000
00000000
00020000
00000000
00032000
00000000
00023000
00000000
00030020
00000000
00010030
00001000
00010000
00000000
,
00011000
00000000
00000000
00000000
00001000
00000000
00000000
00000000
00010000
00000000
00000000
00000000
00200000
00000000
00000000
20300000
00000000
00000000
30020000
00000000
00000000
10030000
00000000
00000000
,
10010000
10000000
11000000
01000000
00200000
00302000
00023000
00032000
,
00023000
00000000
00000000
00000000
00030020
00000000
00001030
00000000
00000020
00000000
00000130
00000000
00000010
00001000
00000001
00000000
,
00001000
00000100
00000010
00000001
00000201
00000301
00000020
00000032
,
00001003
00000000
00000000
00000010
00000000
00000000
00000100
00000000
00000000
00000010
00000000
00000000
00001000
00000000
00000000
00000100
00000000
00000000
00010000
00000000
00000000
00000000
00000000
00000000
00001000
00000000
00000000
00000000
00010000
00000000
00000000
00000000
00100000
00000000
00000000
00000000
10000000
00000000
00000000
00000000
00010000
00000000
00000000
00000000
10000000
00000000
00000000
00000000
,
02000000
00000000
00000000
00000000
13000000
01000000
00100000
01000000
10000000
00000000
00010000
10000000
00100000
00000000
01000000
00000000
,
00100000
00001000
00010000
00001000
00100000
00001000
00010000
00001000
00010000
00000000
00001000
00000000
00021000
00000000
00000000
00000000
,
00031000
00000000
00010000
00000000
00010000
00000000
00010000
00000000
00001000
00010000
00000010
00001000
00000100
00000000
00010000
00000000
,
00002000
00000000
00000000
00013000
00001000
00000010
00000001
00000100
00001000
00010000
00000000
00000000
,
00001000
00010000
00100000
10000000
10010000
10000000
01000000
00010000
,
00001000
00010000
00001000
00000000
00001000
00000100
00001000
00000000
00000002
00000000
00000203
00000000
00002300
00000000
00003020
00000000
,
00000031
00000100
00000010
00001000
00000100
00000100
00000100
00000100
,
00001000
00000000
00000010
00000000
00000100
00000000
00001000
00000100
00010000
00001000
00100000
00010000
10000000
00010000
10000000
00010000
,
01000000
01000000
00100000
00100000
10000000
10000000
01000000
01000000
,
00010000
00010000
00001000
00001000
00000010
00000010
00000001
00000001
,
00000100
00000100
00001000
00001000
00010000
00010000
00100000
00100000
,
10000000
00000000
00000000
00100000
00000000
00000000
10000000
00000000
00000000
00000000
00000000
00000000
00010000
00000000
00000000
01000000
00000000
00000000
00010000
00000000
00000000
00000000
00000000
00000000
00001000
00000000
00000000
00000000
00000000
00000000
00000000
00000000
00010000
00000000
00000000
00000000
00000000
00000000
00000000
00000000
00010000
00000000
00000000
00000000
00000000
00000000
00000000
00000000
,
00000100
00001000
00000100
00000000
00001000
00000010
00001000
00000000
00000001
00000100
00000001
00000000
00000010
00000001
00000010
00000000
,
00000001
00000100
00000001
00000000
00001000
00000100
00001000
00000000
00000010
00010000
00000010
00000000
00010000
00001000
00010000
00000000
,
00001000
00100000
00100000
00100000
00010000
10000000
10000000
10000000
,
00010000
00000000
10000000
00100000
01000000
00000000
00010000
00100000
00001000
00010000
00001000
00000000
00020000
00000000
00000000
00000000
,
00031000
00010000
00100000
01000000
00010000
00000000
10000000
00000000
11000000
00000000
01010000
00000000
00022000
00000000
00033000
00000000
,
00010000
00000000
00001000
00000000
00000010
00000000
00000001
00000000
00000100
00000000
00001000
00010000
00100000
10000000
01000000
00010000
,
00001000
00000000
00000000
00000000
;

//--------------- dance-double - Fred-104† ----------------
#NOTEDATA:;
#STEPSTYPE:dance-double;
#DESCRIPTION:Fred-104†;
#DIFFICULTY:Challenge;
#METER:18;
#CREDIT:Fred-104†;
#NOTES:
00000000
00000000
00000000
00000000
,
00000000
00000000
00000000
00000000
,
00000000
00000000
00000000
00000000
,
00000000
00000000
00000000
00000000
,
00000000
00000000
00000000
00000000
,
00010000
01000000
00100000
01000000
00010000
00000000
00100000
00000000
,
01000000
10000000
20020000
30030000
,
00010000
00000000
00001000
00010000
00001000
00000000
00000010
00000000
,
00001000
00010000
00100000
01000000
00010000
10000000
01000000
00000000
,
00100000
00000000
00001000
00010000
00001000
00100000
00001000
00000000
,
00010000
00000000
00000100
00001000
00000100
00000010
00000001
00000100
,
00001000
00000000
00010000
00100000
10000000
00010000
01000000
00000000
,
00100000
10000000
01000000
00100000
00010000
01000000
00100000
10000000
,
10020000
00000000
00000000
00000000
10030000
01000000
00100000
00010000
01000000
00100000
01000000
00010000
00100000
00000000
00001000
00000000
,
00010000
00000100
00001000
00000100
00000010
00000001
00001000
00000001
00000100
00000000
00001000
00000000
00011000
00000000
00000000
00000000
,
00010000
00000100
00001000
00000000
00000100
00000000
00010000
00000000
00001000
00100000
00010000
01000000
00001000
00010000
00000100
00001000
,
00000020
00000000
00000000
00010030
00001000
00000010
00001000
00010000
01000000
00010000
00000000
00000000
,
00022000
00033000
00020020
00030030
00020000
00032000
00203000
00301000
,
00022000
00000000
00033000
00000000
02002000
00000000
03003000
00000000
02100000
00000000
03200000
00000000
10300000
00010000
00100000
00000000
,
00020000
02030000
23000000
32000000
03020000
00032000
00023000
00230000
,
00320000
00000000
00000000
00000000
00000000
00000000
00031000
00000000
00000000
00010000
00001000
00020000
00002000
00000000
00000000
00000000
00000000
00000000
00000000
00000000
00000000
00033000
00000000
00000000
,
00020100
00000000
00000000
00000000
00031000
00010000
00000010
00001000
00000100
00010000
00001000
00100000
00010000
00000000
01000000
00000000
,
00001000
00010000
00000100
00001000
00000010
00010000
00001000
00100000
00001000
00000000
00010000
00000000
00011000
00000000
00000000
00000000
,
00010000
00000100
00001000
00000000
00000001
00000000
00000100
00000000
00000001
00000010
00000100
00001000
00000100
00000010
00000001
00000100
,
00000001
00000000
00000000
00001000
00000001
00000010
00001000
00010000
01000000
10000000
00000000
00000000
,
00010000
00000000
01000000
00000000
00100000
10000000
01000000
10000000
00100000
00000000
01000000
00010000
00100000
00000000
01000000
00000000
,
01200000
00000000
00000000
00000000
00302000
00000000
00000000
00000000
00013000
00000000
00000100
00000000
00001000
00000100
00000010
00000000
,
00000012
00002003
00003020
00000230
00000302
00000023
00002030
00023000
,
00032000
00000000
00000000
00000000
00103000
00000000
00010000
10000000
00010000
00000000
01100000
00000000
10010000
00000000
00000000
00000000
,
00020000
00000000
00000000
00000000
00000000
00000000
20030000
00000000
00000000
00000000
00000000
00000000
30010000
00000000
00100000
00000000
01000000
00000000
10000000
00000000
00100000
00000000
01000000
00000000
00010000
00000000
00000000
00000000
00110000
00000000
00000000
00000000
00101000
00000000
00000000
00000000
00011000
00000000
00000000
00000000
00000000
00000000
00020000
00000000
00000000
00030200
00000000
00000000
,
00001300
00000000
00000000
00000100
00000000
00000000
00001000
00000000
00000000
00000100
00000000
00000000
00000010
00000000
00000000
00000001
00000000
00000000
00000010
00000000
00000000
00000001
00000000
00000000
00000010
00000000
00000000
00000000
00000000
00000000
00000000
00000000
00000000
00000000
00000000
00000000
00000001
00000000
00000000
00000100
00000000
00000000
00000010
00000000
00000000
00001000
00000000
00000000
00000001
00000000
00000000
00000000
00000000
00000000
00000000
00000000
00000000
00000000
00000000
00000000
00000200
00000000
00000000
00000000
00000000
00000000
00000320
00000000
00000000
00000000
00000000
00000000
00001030
00000000
00000000
00000000
00000010
00000000
00000000
00000000
00010000
00000000
00000000
00000000
00001000
00000000
00000000
00000000
00100000
00000000
00000000
00000000
00010000
00000000
00000000
00000000
,
01000000
00000000
00000000
00000000
00010000
00000000
00000000
00000000
00001000
00000000
00000000
00000000
00010000
00000000
00000000
00000000
00100000
00000000
00000000
00000000
00010000
00000000
00000000
00000000
00001000
00000000
00000000
00000000
00010000
00000000
00000000
00000000
00000100
00000000
00000000
00000000
00001000
00000000
00000000
00000001
00000000
00000000
00001000
00000000
00000000
00000001
00000000
00000000
00000010
00000000
00000000
00000000
00000000
00000000
00000000
00000000
00000000
00000001
00000000
00000000
00000010
00000000
00000000
00000100
00000000
00000000
00000010
00000000
00000000
00000000
00000000
00000000
00000011
00000000
00000000
00000000
00000000
00000000
00000000
00000000
00000000
00000000
00000000
00000000
00000002
00000000
00000000
00000000
00000000
00000000
00002003
00000000
00000000
00000000
00000000
00000000
,
00003010
00000000
00000100
00000010
00001000
00000000
00000100
00000000
00010000
00000000
00001000
00000000
00100000
00010000
10000000
00000000
02000000
00000000
03200000
00000000
02300000
00000000
00000000
00000000
13000000
01000000
00100000
00010000
01000000
00100000
00010000
00001000
,
00010000
00000000
00001000
00010000
00001000
00000010
00000001
00000100
,
00001000
00010000
00100000
10000000
00010000
00000000
10000000
01000000
,
00010000
00001000
00000010
00000000
00000001
00000000
00000100
00001000
,
00010000
00000000
00001000
00010000
00001000
00000000
00010000
00000000
00100000
00000000
10000000
00000000
00010000
10000000
00010000
10000000
,
01000000
00000000
00000000
00000000
00100000
00010000
10000000
00010000
01000000
00000000
00100000
01000000
00010000
00000000
00100000
00000000
,
00001000
00010000
00001000
00000010
00001000
00010000
00001000
01000000
,
00002000
00000000
00000000
00000000
00013000
00000100
00001000
00000010
00000100
00000010
00000100
00000001
00002000
00000000
00000000
00000000
,
00003001
00000010
00001000
00010000
01000000
10000000
10010000
00000000
01000000
00000000
00010000
00000000
00002000
00000000
00000000
00000000
,
00013000
00001000
00000020
00000000
00000031
00000100
00001000
00010000
,
00200000
00000000
10300000
01000000
00010000
00002000
00000000
00003010
,
00000001
00000000
00000100
00000000
00002000
00000000
00000000
00000000
00013000
00001000
00100000
00001000
00010000
00000100
00001000
00000010
,
00010000
00000000
00000000
00001000
00000000
00000000
00100000
00000000
00000000
00010000
00000000
00000000
01000000
00000000
00000000
00001000
00000000
00000000
00010000
00000000
00000000
00001000
00000000
00000000
00010000
00000000
00001000
00000000
00000100
00000000
00000010
00000000
00000001
00000000
00000010
00000000
00000100
00000000
00001000
00000000
00000100
00000000
00000010
00000000
00000100
00000000
00001000
00000000
,
00010000
00001000
00010000
00001000
00100000
00001000
00100000
00001000
00100000
00010000
00100000
00010000
10000000
00010000
10000000
00010000
10000000
00000000
00000000
00000000
00010000
00000000
00100000
00000000
00110000
00000000
00010000
00000000
10000000
00000000
01000000
00000000
,
00100000
00000000
00000000
00000000
00000000
00000000
00000000
00000000
00000000
00000000
00000000
00000000
00001000
00000000
00000000
00000000
00000000
00000000
00010000
00000000
00000000
00000000
00000000
00000000
00011000
00000000
00000000
00000000
00000000
00000000
00010000
00000000
00000000
00000100
00000000
00000000
00002000
00000000
00000000
00000000
00000000
00000000
00003002
00000000
00000000
00000000
00000000
00000000
00000103
00000000
00000000
00000000
00000010
00000000
00000000
00000000
00001000
00000000
00000000
00000000
00000010
00000000
00000000
00000000
00000100
00000000
00000000
00000000
00000001
00000000
00000000
00000000
00000010
00000000
00000000
00000000
00000100
00000000
00000000
00000000
00001000
00000000
00000000
00000000
00000100
00000000
00000000
00000000
00010000
00000000
00000000
00000000
00001000
00000000
00000000
00000000
,
00100000
00000000
00000000
00000000
00000000
00000000
00000000
00000000
00010000
00000000
00000000
00000000
00000000
00000000
00000000
00000000
10000000
00000000
00000000
00000000
00000000
00000000
00000000
00000000
00010000
00000000
00000000
00000000
00000000
00000000
00000000
00000000
00200000
00300000
00000000
00000000
00000000
00000000
00000000
00000000
00200000
00300000
00000000
00000000
00000000
00000000
00000000
00000000
10000000
00000000
00000000
00000000
00000000
00000000
01000000
00000000
00000000
00000000
00000000
00000000
00100000
00000000
00000000
00000000
00000000
00000000
00010000
00000000
00000000
00000000
00000000
00000000
00100000
00000000
00000000
00000000
00000000
00000000
01000000
00000000
00000000
00000000
00000000
00000000
10000000
00000000
00000000
00000000
00000000
00000000
00010000
00000000
00000000
00000000
00000000
00000000
02000000
00000000
00000000
00000000
00000000
00000000
00000000
00000000
00000000
00000000
00000000
00000000
00000000
00000000
00000000
00000000
00000000
00000000
00000000
00000000
00000000
00000000
00000000
00000000
00000000
00000000
00000000
00000000
00000000
00000000
00000000
00000000
00000000
00000000
00000000
00000000
00000000
00000000
00000000
00000000
00000000
00000000
00000000
00000000
00000000
00000000
00000000
00000000
00000000
00000000
00000000
00000000
00000000
00000000
00000000
00000000
00000000
00000000
00000000
00000000
00000000
00000000
00000000
00000000
00000000
00000000
00000000
00000000
00000000
00000000
00000000
00000000
00000000
00000000
00000000
00000000
00000000
00000000
00000000
00000000
00000000
00000000
00000000
00000000
00000000
00000000
00000000
00000000
00000000
00000000
00000000
00000000
00000000
00000000
00000000
00000000
,
00000000
00000000
03002000
00000000
,
00000000
00000000
00023000
00000000
,
00000000
00000000
00030200
00000000
,
00002300
00000000
00000000
00000000
00003001
00000010
00000100
00000010
,
00000001
00000000
00001000
00000000
00000010
00000000
00000100
00000000
00000001
00000100
00000001
00000100
00000010
00001000
00000010
00001000
,
00000100
00010000
00000100
00010000
00001000
00010000
00001000
00010000
00001000
00100000
00010000
10000000
00100000
01000000
00010000
00100000
,
00001000
00010000
00000100
00001000
00000100
00000010
00000001
00001000
00000002
00000000
00000000
00000000
00000000
00000000
00000000
00000000
,
00000000
00000000
00000000
00000000
,
00000003
00000000
00000000
00000000
00000000
00000000
00001001
00000000
00000001
00000100
00000000
00000100
,
00000010
00000000
00000010
00001000
00000000
00001000
00000100
00000000
00000100
00010000
00000000
00010000
,
00002000
00000000
00000000
00103000
00000000
00010000
00100000
01000000
00100000
00010000
00001000
00010000
,
00100000
00010000
00001000
00000100
00001000
00010000
00001000
00000100
00000010
00000100
00001000
00000100
,
00000010
00000000
00000000
00000000
00000000
00000000
00000001
00000000
00000000
00000100
00000000
00000000
00000010
00000000
00000000
00001000
00000000
00000000
00000001
00000000
00000000
00000000
00000000
00000000
00000101
00000000
00000000
00000000
00000000
00000000
00000000
00000000
00000000
00000000
00000000
00000000
00001010
00000000
00000000
00000000
00000000
00000000
00000000
00000000
00000001
00000000
00000000
00000000
,
00000010
00000000
00001000
00010000
00000000
01000000
10000000
00000000
00100000
00010000
00000000
00001000
,
00000100
00000000
00000000
00000000
00000000
00000000
00000000
00000000
00000001
00000000
00000000
00000000
00002000
00000000
00000000
00000000
00000000
00000000
00000000
00000000
00000000
00000000
00000000
00000000
00003002
00000000
00000000
00000000
00000000
00000000
00000000
00000000
00000000
00000000
00000000
00000000
00000103
00000000
00000000
00000001
00000000
00000000
00000100
00000000
00000000
00000001
00000000
00000000
,
00000010
00000000
00000000
00000100
00000000
00000000
00001000
00000000
00000000
00000100
00000000
00000000
00000020
00000000
00000000
00000000
00000000
00000000
00000000
00000000
00000000
00000000
00000000
00000000
00000031
00000000
00000000
00000000
00000100
00000000
00001000
00000000
00000000
00000000
00010000
00000000
00100000
00000000
00000000
00000000
10000000
00000000
10010000
00000000
00000000
00000000
00000000
00000000
,
00010000
00000000
10000000
00000000
00100000
10000000
00100000
01000000
00100000
00000000
10000000
00010000
00100000
00000000
00010000
00000000
,
01000000
00010000
01000000
00010000
00100000
00001000
00100000
00001000
00010000
00000100
00010000
00000100
00001000
00000010
00001000
00000010
,
00000100
00000000
00000002
00000023
00002030
00003002
00000203
00002300
,
00003001
00000000
00000000
00000000
00000011
00000000
00000000
00000000
00001010
00000000
00000000
00000000
00022000
00000000
00000000
00000000
00000000
00000000
00000000
00000000
00000000
00033000
00000000
00000000
,
00102000
00013000
00020010
00031000
00020000
00032000
00203000
00310000
,
02010000
00000000
03100000
00000000
12000000
00000000
03100000
00000000
02000000
00000000
03020000
00000000
10030000
01000000
00200000
00000000
,
00302000
00023000
00032000
00003200
00002300
00023000
00032000
00023000
,
00031000
00000000
00000000
00010000
00000000
00000000
00000100
00000000
00000000
00001000
00000000
00000000
00000001
00000000
00000000
00000100
00000000
00000000
00000010
00000000
00000000
00000000
00000000
00000000
00001000
00000000
00000000
00000000
00000100
00000000
00000000
00000000
00000001
00000000
00000000
00000000
00000100
00000000
00000000
00000000
00001000
00000000
00000000
00000000
00000010
00000000
00000000
00000000
,
00000200
00000000
00000000
00000000
00000301
00000010
00000100
00001000
00000010
00000100
00000001
00000010
00000001
00000000
00001000
00000000
,
00000010
00010000
00001000
00010000
00000100
00010000
00001000
00100000
00010000
00000000
01000000
00000000
01100000
00000000
00000000
00000000
,
00010000
10000000
01000000
00000000
00010000
00000000
01000000
00000000
00100000
00010000
10000000
00010000
10000000
00100000
01000000
00010000
,
20000000
00000000
00000000
30010000
10000000
01000000
00010000
00001000
00000010
00000001
00000000
00000000
,
00001000
00000010
00000100
00000001
00000021
00000130
00000010
00000001
,
00001000
00000100
00000001
00000000
00001000
00000010
00000001
00000000
00002000
00000000
00003200
00000000
00000320
00000000
00000032
00000000
,
00000203
00002300
00023000
00230000
20300000
30020000
02030000
03200000
,
10300000
00000000
11000000
00000000
01000000
00000000
00100000
00010000
00200000
00000000
00000000
00000000
00000000
00000000
00000000
00000000
,
00301000
00100000
00001000
00100000
00001000
00010000
00000100
00000000
00001000
00000010
00001000
00000010
00000100
00000001
00001000
00000000
,
00000001
00000010
00001000
00000010
00000001
00000010
00001000
00000010
,
00000001
00000100
00000001
00000100
00000010
00001000
00000010
00000000
00001000
00000100
00010000
00000100
00010000
00001000
00010000
00000000
,
00001000
00000000
00000000
00100000
00000000
00000000
00010000
00000000
00000000
10000000
00000000
00000000
00100000
00000000
00000000
01000000
00000000
00000000
00010000
00000000
00000000
00000000
00000000
00000000
00110000
00000000
00000000
00000000
00000000
00000000
00000000
00000000
10100000
00000000
00000000
00000000
00000000
00000000
00000000
00000000
01010000
00000000
00000000
00000000
00000000
00000000
00000000
00000000
,
00010000
01000000
00010000
01000000
00100000
01000000
00100000
01000000
00100000
10000000
00100000
10000000
01000000
00100000
01000000
00100000
,
00001000
00010000
00001000
00010000
00000010
00000100
00000010
00000100
00000001
00001000
00000001
00001000
00000100
00000010
00000100
00000010
,
00000001
00000010
00000100
00010000
00001000
00100000
01000000
10000000
,
00010000
01000000
00100000
10000000
00010000
00000000
10000000
01000000
00100000
00010000
00100000
00001000
00020000
00000000
00000000
00000000
,
00031000
00010000
00001000
00000010
00000001
00000000
00000100
00000000
00001000
00000000
00010000
00000000
00022000
00000000
00033000
00000000
,
00001000
00000000
00010000
00100000
10000000
00000000
01000000
00000000
00010000
00000000
00001000
00000010
00000001
00000100
00001000
00020000
,
00030000
00000000
00000000
00000000
;
