#VERSION:0.83;
#TITLE:Painful Fate;
#ARTIST:BEMANI Sound Team "猫叉Master";
#ARTISTTRANSLIT:Nekomata Master;
#GENRE:DRUM'N'BASS;
#BANNER:Painful Fate.png;
#BACKGROUND:Painful Fate-bg.png;
#CDTITLE:./CDTitles/bm IIDX 26 Rootage.png;
#MUSIC:Painful Fate.ogg;
#SAMPLESTART:79.687;
#SAMPLELENGTH:15;
#BPMS:0=192,200=96,216=192;
#BGSTAGE:25;

//--------------- dance-single - Fred-104 ----------------
#NOTEDATA:;
#STEPSTYPE:dance-single;
#DESCRIPTION:Fred-104;
#DIFFICULTY:Beginner;
#METER:6;
#CREDIT:Fred-104;
#NOTES:
0000
0000
0000
0000
,
0000
0000
0000
0000
,
0000
0000
0000
0000
,
0000
0000
0000
0000
,
0000
0000
0000
0000
,
0000
0000
0000
0000
,
0000
0000
0000
0000
,
0000
0000
0000
0000
,
0000
0000
0000
0000
,
1000
0000
0000
1000
0000
0000
1000
0000
,
0000
0000
0000
0000
,
0001
0000
1000
0000
,
0001
0000
0100
0000
,
0010
0000
0000
0010
0000
0000
0010
0000
,
0100
0000
0001
0000
,
1000
1000
1000
1001
,
0000
0000
0000
0000
,
0001
0000
0000
0001
0000
0000
0001
0000
,
0000
0100
0000
0100
,
0010
0000
0000
0010
0000
0000
0010
0000
,
0000
0100
0000
0001
,
1000
0000
0000
1000
0000
0000
1000
0000
,
0000
0010
0000
0100
,
0010
0000
0000
0010
0000
0000
0010
0000
,
0100
0100
0001
0001
,
1000
0000
0000
1000
0000
0000
1000
0000
,
0000
0001
0000
1000
,
0010
0000
0000
0010
0000
0000
0010
0000
,
0000
0100
0000
0001
,
1000
0000
0000
1000
0000
0000
1000
0000
,
0000
0100
0000
0010
,
0001
0001
0001
0001
,
1000
0000
0001
0000
,
1001
0000
1000
0000
,
0010
0000
0100
0100
,
0100
0000
0010
0000
,
1000
0000
0001
0001
,
0001
0000
0010
0000
,
0100
0000
1000
1000
,
1000
0000
0001
0000
,
0010
0000
0100
0100
,
0100
0000
1000
0000
,
0001
0000
1000
1000
,
1000
0000
0010
0000
,
0100
0000
0001
0001
,
0001
0000
1000
0000
,
0100
0000
0010
0100
,
0010
0000
0001
0000
,
1000
1000
0001
0001
,
2002
0000
0000
3003
,
2000
0000
0000
0000
,
3002
0000
0000
0000
,
2003
0000
0000
0000
,
3002
0000
0000
0003
,
0200
0000
0000
0300
,
0020
0000
0000
0030
,
0200
0000
0000
0300
,
0002
0000
0000
0003
,
1000
0000
0000
0001
0000
0000
2002
0000
,
0000
0000
0000
3003
,
1000
0000
0010
0010
,
0000
0000
0100
0100
,
0000
0000
0001
0001
,
0000
1000
0000
0001
,
0010
0000
0000
0010
0000
0000
0010
0000
,
0000
0100
0000
0100
,
0000
1000
0000
1000
,
0001
0000
1000
0000
,
0001
0000
0010
0010
,
0000
0000
0100
0100
,
0000
0000
1000
1000
,
0000
0001
0000
1000
,
0001
0000
0000
0001
0000
0000
2002
0000
,
0000
0000
0000
3003
,
1000
0000
0100
0100
,
0000
0000
1000
1000
,
0000
0000
0001
0001
,
0000
0100
0000
0001
,
1000
0000
0000
1000
0000
0000
1000
0000
,
0000
0001
0000
1000
,
0000
0001
0000
0010
,
0000
0010
0000
0100
,
0100
0000
1000
1000
,
0000
0000
0010
0010
,
0000
0000
0100
0100
,
0000
0001
0000
1000
,
0001
0000
0000
0001
0000
0000
1001
0000
,
0000
0000
0000
0000
,
1000
0000
0000
1000
0000
0000
1001
0000
,
0000
0000
0000
0000
,
0001
0000
0000
0001
0000
0000
2002
0000
,
0000
0000
0000
0000
,
0000
0000
3003
0000
,
2002
0000
0000
0000
,
0000
0000
0000
0000
,
0000
0000
0000
0000
,
3003
0000
0000
0000
;

//--------------- dance-single - Fred-104 ----------------
#NOTEDATA:;
#STEPSTYPE:dance-single;
#DESCRIPTION:Fred-104;
#DIFFICULTY:Easy;
#METER:9;
#CREDIT:Fred-104;
#NOTES:
0000
0000
0000
0000
,
0000
0000
0000
0000
,
0000
0000
0000
0000
,
0000
0000
0000
0000
,
0000
0000
0000
0000
,
0000
0000
0000
0000
,
0000
0000
0000
0000
,
0000
0000
0000
0000
,
0000
0000
0000
0000
,
0001
0000
0000
1000
0000
0000
0001
0000
,
0010
0000
0100
0000
1000
0001
1000
0000
,
0001
0000
0000
0100
0000
0000
0010
0000
,
0100
0000
0001
0000
1000
0100
1000
0000
,
0100
0000
0000
0010
0000
0000
0001
0000
,
1000
0010
0100
0100
,
0001
0000
0001
0000
1000
0001
1000
0000
,
0000
0002
2003
3010
,
0110
0000
0000
0110
0000
0000
0110
0000
,
0100
0000
0001
1000
,
1100
0000
0000
1100
0000
0000
1100
0000
,
1000
0001
0100
0001
,
0101
0000
0000
0101
0000
0000
0101
0000
,
0001
1000
0100
0010
,
0011
0000
0000
0011
0000
0000
0011
0000
,
0001
0000
1000
0000
0001
0100
0010
0000
,
0110
0000
0000
0001
0000
0000
1000
0000
,
0100
0000
0010
0000
0100
0100
0100
0000
,
1001
0000
0000
0100
0000
0000
1000
0000
,
0001
0000
1000
0000
0010
0100
0010
0000
,
0110
0000
0000
0001
0000
0000
1000
0000
,
0001
0000
0010
0000
0100
0010
0001
0000
,
1000
0000
0010
0000
0100
0001
1000
0000
,
0001
0200
0310
0100
,
0001
1001
1000
0100
,
0010
0000
0001
0000
1000
0010
1000
0000
,
0001
0101
1000
0100
,
0010
0000
0100
0000
1000
0001
1000
0000
,
0010
0110
0100
0001
,
1000
0000
0100
0000
0010
0001
0010
0000
,
0001
1001
0001
0100
,
1000
0000
0100
0000
0001
1000
0001
0000
,
1001
0000
1000
0000
0100
0010
0100
0000
,
0010
0000
0001
0000
1000
0010
1000
0000
,
0001
0000
0100
0000
0010
1000
0010
0000
,
0100
0000
0001
0000
1000
0100
1000
0000
,
0100
0000
0010
0000
0001
1000
0010
0000
,
0100
0000
0001
0000
0010
0100
1000
0000
,
0010
0000
0100
0000
0001
1000
0100
0000
,
1000
0010
1000
0000
0001
0100
0001
0000
,
2002
0000
0000
3003
,
1000
0000
0001
0001
0000
0000
0010
0010
,
0000
0000
0100
0100
1000
0001
0000
0100
,
0010
0000
0000
0100
0000
0000
0020
0000
0000
0000
0130
0000
0001
0000
1000
0000
,
0000
0000
0100
0010
0000
0011
0000
0000
,
0001
0000
0010
0100
,
1000
0000
0001
1000
,
0010
0000
0100
0001
,
1000
0100
0001
0100
,
1000
0000
0000
0001
0000
0000
2002
0000
,
0000
0000
0000
3003
,
0001
0010
0100
2000
,
3001
0100
0010
0200
,
0301
1000
0100
0020
,
0031
1000
0010
0000
0100
0000
0010
1000
,
0010
0000
0000
0100
0000
0000
0001
0000
,
0000
1000
0100
0001
,
0000
1000
0010
0001
,
1000
0000
0001
0000
0100
0000
0010
1000
,
0010
0100
0001
2000
,
3100
0010
0001
0020
,
0130
1000
0001
0200
,
0310
1000
0010
0000
0100
0000
0001
0000
,
1000
0000
0000
0001
0000
0000
2002
0000
,
0000
0000
0000
3003
,
1000
0100
0010
0020
,
0031
1000
0010
0020
,
0130
0002
1003
2000
,
3001
1000
0010
0000
0100
0000
0001
0000
,
1000
0000
0000
0001
0000
0000
0100
0000
,
0000
0010
1000
0001
,
0000
0010
0100
1000
,
0000
1001
0000
0001
,
1000
0100
1000
1000
,
0001
0100
0001
0001
,
0010
0100
1000
1000
,
0002
0000
1003
0000
,
1001
0000
0000
0110
0000
0000
2002
0000
,
0000
0000
0000
3003
,
1100
0000
0000
0011
0000
0000
2002
0000
,
0000
0000
0000
3003
,
1010
0000
0000
0101
0000
0000
0220
0000
,
0000
0000
0000
0000
,
0000
0000
0330
0000
,
2002
0000
0000
0000
,
0000
0000
0000
0000
,
0000
0000
0000
0000
,
3003
0000
0000
0000
;

//--------------- dance-single - Fred-104 ----------------
#NOTEDATA:;
#STEPSTYPE:dance-single;
#DESCRIPTION:Fred-104;
#DIFFICULTY:Medium;
#METER:14;
#CREDIT:Fred-104;
#NOTES:
0000
0000
0000
0000
,
0000
0000
0000
0000
,
0000
0000
0000
0000
,
0000
0000
0000
0000
,
0000
0000
0000
0000
,
0000
0000
0000
0000
,
0000
0000
0000
0000
,
0000
0000
0000
0000
,
0000
0000
0000
0000
,
1001
0000
0001
0010
0000
0100
1000
0001
,
0100
0010
1000
0010
0100
0001
1000
0000
,
0100
0010
0001
1000
0010
0100
0001
0000
,
0010
0100
1000
0001
0100
0010
0100
0000
,
0001
0000
0100
0001
0000
1000
0001
0010
,
0100
0010
0001
1000
0010
0100
0001
0000
,
1000
0100
0001
0100
1000
0001
1000
0000
,
0000
0020
0230
0302
,
1003
0000
0100
0110
0000
0010
0011
0000
,
0001
1000
0010
0100
0101
0000
1001
0000
,
1010
0000
0001
0011
0000
1000
1010
0000
,
0001
0100
1000
0100
0010
1000
0010
0000
,
0110
0000
1000
1100
0000
0001
0101
0000
,
1000
0001
0100
0010
1010
0000
0110
0000
,
0101
0000
1000
1100
0000
0001
0011
0000
,
1000
1000
0001
0001
0010
0100
1000
0000
,
0001
0100
1000
0001
0010
1000
0001
0000
,
0100
0010
1000
0000
0110
0000
1001
0000
,
1000
0100
0001
1000
0010
0001
1000
0000
,
0100
0010
0001
1000
0010
0100
0001
1000
,
0001
0100
0010
0001
1000
0100
0001
0000
,
1000
0010
0100
0010
1000
0001
0010
0100
,
1000
1000
0001
0001
0100
0010
0110
0000
,
1000
0000
0002
0000
0013
0100
1000
0001
,
0100
0000
0110
0000
0010
1000
0001
0010
,
0100
0010
0001
1000
0010
0100
0001
0000
,
0110
0000
1000
0100
0001
1000
0010
0001
,
1000
0010
0001
1000
0100
0010
1000
0000
,
1001
0000
0001
0010
1000
0001
0100
1000
,
0001
0100
1000
0001
0010
0100
0001
0000
,
1001
0000
1000
0001
0010
1000
0001
0100
,
1000
0010
0100
1000
0001
0010
1000
0000
,
1001
0000
0001
0100
1000
0100
0001
1000
,
0100
0001
0100
1000
0001
0010
0100
1000
,
1001
0000
1000
0010
0001
0010
1000
0001
,
0010
1000
0010
0100
1000
0001
0100
0010
,
1010
0000
0001
0100
0010
0001
1000
0100
,
0010
1000
0001
0010
1000
0001
0100
0010
,
0001
0000
1000
0100
0001
0100
1000
0001
,
0100
1000
0100
0010
0100
0001
1000
0100
,
0220
0000
0000
0330
,
0012
0000
1000
1000
0000
0000
0100
0100
,
0000
0000
0000
0000
0000
0000
0000
0000
1000
0000
0000
0000
1003
0000
0000
0000
0001
0000
1000
0000
0002
0000
0000
0000
0000
0000
0000
0000
0013
0100
0010
0100
,
0010
0100
1000
0010
0100
0001
0020
0000
0000
0000
0130
0000
1000
0000
0002
0000
,
0000
0000
0000
0000
0000
0000
0000
0000
0013
0000
0100
0000
1000
0000
0000
0000
0000
0000
0000
0000
2002
0000
0000
0000
3003
0000
0000
0000
1000
0001
1000
0001
,
1000
0000
0100
0010
0001
1000
0010
0000
,
0100
0000
0001
1000
0100
1000
0001
0000
,
0100
0000
0001
0010
0100
0010
0001
0000
,
0100
0000
0010
0000
1000
0000
0001
1000
,
0001
0100
1000
0001
0010
1000
2002
0000
,
0000
0000
3003
0001
,
1100
0000
0001
1000
0010
0100
0001
0000
,
0110
0000
1000
0100
0010
0001
1000
0000
,
0101
0000
1000
0001
0100
0010
1000
0000
,
0001
0200
1000
0000
0010
0000
0301
1000
,
0001
0100
1000
0001
0010
1000
0002
0000
,
0023
0000
0230
0000
1300
0001
0200
0000
,
0010
0000
0010
0000
0301
1000
0100
0000
,
0110
0000
0000
0000
0002
0000
0000
0000
1003
0000
0001
0000
0100
0010
0100
0010
,
1000
0000
0001
0010
1000
0010
0001
0000
,
0110
0000
1000
0001
0100
0010
1000
0000
,
0011
0000
0100
0001
1000
0001
0020
0000
,
0100
0000
0001
0000
1000
0000
0031
1000
,
0001
0100
1000
0001
0010
0100
0202
0000
,
0000
0000
0000
0000
0303
0000
1000
0100
,
0110
0000
0011
0000
1000
0001
0100
0000
,
0110
0000
1001
0000
0001
1000
0010
0000
,
0110
0000
0101
0000
1000
0100
0010
0000
,
0001
0020
1000
0000
0100
0000
0031
1000
,
0010
0100
0001
0010
0100
1000
1002
0000
,
0103
0001
2000
0000
3200
0000
0302
0000
,
0203
0000
0320
0000
0031
1000
0010
0000
,
0110
0000
1001
0000
0001
0100
1000
0100
,
0001
0000
1000
0100
0010
0001
1000
0010
,
0100
0000
0001
1000
0100
0010
1000
0010
,
0001
0000
1000
0010
0100
0010
0001
0010
,
1000
0001
1000
0010
0100
0001
1000
0001
,
1000
0100
0001
1000
0010
0001
2002
0000
,
3003
0000
0001
0000
0010
0000
0100
0000
1000
0000
0001
0000
0100
0010
0100
0000
,
0001
0100
1000
0001
0010
0100
0202
0000
,
0303
0000
0001
0000
1000
0000
0100
0000
0010
0000
0001
0000
0100
0001
0100
0001
,
1000
0100
0010
1000
0001
0100
2200
0000
,
0000
0000
0000
0000
,
0000
0000
3300
0000
,
2002
0000
0000
0000
,
0000
0000
0000
0000
,
0000
0000
0000
0000
,
3003
0000
0000
0000
;

//--------------- dance-single - Fred-104 ----------------
#NOTEDATA:;
#STEPSTYPE:dance-single;
#DESCRIPTION:Fred-104;
#DIFFICULTY:Hard;
#METER:17;
#CREDIT:Fred-104;
#NOTES:
0000
0000
0000
0000
,
0000
0000
0000
0000
,
0000
0000
0000
0000
,
0000
0000
0000
0000
,
0000
0000
0000
0000
,
0000
0000
0000
0000
,
0000
0000
0000
0000
,
0000
0000
0000
0000
,
0000
0000
0000
0000
,
1000
0001
0100
1000
0100
0010
1000
0001
,
0010
0000
0100
0000
1000
0000
0010
0000
0100
0001
1000
0000
0100
0000
0010
0100
,
1000
0010
0100
1000
0001
0010
0100
0001
,
1000
0000
0100
0000
0010
0000
0001
0000
1000
0010
0100
0000
0010
1000
0001
0000
,
1000
0100
0001
1000
0010
0100
0010
0001
,
1000
0000
0001
0000
0100
0000
0010
0000
1000
0001
0010
0000
0100
1000
0001
1000
,
0010
0000
0010
0000
0100
0000
0100
0000
0001
1000
0100
0010
0001
0000
0000
0000
,
0000
0200
2300
3200
,
0302
0000
0000
0000
0010
0003
1002
0000
0000
0000
0100
0003
1002
0000
0000
0000
,
1003
0100
0010
0001
0101
0000
1001
0000
,
1020
0000
0000
0000
0001
0030
0021
0000
0000
0000
1000
0030
1020
0000
0000
0000
,
1030
0000
0001
1000
0010
0000
0100
0001
1000
0000
0001
0000
1001
0000
0000
0000
,
1200
0000
0000
0000
0010
0300
0210
0000
0000
0000
1000
0300
1200
0000
0000
0000
,
1300
0000
0001
0100
0010
1000
0001
0010
0100
0000
0010
0000
0011
0000
0000
0000
,
2100
0000
0000
0000
0010
3000
2010
0000
0000
0000
0001
3000
2001
0000
0000
0000
,
3001
0000
0001
0000
1000
0000
1000
0000
0001
0010
0100
1000
0010
0100
0001
0010
,
0002
0000
0000
0000
0010
0003
1002
0000
0000
0000
0100
0003
0102
0000
0000
0000
,
1003
0001
0010
0100
1100
1000
1001
0000
,
2100
0000
0000
0000
0100
3000
2010
0000
0000
0000
0100
3000
2001
0000
0000
0000
,
3001
0000
1000
0000
0100
0000
0010
0000
0001
1000
0010
0000
0100
0001
1000
0100
,
0020
0000
0000
0000
0001
0030
0021
0000
0000
0000
1000
0030
1020
0000
0000
0000
,
0031
0000
1000
0000
0100
0000
0010
0000
0100
0010
0001
0000
1000
0000
0010
0000
,
0110
0000
0100
0000
0101
0000
0001
0000
1000
0100
0010
0001
1000
0000
0000
0000
,
0001
0000
0000
0000
0200
0000
0000
0000
0310
0000
1000
0000
0001
0010
0100
0010
,
0001
0000
1000
0000
0010
0000
1000
0000
1001
0000
0001
0000
0100
0001
0100
0001
,
0010
0000
0000
0010
0100
0000
1000
0000
0001
0100
0010
1000
0100
0000
0000
0000
,
0110
0000
0000
0000
1001
0000
1000
0010
0100
0010
1000
0000
0100
0010
0001
0000
,
1000
0000
0001
1000
0010
0000
1000
0001
0010
0000
0000
0000
0110
0000
0000
0000
,
1100
0000
0000
0000
0011
0000
0010
0001
1000
0000
0010
0000
0100
0010
1000
0000
,
0001
0000
0010
0100
1000
0000
0001
0000
0100
0010
0100
0001
1000
0000
0100
0000
,
1100
0000
0000
0000
1001
0000
1000
0001
0010
0000
0100
0010
0001
1000
0010
0000
,
0100
0001
1000
0000
0100
1000
0001
0000
0010
0100
1000
0001
0100
0010
1000
0001
,
0010
0000
0000
0000
0110
0000
1000
0100
0010
0000
0001
0000
0100
0010
1000
0000
,
0001
0100
0001
0100
0010
0000
0100
1000
0100
0000
0001
0000
1001
0000
0000
0000
,
0110
0000
0000
0000
1010
0000
1000
0001
0010
0000
0100
0010
0001
1000
0010
0000
,
1000
0001
0010
0001
0010
0000
0100
0001
0100
0000
0010
0001
1000
0000
0000
0000
,
0110
0000
0000
0000
1001
0000
0001
0010
0100
1000
0001
0000
0100
0010
1000
0000
,
0001
1000
0010
1000
0001
0000
0100
0001
1000
0001
0010
0000
0110
0000
0000
0000
,
1100
0000
0000
0000
0101
0000
1000
0100
0010
0001
1000
0100
0010
0001
1000
0000
,
0001
0100
0010
1000
0001
0100
0010
1000
0001
0010
0100
1000
0100
0010
0001
1000
,
0020
0000
0000
0030
,
2001
0000
3100
0100
0020
0000
0031
0001
,
2000
0000
0000
0000
0000
0000
0000
0000
3010
0000
0000
0000
0010
0000
0000
0000
0100
0000
0001
0000
2000
0000
0000
0000
0000
0000
0000
0000
3001
0010
0001
0010
,
0001
0010
0100
0001
1000
0010
0200
0000
0000
0000
1300
0000
0001
0000
0200
0000
,
0000
0000
0000
0000
0000
0000
0000
0000
1300
0000
0100
0000
0001
0000
0000
0000
0000
0000
0000
0000
0011
0000
0000
0000
0000
0000
0000
0000
1000
0001
0100
0010
,
2000
0000
3001
1000
0002
0010
2003
0100
,
3002
0000
1003
0010
0200
0010
0302
1000
,
0023
0000
0130
1000
0002
0100
2003
0010
,
3002
0000
0000
0000
0013
0000
0100
1000
0001
0100
0010
0000
1000
0100
0010
0001
,
1000
0100
0001
1000
0010
0001
2002
0000
,
0000
0000
0000
0000
0000
0000
0000
0000
3003
0000
0000
0000
1000
0100
1000
0100
,
0010
0001
1000
0001
0101
0100
0110
0000
,
0010
0000
1000
0000
0001
0000
0010
0100
1000
0000
0001
0000
0101
0000
0000
0000
,
1000
0100
0010
0100
1100
1000
1001
0000
,
0001
0000
0200
0000
1000
0000
0000
0000
0010
0000
0000
0000
0301
1000
0100
0010
,
0001
0010
1000
0001
0100
1000
2001
0000
,
0100
3002
0203
0320
,
1030
0000
0001
0000
0010
0000
0100
1000
0001
0000
0200
0000
0010
0000
0000
0000
,
1000
0000
0000
0000
0302
0000
0000
0000
1003
0100
1000
0000
0001
0100
0010
1000
,
0001
0000
0010
0000
0100
0000
1000
0010
0100
0000
0000
0000
0101
0000
0000
0000
,
1000
0000
0001
0000
0010
0000
0100
1000
0010
0000
0000
0000
1001
0000
0000
0000
,
0001
0000
0010
0000
1000
0000
0010
0100
0010
0000
0000
0000
1100
0000
0000
0000
,
1000
0000
0001
0000
1000
0000
0100
0000
0010
0100
1000
0000
0010
0100
0001
1000
,
0001
0010
1000
0001
0100
1000
2002
0000
,
0000
0000
0000
0000
0000
0000
0000
0000
3003
0000
0000
0000
1000
0100
0010
0001
,
1000
0000
0001
0000
0100
0000
0010
1000
0001
0000
0010
0100
1000
0000
0001
0000
,
0100
0000
0010
0000
1000
0000
0100
1000
0010
0000
0100
0001
1000
0000
0001
0000
,
0010
0000
0100
0000
0001
0000
0100
1000
0100
0000
0010
0001
1000
0000
0001
0000
,
1000
0000
0020
0000
0001
0000
0000
0000
0100
0000
0000
0000
1030
0001
0010
0100
,
1000
0000
0000
0000
0000
0000
0000
0000
0200
0300
0000
0000
0000
0000
0000
0000
0200
0300
0000
0000
0000
0000
0000
0000
0001
0000
0000
0000
0000
0000
0000
0000
0020
0030
0000
0000
0000
0000
0000
0000
0020
0030
0000
0000
0000
0000
0000
0000
2000
0000
0000
0000
0000
0000
0000
0000
0000
0000
0000
0000
0000
0000
0000
0000
,
0100
0000
3002
0000
1003
0100
0020
0000
,
0032
0000
0100
0000
1003
0001
0020
0000
,
0230
0000
0000
0000
1300
0000
0001
1000
0010
0000
0100
0000
0001
1000
0100
0010
,
0100
0000
1000
0000
0010
0000
0100
0001
1000
0000
0001
0010
1000
0000
0010
0000
,
0001
0000
1000
0000
0010
0000
0100
1000
0100
0000
0001
1000
0100
0000
0010
0000
,
0001
0000
1000
0000
0010
0000
0001
1000
0100
0000
0010
1000
0002
0000
0000
0000
,
0100
0000
0000
0000
1000
0000
0000
0000
0013
0000
0100
0000
1000
0100
0010
0001
,
1000
0100
0110
0001
0100
0110
2002
0000
,
3003
0000
1100
0000
0100
0000
0010
0000
0011
0000
0001
0000
1000
0001
0100
0010
,
1000
0010
0110
0001
0010
0110
2002
0000
,
3003
0000
1010
0000
0010
0000
0100
0000
0101
0000
0001
0000
1000
0001
0010
0100
,
1000
0100
0001
1000
0010
0001
2002
0000
,
0000
0000
0000
0000
,
0000
0000
3003
0000
,
0220
0000
0000
0000
,
0000
0000
0000
0000
,
0000
0000
0000
0000
,
0330
0000
0000
0000
;

//--------------- dance-double - Fred-104 ----------------
#NOTEDATA:;
#STEPSTYPE:dance-double;
#DESCRIPTION:Fred-104;
#DIFFICULTY:Easy;
#METER:10;
#CREDIT:Fred-104;
#NOTES:
00000000
00000000
00000000
00000000
,
00000000
00000000
00000000
00000000
,
00000000
00000000
00000000
00000000
,
00000000
00000000
00000000
00000000
,
00000000
00000000
00000000
00000000
,
00000000
00000000
00000000
00000000
,
00000000
00000000
00000000
00000000
,
00000000
00000000
00000000
00000000
,
00000000
00000000
00000000
00000000
,
00000001
00000000
00000000
00001000
00000000
00000000
00000001
00000000
,
00000100
00000000
00001000
00000000
00010000
00001000
00010000
00000000
,
00100000
00000000
00000000
01000000
00000000
00000000
00010000
00000000
,
10000000
00000000
01000000
00000000
00100000
00001000
00100000
00000000
,
00001000
00000000
00000000
00010000
00000000
00000000
00000010
00000000
,
00001000
00000100
00000010
00000001
,
00000100
00000000
00001000
00000000
00010000
00001000
00010000
00000000
,
00000000
02000000
23000000
30010000
,
10010000
00000000
00000000
01100000
00000000
00000000
10010000
00000000
,
10000000
01000000
00100000
00001000
,
00011000
00000000
00000000
01001000
00000000
00000000
00011000
00000000
,
00010000
00001000
00000100
00000001
,
00000011
00000000
00000000
00001010
00000000
00000000
00000011
00000000
,
00000001
00000100
00001000
00010000
,
00011000
00000000
00000000
00101000
00000000
00000000
00011000
00000000
,
00001000
00000000
00010000
00000000
00100000
01000000
00100000
00000000
,
10010000
00000000
00000000
10000000
00000000
00000000
01000000
00000000
,
00100000
00000000
00001000
00000000
00010000
00000100
00010000
00000000
,
00011000
00000000
00000000
00010000
00000000
00000000
00000100
00000000
,
00000010
00000000
00000001
00000000
00000100
00001000
00010000
00000000
,
00011000
00000000
00000000
00001000
00000000
00000000
00010000
00000000
,
01000000
00000000
10000000
00000000
01000000
00100000
00010000
00000000
,
10000000
00000000
00100000
00000000
00010000
00001000
00010000
00000000
,
00000000
00000200
00000310
00000001
,
00000100
00000000
00000110
00000000
00000010
00001000
00000010
00000000
,
00001000
00000000
00000001
00000000
00000010
00000100
00001000
00000000
,
00000100
00000000
00011000
00000000
00001000
01000000
00001000
00000000
,
00100000
00000000
00010000
00000000
10000000
00100000
01000000
00000000
,
00100000
00000000
10010000
00000000
10000000
01000000
00100000
00000000
,
00001000
00000000
00010000
00000000
00000100
00001000
00000001
00000000
,
00000100
00000000
00000110
00000000
00000001
00001000
00000100
00000000
,
00010000
00001000
00010000
00000000
00001000
01000000
00001000
00000000
,
00011000
00000000
00001000
00000000
00010000
00100000
01000000
00000000
,
00010000
10000000
01000000
00000000
00100000
00001000
00010000
00000000
,
00001000
00000000
00011000
00000000
00010000
00001000
00000100
00000000
,
00000010
00001000
00000001
00000000
00000010
00000100
00001000
00000000
,
00000001
00000000
00001001
00000000
00000001
00000100
00001000
00000000
,
00010000
01000000
10000000
00000000
00010000
10000000
00100000
00000000
,
00010000
00000000
00011000
00000000
00010000
00001000
00000100
00000000
,
00000001
00001000
00000001
00001000
00000001
00001000
00000001
00000000
,
00002002
00000000
00000000
00003003
,
00000001
00000000
00000100
00000100
00000000
00000000
00001000
00001000
,
00000000
00000000
00010000
00010000
00001000
01000000
00000000
00010000
,
10000000
00000000
00000000
01000000
00000000
00000000
00200000
00000000
00000000
00000000
00301000
00000000
00000010
00000000
00000100
00000000
,
00000000
00000000
00001000
00000001
00000000
00001001
00000000
00000000
,
00000001
00000000
00000100
00001000
,
00010000
00000000
00001000
00000100
,
00000001
00000000
00000010
00001000
,
00010000
00100000
10000000
01000000
,
00100000
00000000
00000000
00001000
00000000
00000000
00022000
00000000
,
00000000
00000000
00000000
00033000
,
00001000
00010000
00100000
02000000
,
03010000
10000000
01000000
00200000
,
00301000
00010000
00001000
00000200
,
00000301
00001000
00000001
00000000
00000010
00000000
00001000
00010000
,
00001000
00000000
00000000
01000000
00000000
00000000
00001000
00000000
,
00000000
00010000
01000000
00100000
,
00000000
00010000
10000000
01000000
,
00100000
00000000
00001000
00000000
00010000
00000000
00001000
01000000
,
00001000
00010000
00001000
00000200
,
00000301
00001000
00000100
00000020
,
00000031
00000100
00001000
00020000
,
00031000
00010000
00100000
00000000
01000000
00000000
00010000
00000000
,
10000000
00000000
00000000
01000000
00000000
00000000
02200000
00000000
,
00000000
00000000
00000000
03300000
,
10000000
01000000
00100000
00200000
,
00301000
00010000
00000010
00000020
,
00001030
00000100
00000010
00000020
,
00000031
00000100
00001000
00000000
00010000
00000000
00001000
00000100
,
00000001
00000000
00000000
00000010
00000000
00000000
00000100
00000000
,
00000000
00010000
00000010
00010000
,
00000000
00001000
00100000
00001000
,
00000000
00011000
00000000
00001000
,
00010000
00000000
00100000
00000000
01000000
00100000
01000000
00000000
,
00010000
00000000
10000000
00000000
01000000
10000000
01000000
00000000
,
00100000
00000000
00001000
00000000
00010000
00000010
00010000
00000000
,
00002000
00000000
00013000
00001000
,
00011000
00000000
00000000
00010010
00000000
00000000
00022000
00000000
,
00000000
00000000
00000000
00033000
,
00011000
00000000
00000000
01001000
00000000
00000000
00022000
00000000
,
00000000
00000000
00000000
00033000
,
01001000
00000000
00000000
00011000
00000000
00000000
00020020
00000000
,
00000000
00000000
00000000
00000000
,
00000000
00000000
00030030
00000000
,
00002002
00000000
00000000
00000000
,
00000000
00000000
00000000
00000000
,
00000000
00000000
00000000
00000000
,
00003003
00000000
00000000
00000000
;

//--------------- dance-double - Fred-104 ----------------
#NOTEDATA:;
#STEPSTYPE:dance-double;
#DESCRIPTION:Fred-104;
#DIFFICULTY:Medium;
#METER:14;
#CREDIT:Fred-104;
#NOTES:
00000000
00000000
00000000
00000000
,
00000000
00000000
00000000
00000000
,
00000000
00000000
00000000
00000000
,
00000000
00000000
00000000
00000000
,
00000000
00000000
00000000
00000000
,
00000000
00000000
00000000
00000000
,
00000000
00000000
00000000
00000000
,
00000000
00000000
00000000
00000000
,
00000000
00000000
00000000
00000000
,
00011000
00000000
00010000
00000100
00000000
00010000
00001000
01000000
,
00001000
00010000
00001000
00100000
01000000
00100000
00010000
00000000
,
10000000
00100000
00010000
00001000
00010000
00100000
10000000
00000000
,
00010000
01000000
10000000
01000000
00010000
10000000
01000000
00000000
,
00100000
00000000
00001000
00010000
00000000
00001000
00000100
00000010
,
00001000
00000001
00000010
00000100
00010000
00001000
00010000
00000000
,
00001000
00010000
00100000
01000000
00010000
10000000
00010000
00000000
,
00000000
20000000
32000000
03200000
,
00301000
00000000
00010000
00010010
00000000
00001000
00101000
00000000
,
00010000
00001000
00000100
00000001
00001001
00000000
00000110
00000000
,
00001001
00000000
00001000
00001100
00000000
00000001
00000101
00000000
,
00001000
00000001
00000010
00001000
00010000
00100000
01000000
00000000
,
01010000
00000000
10000000
10100000
00000000
00010000
00110000
00000000
,
10000000
01000000
00100000
00001000
00011000
00000000
01001000
00000000
,
00011000
00000000
00001000
01001000
00000000
00010000
00010100
00000000
,
00010000
00010000
00001000
00001000
00010000
00000010
00010000
00000000
,
00001000
00010000
01000000
00100000
00010000
10000000
00100000
00000000
,
10000000
01000000
00100000
00000000
00011000
00000000
00010100
00000000
,
00010000
00001000
00000010
00000100
00001000
00000001
00000100
00000000
,
00000001
00000010
00000100
00000010
00001000
00010000
00001000
00000000
,
00010000
00001000
00000100
00000001
00000010
00000100
00001000
00000000
,
00000010
00000100
00001000
00010000
00100000
01000000
00010000
00100000
,
01000000
01000000
10000000
10000000
00010000
01000000
01100000
00000000
,
10000000
00000000
02000000
00000000
03010000
00001000
00010000
00000100
,
00000010
00000000
00001001
00000000
00000001
00000100
00001000
00010000
,
01000000
10000000
01000000
00100000
00001000
00010000
00001000
00000000
,
01001000
00000000
00001000
00010000
00100000
01000000
00100000
10000000
,
01000000
00010000
00001000
00000010
00000001
00000010
00000100
00000000
,
00011000
00000000
00001000
00100000
01000000
10000000
00010000
01000000
,
00100000
01000000
10000000
01000000
00010000
10000000
01000000
00000000
,
10010000
00000000
10000000
01000000
00100000
00001000
00010000
00000100
,
00000010
00000001
00000100
00001000
00010000
00001000
00010000
00000000
,
00011000
00000000
00001000
00010000
01000000
10000000
00010000
01000000
,
00100000
01000000
00001000
00000100
00000010
00001000
00000001
00000000
,
00000110
00000000
00001000
00000100
00000001
00000100
00001000
00000001
,
00000100
00001000
00010000
01000000
10000000
00010000
01000000
00000000
,
01100000
00000000
10000000
00100000
00010000
00001000
00000010
00000001
,
00001000
00000010
00000001
00000010
00001000
00000001
00000010
00000000
,
00001001
00000000
00000001
00000100
00000010
00000001
00000010
00000100
,
00001000
00010000
00100000
10000000
00010000
00100000
01000000
10000000
,
20020000
00000000
00000000
30030000
,
21000000
00000000
00100000
00100000
00000000
00000000
00010000
00010000
,
00000000
00000000
00000000
00000000
00000000
00000000
00000000
00000000
00100000
00000000
00000000
00000000
30100000
00000000
00000000
00000000
10000000
00000000
01000000
00000000
00010000
00000000
00000000
00000000
00000000
00000000
00000000
00000000
00010000
00001000
00010000
00001000
,
00010000
00001000
00000100
00000010
00000000
00001000
00000001
00000000
00000000
00000000
00000010
00000000
00000100
00000000
00010000
00000000
,
00000000
00000000
00000000
00000000
00001000
00000000
00000000
00000000
01000000
00000000
00010000
00000000
01000000
00000000
00000000
00000000
00000000
00000000
00000000
00000000
10010000
00000000
00000000
00000000
00000000
00000000
00000000
00000000
10000000
01000000
10000000
01000000
,
00100000
00000000
00001000
00010000
00001000
00000010
00000100
00000000
,
00001000
00000000
00000100
00000010
00000001
00001000
00000010
00000000
,
00010000
00000000
00001000
00010000
00100000
10000000
00010000
00000000
,
00100000
01000000
00100000
00000000
00001000
00000000
00010000
00001000
,
00010000
00001000
00000100
00000001
00001000
00000100
00000220
00000000
,
00000000
00000000
00000000
00000330
,
00000110
00000000
00001001
00000000
00000001
00000010
00000100
00000000
,
00010100
00000000
00011000
00000000
00001000
01000000
00010000
00000000
,
01100000
00000000
10010000
00000000
10000000
01000000
00100000
00000000
,
00001000
00020000
00000010
00000000
00001000
00000000
00030100
00001000
,
00000100
00000010
00000001
00000100
00000010
00001000
00000100
00000000
,
00010000
00000000
00001000
00000000
00010000
00100000
02000000
00000000
,
03100000
00000000
10000000
01000000
00100000
00001000
00020000
00000000
,
00031000
00000000
00000000
00000000
00011000
00000000
00000000
00000000
00010000
00000000
00001000
00000000
00000100
00000001
00000100
00000001
,
00001000
00000000
00000110
00000000
00001000
00000001
00000100
00001000
,
00010000
00000000
00011000
00000000
00001000
00010000
01000000
00100000
,
01000000
00000000
10010000
00000000
10000000
01000000
00010000
00001000
,
00010000
02000000
10000000
00000000
00010000
00000000
13000000
00010000
,
10000000
00100000
00010000
00001000
00000100
00000001
00002002
00000000
,
00000000
00000000
00000000
00003003
,
00000001
00000100
00000010
00000100
00001000
00010000
00100000
00000000
,
10000000
00010000
00100000
10000000
00100000
01000000
00100000
00000000
,
00010000
10000000
01000000
00010000
00001000
00000100
00000010
00000000
,
00001000
00000200
00000001
00000000
00001000
00000000
00000310
00000001
,
00001000
00000010
00000100
00001000
00010000
00100000
01000000
00000000
,
01010000
00000000
11000000
00000000
10000000
01000000
00100000
00000000
,
00101000
00000000
00001000
00010000
00000010
00001000
00000001
00000000
,
00000110
00000000
00001000
00000001
00000010
00001000
00000010
00000001
,
00001000
00000010
00000100
00001000
00010000
00100000
10000000
00010000
,
00100000
01000000
00100000
00001000
00000010
00000100
00001000
00000001
,
00000100
00001000
00010000
01000000
00010000
00001000
00000100
00000001
,
00002000
00000000
00000100
00000000
00000001
00000000
00003010
00000100
,
00000001
00000100
00001000
00010000
00100000
10000000
20020000
00000000
,
30030000
10000000
01000000
00010000
01000000
10000000
00010000
00000000
,
10000000
00100000
00010000
00001000
00000100
00000001
00002002
00000000
,
00003003
00000001
00000100
00001000
00010000
00001000
00010000
00000000
,
00011000
00000000
00000000
01001000
00000000
00000000
00022000
00000000
,
00000000
00000000
00000000
00000000
,
00000000
00000000
00033000
00000000
,
20020000
00000000
00000000
00000000
,
00000000
00000000
00000000
00000000
,
00000000
00000000
00000000
00000000
,
30030000
00000000
00000000
00000000
;

//--------------- dance-double - Fred-104 ----------------
#NOTEDATA:;
#STEPSTYPE:dance-double;
#DESCRIPTION:Fred-104;
#DIFFICULTY:Hard;
#METER:17;
#CREDIT:Fred-104;
#NOTES:
00000000
00000000
00000000
00000000
,
00000000
00000000
00000000
00000000
,
00000000
00000000
00000000
00000000
,
00000000
00000000
00000000
00000000
,
00000000
00000000
00000000
00000000
,
00000000
00000000
00000000
00000000
,
00000000
00000000
00000000
00000000
,
00000000
00000000
00000000
00000000
,
00000000
00000000
00000000
00000000
,
10000000
01000000
00010000
00001000
00000010
00000001
00001000
00000010
,
00000100
00000000
00001000
00000000
00010000
00000000
00100000
00000000
01000000
00010000
00100000
00000000
01000000
00000000
00100000
00001000
,
00010000
00001000
00000010
00000100
00001000
00000100
00010000
00001000
,
00010000
00000000
01000000
00000000
00100000
00000000
00010000
00000000
00100000
01000000
10000000
00000000
00010000
00000000
01000000
00100000
,
00010000
00001000
00000100
00000001
00001000
00000100
00000010
00001000
,
00010000
00000000
01000000
00000000
00100000
00000000
00010000
00000000
10000000
00000000
00100000
00000000
00010000
00001000
00010000
00001000
,
00010000
00001000
00000010
00000001
00000100
00001000
00010000
00000000
,
00000000
00002000
02003000
03020000
,
20030000
00000000
00000000
00000000
01000000
30000000
20010000
00000000
00000000
00000000
00100000
30000000
20010000
00000000
00000000
00000000
,
30010000
10000000
00100000
00010000
00001000
00000100
00000010
00000000
,
00000012
00000000
00000000
00000000
00000100
00000003
00000102
00000000
00000000
00000000
00001000
00000003
00001002
00000000
00000000
00000000
,
00001003
00000010
00000100
00001000
00010000
00100000
10000000
00000000
,
02000000
00000000
00000000
00000000
10000000
03000000
12000000
00000000
00000000
00000000
00010000
03000000
02010000
00000000
00000000
00000000
,
13000000
01000000
00100000
00001000
00000010
00000100
00010000
00000000
,
00012000
00000000
00000000
00000000
00010000
00003000
01002000
00000000
00000000
00000000
00010000
00003000
00102000
00000000
00000000
00000000
,
00013000
00000000
00010000
00000000
00001000
00000000
00001000
00000000
00010000
00000100
00001000
00000100
00000010
00000001
00001000
00000010
,
00000200
00000000
00000000
00000000
00000001
00000300
00000201
00000000
00000000
00000000
00001000
00000300
00001200
00000000
00000000
00000000
,
00000301
00000000
00001000
00000000
00000010
00000000
00000100
00001000
00010000
00000000
00100000
00000000
10000000
00000000
00010000
00000000
,
00120000
00000000
00000000
00000000
01000000
00030000
10020000
00000000
00000000
00000000
00100000
00030000
10020000
00000000
00000000
00000000
,
10030000
00000000
00100000
00000000
01000000
00000000
00100000
00000000
00010000
00001000
00000100
00000000
00000010
00000000
00001000
00000001
,
00000020
00000000
00000000
00000000
00000001
00000030
00000021
00000000
00000000
00000000
00000100
00000030
00000120
00000000
00000000
00000000
,
00000031
00000000
00000100
00000000
00001000
00000000
00010000
00000000
01000000
10000000
01000000
00000000
00100000
00000000
00001000
00000000
,
00011000
00000000
00010000
00000000
00011000
00000000
00001000
00000000
00010000
00001000
00000100
00000001
00001000
00000000
00000000
00000000
,
00000100
00000000
00000000
00000000
00000020
00000000
00000000
00000000
00001030
00000000
00010000
00000000
00100000
01000000
00010000
10000000
,
00010000
00000000
00000000
00000000
11000000
00000000
01000000
00000000
00100000
00000000
00001000
00000000
00010000
00000010
00001000
00000010
,
00010000
00000000
00000000
00010000
00001000
00000000
00000100
00000000
00000001
00001000
00000100
00000010
00000100
00000000
00000000
00000000
,
00001100
00000000
00000000
00000000
00000101
00000000
00000001
00000010
00000100
00000000
00010000
00000000
00001000
01000000
00010000
00000000
,
00100000
00000000
01000000
00100000
00001000
00000000
00010000
00000000
00001000
00000000
00000000
00000000
00011000
00000000
00000000
00000000
,
01100000
00000000
00000000
00000000
10010000
00000000
10000000
01000000
00100000
00000000
00001000
00000000
00010000
00000100
00001000
00000000
,
00000001
00000000
00000100
00000010
00000100
00000000
00001000
00000000
00010000
00100000
01000000
00100000
10000000
00000000
00000000
00000000
,
10010000
00000000
00000000
00000000
11000000
00000000
01000000
00100000
00001000
00000000
00010000
00000100
00001000
00000100
00000010
00000000
,
00000001
00001000
00000010
00000000
00010000
00001000
01000000
00000000
00010000
10000000
00010000
10000000
01000000
00100000
00001000
00010000
,
00001000
00000000
00000000
00000000
00011000
00000000
00010000
00001000
00000010
00000000
00000001
00000000
00000010
00001000
00010000
00000000
,
00001000
00100000
00010000
00100000
01000000
00000000
10000000
00010000
01000000
00000000
00001000
00000000
00011000
00000000
00000000
00000000
,
01100000
00000000
00000000
00000000
10010000
00000000
10000000
01000000
00100000
00000000
00001000
00010000
00001000
01000000
00001000
00000000
,
00010000
00001000
00000100
00000010
00001000
00000000
00000100
00000010
00000001
00000000
00000100
00001000
00010000
00000000
00001000
00000000
,
00011000
00000000
00000000
00000000
00101000
00000000
00001000
00010000
00000010
00000000
00001000
00000010
00010000
00001000
01000000
00000000
,
00010000
10000000
01000000
00100000
00001000
00000000
00010000
00000010
00001000
00000001
00000010
00000000
00000110
00000000
00000000
00000000
,
00001100
00000000
00000000
00000000
00000101
00000000
00001000
00000001
00000010
00000001
00001000
00000001
00000100
00000010
00001000
00000000
,
00000001
00000010
00000100
00001000
00000100
00010000
00001000
00100000
00010000
10000000
00100000
01000000
00001000
00010000
00000100
00010000
,
00002000
00000000
00000000
00003000
,
00021000
00000000
00001000
00002000
00003000
00000000
01000000
02000000
,
03000000
00000000
00000000
00000000
00000000
00000000
00000000
00000000
00001000
00000000
00000000
00000000
00031000
00000000
00000000
00000000
00010000
00000000
00001000
00000000
00020000
00000000
00000000
00000000
00000000
00000000
00000000
00000000
00030100
00001000
00000100
00001000
,
00000001
00000100
00001000
00010000
00100000
10000000
00020000
00000000
00000000
00000000
01030000
00000000
00100000
00000000
00002000
00000000
,
00000000
00000000
00000000
00000000
00000000
00000000
00000000
00000000
00003010
00000000
00010000
00000000
00001000
00000000
00000000
00000000
00000000
00000000
00000000
00000000
00011000
00000000
00000000
00000000
00000000
00000000
00000000
00000000
01000000
00100000
01000000
00100000
,
01000000
00000000
00010000
00100000
01000000
00001000
00000100
00010000
,
00001000
00000000
00010000
00001000
00000100
00000001
00000010
00000100
,
00001000
00000000
00000010
00000100
00010000
01000000
00100000
10000000
,
01000000
00000000
00000000
00000000
00100000
00000000
00001000
00000000
00010000
00000000
00000010
00000000
00001000
00000001
00000100
00000010
,
00000100
00001000
00010000
00100000
01000000
00010000
20020000
00000000
,
00000000
00000000
00000000
00000000
00000000
00000000
00000000
00000000
30030000
00000000
00000000
00000000
10000000
01000000
00100000
00001000
,
00010000
00000000
00001000
00000000
00000010
00000000
00000001
00001000
00000010
00000000
00000100
00000000
00001000
00000000
00000000
00000000
,
00010000
00000000
00100000
00000000
01000000
00000000
00100000
10000000
00010000
00000000
00100000
01000000
00010000
00000000
00000000
00000000
,
00001000
00000000
00000010
00000000
00000100
00000000
00001000
00000010
00000100
00000000
00001000
00010000
00100000
00000000
01000000
00000000
,
00010000
00000000
00200000
00000000
10000000
00000000
00000000
00000000
01000000
00000000
00000000
00000000
00310000
10000000
00010000
01000000
,
00001000
00010000
00001000
00000010
00000001
00000010
00000110
00000000
,
00001000
00000001
00000200
00000000
00000010
00000000
00000302
00000000
,
00001003
00000010
00000100
00010000
01000000
00100000
20000000
00000000
,
01000000
00000000
00000000
00000000
30010000
00000000
01000000
00001000
01000000
00000000
00001000
00000000
00010000
00000100
00001000
00000001
,
00000010
00000000
00000000
00000000
00000001
00000000
00000100
00000001
00001000
00000000
00000010
00000100
00001000
00000000
00010000
00000000
,
00100000
00000000
00000000
00000000
01000000
00000000
00010000
10000000
01000000
00000000
00010000
00001000
00010000
00000000
01000000
00000000
,
00100000
00000000
00010000
00000000
00001000
00000000
00000100
00000010
00000001
00000000
00001000
00000010
00010000
00000000
00001000
00000000
,
00010000
00000000
00000000
00000000
00001000
00000000
01000000
00001000
01000000
00001000
00010000
00000000
00001000
00000010
00000001
00000010
,
00000100
00001000
00000010
00000100
00001000
00010000
00022000
00000000
,
00000000
00000000
00000000
00000000
00000000
00000000
00000000
00000000
00033000
00000000
00000000
00000000
00001000
01000000
00010000
10000000
,
01000000
00000000
00100000
00000000
00001000
00000000
00010000
00001000
00000010
00000000
00000100
00001000
00000001
00000000
00000100
00000000
,
00000010
00000000
00000100
00000000
00001000
00000000
00010000
00100000
01000000
00000000
00100000
10000000
00010000
00000000
00100000
00000000
,
01000000
00000000
00100000
00000000
00001000
00000000
00010000
00100000
10000000
00000000
00010000
00100000
01000000
00000000
10000000
00000000
,
00010000
00000000
02000000
00000000
10000000
00000000
00000000
00000000
00100000
00000000
00000000
00000000
03010000
10000000
01000000
00100000
,
00001000
00010000
00000010
00001000
00000100
00000010
00000002
00000000
,
00000100
00000000
00002003
00000000
00003100
00000010
00000011
00000000
,
00001000
00000000
00000001
00000100
00001000
00010000
00200000
00000000
,
02300000
00000000
00000000
00000000
03010000
00000000
00100000
01000000
00100000
00000000
00001000
00000000
00010000
00001000
00000100
00000001
,
00001000
00000000
00000100
00000000
00000010
00000000
00000001
00001000
00000010
00000000
00000100
00001000
00010000
00000000
00100000
00000000
,
10000000
00000000
00100000
00000000
00010000
00000000
00001000
00010000
00000100
00000000
00001000
00000001
00001000
00000000
00000100
00000000
,
00000010
00000000
00001000
00000000
00010000
00000000
01000000
00100000
00010000
00000000
01000000
00100000
20000000
00000000
00000000
00000000
,
01000000
00000000
00000000
00000000
00010000
00000000
00000000
00000000
30100000
00000000
10000000
00000000
01000000
00100000
00001000
00010000
,
00000100
00000010
00000001
00000100
00001000
00010000
00022000
00000000
,
00033000
00000000
00101000
00000000
00001000
00000000
00010000
00000000
00010010
00000000
00000010
00000000
00001000
00000001
00000010
00000000
,
00000001
00000100
00001000
00010000
00100000
10000000
20020000
00000000
,
30030000
00000000
11000000
00000000
01000000
00000000
00100000
00000000
00101000
00000000
00001000
00000000
00010000
00000010
00001000
00000010
,
00010000
00001000
00000010
00000001
00000100
00001000
00022000
00000000
,
00000000
00000000
00000000
00000000
,
00000000
00000000
00033000
00000000
,
00022000
00000000
00000000
00000000
,
00000000
00000000
00000000
00000000
,
00000000
00000000
00000000
00000000
,
00033000
00000000
00000000
00000000
;
