#VERSION:0.83;
#TITLE:Pacify;
#ARTIST:BEMANI Sound Team "SYUNN";
#ARTISTTRANSLIT:SYUNN;
#BANNER:Pacify.png;
#BACKGROUND:Pacify-bg.png;
#CDTITLE:./CDTitles/pnm Usagi to neko to shounen no yume.png;
#MUSIC:Pacify.ogg;
#SAMPLESTART:23.314;
#SAMPLELENGTH:15;
#BPMS:0=175;
#BGSTAGE:16;

//--------------- dance-single - Fred-104 ----------------
#NOTEDATA:;
#STEPSTYPE:dance-single;
#DESCRIPTION:Fred-104;
#DIFFICULTY:Beginner;
#METER:4;
#CREDIT:Fred-104;
#NOTES:
0000
0000
0000
0000
,
0000
0000
0000
0000
,
0000
0000
0000
0000
,
0000
0000
0000
0000
,
0000
0000
0000
0000
,
1000
0000
0000
0000
,
0000
0000
0000
0000
,
1000
0000
0000
0000
,
0000
0000
0000
0000
,
0001
0000
0000
0000
,
0001
0000
0000
0000
,
0010
0000
0000
0000
,
0010
0000
0000
0000
,
0100
0000
0000
0000
,
0100
0000
0000
0000
,
1000
0000
1000
0000
,
1001
0000
0000
0000
,
0001
0000
0010
0000
,
0010
0000
0000
0000
,
1000
0000
1000
0000
,
0100
0000
0000
0000
,
0100
0000
0001
0000
,
0100
0000
0000
0000
,
0001
0000
1000
0000
,
0001
0000
0000
0000
,
1000
0000
1000
0000
,
0100
0000
0001
0000
,
0001
0000
0000
0000
,
0100
0000
0010
0000
,
0100
0000
0000
0000
,
0100
0000
1000
0000
,
1000
0000
0001
0000
,
1000
0000
1001
0000
,
0002
0000
0003
0000
,
2000
0000
3000
0000
,
0001
0001
0001
0000
,
0100
0000
0010
0000
,
0200
0000
0300
0000
,
0002
0000
0003
0000
,
1000
1000
1000
0000
,
0001
0001
0002
0003
,
1000
0000
0100
0000
,
0010
0000
0010
0000
,
0001
0000
0001
0000
,
1000
0000
0010
0000
,
1000
0000
1000
0000
,
0001
0000
0010
0000
,
0100
0000
1000
0000
,
1000
0000
0001
0000
,
2000
0000
0000
0000
,
0000
0000
3000
0000
,
0002
0000
0000
0000
,
0000
0000
0003
0000
,
2000
0000
0000
0000
,
0000
0000
3000
0000
,
0002
0000
0000
0000
,
0000
0000
0003
0000
,
1000
0000
0010
0000
,
0010
0000
0000
0000
,
0001
0000
0001
0000
,
0100
0000
0000
0000
,
0100
0000
1000
0000
,
0100
0000
0000
0000
,
1000
0000
0001
0000
,
1000
0000
0000
0000
,
0001
0000
0001
0000
,
0100
0000
1000
0000
,
1000
0000
0000
0000
,
0100
0000
0010
0000
,
0100
0000
0000
0000
,
0100
0000
0001
0000
,
0001
0000
1000
0000
,
0001
0000
1001
0000
,
2000
0000
3000
0000
,
0002
0000
0003
0000
,
1000
0000
0001
0000
,
0100
0100
0100
0000
,
0020
0000
0030
0000
,
0200
0000
0300
0000
,
0002
0000
0003
0000
,
1000
0000
1001
0000
,
0001
0000
0001
0000
,
1000
0000
1000
0000
,
0010
0000
0010
0000
,
1000
0000
1000
0000
,
0001
0000
0001
0000
,
0010
0000
0010
0000
,
0100
0000
0100
0000
,
1000
1000
1000
1000
,
1001
0000
0000
0000
;

//--------------- dance-single - Fred-104 ----------------
#NOTEDATA:;
#STEPSTYPE:dance-single;
#DESCRIPTION:Fred-104;
#DIFFICULTY:Easy;
#METER:8;
#CREDIT:Fred-104;
#NOTES:
0000
0000
0000
0000
,
0000
0000
0000
0000
,
0000
0000
0000
0000
,
0000
0000
0000
0000
,
0000
0000
0000
0000
,
0001
0000
0001
0000
0000
0100
0000
0100
,
0000
0001
0000
0000
1000
0000
1000
0000
,
0100
0000
0100
0000
0000
0010
0000
0010
,
0001
0001
2002
3003
,
1000
0000
0100
0000
,
0001
0001
0100
1000
,
0001
1000
0001
0001
,
0100
0010
0110
0000
,
0001
0001
1000
1000
,
0100
0100
0010
0010
,
0001
1000
0001
1000
,
1001
0000
0000
0000
,
1000
0000
0100
0000
0010
0000
0000
0001
,
0000
0001
0000
0000
1000
0000
0001
0000
,
0100
0000
0010
0000
0100
0000
0000
0100
,
0000
0000
0001
0000
1000
0001
1000
0000
,
0001
0000
0010
0000
0100
0000
0000
0100
,
0000
0100
0000
0000
0010
0000
0001
0000
,
0100
0000
0010
0000
0100
0000
0000
0100
,
0000
0010
1000
0001
,
1001
0000
0000
0000
1000
0000
0001
0001
,
0000
0100
0000
0010
0010
0000
0100
0000
,
0001
0000
1000
0000
0100
0000
0000
0010
,
0000
0000
0010
0000
0001
1000
0001
0000
,
0100
0000
0001
0000
0100
0000
0000
0100
,
0000
0100
0000
0010
0010
0000
0100
0000
,
0001
1000
0100
0001
,
0100
1000
2002
3003
,
0001
0001
0010
0000
,
1000
1000
0010
0000
,
0100
0010
0001
0000
,
1000
1000
0001
0001
,
1000
0100
0010
0000
,
0010
0100
0001
0000
,
0100
0100
1000
0001
,
0100
0010
2002
3003
,
1000
0002
0000
1003
,
0100
0000
0010
0000
0001
0001
0001
0000
,
1000
0001
0100
0100
,
0010
0000
1000
0000
0001
0001
0001
0000
,
0010
0200
0000
1300
,
0001
0000
0100
0000
0010
0010
0010
0000
,
0100
0001
1000
0100
,
0010
0001
0010
0000
0001
1000
0001
0000
,
2000
0000
0000
0000
,
3002
0000
0000
0000
,
2003
0000
0000
0000
,
3002
0000
0000
0000
,
0203
0000
0000
0000
,
0320
0000
0000
0000
,
0230
0000
0000
0000
,
0301
1000
0001
1001
,
0001
0000
0100
0000
0010
0000
0000
1000
,
0000
1000
0000
0000
0001
0000
1000
0000
,
0100
0000
0010
0000
0100
0000
0000
0100
,
0000
0000
1000
0000
0001
1000
0001
0000
,
1000
0000
0010
0000
0100
0000
0000
0100
,
0000
0100
0000
0000
0010
0000
1000
0000
,
0100
0000
0010
0000
0100
0000
0000
0100
,
0000
0010
0001
1000
,
1001
0000
0000
0000
0001
0000
1000
1000
,
0000
0100
0000
0010
0010
0000
0100
0000
,
1000
0000
0001
0000
0100
0000
0000
0010
,
0000
0000
0010
0000
1000
0001
1000
0000
,
0100
0000
1000
0000
0100
0000
0000
0100
,
0000
0100
0000
0010
0010
0000
0100
0000
,
1000
0001
0100
1000
,
0100
0001
2002
3003
,
1000
1000
0010
0000
,
0001
0001
0010
0010
,
0100
0010
1000
1000
,
0001
0001
1000
1000
,
0001
0100
0010
0000
,
0010
0100
1000
0100
,
0100
0000
0100
0000
0001
1000
0001
0000
,
1000
0100
2002
3003
,
1000
0100
0000
0100
,
0001
0100
0001
0100
,
0001
0010
0001
0010
,
1000
0000
0001
0001
,
0010
0000
0100
0000
,
0100
1000
1000
0001
,
0100
0000
0010
0100
0010
0000
0100
0000
,
0001
0000
1000
0000
0001
1000
0002
0000
,
0003
0000
0000
0000
;

//--------------- dance-single - Fred-104 ----------------
#NOTEDATA:;
#STEPSTYPE:dance-single;
#DESCRIPTION:Fred-104;
#DIFFICULTY:Medium;
#METER:12;
#CREDIT:Fred-104;
#NOTES:
0000
0000
0000
0000
,
0000
0000
0000
0000
,
0000
0000
0000
0000
,
0000
0000
0000
0000
,
0000
0000
0000
0000
,
0001
0000
0001
0000
0000
0010
0000
0010
,
0000
0100
0000
0100
0100
0000
1000
0000
,
0001
0000
0001
0000
0000
1000
0000
1000
,
0010
0000
0010
0000
0100
0001
0100
0001
,
0100
0100
0001
1000
,
0100
0010
0001
0000
0100
0010
1000
0000
,
0001
0010
1000
0010
,
1000
0000
0010
0000
0001
0010
0001
0000
,
1000
0010
1000
0010
,
0100
0001
0100
0001
,
0010
0100
1000
0001
0010
0100
1000
0001
,
0100
0000
0100
0000
0001
1000
0001
0000
,
1001
0000
1000
0100
1000
0100
0010
0100
,
0000
0110
0000
0010
0001
1000
0010
0000
,
0100
0000
0110
0000
1000
0001
0010
1000
,
0000
1000
0010
0001
1000
0001
0100
0000
,
0100
0000
0001
1000
0001
1000
0100
0010
,
0000
0011
0000
0001
1000
0010
0100
0000
,
1000
0000
1100
0000
0100
0001
1000
0100
,
0000
0100
0010
0001
1000
0001
0100
0000
,
0110
0000
0010
1000
0010
1000
0001
0010
,
0000
0110
0000
0010
1000
0010
0001
0000
,
0100
0000
0110
0000
0010
1000
0001
1000
,
0000
1000
0100
0010
0001
0010
0100
0000
,
0100
0000
0010
0001
0010
0001
1000
0010
,
0000
0110
0000
0100
0010
0100
0001
0000
,
1000
0000
1001
0000
0001
0010
0100
0010
,
0000
0010
0001
1000
0010
0100
0001
0000
,
1000
0100
0000
0100
0010
0001
1000
0010
,
0000
0010
0100
0001
1000
0001
0010
0000
,
0100
0010
0100
1000
0001
0000
1001
0000
,
1000
0100
0001
0000
1000
0010
0001
0000
,
1000
0001
0000
0001
0010
0100
0010
0100
,
0000
0100
1000
0001
0100
0010
0100
0000
,
0100
0001
1000
0001
0010
0000
0100
0000
,
1000
0000
0001
0000
0100
0000
2002
3003
,
0001
1000
0020
0000
0001
0000
2030
0000
,
3001
0010
0100
1000
0000
0001
1000
0020
,
0000
0100
0230
0000
0301
1000
0001
0100
,
0000
0100
1000
0100
0010
0000
0010
1000
,
0000
0001
0002
0000
0000
0010
0000
2003
,
0000
0001
0000
3001
0010
0100
0010
0200
,
0000
1000
1300
0000
0001
1000
0001
0010
,
0000
0010
1000
0010
0100
0010
0001
0000
,
2000
0000
0000
0000
,
0000
0000
0000
0000
,
3002
0000
0000
0000
,
0000
0000
0000
0000
,
0023
0000
0000
0000
,
0230
0000
0000
0000
,
2300
0000
0000
0000
,
3001
1000
0001
0000
0100
0010
1000
1000
,
1001
0000
0001
0100
0001
0100
0010
0100
,
0000
0110
0000
0010
1000
0001
0010
0000
,
0100
0000
0110
0000
0001
1000
0010
0001
,
0000
0001
0010
1000
0001
1000
0100
0000
,
0100
0000
1000
0001
1000
0001
0100
0010
,
0000
1010
0000
1000
0001
0010
0100
0000
,
0001
0000
0101
0000
0100
1000
0001
0100
,
0000
0100
0010
1000
0001
1000
0100
0000
,
0110
0000
0010
0001
0010
0001
1000
0010
,
0000
0110
0000
0010
0001
0010
1000
0000
,
0100
0000
0110
0000
0010
0001
1000
0001
,
0000
0001
0100
0010
1000
0010
0100
0000
,
0100
0000
0010
1000
0010
1000
0001
0010
,
0000
0110
0000
0100
0010
0100
1000
0000
,
0001
0000
1001
0000
1000
0010
0100
0010
,
0000
0010
1000
0001
0010
0100
1000
0000
,
0001
0100
0001
0100
0010
1000
0010
1000
,
0000
1000
0001
0100
1000
0100
0001
0000
,
1000
0000
0100
0000
0010
0001
1000
0001
,
0100
0010
1000
0001
0010
0000
0011
0000
,
0001
0000
1000
0000
0001
1000
0010
0100
,
0000
1100
0000
0101
0000
0001
1000
0100
,
0000
0010
0001
1000
0000
0010
0100
0000
,
0001
1000
0100
0010
0001
0000
1001
0000
,
1000
0100
1000
0100
0001
0100
0001
0100
,
0000
0100
1000
0001
0100
0010
1000
0000
,
0001
1000
0002
0000
1000
0000
0103
0001
,
0000
0001
0010
0100
1000
0001
0010
0100
,
1000
0000
2000
0000
0010
0000
3001
1000
,
0100
0010
0000
0011
0000
0001
1000
0010
,
0000
0010
0001
0010
0100
0000
0101
0000
,
0001
1000
0100
0010
0001
0100
0020
0000
,
0030
0000
0000
0000
;

//--------------- dance-single - Fred-104 ----------------
#NOTEDATA:;
#STEPSTYPE:dance-single;
#DESCRIPTION:Fred-104;
#DIFFICULTY:Hard;
#METER:15;
#CREDIT:Fred-104;
#NOTES:
0000
0000
0000
0000
,
0000
0000
0000
0000
,
0000
0000
0000
0000
,
0000
0000
0000
0000
,
0000
0000
0000
0000
,
1000
0000
1000
0000
0000
0001
0100
0001
,
0000
1000
0000
1000
0000
0001
0000
0001
,
0010
0000
0010
0000
0000
0100
0000
0100
,
1000
0000
0000
0000
0001
0000
0000
0000
2000
3000
0020
0030
0200
0300
0002
0003
,
1000
1000
0000
0001
1000
0010
1000
0001
,
0000
0000
0010
0100
0010
0000
0001
0000
1000
0001
1000
0000
0010
0000
0010
0000
,
0000
0000
0100
0001
0100
0000
0010
0000
0100
0000
0000
0000
0110
0000
0000
0000
,
0001
0000
1000
0100
1000
0000
0001
0000
1000
0000
0010
0000
0001
0000
0010
0000
,
1000
1000
0100
0100
,
0010
0010
0001
0001
,
0100
0010
0100
0000
0001
0000
1000
0000
0100
0010
0100
0000
1000
0000
0001
0000
,
0100
0000
0010
1000
0010
1000
0010
0000
0200
0300
0020
0030
2000
3000
0002
0003
,
1001
0000
0000
0000
0001
0000
1000
0001
1000
0000
0100
0000
0010
0000
0100
0000
,
0000
0000
1100
0000
0000
0000
1000
0001
1000
0000
0010
0000
0100
0000
0001
0000
,
1000
0000
0000
0000
1200
0000
0000
0000
0310
0000
0001
1000
0001
1000
0001
0000
,
0000
0000
1000
0100
1000
0100
0010
0000
0001
0000
1000
0010
1000
0000
0001
0000
,
0010
0000
0000
0000
0100
0000
0010
0001
1000
0010
1000
0010
0100
0000
0101
0000
,
0000
0000
1001
0000
0000
0000
0001
0010
0001
0000
0010
0000
0100
0000
1000
0000
,
0001
0000
0000
0000
0001
0200
0000
0000
1300
0000
0100
0010
0100
0010
0100
0000
,
0000
0000
0001
1000
0001
1000
0001
0000
1000
0100
1000
0000
0010
0000
0100
0001
,
0100
0000
0000
0000
0001
0000
0001
1000
0100
0000
1000
0000
0010
0000
1010
0000
,
0000
0101
0000
1100
1000
0001
1000
0100
,
0010
0000
0000
0000
0012
0000
0000
0000
1003
0000
0001
0100
0001
0100
0001
0000
,
0000
0000
1000
0001
0010
0100
0010
0000
0001
1000
0001
1000
0010
0100
0001
0000
,
1000
0000
0000
0000
0100
0000
0010
0001
0010
0100
0010
0100
0010
0000
0011
0000
,
0000
0000
1010
0000
0000
0000
0010
0001
0010
0000
0001
0000
1000
0000
0010
0000
,
0100
0000
0000
0000
0102
0000
0000
0000
1003
0000
0100
0000
0010
0001
0010
0000
,
0000
0000
0001
1000
0001
1000
0001
0000
1000
0100
0010
0000
0001
0000
1000
0000
,
0010
0100
0000
0100
1000
0001
0010
1000
,
0000
0000
1000
0010
1000
0000
0100
0000
0010
0001
0010
0000
0001
1000
0001
1000
,
0010
0000
0100
0001
0100
0000
0001
0000
0010
0000
0000
0000
1010
0000
0000
0000
,
0010
0000
0100
1000
0100
0000
0010
0000
0001
1000
0001
0000
0100
0010
0100
0010
,
1000
0001
0000
0001
0100
1000
0001
0010
,
0000
0000
0010
0100
0010
0000
1000
0000
0001
1000
0001
1000
0100
0000
0010
0000
,
0001
0000
1000
0010
1000
0000
0001
0000
0010
0000
0100
0000
1000
0000
0001
0000
,
1000
0000
0010
0100
0001
0100
0001
0100
0010
0000
1000
0000
2002
0000
3003
0000
,
1000
0000
0100
0000
1000
0000
1001
0000
0000
0000
0001
1000
0001
0000
0100
0000
,
0010
0000
0001
0000
1000
0000
0200
0000
0000
0000
0310
1000
0010
0000
0100
0000
,
0001
0000
1000
0000
0010
0000
0110
0000
0000
0000
0100
0010
0100
0000
0002
0000
,
0000
0000
1003
0000
0100
0000
0010
0000
0001
1000
0001
1000
0001
0000
0100
0000
,
0010
0000
0100
0000
0001
0000
1001
0000
0000
0000
1000
0001
1000
0000
0002
0000
,
0000
0000
0013
0000
1000
0000
0010
0000
0100
0000
1000
0001
1000
0000
0010
0000
,
0100
0000
0001
0000
0100
0000
0110
0000
0000
0000
0010
1000
0010
0000
1000
0000
,
0001
0000
0010
0100
0010
0100
0010
0000
0100
1000
0100
1000
0100
0000
1000
0000
,
0002
0000
0000
0000
0000
0000
1003
2000
,
0000
0000
0000
3020
0000
0230
0000
0320
,
0000
1000
0000
0230
,
0301
1000
0200
0000
0000
0000
0020
0000
,
0330
0000
0001
1000
0001
0100
0010
2000
,
0000
3002
0000
0013
0010
0100
1000
0002
,
0000
0203
0000
2300
,
3100
0000
0001
0000
0100
0000
0001
0000
1000
0000
0100
0000
0010
0001
0010
0000
,
0011
0000
0000
0000
0001
0000
1000
0010
1000
0000
0001
0000
0100
0000
0110
0000
,
0000
0000
1010
0000
0000
0000
0001
1000
0100
0000
0010
0000
0001
0000
1000
0000
,
0010
0000
0000
0000
0110
0000
0000
0000
0100
0000
0001
1000
0001
1000
0100
0000
,
0000
0000
0010
0001
0010
0001
0010
0000
0100
0000
1000
0001
1000
0000
0010
0000
,
0100
0000
0000
0000
0100
0000
0010
1000
0010
0100
0010
0100
0001
0000
1001
0000
,
0000
0000
1100
0000
0000
0000
0001
1000
0001
0000
0100
0000
0010
0000
1000
0000
,
0001
0000
0000
0000
0001
0020
0000
0000
1030
0000
0010
0100
0010
0100
0010
0000
,
0001
0000
1000
0001
1000
0001
0100
0000
0010
1000
0001
0000
0010
0000
0100
1000
,
0001
0000
0000
0000
0001
0000
0100
0010
0100
0000
0001
0000
1000
0000
1100
0000
,
0000
0101
0000
1010
0001
0010
0100
1000
,
0001
0000
0000
0000
2010
0000
0000
0000
3001
0000
0010
0100
0010
0100
0010
0000
,
0001
0000
1000
0001
0100
0001
0100
0000
0010
1000
0010
1000
0001
0010
0100
0000
,
1000
0000
0001
0000
0100
0000
0010
1000
0010
0100
0010
0100
0010
0000
1010
0000
,
0000
0000
0101
0000
0000
0000
1000
0100
1000
0000
0001
1000
0001
1000
0010
0000
,
0100
0000
0000
0000
0102
0000
0000
0000
1003
0000
0001
0000
0100
0010
0100
0010
,
0100
0000
0001
1000
0001
1000
0001
0000
0010
0100
1000
0000
2002
0000
3003
0000
,
0001
0000
1000
0000
0001
0000
0100
0000
0010
0000
1000
0001
1000
0000
0100
0000
,
0010
0000
0001
1000
0001
0000
0100
0010
0100
0010
0100
0000
0001
0000
1000
0000
,
0001
0000
0010
0000
0100
0000
0010
0000
0001
0000
1000
0001
1000
0000
0010
0000
,
0100
0000
0010
1000
0010
1000
0010
0000
0100
0000
0001
0000
1001
0000
0000
0000
,
1000
0000
0100
0000
0010
0000
0100
0000
1000
0000
0001
1000
0001
0000
0010
0000
,
0000
0000
1010
0000
0000
0000
0011
0000
0000
0000
0001
1000
0001
0000
0200
0000
,
0000
0000
1300
0000
0100
0000
0101
0000
0000
0000
0001
1000
0001
0000
0100
0000
,
0010
0000
1000
0001
1000
0000
0001
0000
0010
0000
0000
0000
0110
0000
0000
0000
,
0001
1000
0100
0010
0001
1000
0010
0100
,
0000
0000
0100
0001
0100
0000
0010
1000
0010
0000
1000
0000
0001
0000
0010
0000
,
0100
0000
0000
0000
1000
0001
1000
0000
0001
0000
0100
0000
0010
0000
0001
0000
,
0000
0000
0001
0000
0010
0000
1000
0000
0001
1000
0001
0000
0100
0000
0010
0000
,
0100
0000
0001
1000
0100
1000
0001
0100
,
0010
0000
1000
0001
1000
0000
0001
0000
0010
0100
0010
0000
0100
0000
1000
0000
,
0000
1000
0010
0001
0010
0000
0110
0000
,
0100
0000
0001
1000
0001
0000
0010
0000
0100
0010
0100
0010
0001
1000
0010
0200
,
0300
0000
0000
0000
;

//--------------- dance-double - Fred-104 ----------------
#NOTEDATA:;
#STEPSTYPE:dance-double;
#DESCRIPTION:Fred-104;
#DIFFICULTY:Easy;
#METER:8;
#CREDIT:Fred-104;
#NOTES:
00000000
00000000
00000000
00000000
,
00000000
00000000
00000000
00000000
,
00000000
00000000
00000000
00000000
,
00000000
00000000
00000000
00000000
,
00000000
00000000
00000000
00000000
,
00010000
00000000
00010000
00000000
00000000
00000010
00000000
00000010
,
00000000
00001000
00000000
00001000
00001000
00000000
00000001
00000000
,
00000010
00000000
00000100
00000000
00000000
00010000
00000000
00010000
,
00010000
00001000
00022000
00033000
,
00001000
00000000
00010000
00000000
,
00100000
00100000
10000000
00000000
,
01000000
00100000
00001000
00000000
,
00010000
00001000
00010000
00000000
,
00001000
00001000
00010000
00010000
,
00000100
00000100
00010000
00010000
,
00001000
00000010
00000100
00010000
,
00011000
00000000
00000000
00000000
,
00001000
00000000
00000000
00010000
00010000
00000000
00000000
00001000
,
00000000
00001000
00000000
00100000
00100000
00000000
00010000
00000000
,
10000000
00000000
00000000
00100000
00100000
00000000
00010000
00000000
,
00001000
00010000
00001000
00000000
00010000
00000010
00010000
00000000
,
00011000
00000000
00000000
00010000
00000100
00000000
00000000
00000010
,
00000000
00000001
00000000
00000001
00000001
00000000
00001000
00000000
,
00000001
00000000
00000000
00000100
00000100
00000000
00000010
00000000
,
00001001
00000000
00000110
00000000
,
00001001
00000000
00000000
00000000
00000001
00000000
00000000
00000010
,
00000000
00000010
00000000
00000010
00000010
00000000
00000100
00000000
,
00010000
00000000
00000000
00001000
00001000
00000000
00100000
00000000
,
00110000
00000000
10010000
00000000
,
00010000
00000000
00000000
10000000
10000000
00000000
00000000
01000000
,
00000000
01000000
00000000
01000000
00100000
00000000
00001000
00000000
,
00010000
00000000
00000000
00010000
00000100
00000000
00010000
00000000
,
00001000
00010000
00022000
00033000
,
00010000
00010000
00001000
00000000
,
00000100
00000100
00000001
00000000
,
00001000
00000100
00000010
00000010
,
00000001
00001000
00000010
00000000
,
00000100
00000100
00000001
00000000
,
00000010
00000100
00010000
00000000
,
00001000
00001000
00100000
00010000
,
10000000
00010000
20020000
30030000
,
10000000
00020000
00000000
01030000
,
00100000
00000000
00010000
00000000
00001000
00010000
00001000
00000000
,
00010000
00000100
00000010
00000010
,
00000001
00000000
00001000
00000000
00000010
00000100
00000010
00000000
,
00001000
00000002
00000000
00000013
,
00000100
00000000
00001000
00000000
00000100
00010000
00000100
00000000
,
00010000
00001000
00010000
00100000
,
01000000
00010000
01000000
00000000
00100000
10000000
00100000
00000000
,
20010000
00000000
00000000
00000000
,
30020000
00000000
00000000
00000000
,
20030000
00000000
00000000
00000000
,
32000000
00000000
00000000
00000000
,
03200000
00000000
00000000
00000000
,
00302000
00000000
00000000
00000000
,
00023000
00000000
00000000
00000000
,
00031000
00001000
00010000
00011000
,
00010000
00000000
00000000
00001000
00001000
00000000
00000000
00010000
,
00000000
00010000
00000000
00000010
00000010
00000000
00001000
00000000
,
00000001
00000000
00000000
00000010
00000010
00000000
00001000
00000000
,
00010000
00001000
00010000
00000000
00001000
00100000
00001000
00000000
,
00011000
00000000
00000000
00001000
01000000
00000000
00000000
00100000
,
00000000
10000000
00000000
10000000
10000000
00000000
00010000
00000000
,
10000000
00000000
00000000
01000000
01000000
00000000
00100000
00000000
,
10010000
00000000
01100000
00000000
,
10010000
00000000
00000000
00000000
10000000
00000000
00000000
00100000
,
00000000
00100000
00000000
00100000
00100000
00000000
01000000
00000000
,
00001000
00000000
00000000
00010000
00010000
00000000
00000010
00000000
,
00001010
00000000
00001001
00000000
,
00001000
00000000
00000000
00000001
00000001
00000000
00000000
00000100
,
00000000
00000100
00000000
00000100
00000010
00000000
00010000
00000000
,
00001000
00000000
00000000
00001000
01000000
00000000
00001000
00000000
,
00010000
00001000
00022000
00033000
,
00010000
00010000
00001000
00000000
,
00000010
00000010
00000001
00000001
,
00001000
00000010
00000100
00000100
,
00000001
00001000
00000100
00000100
,
00000010
00000010
00000001
00000000
,
00000100
00000010
00010000
00010000
,
00001000
01000000
00010000
10000000
,
01000000
00010000
00022000
00033000
,
00010000
00002000
00000000
00013000
,
00000100
00000000
00000010
00000000
00000001
00001000
00000001
00000000
,
00000100
00002000
00000000
00013000
,
00001000
00100000
00100000
00001000
,
00010000
00002000
00000000
00013000
,
00000100
00000000
00000010
00000000
00000001
00001000
00000001
00000000
,
00000100
00000000
00001000
00000000
00010000
00001000
00010000
00000000
,
00001000
00000000
01000000
00000000
00001000
00010000
00002000
00000000
,
00003000
00000000
00000000
00000000
;

//--------------- dance-double - Fred-104 ----------------
#NOTEDATA:;
#STEPSTYPE:dance-double;
#DESCRIPTION:Fred-104;
#DIFFICULTY:Medium;
#METER:12;
#CREDIT:Fred-104;
#NOTES:
00000000
00000000
00000000
00000000
,
00000000
00000000
00000000
00000000
,
00000000
00000000
00000000
00000000
,
00000000
00000000
00000000
00000000
,
00000000
00000000
00000000
00000000
,
00001000
00000000
00001000
00000000
00000000
00010000
00000000
00010000
,
00000000
00000100
00000000
00000010
00000010
00000000
00000001
00000000
,
00001000
00000000
00001000
00000000
00000000
00000010
00000000
00000010
,
00000100
00000000
00000100
00000000
00001000
00010000
00001000
00000000
,
00010000
00010000
00000000
00000100
00001000
00000001
00001000
00000010
,
00000000
00000100
00000100
00000000
00000001
00000010
00000100
00000000
,
00010000
00001000
00010000
00000000
00100000
00000000
10000000
00000000
,
01000000
00000000
00010000
00000000
00001000
00010000
00001000
00000000
,
00010000
00010000
00000100
00000100
,
00000010
00000010
00000001
00000001
,
00001000
00000010
00000100
00000000
00000010
00001000
00000100
00000000
,
00000010
00000001
00001000
00000001
00000100
00001000
00010000
00000000
,
00011000
00000000
00001000
00010000
00100000
01000000
00010000
10000000
,
00000000
10100000
00000000
00100000
01000000
00010000
10000000
01000000
,
00100000
00000000
00101000
00000000
00001000
00010000
00000100
00000010
,
00000000
00000001
00001000
00000100
00000010
00001000
00010000
00000000
,
00011000
00000000
00010000
00001000
00000100
00000001
00001000
00000100
,
00000000
00000110
00000000
00000001
00001000
00000010
00000100
00000000
,
00001000
00000000
00011000
00000000
00010000
00001000
01000000
00010000
,
00000000
00100000
01000000
10000000
00100000
00010000
00001000
00000000
,
00011000
00000000
00010000
00001000
00010000
00001000
00000100
00000100
,
00000000
00000110
00000000
00000010
00001000
00000100
00000010
00000000
,
00000001
00000000
00002010
00000000
00003001
00000010
00000100
00001000
,
00000000
00001000
00000100
00010000
00001000
00010000
00100000
00000000
,
00100000
00000000
10000000
01000000
00100000
00010000
01000000
01000000
,
00000000
01001000
00000000
00001000
00010000
00000100
00000010
00000000
,
00000100
00000000
00001100
00000000
00001000
00000001
00000100
00001000
,
00000000
00001000
00010000
00100000
01000000
00100000
10000000
00000000
,
00010000
10000000
00000000
10000000
01000000
00010000
01000000
10000000
,
00000000
10000000
00010000
10000000
00100000
00010000
00001000
00000000
,
00010000
00000010
00001000
00000100
00010000
00000000
00011000
00000000
,
00010000
00000100
00000010
00000000
00000001
00000010
00000100
00000000
,
00001000
00000001
00000000
00000001
00000100
00000010
00000100
00000001
,
00000000
00000001
00000010
00000100
00010000
00001000
01000000
00000000
,
01000000
00100000
10000000
01000000
00100000
00000000
00001000
00000000
,
00010000
00000000
00001000
00000000
00010000
00000000
00022000
00033000
,
00010000
00000100
00002000
00000000
00000100
00000000
00003200
00000000
,
00000310
00000001
00001000
00000010
00000000
00000100
00001000
00020000
,
00000000
00001000
00032000
00000000
00013000
00000010
00001000
00000010
,
00000000
00000010
00000100
00000001
00001000
00000000
00001000
00000100
,
00000000
00000010
00000020
00000000
00000000
00010000
00000000
00020030
,
00000000
00001000
00000000
00031000
00010000
01000000
00100000
00020000
,
00000000
10000000
10030000
00000000
01000000
00100000
01000000
00010000
,
00000000
00010000
00001000
00000100
00000001
00001000
00000001
00000000
,
00002001
00000000
00000000
00000000
,
00003002
00000000
00000000
00000000
,
00000023
00000000
00000000
00000000
,
00000230
00000000
00000000
00000000
,
00020300
00000000
00000000
00000000
,
00032000
00000000
00000000
00000000
,
00203000
00000000
00000000
00000000
,
00310000
10000000
00010000
01000000
00001000
00010000
00001000
00000000
,
00011000
00000000
00010000
00001000
00000010
00000100
00001000
00000001
,
00000000
00000011
00000000
00000010
00000100
00001000
00000001
00000100
,
00000010
00000000
00010010
00000000
00010000
00001000
01000000
00100000
,
00000000
10000000
00010000
01000000
00100000
00010000
00001000
00000000
,
00011000
00000000
00001000
00010000
01000000
10000000
00010000
01000000
,
00000000
01100000
00000000
10000000
00010000
00100000
01000000
00000000
,
00010000
00000000
00011000
00000000
00001000
00010000
00000100
00001000
,
00000000
00000010
00000100
00000001
00000010
00001000
00010000
00000000
,
00011000
00000000
00001000
00010000
00001000
00010000
01000000
01000000
,
00000000
01100000
00000000
00100000
00010000
01000000
00100000
00000000
,
10000000
00000000
00120000
00000000
10030000
00100000
01000000
00010000
,
00000000
00010000
01000000
00001000
00010000
00001000
00000010
00000000
,
00000010
00000000
00000001
00000100
00000010
00001000
00000100
00000100
,
00000000
00010100
00000000
00010000
00001000
01000000
00100000
00000000
,
01000000
00000000
01010000
00000000
00010000
10000000
01000000
00010000
,
00000000
00010000
00001000
00000010
00000100
00000010
00000001
00000000
,
00001000
00000100
00001000
00000100
00000010
00000100
00000010
00000100
,
00000000
00000100
00010000
00001000
00010000
00100000
10000000
00000000
,
00010000
00000000
00100000
00000000
01000000
10000000
00010000
00000000
,
01000000
00100000
10000000
00000000
01000000
00000000
01100000
00000000
,
00001000
00000000
00010000
00000000
00000100
00001000
00000010
00010000
,
00000000
00011000
00000000
00010100
00000000
00010000
00001000
00100000
,
00000000
00010000
10000000
01000000
00000000
00100000
00001000
00000000
,
00010000
00001000
00000100
00000001
00000010
00000000
00001001
00000000
,
00000001
00000010
00000001
00000010
00001000
00010000
00001000
00010000
,
00000000
00010000
00001000
01000000
00010000
10000000
01000000
00000000
,
00100000
00000000
00002000
00000000
00010000
00000000
00013000
00001000
,
00000000
00001000
00010000
00000100
00000010
00000100
00001000
00000000
,
00000001
00000000
00000200
00000000
00000010
00000000
00000310
00000010
,
00001000
00000001
00000000
00000011
00000000
00000010
00001000
00010000
,
00000000
00010000
00001000
01000000
00010000
00000000
10010000
00000000
,
10000000
01000000
00100000
00010000
01000000
00100000
02000000
00000000
,
03000000
00000000
00000000
00000000
;

//--------------- dance-double - Fred-104 ----------------
#NOTEDATA:;
#STEPSTYPE:dance-double;
#DESCRIPTION:Fred-104;
#DIFFICULTY:Hard;
#METER:15;
#CREDIT:Fred-104;
#NOTES:
00000000
00000000
00000000
00000000
,
00000000
00000000
00000000
00000000
,
00000000
00000000
00000000
00000000
,
00000000
00000000
00000000
00000000
,
00000000
00000000
00000000
00000000
,
00010000
00000000
00010000
00000000
00001000
00100000
00001000
00100000
,
00000000
00010000
00000000
00010000
10000000
00100000
00010000
00000000
,
00001000
00000000
00010000
00000100
00001000
00000100
00010000
00000100
,
00000010
00000000
00000000
00000000
00000001
00000000
00001000
00000000
00000002
00000003
00000200
00000300
00002000
00003000
00020000
00030000
,
00001000
00001000
00100000
00010000
10000000
10000000
00010000
01000000
,
00100000
00000000
10000000
00010000
10000000
00000000
01000000
00000000
00100000
00010000
00100000
00000000
00001000
00000000
00010000
00000000
,
00000000
00000000
00010000
00000010
00010000
00000000
00001000
00000000
00000100
00000000
00000000
00000000
00000101
00000000
00000000
00000000
,
00001000
00000000
00000001
00000100
00000001
00000000
00001000
00000000
00000100
00000000
00000010
00000000
00001000
00000000
00010000
00000000
,
00001000
00001000
00010000
00010000
,
00100000
00100000
10000000
10000000
,
00010000
00100000
00010000
00100000
01000000
10000000
01000000
10000000
,
00010000
00000000
01000000
00100000
01000000
00100000
01000000
00000000
00020000
00030000
20000000
30000000
02000000
03000000
00020000
00030000
,
00011000
00000000
00000000
00000000
00001000
00000000
00010000
00000010
00001000
00000000
00000010
00000000
00000100
00000000
00000101
00000000
,
00000000
00000000
00001001
00000000
00000000
00000000
00001000
00000001
00000100
00000000
00000010
00000000
00000100
00000000
00001000
00000000
,
00010000
00000000
00000000
00000000
00012000
00000000
00000000
00000000
01003000
00000000
00100000
10000000
00100000
10000000
00100000
00000000
,
00000000
00000000
01000000
00010000
01000000
00010000
01000000
00000000
00010000
00000000
10000000
01000000
10000000
00000000
01000000
00000000
,
00100000
00000000
00000000
00000000
00001000
00000000
00010000
00001000
00010000
00001000
00010000
00000000
00000100
00000000
00000110
00000000
,
00000000
00000000
00000011
00000000
00000000
00000000
00001000
00000001
00001000
00000000
00000001
00000000
00000100
00000000
00001000
00000000
,
00010000
00000000
00000000
00000000
00010000
00002000
00000000
00000000
00003100
00000000
00000010
00000100
00000010
00000100
00000010
00000000
,
00000000
00000000
00001000
00000001
00001000
00000001
00001000
00000000
00000001
00000010
00000001
00000000
00000010
00000000
00000100
00001000
,
00000100
00000000
00000000
00000000
00010000
00000000
00010000
00001000
00010000
00000000
00001000
00000000
00100000
00000000
00110000
00000000
,
00000000
11000000
00000000
10010000
10000000
00100000
00010000
00001000
,
00010000
00000000
00000000
00000000
00001020
00000000
00000000
00000000
00010030
00000000
00001000
00010000
00001000
00010000
00001000
00000000
,
00000000
00000000
00010000
00000100
00010000
00000100
00010000
00000000
00000100
00001000
00000100
00000000
00000010
00000001
00000010
00000000
,
00000001
00000000
00000000
00000000
00001000
00000000
00000010
00001000
00000010
00001000
00000100
00000000
00010000
00000000
00011000
00000000
,
00000000
00000000
00101000
00000000
00000000
00000000
00100000
00010000
00100000
00000000
01000000
00000000
10000000
00000000
00010000
00000000
,
01000000
00000000
00000000
00000000
21000000
00000000
00000000
00000000
31000000
00000000
00100000
00000000
10000000
00010000
10000000
00000000
,
00000000
00000000
01000000
00100000
01000000
00100000
01000000
00000000
00100000
00010000
00100000
00000000
00001000
00000000
00010000
00000000
,
00000100
00000010
00000000
00000010
00000001
00001000
00000010
00000100
,
00000000
00000000
00000100
00001000
00000100
00000000
00001000
00000000
00010000
00001000
00010000
00000000
00001000
00000000
00010000
00000000
,
00100000
00000000
01000000
00100000
01000000
00000000
00010000
00000000
10000000
00000000
00000000
00000000
10010000
00000000
00000000
00000000
,
00010000
00000000
01000000
00001000
01000000
00000000
00001000
00000000
00010000
00001000
00010000
00000000
00001000
00000000
00000100
00000000
,
00000001
00000010
00000000
00000010
00001000
00010000
00001000
00100000
,
00000000
00000000
00100000
00010000
00100000
00000000
00001000
00000000
00010000
00000100
00010000
00000100
00010000
00000000
00001000
00000000
,
01000000
00000000
00010000
01000000
00010000
00000000
10000000
00000000
01000000
00000000
00100000
00000000
00010000
00000000
00100000
00000000
,
00001000
00000000
00010000
00001000
00010000
00001000
00010000
00000000
00000010
00000000
00001000
00000000
00002002
00000000
00003003
00000000
,
00001000
00000001
00000200
00000310
00000100
00000001
00002000
00003001
,
00000020
00000000
00000230
00000000
00002300
00000000
00003200
00000000
00010300
00000000
00001000
00100000
00001000
00000000
00020000
00000000
,
00030010
00001000
00000200
00010300
01000000
00200000
00320000
20030000
,
30100000
00000000
00020000
00000000
00032000
00000000
00023000
00000000
00130000
01000000
00100000
01000000
00200000
00000000
20300000
00000000
,
30010000
00100000
20000000
30010000
01000000
00200000
00310000
20000000
,
30000000
10010000
00000000
00020000
20030000
32000000
03020000
00032000
,
00013000
00000000
00000100
00000000
00002000
00000000
00003001
00000000
00000100
00000000
00000010
00001000
00000020
00000000
00000230
00000000
,
00000301
00000000
00001000
00000100
00001000
00000100
00010000
00000000
00001000
00100000
00001000
00000000
00010000
00000000
00001000
00000000
,
00020000
00000000
00001000
00001000
00000000
01000000
00000000
00001000
,
00000000
00000100
00000000
00001000
00000000
00001000
00000000
00031000
,
00002000
00000000
00010000
00000000
00000000
00010000
00000000
00000010
,
00000000
00010000
00000000
00013000
00020000
00000000
00032000
00000000
,
01003000
00000000
00010000
10000000
00010000
10000000
00100000
02000000
,
00000000
00010000
00000000
00100000
00000000
10000000
00000000
03010000
,
10000000
00000000
10000000
01000000
00000000
01000000
00010000
00001000
,
00000100
00000001
00000100
00000001
00000010
00000100
00001000
00001000
,
00001010
00000000
00000000
00000000
00000100
00000000
00000001
00001000
00000001
00000000
00000010
00000000
00000100
00000000
00010100
00000000
,
00000000
00000000
00011000
00000000
00000000
00000000
00001000
01000000
00001000
00000000
00010000
00000000
00001000
00000000
00100000
00000000
,
01000000
00000000
00000000
00000000
21000000
00000000
00000000
00000000
30010000
00000000
10000000
01000000
10000000
01000000
00100000
00000000
,
00000000
00000000
00001000
00010000
00001000
00010000
00001000
00000000
00000100
00000000
00000010
00001000
00000010
00000000
00000100
00000000
,
00000001
00000000
00000000
00000000
00001000
00000000
00000100
00000010
00000100
00000010
00000100
00001000
00000100
00000000
00010100
00000000
,
00000000
00000000
01001000
00000000
00000000
00000000
00100000
10000000
00100000
00000000
01000000
00000000
00010000
00000000
10000000
00000000
,
01000000
00000000
00000000
00000000
01000000
00020000
00000000
00000000
00031000
00000000
00010000
00001000
00010000
00001000
00010000
00000000
,
00000100
00000000
00001000
00000001
00001000
00000001
00001000
00000000
00000001
00000010
00000001
00000000
00000010
00000000
00000100
00001000
,
00000100
00000000
00000000
00000000
00000100
00000000
00010000
00001000
00010000
00000000
00100000
00000000
01000000
00000000
01010000
00000000
,
00000000
10100000
00000000
10010000
10000000
01000000
00100000
00001000
,
00010000
00000000
00000000
00000000
00102000
00000000
00000000
00000000
00013000
00000000
00001000
00010000
00001000
00010000
00001000
00000000
,
00010000
00000000
01000000
00100000
01000000
00100000
01000000
00000000
10000000
00010000
10000000
00000000
00010000
01000000
00010000
00000000
,
00100000
00000000
00000000
00000000
00001000
00000000
00010000
00001000
00010000
00000100
00001000
00000000
00000100
00000000
00000110
00000000
,
00000000
00000000
00000011
00000000
00000000
00000000
00001000
00000001
00001000
00000000
00000010
00000000
00000100
00000000
00001000
00000000
,
00010000
00000000
00000000
00000000
00012000
00000000
00000000
00000000
01003000
00000000
00100000
00000000
01000000
00100000
01000000
00100000
,
01000000
00000000
00010000
10000000
00010000
10000000
00010000
00000000
10000000
01000000
00100000
00000000
20020000
00000000
30030000
00000000
,
10000000
01000000
10000000
00010000
01000000
00100000
00010000
00001000
,
00000100
00000000
00000001
00000000
00000010
00000000
00000100
00000000
00001000
00000100
00001000
00000000
00000100
00010000
00001000
00000000
,
00010000
00000000
00100000
00000000
01000000
00000000
00010000
00000000
00100000
00000000
01000000
10000000
01000000
00000000
00100000
00000000
,
00001000
00000000
00010000
00001000
00010000
00001000
01000000
00000000
00200000
00000000
10000000
00000000
20300000
00000000
00010000
00000000
,
30010000
10000000
01000000
00010000
00001000
00000010
00000100
00001100
,
00000000
00000000
00001001
00000000
00000000
00000000
00000110
00000000
00000000
00000000
00000001
00001000
00000001
00000000
00000020
00000000
,
00000000
00000000
00000130
00000000
00001000
00000000
00001010
00000000
00000000
00000000
00000010
00010000
00001000
00000000
00010000
00000000
,
00100000
00000000
01000000
00100000
01000000
00000000
00010000
00000000
10000000
00000000
00000000
00000000
10010000
00000000
00000000
00000000
,
00010000
10000000
01000000
00100000
00010000
00001000
00000100
00010000
,
00001000
00000000
00010000
00000000
00000010
00000000
00000100
00000000
00001000
00000000
00010000
00000000
00001000
00010000
00001000
00000000
,
00010000
00000100
00000010
00000001
00000100
00000010
00000001
00000010
,
00000000
00000000
00000010
00000000
00001000
00000000
00000001
00000000
00000010
00000001
00000010
00000000
00000100
00000000
00010000
00000000
,
00001000
00000000
00010000
00001000
01000000
00100000
01000000
00010000
,
10000000
01000000
00100000
10000000
00010000
01000000
10000000
00100000
,
00000000
00100000
00010000
00001000
00010000
00000000
00011000
00000000
,
00010000
00000000
00001000
00000000
00000010
00000000
00000001
00000000
00001000
00000001
00001000
00000001
00001000
00000001
00001000
00000002
,
00000003
00000000
00000000
00000000
;
