#TITLE:PRANA+REVOLUTIONARY ADDICT (U1 DJ Mix)(Fred-Special);
#ARTIST:underground & overground;
#TITLETRANSLIT:PRANA+REVOLUTIONARY ADDICT (U1 DJ Mix)(Fred-Special);
#BANNER:PRANA+REVOLUTIONARY ADDICT (U1 DJ Mix)(Fred-Special).png;
#BACKGROUND:PRANA+REVOLUTIONARY ADDICT (U1 DJ Mix)(Fred-Special)-bg.png;
#CDTITLE:./CDTitles/DDR (2014).png;
#MUSIC:PRANA+REVOLUTIONARY ADDICT (U1 DJ Mix)(Fred-Special).ogg;
#SAMPLESTART:61.895;
#SAMPLELENGTH:15;
#DISPLAYBPM:190;
#BPMS:0=190,63=380,65=190,95=380,97=190,123=380,127=190,159=416.667,161=190,168=175,169=190,172=197,174=191,176=175,177=190,180=193.5,184=180,185=190,219=196,222=188,224=190,303=750,307=190;
#STOPS:48=0.079,48.25=0.079,48.5=0.079,48.75=0.079,63=0.039,63.25=0.04,63.5=0.039,63.75=0.04,64=0.039,64.25=0.04,64.5=0.039,64.75=0.04,79=0.079,79.25=0.078,79.5=0.079,79.75=0.079,80=0.079,80.25=0.079,80.5=0.079,80.75=0.079,95=0.04,95.25=0.039,95.5=0.04,95.75=0.039,96=0.04,96.25=0.039,96.5=0.04,96.75=0.039,109=0.079,109.25=0.079,109.5=0.079,109.75=0.079,110=0.078,110.25=0.079,110.5=0.079,110.75=0.079,123=0.04,123.25=0.039,123.5=0.04,123.75=0.039,124=0.04,124.25=0.039,124.5=0.04,124.75=0.039,125=0.04,125.25=0.039,125.5=0.04,125.75=0.039,126=0.04,126.25=0.039,126.5=0.04,126.75=0.039,319=0.079,319.25=0.079,319.5=0.079,319.75=0.078;
#SCROLLS:0=1,48=2,49=1,79=2,81=1,109=2,111=1,319=2,320=1;
#TIMESIGNATURES:0=4=4,48=3=4,51=4=4,79=2=4,81=4=4,109=2=4,111=4=4,159=5=4,164=4=4,300=7=4,307=4=4,319=3=4,322=4=4;
#STAGE:27;

//--------------- dance-single - Fred-104-CSP ----------------
#NOTES:
     dance-single:
     Fred-104:
     Challenge:
     18:
     :
0000
0000
0000
0000
,
0000
0000
0000
0000
,
0000
0000
0000
0000
,
0000
0000
0000
0000
,
0000
0000
0000
0000
,
0001
0010
1000
0100
,
0001
0010
1000
0100
,
0001
0100
0010
1000
0100
0010
0001
0100
,
0001
0000
0000
0000
0100
0000
0010
1000
0001
0000
0000
0001
0000
0000
0001
0000
,
0101
0000
0000
0000
1000
0000
0010
0100
0010
0000
1000
0001
0010
0000
0100
1000
,
0001
0000
0010
0001
0100
0000
0000
0000
1000
0000
0100
0000
0011
0000
0000
0000
,
1010
0000
0000
0000
0100
0000
0010
0100
0001
0000
0010
0100
1000
0000
0010
0100
,
0002
0003
0200
0300
2000
3000
0200
0300
0010
0000
0000
0000
0100
0000
0000
0000
1001
0000
0000
0000
0000
0000
0000
0000
0110
0000
0000
0000
0000
0000
0000
0000
,
1000
0000
0001
1000
0100
0000
1000
0001
0100
0000
0001
0010
0100
0000
1000
0001
,
0100
0000
0001
0010
0110
0000
1100
0000
,
0001
0000
0000
0000
0000
0000
0000
0000
0010
0000
0000
0000
1000
0000
0000
0000
0100
0000
0000
0000
0000
0000
0000
0000
0010
0000
0000
0000
0001
0000
0000
0000
0100
0000
0000
0000
0000
0000
0000
0000
0010
0000
0000
0000
1000
0000
0000
0000
0200
0300
0000
0000
2000
3000
0000
0000
0200
0300
0000
0000
2000
3000
0000
0000
,
0002
0003
0000
0000
0200
0300
0000
0000
0002
0003
0000
0000
0200
0300
0000
0000
0010
0000
0000
0000
0000
0000
0000
0000
0010
0000
0000
0000
0100
0000
0000
0000
0020
0000
0000
0000
0000
0000
0000
0000
0000
0000
0000
0000
0000
0000
0000
0000
0130
0000
0000
0000
0000
0000
0000
0000
1000
0000
0000
0000
0000
0000
0000
0000
,
0010
0100
0001
0010
0100
1000
0010
0100
,
0001
0010
0001
0100
0010
1000
0001
0100
,
1000
0000
0000
0000
0001
0000
0000
0000
0010
0000
0000
0000
1000
0000
0000
0000
0001
0000
0000
0000
0100
0000
0000
0000
2000
3000
0002
0003
0020
0030
2000
3000
,
0002
0003
2000
3000
0200
0300
0020
0030
0001
0000
0000
0000
0010
0000
0000
0000
0010
0000
0000
0000
0100
0000
0000
0000
0010
0000
0000
0000
0010
0000
0000
0000
,
1000
0010
0010
0100
0010
0010
0001
0010
,
0010
0100
1000
1000
1000
0010
0010
0010
,
0001
0000
0000
0000
0000
0000
0000
0000
0001
0000
0000
0000
0000
0000
0000
0000
0001
0000
0000
0000
0000
0000
0000
0000
0100
0000
0000
0000
0000
0000
0000
0000
0100
0000
0000
0000
0000
0000
0000
0000
0100
0000
0000
0000
0000
0000
0000
0000
2000
3000
0000
0000
0002
0003
0000
0000
2000
3000
0000
0000
0002
0003
0000
0000
,
2000
3000
0000
0000
0002
0003
0000
0000
2000
3000
0000
0000
0002
0003
0000
0000
1000
0000
0000
0000
0000
0000
0000
0000
0100
0000
0000
0000
0010
0000
0000
0000
0000
0000
0000
0000
0100
0000
0000
0000
0001
0000
0000
0000
0000
0000
0000
0000
0100
0000
0000
0000
1000
0000
0000
0000
0000
0000
0000
0000
0010
0000
0000
0000
,
0100
0000
0010
0000
1000
0000
0001
0010
0000
0001
1000
0000
0001
0100
0000
0001
,
1000
0010
0100
0001
0010
0000
0100
1000
0000
0100
0010
0000
0100
0001
0000
0100
,
0010
0000
0000
0000
0100
0000
0000
0000
2000
3000
0200
0300
0002
0003
0020
0030
0200
0300
2000
3000
0020
0030
0002
0003
1000
0000
0000
0000
0010
0000
0100
0000
,
0000
0010
1000
0000
0001
1000
0000
0100
1000
0000
0001
0000
0100
0000
0010
0100
,
0000
0001
0100
0000
1000
0100
0000
0010
1000
0100
0010
0001
0010
0000
0001
1000
,
0000
0000
0000
0000
0010
0000
0000
0000
0100
0000
0000
0000
0000
0000
0000
0000
0001
0000
0000
0000
1000
0000
0000
0000
0000
0000
0000
0000
0100
0000
0000
0000
0010
0000
0000
0000
0000
0000
0000
0000
0001
0000
0000
0000
0000
0000
0000
0000
2000
3000
0000
0000
0200
0300
0000
0000
2000
3000
0000
0000
0002
0003
0000
0000
,
0200
0300
0000
0000
0002
0003
0000
0000
2000
3000
0000
0000
0200
0300
0000
0000
2000
3000
0000
0000
0002
0003
0000
0000
0200
0300
0000
0000
0002
0003
0000
0000
2000
3000
0000
0000
0200
0300
0000
0000
0020
0030
0000
0000
0002
0003
0000
0000
1000
0000
0000
0000
0000
0000
0000
0000
0000
0000
0000
0000
0000
0000
0000
0000
,
1000
0010
0000
0010
1000
0010
0001
0001
,
0010
0100
0010
0100
0010
0000
1000
0000
0001
1000
0001
0000
1100
0000
0000
0000
,
0001
0010
0000
0010
0001
0010
1000
1000
,
0010
0100
0010
0000
0001
0010
0100
1000
0010
0000
0000
0000
1001
0000
0000
0000
,
0000
0110
0000
0110
0000
0110
1001
0000
,
0000
0110
0000
0110
0000
0110
1001
0000
,
0110
0000
1001
0000
0110
0101
0000
1100
,
0000
1010
0000
0011
0000
0110
2002
0000
,
0000
0000
0000
0000
3003
0000
0100
0010
0100
0000
1000
0001
0100
0000
0010
1000
,
0001
0000
1000
0100
0000
0100
0000
0010
0000
0001
0100
0001
0100
0010
1000
0001
,
0200
0000
0000
0000
0310
0000
0100
0010
0001
0000
0100
0010
1000
0000
0100
0010
,
0001
0000
1000
0001
0000
0100
0000
0010
0000
0010
0000
0100
0001
0000
1000
0000
,
0220
0000
0030
0000
1300
0000
0001
1000
0010
0000
1000
0001
0010
0000
0001
0100
,
0010
0000
1000
0010
0000
0100
0000
0100
0000
0001
0010
0100
0010
0001
0010
0001
,
0010
0000
0000
0000
0001
0000
0100
1000
0010
0000
0100
0001
0010
0000
0100
1000
,
0010
0000
0100
0001
1000
0000
0010
0100
0001
0010
0100
1000
0010
0100
0001
0100
,
0010
0000
0000
1010
0000
0000
0100
0000
0000
0110
0000
0000
1000
0000
0001
0100
,
0010
0000
0000
1010
0000
0000
1000
0000
0000
1001
0000
0000
0001
0010
0100
1000
,
0001
0000
0000
0101
0000
0000
0100
0000
0000
1100
0000
0000
1000
0000
0010
0100
,
0001
0000
0000
0000
0000
0000
0000
0000
1000
0000
0000
0000
0000
0000
0000
0000
0200
0300
0000
0000
0000
0000
0000
0000
0200
0300
0000
0000
0000
0000
0000
0000
0001
0000
0000
0000
0000
0000
0000
0000
0020
0030
0000
0000
0000
0000
0000
0000
0020
0030
0000
0000
0000
0000
0000
0000
1000
0000
0000
0000
0000
0000
0000
0000
,
0010
0000
0000
0110
0000
0000
0001
0000
0000
0101
0000
0000
0001
0000
1000
0010
,
0100
0000
0000
0110
0000
0000
0001
0000
0000
1001
0000
0000
1000
0100
0010
0001
,
1000
0000
0000
1010
0000
0000
0100
0000
0000
0101
0000
0000
1000
0000
0100
0010
,
0001
0100
0010
1000
0010
0100
0001
0000
0100
0010
1000
0001
0010
0100
1000
0000
,
1000
0001
1000
0000
0100
1000
0000
0001
0010
0000
0100
1000
0000
0001
0100
0010
,
1000
0001
1000
0000
0001
0100
0000
0010
1000
0000
0100
1000
0000
0001
0010
0100
,
1000
0100
1000
0000
0001
1000
0000
0100
1000
0000
0001
0010
0000
0100
0010
0001
,
1000
0000
0010
0000
1000
0001
0100
0000
0010
0000
0100
0000
0110
0000
0010
0001
,
0100
0001
0100
0000
0001
0100
0000
0010
0100
0000
0001
1000
0000
0100
1000
0100
,
0010
0001
0010
0000
0001
1000
0000
0001
0100
0000
0010
1000
0000
0001
0010
0100
,
1000
0001
1000
0000
0001
0100
0000
0010
0100
0000
0010
1000
0000
0010
1000
0001
,
1000
0100
0010
0001
1000
0010
0100
0001
0100
0010
1000
0010
0100
0001
0100
1000
,
0001
0010
0001
0000
0010
0001
0000
0001
1000
0000
1000
0100
0000
0100
0010
0000
,
0001
0100
0001
0000
0001
0010
0000
0010
0100
0010
0100
1000
0100
1000
0010
0000
,
0100
0001
0100
0000
0100
0010
0000
0010
1000
0000
1000
0001
0000
0001
0010
0000
,
0100
1000
0001
1000
0001
0100
0001
0010
0002
0000
2003
0000
3020
0000
0230
0000
,
0301
0010
0001
0000
0001
0100
0000
0100
1000
0000
1000
0100
0000
0100
0001
0000
,
1000
0100
1000
0100
1000
0100
0010
0100
0001
0100
0001
0100
0001
0100
0010
0000
,
0001
1000
0001
0000
0001
1000
0000
1000
0001
0000
0001
0010
0000
0010
0100
0000
,
0010
0001
0010
0000
0001
0100
0001
0000
1000
0100
0010
0001
1000
0100
0010
0001
,
0200
0000
0000
0001
0000
0000
0320
0000
0000
1000
0000
0000
0130
0000
0001
1000
,
0200
0000
0000
0010
0000
0000
2300
0000
0000
3010
0100
0000
0001
0100
0010
0100
,
2000
0000
0000
0001
0000
0000
3020
0000
0000
0100
0000
0000
1030
0000
0100
0010
,
0002
0000
0000
0010
0000
0000
1000
0000
0000
0103
0000
0000
0220
0000
0000
0000
,
0000
0000
0000
0000
0300
0000
1030
0010
,
1000
0100
1000
0010
0100
0010
0001
0100
,
0001
0010
0100
1000
0001
0000
1000
0100
,
0001
0000
0000
0000
0100
0000
0000
0000
1000
0000
0000
0000
0010
0000
0000
0000
1000
0000
0000
0000
0100
0000
0000
0000
0002
0003
0020
0030
2000
3000
0020
0030
,
0100
1000
0100
1000
0010
0000
0000
0000
1000
0000
1000
0000
1010
0000
0000
0000
,
0001
0001
0101
0000
1000
0100
1100
0000
,
0001
0010
0011
0000
0100
0100
1000
1000
,
0010
0000
0010
0000
0001
0000
0001
0000
0010
0100
0010
0000
1000
0100
0010
0000
,
0001
0100
0010
1000
0100
0010
0001
1000
0100
0000
1000
0010
0100
0001
0000
0100
,
0000
0010
1000
0010
0100
0010
1000
0001
1000
0000
0100
1000
0001
0010
0000
0001
,
0000
1000
0000
0010
0100
0010
0100
0000
0002
0000
1003
0010
0100
0001
0000
1000
,
0000
0100
0010
0001
1000
0000
0010
0000
2000
0100
0000
3100
0002
0000
0100
0000
,
0023
0000
1000
0000
0230
0000
0301
0000
0100
0000
0100
1000
0000
1010
0000
0010
,
0000
0110
0000
0100
0001
0000
1000
0000
0001
0000
0010
0100
0000
0110
0000
0100
,
0000
1100
0000
1000
0001
0100
0010
1000
0001
0000
0010
0100
0000
0100
1000
0001
,
0100
0000
0010
1000
0000
0100
0010
0001
0100
0000
0010
0100
0000
1000
0010
0100
,
0001
0100
1000
0100
0010
0000
0010
0100
0002
0000
0000
0000
0000
0000
0000
0000
,
0000
0000
0000
0000
,
0000
0000
0003
0000
;

//--------------- dance-double - Fred-104-CDP ----------------
#NOTES:
     dance-double:
     Fred-104:
     Challenge:
     18:
     :
00000000
00000000
00000000
00000000
,
00000000
00000000
00000000
00000000
,
00000000
00000000
00000000
00000000
,
00000000
00000000
00000000
00000000
,
00000000
00000000
00000000
00000000
,
00100000
10000000
01000000
00010000
,
00100000
00010000
01000000
10000000
,
00100000
10000000
00010000
01000000
00001000
00010000
00000100
00001000
,
00000001
00000000
00000000
00000000
00000010
00000000
00000100
00001000
00000010
00000000
00000000
00000010
00000000
00000000
00000010
00000000
,
00001010
00000000
00000000
00000000
00000100
00000000
00000001
00001000
00000100
00000000
00000010
00000100
00010000
00000000
00001000
01000000
,
00010000
00000000
00100000
00010000
01000000
00000000
00000000
00000000
00010000
00000000
00100000
00000000
11000000
00000000
00000000
00000000
,
01010000
00000000
00000000
00000000
00100000
00000000
10000000
01000000
00100000
00000000
00010000
01000000
00100000
00000000
00010000
00001000
,
00020000
00030000
00002000
00003000
00000200
00000300
00000002
00000003
00001000
00000000
00000000
00000000
00000001
00000000
00000000
00000000
00000110
00000000
00000000
00000000
00000000
00000000
00000000
00000000
00000011
00000000
00000000
00000000
00000000
00000000
00000000
00000000
,
00000100
00000000
00000010
00000001
00000100
00000000
00000010
00001000
00000100
00000000
00010000
00001000
00100000
00000000
01000000
00100000
,
00010000
00000000
10000000
01000000
01100000
00000000
10010000
00000000
,
00100000
00000000
00000000
00000000
00000000
00000000
00000000
00000000
10000000
00000000
00000000
00000000
00010000
00000000
00000000
00000000
00100000
00000000
00000000
00000000
00000000
00000000
00000000
00000000
00010000
00000000
00000000
00000000
10000000
00000000
00000000
00000000
00100000
00000000
00000000
00000000
00000000
00000000
00000000
00000000
10000000
00000000
00000000
00000000
00010000
00000000
00000000
00000000
02000000
03000000
00000000
00000000
00020000
00030000
00000000
00000000
02000000
03000000
00000000
00000000
00002000
00003000
00000000
00000000
,
00020000
00030000
00000000
00000000
00002000
00003000
00000000
00000000
00020000
00030000
00000000
00000000
00002000
00003000
00000000
00000000
00010000
00000000
00000000
00000000
00000000
00000000
00000000
00000000
00000010
00000000
00000000
00000000
00000000
00000000
00000000
00000000
00000200
00000000
00000000
00000000
00000000
00000000
00000000
00000000
00000000
00000000
00000000
00000000
00000000
00000000
00000000
00000000
00001300
00000000
00000000
00000000
00000000
00000000
00000000
00000000
00000010
00000000
00000000
00000000
00000000
00000000
00000000
00000000
,
00000001
00001000
00000100
00000001
00000010
00001000
00010000
01000000
,
10000000
00100000
00010000
10000000
01000000
00010000
00100000
00001000
,
01000000
00000000
00000000
00000000
00100000
00000000
00000000
00000000
01000000
00000000
00000000
00000000
00001000
00000000
00000000
00000000
00100000
00000000
00000000
00000000
00001000
00000000
00000000
00000000
02000000
03000000
00200000
00300000
02000000
03000000
00002000
00003000
,
00020000
00030000
00002000
00003000
00000200
00000300
00000002
00000003
00000001
00000000
00000000
00000000
00000010
00000000
00000000
00000000
00001000
00000000
00000000
00000000
00000001
00000000
00000000
00000000
00000100
00000000
00000000
00000000
00001000
00000000
00000000
00000000
,
00000001
00000100
00001000
00010000
00100000
10000000
00100000
00010000
,
10000000
01000000
00010000
00100000
01000000
10000000
00100000
01000000
,
00100000
00000000
00000000
00000000
00000000
00000000
00000000
00000000
00010000
00000000
00000000
00000000
00000000
00000000
00000000
00000000
00001000
00000000
00000000
00000000
00000000
00000000
00000000
00000000
00000100
00000000
00000000
00000000
00000000
00000000
00000000
00000000
00000010
00000000
00000000
00000000
00000000
00000000
00000000
00000000
00001000
00000000
00000000
00000000
00000000
00000000
00000000
00000000
00000200
00000300
00000000
00000000
00000020
00000030
00000000
00000000
00000200
00000300
00000000
00000000
00000020
00000030
00000000
00000000
,
00000002
00000003
00000000
00000000
00002000
00003000
00000000
00000000
00000002
00000003
00000000
00000000
00002000
00003000
00000000
00000000
00000001
00000000
00000000
00000000
00000000
00000000
00000000
00000000
00000100
00000000
00000000
00000000
00000010
00000000
00000000
00000000
00000000
00000000
00000000
00000000
00000100
00000000
00000000
00000000
00000001
00000000
00000000
00000000
00000000
00000000
00000000
00000000
00000100
00000000
00000000
00000000
00000010
00000000
00000000
00000000
00000000
00000000
00000000
00000000
00001000
00000000
00000000
00000000
,
00000010
00000000
00010000
00000000
00001000
00000000
00100000
00010000
00000000
00100000
01000000
00000000
00100000
00010000
00000000
10000000
,
00100000
01000000
00010000
10000000
01000000
00000000
00100000
00010000
00000000
00100000
01000000
00000000
00100000
00001000
00000000
00010000
,
00001000
00000000
00000000
00000000
00000100
00000000
00000000
00000000
00000020
00000030
00000002
00000003
00002000
00003000
00000200
00000300
00000020
00000030
00000002
00000003
00002000
00003000
00000020
00000030
00000100
00000000
00000000
00000000
00000010
00000000
00001000
00000000
,
00000000
00010000
00001000
00000000
00100000
00010000
00000000
01000000
00010000
00000000
10000000
00000000
00100000
00000000
01000000
00100000
,
00000000
10000000
01000000
00000000
00100000
01000000
00000000
00100000
00010000
01000000
00100000
10000000
00010000
00000000
01000000
00001000
,
00000000
00000000
00000000
00000000
00010000
00000000
00000000
00000000
00001000
00000000
00000000
00000000
00000000
00000000
00000000
00000000
00100000
00000000
00000000
00000000
00001000
00000000
00000000
00000000
00000000
00000000
00000000
00000000
00010000
00000000
00000000
00000000
00000010
00000000
00000000
00000000
00000000
00000000
00000000
00000000
00000100
00000000
00000000
00000000
00000000
00000000
00000000
00000000
00000020
00000030
00000000
00000000
00002000
00003000
00000000
00000000
00000020
00000030
00000000
00000000
00002000
00003000
00000000
00000000
,
00000200
00000300
00000000
00000000
00020000
00030000
00000000
00000000
00000200
00000300
00000000
00000000
00020000
00030000
00000000
00000000
00002000
00003000
00000000
00000000
00200000
00300000
00000000
00000000
00002000
00003000
00000000
00000000
00200000
00300000
00000000
00000000
00020000
00030000
00000000
00000000
02000000
03000000
00000000
00000000
00020000
00030000
00000000
00000000
02000000
03000000
00000000
00000000
00100000
00000000
00000000
00000000
00000000
00000000
00000000
00000000
00000000
00000000
00000000
00000000
00000000
00000000
00000000
00000000
,
10000000
01000000
00000000
00010000
00001000
00000010
00000001
00000001
,
00001000
00000010
00000100
00000001
00001000
00000000
00000100
00000000
00000010
00000100
00000010
00000000
00000110
00000000
00000000
00000000
,
00000001
00000100
00000000
00001000
00010000
00100000
10000000
10000000
,
00010000
01000000
00100000
00000000
00100000
10000000
01000000
00100000
00010000
00000000
00000000
00000000
10010000
00000000
00000000
00000000
,
00000000
01100000
00000000
00011000
00000000
00000110
00001001
00000000
,
00000000
00000110
00000000
00011000
00000000
01100000
10100000
00000000
,
01010000
00000000
00110000
00000000
11000000
10100000
00000000
00110000
,
00000000
00011000
00000000
01010000
00000000
11000000
02200000
00000000
,
00000000
00000000
00000000
00000000
03300000
00000000
10000000
00010000
01000000
00000000
00100000
01000000
00001000
00000000
00010000
00000100
,
00001000
00000000
00000010
00001000
00000010
00001000
00000000
00000001
00000000
00000100
00000010
00000100
00000010
00000000
00001000
00000000
,
00001100
00000000
00000000
00000000
00000010
00000000
00000001
00000100
00000010
00000000
00001000
00000100
00000010
00000000
00001000
00010000
,
00001000
00000000
00100000
00010000
00100000
00010000
00000000
10000000
00000000
00100000
00000000
01000000
00010000
00000000
10000000
00000000
,
10100000
00000000
00000000
00000000
01000000
00000000
00100000
10000000
01000000
00000000
00100000
00010000
01000000
00000000
00001000
00010000
,
00000010
00000000
00000100
00000010
00001000
00000010
00000000
00000100
00000000
00000001
00000100
00000001
00000100
00000000
00000010
00000000
,
00001001
00000000
00000000
00000000
00000010
00000000
00000001
00001000
00000010
00000000
00001000
00000001
00000010
00000000
00000001
00001000
,
00000100
00000000
00010000
00001000
00010000
00000000
00001000
00100000
00010000
01000000
00100000
10000000
01000000
00100000
00010000
00000000
,
10000000
00000000
00000000
01000000
00000000
00000000
00100000
00000000
00000000
00010000
00000000
00000000
00110000
00000000
00001000
00010000
,
00001000
00000000
00000000
00010000
00000000
00000000
00000010
00000000
00000000
00000100
00000000
00000000
00000001
00001000
00000100
00000010
,
00000001
00000000
00000000
00000100
00000000
00000000
00000010
00000000
00000000
00000100
00000000
00000000
00001001
00000000
00000010
00000100
,
00001000
00010000
00100000
10000000
00010000
01000000
10000000
00010000
,
00100000
00000000
00000000
00010000
00000000
00000000
00100000
00000000
00000000
01000000
00000000
00000000
11000000
00000000
00010000
01000000
,
00100000
00000000
00000000
10000000
00000000
00000000
01000000
00000000
00000000
00100000
00000000
00000000
00010000
01000000
00001000
00010000
,
00001000
00000000
00000000
00000100
00000000
00000000
00000001
00000000
00000000
00001000
00000000
00000000
00000011
00000000
00000100
00000010
,
00000001
00000100
00000010
00000000
00001000
00000100
00010000
00000000
00001000
00010000
00000010
00010000
00001000
00000000
00010000
00000000
,
00001000
00010000
00001000
00000000
00010000
00000010
00000000
00001000
00000100
00000000
00001000
00000010
00000000
00001000
00000001
00000000
,
00000010
00000001
00000010
00000000
00000001
00000010
00000000
00000001
00000100
00000000
00000001
00001000
00000000
00000010
00001000
00000000
,
00000100
00010000
00000100
00000000
00010000
00000100
00000000
00010000
00001000
00000000
00100000
00001000
00000000
00100000
00010000
00000000
,
10000000
00000000
01000000
00000000
00100000
00001000
00010000
00000000
00001000
00000000
00100000
00000000
00010000
00000000
01000000
00100000
,
10000000
00010000
10000000
00000000
00010000
00100000
00000000
00010000
01000000
00000000
00001000
01000000
00000000
00001000
00010000
00000000
,
00001000
00010000
00001000
00000000
00010000
00000100
00000000
00001000
00000100
00000000
00001000
00000001
00000000
00000100
00000001
00000000
,
00000010
00000001
00000010
00000000
00000001
00001000
00000000
00000010
00001000
00000000
00000100
00010000
00000000
00001000
00010000
00000000
,
00001000
00100000
00010000
00000000
10000000
00100000
01000000
00000000
00001000
00010000
00001000
00100000
00010000
10000000
00100000
00000000
,
10000000
01000000
10000000
00000000
01000000
10000000
00000000
10000000
01000000
00000000
01000000
00100000
00000000
00100000
00001000
00000000
,
00010000
00001000
00010000
00000000
00001000
00010000
00000000
00010000
00000100
00001000
00000100
00000010
00000100
00000010
00000001
00000000
,
00000100
00000010
00000100
00000000
00000010
00000100
00000000
00000100
00000001
00000000
00000001
00001000
00000000
00001000
00000100
00000000
,
00000010
00000001
00000010
00000001
00000100
00000010
00001000
00000010
00000200
00000000
00000320
00000000
00020030
00000000
00032000
00000000
,
00003100
00010000
00000100
00000000
00010000
00001000
00000000
00001000
00100000
00000000
00100000
00010000
00000000
00010000
01000000
00000000
,
00100000
10000000
00100000
10000000
00010000
01000000
00010000
01000000
00100000
10000000
01000000
00000000
00100000
01000000
00100000
00000000
,
00010000
00100000
00010000
00000000
00100000
00010000
00000000
00010000
00001000
00000000
00001000
00000100
00000000
00000100
00000010
00000000
,
00000001
00001000
00000100
00000000
00000010
00000001
00001000
00000000
00000010
00001000
00000010
00001000
00000001
00001000
00000100
00000000
,
00000020
00000000
00000000
00001000
00000000
00000000
00000230
00000000
00000000
00001000
00000000
00000000
00000310
00000000
00001000
00000100
,
00020000
00000000
00000000
00001000
00000000
00000000
00032000
00000000
00000000
00103000
00001000
00000000
00010000
00100000
00001000
01000000
,
00200000
00000000
00000000
10000000
00000000
00000000
02300000
00000000
00000000
10000000
00000000
00000000
03100000
00000000
10000000
00010000
,
00200000
00000000
00000000
01000000
00000000
00000000
10000000
00000000
00000000
00310000
00000000
00000000
20020000
00000000
00000000
00000000
,
00000000
00000000
00000000
00000000
00030000
00000000
31000000
01000000
,
00100000
00010000
10000000
01000000
00010000
00001000
00010000
00000010
,
00001000
00000100
00000010
00000001
00001000
00000000
00000010
00001000
,
00000001
00000000
00000000
00000000
00000100
00000000
00000000
00000000
00000010
00000000
00000000
00000000
00010000
00000000
00000000
00000000
00001000
00000000
00000000
00000000
00010000
00000000
00000000
00000000
00002000
00003000
00200000
00300000
00020000
00030000
00200000
00300000
,
00010000
00100000
01000000
10000000
00010000
00000000
00000000
00000000
10000000
00000000
00010000
00000000
10000000
00000000
00000000
00000000
,
00010000
00000000
01001000
00000000
00010000
00001000
00010000
00000000
,
00000010
00000000
00000101
00000000
00000001
00000100
00000010
00001000
,
00000100
00000000
00010000
00000000
00001000
00000000
00100000
00000000
00010000
01000000
00010000
00000000
10000000
00100000
10000000
00000000
,
00010000
00100000
00010000
00100000
00001000
00010000
00001000
00010000
00000010
00000000
00001000
00000100
00000000
00000010
00000000
00000001
,
00000000
00001000
00000010
00000100
00000010
00000000
00001000
00000000
00000001
00000000
00000010
00000100
00000000
00010000
00000000
00001000
,
00000000
00100000
00010000
10000000
00100000
01000000
00100000
00000000
10000000
00000000
01000000
00100000
00000000
00010000
00000000
01000000
,
00000000
00001000
00010000
00001000
00010000
00000000
00000100
00000000
00002000
00000010
00000000
00003010
00000200
00000000
00000301
00000000
,
00000020
00000000
00000130
00000000
00020000
00000000
00031000
00000000
00010000
00000000
00001000
00100000
00000000
00010000
00000000
10010000
,
00000000
01000000
00000000
00100000
01000000
00000000
00100000
00000000
10000000
00000000
01000000
00100000
00000000
00001000
00000000
00011000
,
00000000
00010000
00000000
00000010
00001000
00000010
00000100
00000001
00001000
00000000
00000100
00000010
00000000
00000001
00000010
00000100
,
00000010
00000000
00001000
00000001
00000000
00000100
00000010
00001000
00000100
00000000
00010000
00001000
00000000
00010000
00100000
01000000
,
10000000
01000000
00100000
00001000
00010000
00000000
00010000
00001000
00000020
00000000
00000000
00000000
00000000
00000000
00000000
00000000
,
00000000
00000000
00000000
00000000
,
00000000
00000000
00000030
00000000
;
