#TITLE:POSSESSION (Aoi Q.E.D. RMX);
#ARTIST:Aoi;
#BANNER:POSSESSION (Aoi Q.E.D. RMX).png;
#BACKGROUND:POSSESSION (Aoi Q.E.D. RMX)-bg.png;
#CDTITLE:./CDTitles/SDVX EXCEED GEAR.png;
#MUSIC:POSSESSION (Aoi Q.E.D. RMX).ogg;
#SAMPLESTART:82.642;
#SAMPLELENGTH:15;
#BPMS:0=212,34=424,36=212,64=424,68=106,84=212,179=424,180=106,210=212,211=106,212=212,244=106,248=212,278=424,279=212,334=424,336=212;
#STOPS:34=0.035,34.25=0.035,34.5=0.036,34.75=0.035,35=0.035,35.25=0.036,35.5=0.035,35.75=0.036,64=0.094,64.666667=0.094,65.333333=0.095,66=0.094,66.666667=0.094,67.333333=0.095,179=0.035,179.25=0.035,179.5=0.035,179.75=0.036,210=0.071,210.25=0.071,210.5=0.071,210.75=0.07,278=0.035,278.25=0.036,278.5=0.035,278.75=0.036,334=0.047,334.333333=0.047,334.666667=0.047,335=0.047,335.333333=0.047,335.666667=0.048;
#BGSTAGE:27;

//--------------- dance-single - Fred-104 ----------------
#NOTES:
     dance-single:
     Fred-104:
     Beginner:
     8:
     :
0000
0000
0000
0000
,
0000
0000
0000
0000
,
0000
0000
0000
0000
,
0000
0000
0000
0000
,
0000
0000
0000
0000
,
0000
0000
0000
0000
,
0000
0000
0000
0000
,
0000
0000
0000
0000
,
0000
0000
0000
0000
,
1001
0000
0000
0000
,
0000
0000
0000
0000
,
1001
0000
0000
0000
,
0000
0000
0100
0100
,
0001
0000
0010
0000
,
0001
0000
0001
0000
,
1000
0000
0001
0000
,
1000
0000
0000
0000
,
1001
0001
0100
0100
,
0010
0100
0001
1000
,
0010
0100
0001
1000
,
0001
1000
2002
3003
,
0001
0000
1000
0000
,
0010
0010
0010
0010
,
0010
0000
1000
0000
,
0100
0100
0100
0100
,
0100
0000
0001
0000
,
0010
0010
0010
0010
,
0001
0000
1000
0000
,
0001
0001
0001
1000
,
2002
0000
0000
0000
,
0000
0000
0000
3003
,
0220
0000
0000
0000
,
0000
0000
0330
0000
,
1000
0000
0010
0000
,
1000
1000
0100
0000
,
0001
0001
0001
0001
,
0100
1000
1001
0000
,
0100
0000
0100
0000
,
0010
0000
0010
0000
,
0001
0000
0001
0000
,
1000
0000
1000
0000
,
0001
0000
1000
0000
,
0010
0000
0100
0000
,
0001
0000
1000
0000
,
0001
0000
1001
0000
,
2000
0000
0000
3000
,
0020
0000
0000
0030
,
0200
0000
0000
0300
,
0002
0000
0000
0003
,
1000
0100
0100
0010
,
0001
0100
1000
0100
,
0001
0001
1000
0010
,
1000
0000
0001
0000
1000
0000
2002
3003
,
1000
1000
1100
0000
,
0001
0001
0101
0000
,
1000
1000
1010
0000
,
0001
0001
0011
0000
,
1000
0000
0100
0000
,
0010
0000
0001
0000
,
1000
1000
0001
0001
,
0100
0100
0100
0100
,
0220
0000
0000
0330
,
0001
0010
0001
0001
,
0100
0010
0010
0010
,
1000
0100
1000
1000
,
0001
0010
0100
1000
,
0001
0001
0100
0010
,
0100
0001
1000
1000
,
0001
1000
0100
0010
,
0001
1000
1001
0000
,
1000
0100
0100
1000
,
0001
0100
0010
0100
,
0100
0001
0100
0010
,
0100
0001
1000
0100
,
0010
0001
0100
0010
,
0220
0000
0000
0330
,
2002
3003
0100
0100
,
0002
0003
0100
0100
,
2000
3000
0010
0010
,
0002
0003
0010
0010
,
2000
3000
0002
0003
,
0020
0030
0200
0300
,
1000
0001
1000
0001
,
2002
0000
3003
0000
,
0001
0000
0101
0000
,
0100
0000
1100
0000
,
1000
0000
1010
0000
,
0010
0000
0011
0000
,
0001
0000
0011
0000
,
0010
0000
1010
0000
,
1000
0000
1100
0000
,
0100
0000
0202
0303
,
1001
0000
0000
0000
;

//--------------- dance-single - Fred-104 ----------------
#NOTES:
     dance-single:
     Fred-104:
     Easy:
     12:
     :
0000
0000
0000
0000
,
0000
0000
0000
0000
,
0000
0000
0000
0000
,
0000
0000
0000
0000
,
0000
0000
0000
0000
,
0000
0000
0000
0000
,
0000
0000
0000
0000
,
0000
0000
0000
0000
,
0000
0000
0002
2003
,
3001
0000
0000
1001
0000
0000
0000
0000
,
0000
0000
0000
0000
0000
0000
0000
0100
,
0010
0000
0000
0110
0000
0000
0000
0000
,
0000
0000
1010
0101
,
0001
0001
0010
0100
,
0010
0010
0001
1000
,
0001
1000
0001
0000
0100
0010
0100
0000
,
0001
0000
0001
0000
0001
0000
1000
0000
1000
0000
1000
0000
,
0001
0010
0001
0010
0010
0100
1000
0001
,
1000
0100
1000
0100
0100
0010
0001
2000
,
3001
0010
0010
0100
0010
0001
1000
0200
,
1300
0000
0100
0000
1000
0000
0001
0000
0100
0000
0000
0110
0000
0000
0001
0000
,
2000
0000
3001
0010
0000
0001
0000
0001
,
0000
0100
0000
0010
0000
1000
0000
0001
,
0100
0000
0010
1000
0000
0100
0000
0100
,
0000
1000
0000
0010
0200
0302
2003
3002
,
1003
0000
0100
1000
0000
0001
0000
0100
,
0000
0010
0000
0100
0000
0001
0000
1000
,
0001
0000
0100
0010
0100
0000
0001
0000
,
1000
0000
0010
1000
0000
0001
0100
0000
,
0220
0000
0000
0000
,
0000
0000
0000
0000
0000
0000
0330
0001
,
1000
0000
0000
2002
0000
0000
0000
0000
,
0000
3003
1100
0011
,
1000
0010
1000
0000
0001
0010
0000
0001
,
0000
0100
0001
0000
1000
0010
0100
0000
,
0001
0100
0001
0100
0010
1000
0010
1000
,
0002
0000
1003
0000
0010
0100
0010
0000
,
0100
0000
0100
0000
0100
0000
0001
0000
0001
0000
0001
0000
,
0010
0000
0010
0000
0010
0000
1000
0000
1000
0000
1000
0000
,
0100
0000
0100
0000
0100
0000
0001
0000
0001
0000
0001
0000
,
0010
0000
0010
0000
0010
0000
1000
0000
1000
0000
1000
0000
,
0100
0000
0100
0000
0100
0000
1000
0000
1000
0000
1000
0000
,
0010
0000
0010
0000
0010
0000
0001
0000
0001
0000
0001
0000
,
0010
0000
0010
0000
0010
0000
1000
0000
1000
0000
1000
0000
,
0100
0000
0100
0000
0100
0000
2002
0000
0000
3003
0000
0000
,
0002
0013
2000
3010
,
0002
0103
2000
3100
,
0001
0010
0001
1000
1000
0100
0010
0001
,
1000
1000
0010
0100
0001
1000
2002
3003
,
1000
0100
0100
0000
0010
0001
1000
0010
,
0100
0001
0001
0000
0010
0100
1000
0001
,
0100
0001
1000
0000
0001
0010
0001
1000
,
0010
0100
0010
1000
0002
2003
3002
0000
,
1003
0000
0100
0000
1100
0000
0010
0001
,
1000
0000
0010
0000
0110
0000
0100
0001
,
1000
0000
0001
0000
0011
0000
0010
0001
,
0100
0010
2002
3003
,
1000
0100
1000
0000
0001
0100
0001
0000
,
1000
0010
1000
0000
0001
0010
0001
0000
,
1000
0100
0010
0001
0010
0100
1000
0000
,
0001
0100
0020
0030
,
2002
0000
0000
3003
,
1000
0100
1000
0010
,
1000
0000
0001
0000
0100
0010
1000
0000
,
0001
0010
0100
0010
,
0001
0000
1000
0000
0001
0100
0010
0000
,
1000
0100
0010
0001
,
1000
0000
0001
0000
0100
0100
0100
0000
,
0001
0010
0001
0000
1000
0000
0100
0000
,
0010
0001
1000
0000
0002
0000
1003
0000
,
0001
1000
0100
0000
1000
0000
0010
0000
,
1000
0100
0010
0000
0001
0010
0100
0000
,
1000
0010
1000
0000
0001
0010
0001
0000
,
1000
0100
1000
0000
0001
0100
0001
0000
,
1000
0010
0100
0001
0100
0010
1000
0000
,
2002
0000
0000
3003
,
0001
0000
0000
0000
1000
0001
0100
0000
,
0010
0000
0000
0000
1000
0010
0100
0010
,
0001
0000
0000
0000
0010
0100
0001
0000
,
1000
0000
0000
0000
0001
0010
0100
1000
,
0001
0000
0000
0001
0100
0000
0000
0100
,
0010
0000
0000
0010
1000
0000
0000
1000
,
0100
0000
0000
0100
0010
0000
0000
0001
,
2000
0000
3000
0000
,
0100
0000
0100
0000
0100
0000
0001
0000
0100
0000
1000
0000
,
0100
0000
0100
0000
0100
0000
1000
0000
0100
0000
0001
0000
,
0100
0000
0100
0000
0100
0000
0001
0000
0100
0000
1000
0000
,
0100
0000
0100
0000
0100
0000
1000
0000
0100
0000
0001
0000
,
0001
0000
0100
0000
1000
0000
1000
0000
0100
0000
0001
0000
,
0001
0000
0010
0000
1000
0000
1000
0000
0010
0000
0001
0000
,
0100
0000
0100
0000
0100
0000
1000
0000
1000
0000
1000
0000
,
0010
0000
0010
0000
0010
0000
0220
0000
0000
0330
0000
0000
,
1001
0000
0000
0000
;

//--------------- dance-single - Fred-104 ----------------
#NOTES:
     dance-single:
     Fred-104:
     Medium:
     15:
     :
0000
0000
0000
0000
,
0000
0000
0000
0000
,
0000
0000
0000
0000
,
0000
0000
0000
0000
,
0000
0000
0000
0000
,
0000
0000
0000
0000
,
0000
0000
0000
0000
,
0000
0000
0000
0000
,
0000
0000
0000
0000
0002
2003
3002
2003
,
3001
0000
0000
0110
0000
0000
0000
0000
,
0000
0000
0000
0000
0000
0000
0000
0010
,
1100
0000
0000
0101
0000
0000
0000
0000
,
0000
0000
1010
0011
,
1000
0100
1000
0100
0010
0100
0010
0001
,
0010
0001
0010
0001
1000
0001
0100
0010
,
0100
0001
1000
0100
0010
0001
1000
0010
,
1000
0000
1010
0000
0100
0000
0001
0000
0011
0000
0100
0000
,
1000
0000
0001
1000
0100
0100
0100
1000
0001
0100
0100
0100
0010
0100
0100
0100
,
0001
0000
1000
0010
0100
0010
0010
0010
1000
0010
0010
0010
0100
0010
0010
0010
,
1000
0000
1000
0100
1000
0001
0001
0001
0100
0001
0001
0001
0100
0010
0010
0010
,
1000
0000
0001
0100
0010
0010
0010
1000
0001
0000
0000
1001
0000
1000
0010
0100
,
0002
0000
0013
0001
1000
0010
0100
0010
,
0001
0010
1000
0001
1000
0100
0010
0001
,
2000
0000
3100
0001
0100
0001
0100
1000
,
0100
1000
0100
0010
0002
0023
2030
3020
,
0032
0000
0013
0100
1000
0100
0010
1000
,
0001
0100
0010
0001
1000
0001
0100
0010
,
2000
0000
3001
1000
0100
0100
1000
0001
,
0100
0000
0000
0010
0000
0000
0100
0000
0000
0000
0001
0000
0100
0000
0010
0000
,
2000
0000
0000
0002
0000
0000
0000
0000
,
0000
0000
0000
0000
0000
0000
3003
0100
,
0010
0000
0000
0220
0000
0000
0000
0000
,
0000
0330
1100
0011
,
1000
0100
0010
0000
0001
1000
0100
1000
,
0000
0001
0100
0000
0010
0100
0010
1000
,
0001
0010
0001
0010
0100
1000
0001
0100
,
0010
0100
0010
0100
0010
0000
0000
0000
1000
0000
0001
0000
0100
0000
0000
0000
,
0100
0000
0001
0000
0101
0000
0010
0000
1000
0000
1010
0000
,
0001
0000
0010
0000
0011
0000
0100
0000
1000
0000
1100
0000
,
0010
0000
1000
0000
1010
0000
0001
0000
0010
0000
0011
0000
,
0100
0000
1000
0000
1100
0000
0001
0000
0100
0000
0101
0000
,
1100
0000
1100
0000
1100
0000
0011
0000
0011
0000
0011
0000
,
0101
0000
0101
0000
0101
0000
1010
0000
1010
0000
1010
0000
,
1100
0000
1100
0000
1100
0000
0101
0000
0101
0000
0101
0000
,
0110
0000
0110
0000
0110
0000
2002
0000
0000
3003
0000
0000
,
2000
0000
3020
0000
,
0230
0000
0302
0000
,
0023
0000
0230
0000
,
2300
0000
0000
0000
3002
0003
1001
0000
,
1000
0100
0010
0000
0001
0100
0010
0100
0000
1000
0100
0000
0010
0100
0001
1000
,
0001
0010
0001
0000
1000
0010
0100
0001
0000
1000
0100
0000
0010
0001
0010
0100
,
1000
0010
1000
0010
0100
0001
0100
0001
1000
0100
0010
0001
0010
0100
1000
0001
,
0100
0000
0000
0000
0010
0000
0000
0000
1000
0000
0000
0000
0001
0000
0000
0000
0010
0000
0000
0000
0100
0000
0000
0000
0010
0000
0000
0000
0001
0000
0000
0000
2000
3000
0000
0000
0020
0030
0000
0000
0200
0300
0000
0000
0002
0003
0000
0000
1000
0000
0000
0000
0001
0000
0000
0000
0200
0000
0000
0000
0000
0000
0000
0000
,
0301
0000
0011
0000
1001
0000
0100
0010
,
1000
0000
1100
0000
0100
0010
0001
1000
,
0001
0000
0101
0000
1010
0000
0100
0010
,
1000
0000
1100
0000
1000
1000
0001
0001
,
0010
0001
1000
0010
0100
0010
1000
0100
,
0010
0001
1000
0001
1000
0100
1000
0010
,
1000
0100
1000
0100
0001
0100
0001
0100
,
1000
0000
0000
0000
0001
0000
0100
0000
0010
0000
0000
0010
0000
0000
1000
0000
,
2002
0000
0000
3003
,
0001
0010
0010
0001
1000
0010
0100
0100
,
0010
1000
0100
0010
0100
1000
0010
0100
,
0001
0100
1000
0100
0001
0100
0010
1000
,
0001
0010
1000
0010
0001
1000
0001
0100
,
0010
1000
0010
0100
0001
0010
0100
1000
,
0001
0000
0000
0001
0000
0000
0001
0000
0100
0000
0010
0000
0110
0000
0000
0000
,
0001
0000
0001
0000
1000
0000
0100
0000
0010
0000
0001
0000
1000
0100
1000
0000
,
0001
0000
0000
0000
0000
0000
0000
0000
0100
0000
0000
0000
0000
0000
0000
0000
0010
0000
0000
0000
0000
0000
0000
0000
0100
0000
0000
0000
0000
0000
0000
0000
0002
0003
0000
0000
2000
3000
0000
0000
0002
0003
0000
0000
2000
3000
0000
0000
0002
0000
0000
0000
0000
0000
0000
0000
0000
0000
0000
0000
0000
0000
0000
0000
,
1003
0000
0100
0000
0100
0000
1000
0000
0001
0000
0100
0000
0010
0100
0010
0000
,
1000
0001
0010
0001
0100
0100
0010
0010
,
1000
0100
0010
0100
1000
0100
0010
0000
,
0001
0100
0010
1000
0010
0100
0001
0000
,
0001
0010
0100
1000
0010
0100
0001
1000
,
0001
0000
0000
1000
0000
0000
0010
0000
0100
0000
0010
0000
1000
0000
0001
0000
,
1000
0000
0000
1100
0000
0000
0010
0000
0001
0000
1000
0000
0010
0000
0100
0000
,
0001
0000
0000
0101
0000
0000
0100
0000
0010
0000
1000
0000
0001
0000
0010
0000
,
0100
0000
0000
1100
0000
0000
1000
0000
0010
0000
0100
0000
0010
0000
1000
0000
,
0001
0000
0000
1001
0000
0000
0001
0000
1000
0000
0010
0000
0100
0000
0001
0000
,
1000
0000
0000
1100
0000
0000
0010
0000
0001
0000
0000
0101
0000
0000
0010
0000
,
1000
0000
0000
1010
0000
0000
0100
0000
0001
0000
0000
0011
0000
0000
0100
0000
,
1000
0000
0000
1001
0000
0000
0010
0000
0100
0000
0000
0110
0000
0000
1000
0000
,
2002
0000
3003
0000
,
0100
0000
0100
0000
0100
0000
0010
0000
0100
0000
1010
0000
,
0001
0000
0001
0000
0001
0000
0100
0000
0010
0000
1100
0000
,
0010
0000
0010
0000
0010
0000
0001
0000
1000
0000
1001
0000
,
0100
0000
0100
0000
0100
0000
0010
0000
0100
0000
1001
0000
,
1000
0000
0100
0000
1100
0000
0010
0000
0001
0000
0011
0000
,
0100
0000
0010
0000
0101
0000
0100
0000
0010
0000
1100
0000
,
0001
0000
0100
0000
0110
0000
1000
0000
0100
0000
0110
0000
,
0001
0000
1000
0000
0001
0000
0220
0000
0000
0330
0000
0000
,
1001
0000
0000
0000
;

//--------------- dance-single - Fred-104 ----------------
#NOTES:
     dance-single:
     Fred-104:
     Hard:
     17:
     :
0000
0000
0000
0000
,
0000
0000
0000
0000
,
0000
0000
0000
0000
,
0000
0000
0000
0000
,
0000
0000
0000
0000
,
0000
0000
0000
0000
,
0000
0000
0000
0000
,
0000
0000
0000
0000
,
0220
0000
0330
0000
,
1001
0000
0000
0101
0000
0000
0000
0000
,
0000
0000
0000
0000
0000
0000
0000
1000
,
1100
0000
0000
0011
0000
0000
0000
0000
,
0000
0000
0110
1001
,
1000
0100
0010
0000
0001
1000
0100
1000
,
0000
0010
0100
0000
0001
0001
1000
0001
,
1000
0000
0100
0000
0010
0000
0001
0000
0100
0000
0010
0000
1000
0010
1000
0010
,
2000
0000
0000
3000
0000
0000
0000
0000
0000
0000
0000
0000
0000
0000
0000
0000
0000
0000
0000
0000
0000
0000
0000
0000
0000
0000
0000
0000
0000
0000
0000
0000
2200
0000
0000
3300
0000
0000
0000
0000
0000
0000
0000
0000
0000
0000
0000
0000
0000
0000
0000
0000
0000
0000
0000
0000
0000
0000
0000
0000
0000
0000
0000
0000
0020
0000
0000
0030
0000
0000
0000
0000
0000
0000
0000
0000
0000
0000
0000
0000
0000
0000
0000
0000
0000
0000
0000
0000
0000
0000
0000
0000
0000
0000
0000
0000
0002
0000
0000
0003
0000
0000
0000
0000
0000
0000
0000
0000
0000
0000
0000
0000
0000
0000
0000
0000
0000
0000
0000
0000
0000
0000
0000
0000
0000
0000
0000
0000
0202
0000
0000
0303
0000
0000
0000
0000
0000
0000
0000
0000
0000
0000
0000
0000
0000
0000
0000
0000
0000
0000
0000
0000
0000
0000
0000
0000
0000
0000
0000
0000
0020
0000
0000
0030
0000
0000
0000
0000
0000
0000
0000
0000
0000
0000
0000
0000
0000
0000
0000
0000
0000
0000
0000
0000
0000
0000
0000
0000
0000
0000
0000
0000
,
1000
0000
0000
0000
0010
1000
0010
1000
0010
1000
0010
1000
0010
0000
1000
0000
0001
0100
0001
0100
0001
0000
0100
0010
0100
0010
0100
0010
0100
0000
0001
0000
,
1000
0000
0000
0000
0100
1000
0100
1000
0100
1000
0100
1000
0100
0000
1000
0000
0001
1000
0001
1000
0001
0000
0100
0010
0100
0010
0100
0010
0100
0000
0001
0000
,
1000
0000
0000
0000
0001
0000
1000
0010
1000
0010
1000
0010
1000
0000
0001
0010
0001
0010
0001
0010
0001
0010
0001
0000
0100
0010
0100
0010
0100
0010
0100
0010
,
0100
0000
0000
0000
0001
1000
0001
1000
0001
1000
0001
1000
0001
0000
0100
0010
0100
0000
0000
0000
0000
0000
0110
0000
0000
0000
0001
0000
1000
0000
0010
0000
,
0200
0000
0000
0000
0301
0000
1000
0100
0000
0000
0100
0010
0000
0000
0010
0001
,
0000
0000
0001
0100
0000
0000
0100
0010
0000
0000
0010
1000
0000
0000
1000
0001
,
2000
0000
0000
0000
3100
0000
0010
0001
0000
0000
0001
0100
0000
0000
0100
0001
,
0000
0000
0001
0010
0000
0000
0010
0001
2000
0000
3200
0000
0320
0000
0032
0000
,
2003
0000
0000
0000
3001
0000
1000
0100
0000
0000
0100
0010
0000
0000
0010
0001
,
0000
0000
0001
1000
0000
0000
1000
0010
0000
0000
0010
0100
0000
0000
0100
0001
,
2000
0000
3001
0100
0110
0010
1000
0001
,
1000
0000
0000
0010
0000
0000
2000
0000
0000
0000
3001
0000
0010
0000
0100
0000
,
2000
0000
0000
0002
0000
0000
0000
0000
,
0000
0000
0000
0000
0000
0000
3003
0100
,
0010
0000
0000
0220
0000
0000
0000
0000
,
0000
0330
1010
0101
,
0001
0010
0001
0000
1000
0100
0100
0001
,
0000
0010
0010
1000
0001
0010
0100
1000
,
0001
0100
1000
0001
0010
0100
0010
1000
,
0001
1000
0001
1000
0001
0000
0000
0000
0100
0000
0010
0000
1000
0000
0001
0000
,
1000
0000
1100
0000
0010
0000
0001
0000
0101
0000
0010
0000
,
1000
0000
1010
0000
0100
0000
0001
0000
0011
0000
0100
0000
,
1000
0000
1001
0000
0100
0000
0001
0000
1001
0000
0100
0000
,
1000
0000
1001
0000
0010
0000
0001
0000
1001
0000
0010
0000
,
1000
0000
1010
0000
1000
0001
0100
0000
0110
0000
0010
1000
,
0001
0000
0011
0000
0100
0000
1000
0100
0010
0000
1000
0010
,
0001
0000
0101
0000
0100
0010
1000
0000
1100
0000
0010
0001
,
1000
0000
1100
0000
0101
0000
2002
0000
0000
3003
0000
0000
,
1000
0010
0100
0000
0001
0010
0000
0100
0000
0010
0001
1000
0010
0100
0001
1000
,
0100
0010
0001
0000
0100
1000
0000
0100
0000
0001
0010
0100
1000
0010
0100
0001
,
0100
0100
1000
0000
0001
0100
0000
0010
0000
0100
0001
1000
0001
0100
0010
0001
,
1000
0000
0000
0010
0000
0000
0100
0000
0000
0000
0000
0000
0001
0000
0000
1000
0000
0000
0000
0000
0000
0001
0000
0000
0000
0000
0000
1000
0000
0000
0100
0000
0000
0010
0000
0000
0001
0000
0100
0000
0001
0000
0100
0000
0010
0000
1000
0000
,
0001
0010
0010
0001
0100
0010
0010
2000
0000
3010
1000
1000
0010
0100
0001
0001
,
1000
0100
0010
0010
0001
1000
0100
0200
0000
1300
0100
0010
1000
0001
0100
0010
,
0001
1000
0100
1000
1000
0001
0100
0100
0001
0001
0100
0001
0001
0100
0010
1000
,
0001
0000
0000
0000
0010
0000
0000
0000
0100
0000
0000
0000
1000
0000
0000
0000
0100
0000
0000
0000
0010
0000
0000
0000
0001
0000
0000
0000
1000
0000
0000
0000
0020
0030
0000
0000
0200
0300
0000
0000
0020
0030
0000
0000
0200
0300
0000
0000
0001
0000
0000
0000
1000
0000
0001
0000
2000
0000
0000
0000
0000
0000
0000
0000
,
3001
0100
0110
0000
1000
0100
0110
0000
,
0001
0000
1000
0000
1001
0000
0000
0000
0001
1000
0001
1000
0200
0000
0000
0000
,
1300
0010
1010
0000
0001
0010
0011
0000
,
0001
0000
0100
0000
0010
0000
1000
0000
0001
0000
1000
0001
2000
0000
0000
0000
,
3001
0010
0001
1000
0001
0100
0001
1000
,
0100
0010
0100
1000
0010
0100
0001
1000
,
0001
0000
0010
0001
0100
0000
0010
1000
0100
0000
0010
0001
0100
0000
0010
1000
,
0200
0000
0000
0300
,
0010
0001
0010
0000
0100
1000
0001
0200
0000
0310
0100
0001
1000
0100
0100
0100
,
1000
0000
0001
0000
1000
0000
0010
0100
0001
0100
0001
0000
1000
0100
1000
0000
,
0001
0000
0100
0000
0010
0000
0100
0010
0100
0010
0100
0000
0001
1000
0100
0000
,
1000
0000
0001
0000
0010
0000
0001
1000
0010
0100
0001
0000
1000
0100
1000
0000
,
0001
0000
0010
0001
1000
0000
0001
1000
0010
0000
1000
0001
0100
0000
0001
0000
,
1000
0000
0100
0000
0010
0000
0001
0010
0100
0010
0001
0000
1000
0010
0100
0000
,
0001
0000
0000
1001
0000
0000
1000
0000
0001
0000
0001
0000
1000
0000
1000
0000
,
0001
0000
0010
0000
0100
0000
0010
0001
1000
0001
0010
0001
1000
0001
0100
0000
,
0010
0000
0000
0000
0000
0000
0000
0000
0100
0000
0000
0000
0000
0000
0000
0000
0001
0000
0000
0000
0000
0000
0000
0000
1000
0000
0000
0000
0100
0000
0000
0000
0020
0030
0000
0000
0002
0003
0000
0000
0020
0030
0000
0000
0002
0003
0000
0000
2000
0000
0000
0000
0000
0000
0000
0000
0000
0000
0000
0000
0000
0000
0000
0000
,
3001
0000
0100
0000
0001
0000
0010
0001
1000
0010
0100
0001
1000
0100
0010
0000
,
0001
1000
0010
0000
0100
0000
0001
1000
0100
0000
0010
0000
0100
1000
0001
0000
,
1000
0010
0100
0001
0010
0100
1000
0010
,
0100
0001
0100
0010
1000
0100
0010
0001
,
0010
0001
0010
0001
1000
0100
1000
0100
1000
0010
1000
0010
0100
0001
0100
0001
,
1000
0000
0000
1000
0000
0000
1000
0000
0001
0000
0100
0000
0010
0000
1000
0000
,
0100
0000
0000
0110
0000
0000
0010
0000
0001
0000
1000
0000
0010
0000
0100
0000
,
0010
0000
0000
0110
0000
0000
0100
0000
0010
0000
1000
0000
0100
0000
0010
0000
,
0001
0000
0000
0101
0000
0000
0100
0000
0010
0000
1000
0000
0001
0000
1000
0000
,
0100
0000
0000
1100
0000
0000
0010
0000
0001
1000
0001
0000
0100
0000
0010
0000
,
1000
0000
0000
1100
0000
0000
0100
0010
0100
0000
0000
0101
0000
0000
0001
0010
,
0001
0000
0000
1001
0000
0000
1000
0010
1000
0000
0000
1010
0000
0000
0010
0100
,
0010
1000
0001
0010
0100
1000
0001
1000
,
2002
0000
0000
0000
0000
0000
0000
0000
0000
0000
0000
0000
0000
0000
0000
0000
0000
0000
0000
0000
0000
0000
0000
0000
0000
0000
0000
0000
0000
0000
0000
0000
0000
0000
0000
0000
0000
0000
0000
0000
0000
0000
0000
0000
0000
0000
0000
0000
0000
0000
0000
0000
0000
0000
0000
0000
0000
0000
0000
0000
0000
0000
0000
0000
0000
0000
0000
0000
0000
0000
0000
0000
3003
0000
0000
0000
0000
0000
0000
0000
0000
0000
0000
0000
0000
0000
0000
0000
0000
0000
0000
0000
0000
0000
0000
0000
0002
0000
0000
0003
0000
0000
0000
0000
0000
0000
0000
0000
0000
0000
0000
0000
0020
0000
0000
0030
0000
0000
0000
0000
0000
0000
0000
0000
0000
0000
0000
0000
0200
0000
0000
0300
0000
0000
0000
0000
0000
0000
0000
0000
0000
0000
0000
0000
2000
0000
0000
3000
0000
0000
0000
0000
0000
0000
0000
0000
0000
0000
0000
0000
0020
0000
0000
0030
0000
0000
0000
0000
0000
0000
0000
0000
0000
0000
0000
0000
0200
0000
0000
0300
0000
0000
0000
0000
0000
0000
0000
0000
0000
0000
0000
0000
,
0001
0000
0101
0000
0101
0000
1100
0000
1100
0000
1100
0000
,
0011
0000
0011
0000
0011
0000
1010
0000
1010
0000
1010
0000
,
0011
0000
0011
0000
1010
0000
0101
0000
0101
0000
1100
0000
,
0011
0000
1010
0000
0011
0000
0101
0000
1001
0000
1001
0000
,
0011
0000
1001
0000
1000
0010
0100
0000
0110
0000
0100
0001
,
1000
0000
1100
0000
0100
0010
0001
0010
0100
0000
1001
0000
,
0001
0010
0001
1000
0010
1000
0100
0010
0001
1000
0010
1000
,
1001
0000
1100
0000
0101
0000
0220
0000
0000
0330
0000
0000
,
1001
0000
0000
0000
;

//--------------- dance-single - Fred-104 ----------------
#NOTES:
     dance-single:
     Fred-104:
     Challenge:
     18:
     :
0000
0000
0000
0000
,
0000
0000
0000
0000
,
0000
0000
0000
0000
,
0000
0000
0000
0000
,
0000
0000
0000
0000
,
0000
0000
0000
0000
,
0000
0000
0000
0000
,
0000
0000
0000
0000
,
1001
0000
0000
0000
0000
0000
0000
0000
0000
0000
0000
0000
0000
0000
0000
0000
0000
0000
0000
0000
0000
0000
0000
0000
0000
0000
0000
0000
0000
0000
0000
0000
0002
0003
0000
0000
2000
3000
0000
0000
0002
0003
0000
0000
2000
3000
0000
0000
0002
0003
0000
0000
2000
3000
0000
0000
0002
0003
0000
0000
2000
3000
0000
0000
,
0001
0000
0000
1100
0000
0000
0000
0000
,
0000
0000
0000
0000
0000
0000
0000
0001
,
0101
0000
0000
1010
0000
0000
0000
0000
,
0000
0000
0011
1001
,
1000
0100
1000
0100
0010
0001
1000
0010
,
0100
0001
0100
0010
1000
0100
1000
0100
,
0010
0100
1000
0000
0010
0100
0001
0000
1000
0100
1000
0000
0001
0100
0010
1000
,
0002
0000
0000
0003
0000
0000
0000
0000
0000
0000
0000
0000
0000
0000
0000
0000
0000
0000
0000
0000
0000
0000
0000
0000
0000
0000
0000
0000
0000
0000
0000
0000
0202
0000
0000
0303
0000
0000
0000
0000
0000
0000
0000
0000
0000
0000
0000
0000
0000
0000
0000
0000
0000
0000
0000
0000
0000
0000
0000
0000
0000
0000
0000
0000
2020
0000
0000
3030
0000
0000
0000
0000
0000
0000
0000
0000
0000
0000
0000
0000
0000
0000
0000
0000
0000
0000
0000
0000
0000
0000
0000
0000
0000
0000
0000
0000
0022
0000
0000
0033
0000
0000
0000
0000
0000
0000
0000
0000
0000
0000
0000
0000
0000
0000
0000
0000
0000
0000
0000
0000
0000
0000
0000
0000
0000
0000
0000
0000
2200
0000
0000
3300
0000
0000
0000
0000
0000
0000
0000
0000
0000
0000
0000
0000
0000
0000
0000
0000
0000
0000
0000
0000
0000
0000
0000
0000
0000
0000
0000
0000
2002
0000
0000
3003
0000
0000
0000
0000
0000
0000
0000
0000
0000
0000
0000
0000
0000
0000
0000
0000
0000
0000
0000
0000
0000
0000
0000
0000
0000
0000
0000
0000
,
0001
0000
0000
0000
1000
0100
0010
0100
1000
0100
0010
0100
1000
0000
0001
0100
0010
0100
0001
0100
0010
0000
1000
0010
0100
0010
1000
0010
0100
0001
1000
0001
,
1000
0000
0000
0000
0001
0010
0100
0010
0001
0010
0100
0010
0001
0000
1000
0010
0100
0010
1000
0010
0100
0000
0001
0100
0010
0100
0001
0100
0010
1000
0001
1000
,
0200
0000
0300
0000
0010
0000
0001
0100
0010
0100
0001
0100
0010
0000
1000
0010
1000
0100
0010
0100
1000
0100
1000
0000
0001
0100
0001
0100
0010
1000
0100
1000
,
0001
0000
0000
0000
1000
0001
0100
0001
1000
0001
0010
0001
1000
0000
0001
0100
0010
0000
0000
0000
0100
0000
0110
0000
0000
0000
0001
1000
0100
1000
0010
0100
,
0020
0000
0000
0000
0130
0000
0001
0010
0100
0000
0010
0100
1000
0000
0100
1000
,
0001
0000
1000
0001
0010
0000
0100
1000
0001
0000
1000
0100
0001
0000
0100
1000
,
0002
0000
0000
0000
1003
0000
0100
0010
0001
0000
0100
0010
0001
0000
0010
1000
,
0001
0000
1000
0100
0001
0000
0100
1000
0020
0000
0230
0000
0302
0000
2003
0000
,
3002
0000
0000
0000
1003
0000
0001
0100
1000
0000
0100
0010
1000
0000
0010
1000
,
0001
0000
1000
0100
0010
0000
1000
0010
0001
0000
1000
0100
0010
0000
0100
1000
,
0002
0000
1003
0100
0110
0010
0001
1000
,
0001
0100
1000
0001
0010
0100
0001
1000
,
0010
0000
0000
0220
0000
0000
0000
0000
,
0000
0000
0000
0000
0000
0000
0330
0002
,
2003
0000
0000
0002
0000
0000
0000
0000
,
0000
3003
1010
0101
,
0001
0010
0100
1000
0010
0100
0001
1000
0100
0010
0100
1000
,
0001
0100
0010
0100
0001
1000
0100
0001
0100
1000
0001
0010
,
0001
0100
0001
0100
0010
1000
0010
1000
0001
0010
0001
0010
0100
1000
0100
1000
,
0001
0100
0010
1000
0001
0000
1000
0000
0002
0000
0203
0000
2300
0000
3200
0000
,
0301
0000
0011
0000
0011
0000
0100
0000
1100
0000
1100
0000
,
0001
0000
0101
0000
0110
0000
1000
0000
1100
0000
0110
0000
,
0011
0000
1010
0000
0011
0000
1100
0000
0101
0000
1100
0000
,
0011
0000
1010
0000
1001
0000
0001
0100
0010
1000
0100
0010
,
0001
0000
0011
0000
0001
1000
0010
0000
0110
0000
0100
0001
,
1000
0000
1100
0000
0110
0000
0001
0100
1000
0000
0100
0010
,
1000
0001
0010
1000
0001
0100
0010
0100
1000
0001
0100
0010
,
1010
0000
0000
0000
0000
0000
0000
0000
0000
0000
0000
0000
0000
0000
0000
0000
0000
0000
0000
0000
0000
0000
0000
0000
0000
0000
0000
0000
0000
0000
0000
0000
0101
0000
0000
0000
0000
0000
0000
0000
0000
0000
0000
0000
0000
0000
0000
0000
0000
0000
0000
0000
0000
0000
0000
0000
0000
0000
0000
0000
0000
0000
0000
0000
1001
0000
0000
0000
0000
0000
0000
0000
0000
0000
0000
0000
0000
0000
0000
0000
0000
0000
0000
0000
0000
0000
0000
0000
0000
0000
0000
0000
0000
0000
0000
0000
0001
0000
0000
0000
0000
0000
0000
0000
0000
0000
0000
0000
0000
0000
0000
0000
0000
0000
0000
0000
0000
0000
0000
0000
0100
0000
0000
0000
0000
0000
0000
0000
0000
0000
0000
0000
0000
0000
0000
0000
0000
0000
0000
0000
0000
0000
0000
0000
0002
0000
0000
0003
0000
0000
0000
0000
0000
0000
0000
0000
2000
0000
0000
3000
0000
0000
0000
0000
0000
0000
0000
0000
0002
0000
0000
0003
0000
0000
0000
0000
0000
0000
0000
0000
2000
0000
0000
3000
0000
0000
0000
0000
0000
0000
0000
0000
,
0001
0100
0010
0000
1000
0100
0000
0010
0000
0001
0010
1000
0010
0001
0100
0010
,
1000
0100
0010
0100
1000
0010
0100
0001
0100
1000
0100
0001
0001
0010
1000
0010
,
0001
0100
0020
0000
1030
0020
0000
0031
0000
0010
1000
0001
0100
0010
1000
0100
,
1000
0000
0000
0100
0000
0000
0010
0000
0000
0100
0000
0000
1000
0000
0000
0001
0000
0000
0100
0000
0000
0010
0000
0000
0100
0000
0000
0001
0000
0000
0010
0000
0000
0100
0000
0000
1000
0000
0010
0000
0100
0000
0001
0000
0100
0000
0010
0000
,
1000
0010
1000
0100
1000
0010
0000
0110
0000
0100
0001
0010
0100
1000
0001
1000
,
0001
0100
0010
0100
1000
0100
0010
0100
0001
1000
0001
1000
0100
0100
0010
0100
,
1000
0000
0100
0000
0010
0000
0001
0100
0001
0000
0010
0000
0001
0100
0001
0000
1000
0010
0100
0000
0010
0000
0100
0010
1000
0000
0001
0000
0010
0000
0100
0000
,
1000
0000
0000
0000
0200
0300
0000
0000
0200
0300
0000
0000
0001
0000
0000
0000
1000
0000
0000
0000
0020
0030
0000
0000
0020
0030
0000
0000
0001
0000
0000
0000
2000
3000
0000
0000
2000
3000
0000
0000
0002
0003
0000
0000
0002
0003
0000
0000
1000
0000
0000
0000
0001
0000
0100
0000
0010
0000
1000
0000
0100
0000
0010
0000
,
0001
0010
0001
0100
0010
1000
1001
0000
,
1100
0000
0100
0000
0010
0000
0001
0000
0100
0001
1000
0001
0200
0000
0000
0300
,
0110
0010
1000
0001
1000
0010
1010
0000
,
0011
0000
0010
0000
1000
0000
0001
0000
0010
0000
0100
0010
0200
0000
0000
0300
,
1000
0000
0001
0100
0001
0000
0010
0000
0100
0000
1000
0100
1000
0000
0010
0000
,
1000
0010
0100
0001
1000
0100
0010
0001
,
1000
0010
0100
0001
0010
0100
1000
0010
0100
0001
0010
0100
1000
0010
0100
0001
,
1000
0000
0000
0000
0100
0000
0010
0001
1000
0000
0001
0100
0000
0100
1000
0000
,
0001
0000
0000
0000
1000
0000
0000
0000
0100
0000
0000
0000
0000
0000
0000
0000
1000
0000
0000
0000
0010
0000
0000
0000
0100
0000
0000
0000
0001
0000
0000
0000
0000
0000
0000
0000
0001
0000
0000
0000
0010
0000
0000
0000
0100
0000
0000
0000
1000
0000
0000
0000
0200
0300
0000
0000
0200
0300
0000
0000
0200
0300
0000
0000
,
1000
0000
0100
0000
1000
0000
0010
1000
0001
1000
0010
0100
0001
1000
0100
0000
,
0010
0000
0001
0000
1000
0000
0001
0100
0010
0100
0001
0100
0010
1000
0001
0000
,
1000
0000
0100
0000
0010
0000
0100
1000
0001
1000
0100
0010
0001
0100
0001
0000
,
1000
0010
1000
0000
0001
0000
1000
0100
0010
0100
1000
0100
0010
0100
0010
0000
,
0001
0000
0100
0000
0100
0000
0001
0010
0100
0010
0001
1000
0010
0100
0001
0000
,
1000
0000
0010
1000
0000
0001
0100
0000
0010
0000
0100
0000
0010
0000
0100
0000
,
0001
0000
1000
0000
0100
0000
0010
0001
0010
0100
1000
0010
0100
0001
1000
0000
,
0001
0000
0000
0000
0000
0000
0000
0000
1000
0000
0000
0000
0000
0000
0000
0000
0010
0000
0000
0000
0000
0000
0000
0000
0100
0000
0000
0000
0010
0000
0000
0000
0200
0300
0000
0000
0002
0003
0000
0000
2000
3000
0000
0000
0002
0003
0000
0000
1000
0000
0000
0000
0000
0000
0000
0000
0100
0000
0000
0000
0000
0000
0000
0000
,
0010
0000
0100
0000
1000
0000
0001
0100
0010
1000
0010
0100
0001
1000
0100
0000
,
1000
0010
0001
0000
1000
0000
0001
0010
1000
0000
0001
0000
1000
0001
1000
0000
,
0001
0100
1000
0100
0001
0010
0100
1000
,
0010
0100
0001
0100
0010
0100
0001
1000
,
0010
1000
0100
0010
0100
0010
0001
0100
0010
0100
0010
1000
0100
0010
0100
0010
,
0002
0000
0000
2003
0000
0000
3020
0000
1030
0000
0100
0000
0010
0000
0001
0000
,
0011
0000
0000
1010
0000
0000
0011
0000
0001
0000
1000
0000
0100
0000
0100
0000
,
1010
0000
0000
1001
0000
0000
1010
0000
0001
0000
0100
0010
0100
0000
0001
0000
,
0011
0000
0000
1001
0000
0000
1010
0000
0010
0000
0100
0000
0001
0000
1000
0000
,
1010
0000
0000
0101
0000
0000
1100
0000
0100
0010
0001
1000
0001
1000
0001
1000
,
0001
0000
0000
0011
0000
0000
0100
0010
1000
0000
0000
1100
0000
0000
0010
0100
,
0001
0000
0000
0101
0000
0000
0100
0010
1000
0000
0000
1010
0000
0000
0010
0100
,
0001
0000
0010
0000
0001
0000
1000
0000
0100
0010
0100
0000
1000
0001
1000
0000
,
2002
0000
0000
0000
0000
0000
0000
0000
0000
0000
0000
0000
0000
0000
0000
0000
0000
0000
0000
0000
0000
0000
0000
0000
0000
0000
0000
0000
0000
0000
0000
0000
0000
0000
0000
0000
0000
0000
0000
0000
0000
0000
0000
0000
0000
0000
0000
0000
0000
0000
0000
0000
0000
0000
0000
0000
0000
0000
0000
0000
0000
0000
0000
0000
0000
0000
0000
0000
0000
0000
0000
0000
3003
0000
0000
0000
0000
0000
0000
0000
0000
0000
0000
0000
0000
0000
0000
0000
0000
0000
0000
0000
0000
0000
0000
0000
0002
0000
0000
0003
0000
0000
0000
0000
0000
0000
0000
0000
0000
0000
0000
0000
0020
0000
0000
0030
0000
0000
0000
0000
0000
0000
0000
0000
0000
0000
0000
0000
0002
0000
0000
0003
0000
0000
0000
0000
0000
0000
0000
0000
0000
0000
0000
0000
2000
0000
0000
3000
0000
0000
0000
0000
0000
0000
0000
0000
0000
0000
0000
0000
0020
0000
0000
0030
0000
0000
0000
0000
0000
0000
0000
0000
0000
0000
0000
0000
0200
0000
0000
0300
0000
0000
0000
0000
0000
0000
0000
0000
0000
0000
0000
0000
,
0011
0000
1010
0000
0101
0000
1010
0000
0101
0000
1100
0000
,
0011
0000
1001
0000
0101
0000
1010
0000
1001
0000
1100
0000
,
1010
0000
0101
0000
1100
0000
0011
0000
1100
0000
0101
0000
,
1010
0000
1001
0000
1100
0000
0001
0010
1000
0010
0001
0000
,
0001
0000
1000
0000
0100
0000
0001
0000
0100
0000
0010
0100
0010
0000
1000
0000
0100
0000
0010
0000
0001
0000
1000
0100
,
0010
0000
0100
0000
0001
0000
0100
0000
0001
0000
0010
0100
0010
0000
0100
0000
0001
0000
1000
0000
0010
0000
0100
0000
,
0001
0010
0100
1000
0010
0100
0001
1000
0100
0010
0001
1000
,
1001
0000
1010
0000
0011
0000
0220
0000
0000
0330
0000
0000
,
1001
0000
0000
0000
;

//--------------- dance-double - Fred-104 ----------------
#NOTES:
     dance-double:
     Fred-104:
     Easy:
     13:
     :
00000000
00000000
00000000
00000000
,
00000000
00000000
00000000
00000000
,
00000000
00000000
00000000
00000000
,
00000000
00000000
00000000
00000000
,
00000000
00000000
00000000
00000000
,
00000000
00000000
00000000
00000000
,
00000000
00000000
00000000
00000000
,
00000000
00000000
00000000
00000000
,
00000000
00000000
00000000
00000000
,
10100000
00000000
00000000
01010000
00000000
00000000
00000000
00000000
,
00000000
00000000
00000000
00000000
00000000
00000000
00000000
00001000
,
00010000
00000000
00000000
00001010
00000000
00000000
00000000
00000000
,
00000000
00000000
00001100
00000011
,
00000001
00000000
00000100
00000000
00001000
00010000
00001000
00000000
,
00010000
00000000
00001000
00000000
00010000
00100000
10000000
00000000
,
00010000
10000000
01000000
00000000
00100000
00001000
00010000
00000000
,
00010000
00000000
00010000
00000000
00010000
00000000
00001000
00000000
00001000
00000000
00001000
00000000
,
00011000
00001000
00100000
00100000
00010000
00010000
10000000
02000000
,
03100000
00100000
00001000
00001000
00010000
00010000
00000100
00002000
,
00003001
00000001
00000010
00000010
00000100
00000100
00010000
00002000
,
00103000
00000000
00010000
00000000
01000000
00000000
00100000
00000000
01000000
00000000
00000000
01100000
00000000
00000000
10000000
00000000
,
00020000
00000000
10030000
01000000
00000000
00100000
00000000
00001000
,
00000000
00010000
00000000
00000100
00000000
00000010
00000000
00000001
,
00002000
00000000
00003010
00000100
00000000
00000001
00000000
00000100
,
00000000
00000010
00000000
00001000
00000200
00020300
00032000
00023000
,
00032000
00000000
00103000
00010000
00000000
10000000
00000000
00100000
,
00000000
00010000
00000000
00001000
00000000
00010000
00000000
00001000
,
00010000
00000000
00000100
00010000
00000100
00000000
00001000
00000000
,
00000001
00000000
00000100
00000010
00000000
00001000
00000100
00000000
,
00002000
00000000
00000000
00000002
00000000
00000000
00000000
00000000
,
00000000
00000000
00000000
00000000
00000000
00000000
00003003
00010000
,
00001000
00000000
00000000
00022000
00000000
00000000
00000000
00000000
,
00000000
00000000
00000000
00033000
00011000
00000000
01100000
00000000
,
00010000
10000000
01000000
00000000
00100000
01000000
00000000
00100000
,
00000000
00001000
00010000
00000000
00000010
00001000
00000010
00000000
,
00001000
00000100
00000010
00000000
00000001
00000100
00000000
00000010
,
00001000
00000001
00001000
00000000
00000010
00001000
00000100
00000000
,
00000100
00000000
00000100
00000000
00000100
00000000
00000001
00000000
00000001
00000000
00000001
00000000
,
00000010
00000000
00000010
00000000
00000010
00000000
00001000
00000000
00001000
00000000
00001000
00000000
,
00010000
00000000
00010000
00000000
00010000
00000000
00100000
00000000
00100000
00000000
00100000
00000000
,
10000000
00000000
10000000
00000000
10000000
00000000
01000000
00000000
01000000
00000000
01000000
00000000
,
00010000
00000000
00010000
00000000
00010000
00000000
00001000
00000000
00001000
00000000
00001000
00000000
,
00000010
00000000
00000010
00000000
00000010
00000000
00000001
00000000
00000001
00000000
00000001
00000000
,
00000100
00000000
00000100
00000000
00000100
00000000
00001000
00000000
00001000
00000000
00001000
00000000
,
00010000
00000000
00010000
00000000
00010000
00000000
00022000
00000000
00000000
00033000
00000000
00000000
,
00002000
00000000
00023000
00000000
,
02030000
00000000
23000000
00000000
,
30200000
00000000
00320000
00000000
,
00032000
00000000
00003200
00000320
,
00001030
00000010
00000100
00000000
00000001
00000010
00000100
00000010
,
00001000
00010000
01000000
00000000
00100000
00010000
10000000
01000000
,
00100000
00001000
00010000
00000000
00001000
00000100
00000010
00001000
,
00000001
00000100
00000010
00001000
00000200
00020300
00032000
00000000
,
01003000
00000000
01100000
00000000
10000000
01000000
00010000
00000000
,
00001000
00000000
00011000
00000000
00010000
00000010
00001000
00000010
,
00000100
00000000
00000101
00000000
00000001
00001000
00000100
00000000
,
00000010
00000000
00001010
00000000
00001000
00000100
00010000
00001000
,
00010000
01000000
10000000
00100000
,
00010000
00001000
00000100
00000001
,
00001000
00000100
00000010
00000000
00000001
00000100
00000010
00000000
,
00001000
00000001
00002000
00003000
,
00002002
00000000
00000000
00003003
,
00010000
00000000
00001000
00000000
00100000
00010000
00100000
00000000
,
00001000
00000000
00010000
00000000
00100000
01000000
00100000
00000000
,
10000000
00000000
00010000
00000000
01000000
00010000
01000000
00000000
,
00010000
00100000
00010000
00000000
00100000
00001000
00100000
00000000
,
00001000
00000000
00010000
00000000
00001000
00000100
00000010
00000000
,
00001000
00000001
00002002
00003003
,
00000001
00000010
00000001
00000000
00000100
00000010
00001000
00000000
,
00000100
00010000
00001000
00000000
00020000
00000000
00031000
00000000
,
00100000
00010000
10000000
00000000
00100000
01000000
00010000
00000000
,
10000000
01000000
00010000
00000000
00001000
00010000
00001000
00000000
,
00010000
00001000
00000100
00000000
00000001
00000100
00000010
00000000
,
00001000
00000001
00000010
00000000
00000100
00001000
00000001
00000000
,
00000020
00002030
00023000
00230000
,
10300000
00010000
20020000
30030000
,
10000000
00000000
00000000
00000000
01000000
00100000
00001000
00000000
,
00010000
00000000
00000000
00000000
00000010
00001000
00000001
00001000
,
00000100
00000000
00000000
00000000
00000010
00000001
00001000
00000000
,
00000001
00000000
00000000
00000000
00001000
00000010
00010000
00001000
,
00010000
00000000
00000000
00010000
00100000
00000000
00000000
00100000
,
10000000
00000000
00000000
10000000
01000000
00000000
00000000
01000000
,
00010000
00010000
00001000
00001000
,
00022000
00000000
00033000
00000000
,
10000000
00000000
10000000
00000000
10000000
00000000
00010000
00000000
00010000
00000000
00010000
00000000
,
10000000
00000000
00100000
00000000
00010000
00000000
00001000
00000000
00000100
00000000
00000001
00000000
,
00000001
00000000
00000001
00000000
00000001
00000000
00001000
00000000
00001000
00000000
00001000
00000000
,
00000001
00000000
00000010
00000000
00001000
00000000
00010000
00000000
01000000
00000000
10000000
00000000
,
10000000
00000000
00100000
00000000
00010000
00000000
00010000
00000000
00100000
00000000
10000000
00000000
,
10000000
00000000
01000000
00000000
00010000
00000000
00001000
00000000
00000100
00000000
00000001
00000000
,
00000001
00000000
00000010
00000000
00001000
00000000
00001000
00000000
00000010
00000000
00000001
00000000
,
00000001
00000000
00000100
00000000
00001000
00000000
00000220
00000000
00000000
00000330
00000000
00000000
,
00001001
00000000
00000000
00000000
;

//--------------- dance-double - Fred-104 ----------------
#NOTES:
     dance-double:
     Fred-104:
     Medium:
     15:
     :
00000000
00000000
00000000
00000000
,
00000000
00000000
00000000
00000000
,
00000000
00000000
00000000
00000000
,
00000000
00000000
00000000
00000000
,
00000000
00000000
00000000
00000000
,
00000000
00000000
00000000
00000000
,
00000000
00000000
00000000
00000000
,
00000000
00000000
00000000
00000000
,
00000000
00000000
00000000
00000000
00000000
00000000
00000000
00000000
22000000
00000000
00000000
00000000
00000000
00000000
00000000
33000000
,
01100000
00000000
00000000
00011000
00000000
00000000
00000000
00000000
,
00000000
00000000
00000000
00000000
00000000
00000000
00000000
00000100
,
00000110
00000000
00000000
00001001
00000000
00000000
00000000
00000000
,
00000000
00000000
00001010
00011000
,
00001000
00010000
00001000
00000000
00010000
00100000
10000000
00010000
,
00000000
01000000
00100000
00000000
00010000
00001000
00000100
00000010
,
00001000
00000010
00000100
00000000
00000001
00000100
00000001
00001000
,
00000100
00000000
00000100
00000000
00000010
00000000
00000001
00000000
00000100
00000000
00000100
00000000
,
00000010
00000000
00001000
00000100
00000010
00000010
00000010
00000001
00000100
00000100
00000100
00000010
00001000
00001000
00001000
00000100
,
00010000
00000000
00001000
00001000
00100000
00010000
00010000
00010000
01000000
00100000
00100000
00100000
10000000
01000000
01000000
01000000
,
00100000
00000000
00010000
00100000
01000000
01000000
01000000
01000000
00100000
00001000
00001000
00001000
00010000
00000100
00000100
00000100
,
00001000
00000000
00000100
00000010
00000001
00000001
00000100
00000100
00000010
00000000
00000000
00001001
00000000
00000001
00000010
00001000
,
00020000
00000000
01030000
00100000
00010000
10000000
00100000
01000000
,
00100000
10000000
01000000
00100000
00001000
00010000
00001000
00001000
,
00020000
00000000
00031000
00000100
00000010
00001000
00000001
00000010
,
00000100
00001000
00000100
00000010
00000002
00000203
00000320
00002030
,
00003001
00000000
00000010
00000100
00000010
00000001
00000100
00001000
,
00010000
00001000
00010000
00100000
01000000
00010000
10000000
00010000
,
01000000
00000000
00100000
00000000
10000000
01000000
00100000
00001000
,
00010000
00000000
00001000
00010000
00000000
00001000
00000010
00000000
,
00000100
00000000
00000000
00002002
00000000
00000000
00000000
00000000
,
00000000
00000000
00000000
00000000
00000000
00000000
00003003
00000010
,
00010000
00000000
00000000
00022000
00000000
00000000
00000000
00000000
,
00000000
00033000
00011000
10010000
,
10000000
00100000
10000000
00000000
01000000
00100000
00010000
00001000
,
00000000
00000100
00000010
00000000
00000100
00001000
00000001
00000010
,
00000000
00001000
00010000
00000000
01000000
00100000
00010000
01000000
,
00001000
00010000
00001000
00010000
00001000
00000000
00000000
00000000
00010000
00000000
00001000
00000000
00000100
00000000
00000001
00000000
,
00000010
00000000
00000001
00000000
00000101
00000000
00000100
00000000
00001000
00000000
00011000
00000000
,
00010000
00000000
00100000
00000000
10100000
00000000
10000000
00000000
01000000
00000000
01010000
00000000
,
00010000
00000000
00001000
00000000
00001010
00000000
00000010
00000000
00000001
00000000
00000101
00000000
,
00000100
00000000
00001000
00000000
00011000
00000000
00010000
00000000
00100000
00000000
10100000
00000000
,
10000000
00000000
01000000
00000000
00010000
00000000
00001000
00000000
00000100
00000000
00000001
00000000
,
00000001
00000000
00000010
00000000
00001000
00000000
00010000
00000000
00100000
00000000
10000000
00000000
,
10000000
00000000
01000000
00000000
00010000
00000000
00001000
00000000
00000100
00000000
00000001
00000000
,
00000001
00000000
00000010
00000000
00001000
00000000
00022000
00000000
00000000
00033000
00000000
00000000
,
00012000
00000010
00100000
00003010
,
00021000
01000000
00000100
01030000
,
00002000
00023000
02030000
03200000
,
00302000
00000000
00023000
00000000
02030000
00000000
03200000
00302000
,
00013000
00001000
00010000
00000000
00001000
00100000
00000000
00010000
00000000
10000000
01000000
00000000
00100000
00010000
01000000
00001000
,
00010000
00000100
00001000
00000000
00000100
00000010
00000000
00000001
00000000
00000100
00001000
00000000
00000100
00000001
00000010
00000100
,
00001000
00000100
00010000
00000000
00000100
00010000
00001000
00010000
00000000
00100000
01000000
00000000
00010000
10000000
01000000
10000000
,
01000000
00000000
00000000
00000000
00100000
00000000
00000000
00000000
00010000
00000000
00000000
00000000
00100000
00000000
00000000
00000000
00001000
00000000
00000000
00000000
00010000
00000000
00000000
00000000
00000100
00000000
00000000
00000000
00001000
00000000
00000000
00000000
00000020
00000030
00000000
00000000
00000020
00000030
00000000
00000000
00000200
00000300
00000000
00000000
00000200
00000300
00000000
00000000
00000001
00000000
00000000
00000000
00001000
00000000
00000000
00000000
00000200
00000000
00000000
00000000
00000000
00000000
00000000
00000000
,
00010300
00001000
00000010
00000000
00001000
00010000
00100000
00000000
,
00010000
00001000
00000100
00000000
00001000
00010000
01000000
00000000
,
00010000
00001000
00000010
00000000
00000001
00001000
00000001
00000000
,
00000100
00001000
00010000
00100000
01000000
00010000
10000000
00000000
,
00010000
01000000
00010000
01000000
00001000
00010000
00001000
00010000
,
00000100
00000010
00000100
00000010
00000001
00001000
00000001
00001000
,
00000100
00000010
00000001
00000100
00001000
00010000
01000000
10000000
,
00020000
00000000
00000000
00030000
,
00022000
00000000
00000000
00033000
,
00010000
00000100
00001000
00000100
00000001
00000100
00000010
00000100
,
00001000
00000000
00000001
00000000
00000100
00000000
00001000
00000000
00010000
00001000
00010000
00000000
00001000
00000000
01000000
00000000
,
00100000
01000000
00010000
10000000
01000000
00100000
10000000
00100000
,
00010000
00000000
10000000
00000000
01000000
00000000
00010000
00000000
00001000
00010000
00001000
00000000
00000010
00000000
00000100
00000000
,
00001000
00000010
00000100
00001000
00010000
00100000
01000000
00010000
,
10000000
00000000
00000000
10000000
00000000
00000000
00010000
00000000
10000000
00000000
01000000
00000000
00010000
00000000
01000000
00000000
,
10000000
01000000
00100000
00010000
01000000
00100000
00010000
00001000
,
00100000
00000000
00000000
00000000
00000000
00000000
00000000
00000000
00010000
00000000
00000000
00000000
00000000
00000000
00000000
00000000
00001000
00000000
00000000
00000000
00000000
00000000
00000000
00000000
00000100
00000000
00000000
00000000
00000000
00000000
00000000
00000000
00000020
00000030
00000000
00000000
00000200
00000300
00000000
00000000
00000020
00000030
00000000
00000000
00000200
00000300
00000000
00000000
00000010
00000000
00000000
00000000
00000000
00000000
00000000
00000000
00000000
00000000
00000000
00000000
00000000
00000000
00000000
00000000
,
00000001
00000010
00000100
00001000
00000010
00000100
00001000
00010000
,
00000100
00001000
00010000
00100000
00001000
00010000
00100000
01000000
,
00010000
10000000
01000000
00100000
01000000
00010000
00001000
00000010
,
00000100
00000010
00000001
00001000
00000010
00000001
00000010
00000100
,
00000020
00020030
00032000
00203000
,
00310000
00000000
00000000
00010000
00000000
00000000
00010000
00000000
10000000
00000000
00100000
00000000
01000000
00000000
00010000
00000000
,
20000000
00000000
00000000
31000000
00000000
00000000
01000000
00000000
00100000
00000000
00001000
00000000
00010000
00000000
00001000
00000000
,
00020000
00000000
00000000
00031000
00000000
00000000
00001000
00000000
00010000
00000000
00000100
00000000
00001000
00000000
00000010
00000000
,
00000200
00000000
00000000
00000310
00000000
00000000
00000010
00000000
00000100
00000000
00000001
00000000
00001000
00000000
00000100
00000000
,
00020000
00000000
00000000
00031000
00000000
00000000
00001000
00000000
00100000
00000000
01000000
00000000
00100000
00000000
00010000
00000000
,
20000000
00000000
00000000
31000000
00000000
00000000
00100000
00000000
00002000
00000000
00000000
00013000
00000000
00000000
00010000
00000000
,
00000200
00000000
00000000
00000310
00000000
00000000
00000010
00000000
00000002
00000000
00000000
00000103
00000000
00000000
00000100
00000000
,
00000001
00000010
00001000
00010000
,
00022000
00000000
00033000
00000000
,
10000000
00000000
01000000
00000000
11000000
00000000
10000000
00000000
00100000
00000000
01000000
00000000
,
00010000
00000000
00100000
00000000
00110000
00000000
00001000
00000000
00010000
00000000
00010000
00000000
,
00001000
00000000
00000010
00000000
00001010
00000000
00000001
00000000
00000100
00000000
00000001
00000000
,
00000100
00000000
00000001
00000000
00000101
00000000
00001000
00000000
00000100
00000000
00001000
00000000
,
00011000
00000000
00011000
00000000
00011000
00000000
00101000
00000000
00011000
00000000
00101000
00000000
,
00011000
00000000
00011000
00000000
00011000
00000000
00010010
00000000
00001010
00000000
00010010
00000000
,
00011000
00000000
00011000
00000000
00011000
00000000
01010000
00000000
11000000
00000000
01010000
00000000
,
10010000
00000000
01100000
00000000
10010000
00000000
02200000
00000000
00000000
03300000
00000000
00000000
,
10010000
00000000
00000000
00000000
;

//--------------- dance-double - Fred-104 ----------------
#NOTES:
     dance-double:
     Fred-104:
     Hard:
     18:
     :
00000000
00000000
00000000
00000000
,
00000000
00000000
00000000
00000000
,
00000000
00000000
00000000
00000000
,
00000000
00000000
00000000
00000000
,
00000000
00000000
00000000
00000000
,
00000000
00000000
00000000
00000000
,
00000000
00000000
00000000
00000000
,
00000000
00000000
00000000
00000000
,
00000000
00000000
00000000
00000000
00000000
00000000
00000000
00000000
00000002
00000003
00002000
00003000
00000020
00000030
00000200
00000300
,
00001001
00000000
00000000
00001010
00000000
00000000
00000000
00000000
,
00000000
00000000
00000000
00000000
00000000
00000000
00000000
00001000
,
00011000
00000000
00000000
10010000
00000000
00000000
00000000
00000000
,
00000000
00000000
11000000
01100000
,
10000000
01000000
00100000
00000000
00001000
00010000
00001000
00000010
,
00000000
00000100
00001000
00000000
00000001
00000100
00001000
00000100
,
00000001
00000010
00000100
00000000
00010000
00001000
00100000
00010000
,
10000000
00000000
01000000
00000000
01100000
00000000
00001000
00000000
00010000
00000000
00011000
00000000
,
00010000
00000000
00000000
00000000
00000100
00000000
00000010
00000000
00000001
00001000
00000001
00001000
00000001
00000000
00000100
00000000
00001000
00000000
00010000
00001000
00010000
00000000
00100000
00000000
10000000
00000000
00010000
00000000
01000000
00100000
01000000
00100000
,
01000000
00000000
00000000
00000000
00001000
00000000
00001000
00000000
00010000
00001000
00010000
00001000
00010000
00000000
00001000
00000000
00100000
00010000
00100000
00010000
00100000
00000000
00010000
10000000
00010000
10000000
00010000
10000000
00010000
00000000
10000000
00000000
,
01000000
00000000
00000000
00000000
00100000
00000000
00100000
00000000
00001000
00010000
00001000
00010000
00001000
00000000
00000100
00000000
00000010
00000100
00000010
00000100
00000010
00000000
00001000
00000000
00000001
00000010
00000001
00000010
00000001
00000010
00000001
00000000
,
00001000
00000000
00000000
00000000
00000010
00001000
00000010
00000000
00010000
00001000
00010000
00001000
00010000
00000000
00001000
00010000
00001000
00000000
00000000
00000000
00000000
00000000
00011000
00000000
00000000
00000000
00010000
00000000
00100000
00000000
10000000
00000000
,
00020000
00000000
10030000
01000000
00001000
00000100
00001000
00000001
,
00000100
00010000
01000000
00010000
10000000
01000000
00001000
00000100
,
00000020
00000000
00000031
00000100
00010000
01000000
00010000
10000000
,
01000000
00001000
00000100
00001000
00000002
00000203
00020300
02030000
,
03200000
00000000
10300000
00100000
00001000
00000010
00001000
00000001
,
00000010
00010000
00100000
00010000
10000000
00100000
00001000
00000010
,
00002000
00000000
00003001
00000010
00010000
00100000
01000000
10000000
,
00100000
01000000
00100000
00010000
00001000
00000100
00000010
00000100
,
00000001
00000000
00000000
00022000
00000000
00000000
00000000
00000000
,
00000000
00000000
00000000
00000000
00000000
00000000
00033000
00000100
,
00000010
00000000
00000000
00000220
00000000
00000000
00000000
00000000
,
00000000
00000000
00000000
00000330
00011000
00000000
01100000
00000000
,
00010000
10000000
01000000
00000000
00100000
00001000
00010000
00000100
,
00000000
00010000
00001000
00000100
00000010
00001000
00000100
00001000
,
00000001
00000000
00000100
00000000
00001000
00000000
00010000
00000000
00001000
00010000
00001000
00000000
00100000
00010000
10000000
00000000
,
00010000
01000000
00010000
01000000
00200000
00000000
00000000
00000000
20300000
00000000
32000000
00000000
03200000
00000000
01300000
00000000
,
10000000
00000000
10100000
00000000
00100000
00000000
00010000
00000000
00011000
00000000
00001000
00000000
,
00000010
00000000
00000011
00000000
00000001
00000000
00000100
00000000
00001100
00000000
00001000
00000000
,
00010000
00000000
00011000
00000000
01000000
00000000
00010000
00000000
00011000
00000000
00000100
00000000
,
00001000
00000000
00011000
00000000
00100000
00000000
00010000
00000000
00011000
00000000
00000010
00000000
,
00010000
00000000
00011000
00000000
00001000
00100000
00010000
00000000
10010000
00000000
10000000
01000000
,
00010000
00000000
00011000
00000000
00001010
00000000
00000010
00000001
00001000
00000000
00000001
00000100
,
00000010
00000000
00001010
00000000
00001000
00000100
00010000
00000000
00010010
00000000
00001000
00100000
,
00010000
00000000
10000000
00000000
01000000
00000000
02200000
00000000
00000000
03300000
00000000
00000000
,
00010000
00100000
00010000
00000000
10000000
00100000
00010000
00001000
00000010
00000100
00001000
00000010
00010000
00001000
00010000
00000000
,
00001000
00000010
00000001
00000000
00000100
00001000
00000100
00000001
00000010
00000100
00000010
00001000
00010000
01000000
00100000
00000000
,
01000000
10000000
00010000
00000000
10000000
00100000
00010000
00001000
00000000
00010000
00100000
01000000
00010000
10000000
01000000
00001000
,
00000100
00000000
00000000
00000010
00000000
00000000
00000001
00000000
00000000
00000100
00000000
00000000
00000010
00000000
00000000
00000100
00000000
00000000
00000001
00000000
00000000
00000100
00000000
00000000
00010000
00000000
00000000
01000000
00000000
00000000
00100000
00000000
00000000
01000000
00000000
00000000
00010000
00000000
10000000
00000000
01000000
00000000
00100000
00000000
00001000
00000000
00010000
00000000
,
00001000
00010000
00010000
00100000
00010000
00010000
00001000
00010000
00001000
00010000
00010000
01000000
00010000
00010000
00001000
00010000
,
00000010
00001000
00001000
00100000
00001000
00001000
00000010
00010000
00000100
00010000
00010000
01000000
00001000
00001000
00010000
00000010
,
00001000
00000100
00000010
00000100
00000001
00001000
00000010
00000001
00001000
00000001
00000010
00001000
00010000
01000000
00100000
00010000
,
01000000
00000000
00000000
00000000
00001000
00000000
00000000
00000000
00000100
00000000
00000000
00000000
00000010
00000000
00000000
00000000
00001000
00000000
00000000
00000000
00000100
00000000
00000000
00000000
00010000
00000000
00000000
00000000
00001000
00000000
00000000
00000000
00020000
00030000
00000000
00000000
00020000
00030000
00000000
00000000
00002000
00003000
00000000
00000000
00002000
00003000
00000000
00000000
00010000
00000000
00000000
00000000
00000100
00000000
00001000
00000000
00000002
00000000
00000000
00000000
00000000
00000000
00000000
00000000
,
00001003
00000001
00000010
00000000
00001000
00010000
01000000
00000000
,
00100000
00000000
00010000
00000000
10000000
00000000
00100000
00000000
00010000
00001000
00010000
00001000
00020000
00000000
00000000
00000000
,
00031000
00000100
00000010
00000000
00000100
00001000
00010000
00000000
,
00100000
00000000
01000000
00000000
00010000
00000000
00100000
00000000
01000000
00000000
10000000
00010000
20000000
00000000
00000000
00000000
,
30100000
10000000
00100000
10000000
01000000
00100000
01000000
00100000
,
00001000
00010000
00001000
00010000
00000010
00001000
00000010
00001000
,
00000001
00000000
00000100
00000010
00001000
00000000
00000100
00010000
00001000
00000000
00100000
00010000
10000000
00000000
00100000
01000000
,
00020000
00000000
00000000
00030000
,
10000000
01000000
00010000
00000000
00001000
00010000
00100000
00010000
00000000
00001000
00010000
00000100
00001000
00000001
00000001
00000001
,
00001000
00000000
00000010
00000000
00000100
00000000
00000001
00000100
00001000
00000000
00000001
00000010
00001000
00000000
00000001
00000000
,
00000010
00000000
00000100
00000000
00010000
00000000
00001000
00010000
00100000
00000000
00010000
00001000
01000000
00000000
00001000
00000000
,
00010000
00000000
00001000
00000000
00100000
00000000
00001000
00010000
00000010
00000000
00010000
00000100
00001000
00000000
00000010
00000000
,
00000100
00000000
00000010
00000100
00000001
00000000
00001000
00000100
00000010
00000100
00001000
00000000
00000010
00000000
00000100
00000000
,
00000001
00000000
00000100
00000000
00000010
00000000
00000100
00001000
00010000
00000000
00100000
00000000
01000000
00010000
10000000
00000000
,
00010000
00000000
00000000
01000000
00000000
00000000
10000000
00000000
01000000
00000000
00100000
00000000
10000000
00000000
00010000
00000000
,
01000000
00000000
00100000
00000000
10000000
00000000
01000000
00100000
01000000
00100000
01000000
00000000
00010000
00000000
00001000
00000000
,
00000010
00000000
00000000
00000000
00000000
00000000
00000000
00000000
00000100
00000000
00000000
00000000
00000000
00000000
00000000
00000000
00001000
00000000
00000000
00000000
00000000
00000000
00000000
00000000
00000001
00000000
00000000
00000000
00001000
00000000
00000000
00000000
00000200
00000300
00000000
00000000
00000020
00000030
00000000
00000000
00000200
00000300
00000000
00000000
00000020
00000030
00000000
00000000
00000200
00000000
00000000
00000000
00000000
00000000
00000000
00000000
00000000
00000000
00000000
00000000
00000000
00000000
00000000
00000000
,
00001300
00000000
00000001
00000000
00000100
00000000
00001000
00010000
00100000
01000000
00010000
00000000
00100000
00001000
01000000
00000000
,
00010000
00000000
00100000
00000000
01000000
00000000
10000000
00100000
01000000
00010000
10000000
00000000
01000000
00100000
00001000
00000000
,
00010000
00001000
00000010
00000001
00000100
00001000
00010000
00100000
,
01000000
00001000
00010000
00001000
00000010
00000100
00001000
00010000
,
00001000
00100000
00010000
00000000
10000000
00100000
01000000
00000000
00010000
10000000
01000000
00000000
10000000
00010000
00100000
00000000
,
01000000
00000000
00000000
00100000
00000000
00000000
00001000
00000000
00010000
00000000
00001000
00000000
00010000
00000000
00001000
00000000
,
00011000
00000000
00000000
00010000
00000000
00000000
00001000
00000000
00100000
00000000
00010000
00000000
10000000
00000000
01000000
00000000
,
01100000
00000000
00000000
00100000
00000000
00000000
01000000
00000000
10000000
00000000
01000000
00000000
00010000
00000000
00001000
00000000
,
00011000
00000000
00000000
00010000
00000000
00000000
00000010
00000000
00001000
00000000
00000001
00000000
00000100
00000000
00000010
00000000
,
00000110
00000000
00000000
00000100
00000000
00000000
00000001
00000000
00001000
00000010
00001000
00000000
00000100
00000000
00010000
00000000
,
00001000
00000000
00000000
00011000
00000000
00000000
00010000
00001000
01000000
00000000
00000000
01100000
00000000
00000000
10000000
00100000
,
01000000
00000000
00000000
01010000
00000000
00000000
00001000
00010000
00000100
00000000
00000000
00000110
00000000
00000000
00001000
00000001
,
00001000
00000100
00000010
00000001
00000100
00001000
00010000
00001000
,
00022000
00000000
00000000
00000000
00000000
00000000
00000000
00000000
00000000
00000000
00000000
00000000
00000000
00000000
00000000
00000000
00000000
00000000
00000000
00000000
00000000
00000000
00000000
00000000
00000000
00000000
00000000
00000000
00000000
00000000
00000000
00000000
00000000
00000000
00000000
00000000
00000000
00000000
00000000
00000000
00000000
00000000
00000000
00000000
00000000
00000000
00000000
00000000
00000000
00000000
00000000
00000000
00000000
00000000
00000000
00000000
00000000
00000000
00000000
00000000
00000000
00000000
00000000
00000000
00000000
00000000
00000000
00000000
00000000
00000000
00000000
00000000
00033000
00000000
00000000
00000000
00000000
00000000
00000000
00000000
00000000
00000000
00000000
00000000
00000000
00000000
00000000
00000000
00000000
00000000
00000000
00000000
00000000
00000000
00000000
00000000
00020000
00000000
00000000
00030000
00000000
00000000
00000000
00000000
00000000
00000000
00000000
00000000
00000000
00000000
00000000
00000000
00002000
00000000
00000000
00003000
00000000
00000000
00000000
00000000
00000000
00000000
00000000
00000000
00000000
00000000
00000000
00000000
00020000
00000000
00000000
00030000
00000000
00000000
00000000
00000000
00000000
00000000
00000000
00000000
00000000
00000000
00000000
00000000
00002000
00000000
00000000
00003000
00000000
00000000
00000000
00000000
00000000
00000000
00000000
00000000
00000000
00000000
00000000
00000000
00020000
00000000
00000000
00030000
00000000
00000000
00000000
00000000
00000000
00000000
00000000
00000000
00000000
00000000
00000000
00000000
00002000
00000000
00000000
00003000
00000000
00000000
00000000
00000000
00000000
00000000
00000000
00000000
00000000
00000000
00000000
00000000
,
00010000
00000000
00110000
00000000
00110000
00000000
10000000
00000000
10100000
00000000
10100000
00000000
,
00010000
00000000
00011000
00000000
00011000
00000000
00000100
00000000
00000110
00000000
00000110
00000000
,
00000001
00000000
00000011
00000000
00001010
00000000
00010000
00000000
00011000
00000000
01010000
00000000
,
10000000
00000000
11000000
00000000
01010000
00000000
00001000
00000000
00011000
00000000
00001100
00000000
,
00001000
00000010
00000100
00000001
00001000
00000000
00000001
00000100
00001000
00010000
00100000
00000000
,
01000000
00010000
10000000
01000000
00100000
00000000
01000000
00010000
00001000
00000010
00000001
00000000
,
00001000
00000010
00000100
00000001
00000010
00001000
00010000
01000000
00100000
00010000
10000000
00100000
,
00010000
00000000
00100000
00000000
01000000
00000000
20020000
00000000
00000000
30030000
00000000
00000000
,
01100000
00000000
00000000
00000000
;

//--------------- dance-double - Fred-104 "青い哲学" ----------------
#NOTES:
     dance-double:
     Fred-104 "青い哲学":
     Challenge:
     19:
     :
00000000
00000000
00000000
00000000
,
00000000
00000000
00000000
00000000
,
00000000
00000000
00000000
00000000
,
00000000
00000000
00000000
00000000
,
00000000
00000000
00000000
00000000
,
00000000
00000000
00000000
00000000
,
00000000
00000000
00000000
00000000
,
00000000
00000000
00000000
00000000
,
00022000
00000000
00000000
00000000
00000000
00000000
00000000
00000000
00000000
00000000
00000000
00000000
00000000
00000000
00000000
00000000
00033000
00000000
00000000
00000000
00000000
00000000
00000000
00000000
00000000
00000000
00000000
00000000
00000000
00000000
00000000
00000000
00020000
00030000
00000000
00000000
00000020
00000030
00000000
00000000
00002000
00003000
00000000
00000000
00000020
00000030
00000000
00000000
00020000
00030000
00000000
00000000
00000200
00000300
00000000
00000000
00002000
00003000
00000000
00000000
00000200
00000300
00000000
00000000
,
00010000
00000000
00000000
00011000
00000000
00000000
00000000
00000000
,
00000000
00000000
00000000
00000000
00000000
00000000
00000000
10000000
,
01100000
00000000
00000000
00011000
00000000
00000000
00000000
00000000
,
00000000
00000000
00000110
00001001
,
00000001
00000010
00001000
00000010
00000001
00000010
00001000
00010000
,
01000000
00100000
00010000
10000000
00100000
00001000
00000010
00000100
,
00000001
00000010
00000100
00000000
00000010
00000001
00001000
00000000
00000010
00000100
00000001
00000000
00000010
00000100
00010000
00001000
,
00020000
00000000
00000000
00030000
00000000
00000000
00000000
00000000
00000000
00000000
00000000
00000000
00000000
00000000
00000000
00000000
00000000
00000000
00000000
00000000
00000000
00000000
00000000
00000000
00000000
00000000
00000000
00000000
00000000
00000000
00000000
00000000
00020020
00000000
00000000
00030030
00000000
00000000
00000000
00000000
00000000
00000000
00000000
00000000
00000000
00000000
00000000
00000000
00000000
00000000
00000000
00000000
00000000
00000000
00000000
00000000
00000000
00000000
00000000
00000000
00000000
00000000
00000000
00000000
00202000
00000000
00000000
00303000
00000000
00000000
00000000
00000000
00000000
00000000
00000000
00000000
00000000
00000000
00000000
00000000
00000000
00000000
00000000
00000000
00000000
00000000
00000000
00000000
00000000
00000000
00000000
00000000
00000000
00000000
00000000
00000000
00022000
00000000
00000000
00033000
00000000
00000000
00000000
00000000
00000000
00000000
00000000
00000000
00000000
00000000
00000000
00000000
00000000
00000000
00000000
00000000
00000000
00000000
00000000
00000000
00000000
00000000
00000000
00000000
00000000
00000000
00000000
00000000
02002000
00000000
00000000
03003000
00000000
00000000
00000000
00000000
00000000
00000000
00000000
00000000
00000000
00000000
00000000
00000000
00000000
00000000
00000000
00000000
00000000
00000000
00000000
00000000
00000000
00000000
00000000
00000000
00000000
00000000
00000000
00000000
00020200
00000000
00000000
00030300
00000000
00000000
00000000
00000000
00000000
00000000
00000000
00000000
00000000
00000000
00000000
00000000
00000000
00000000
00000000
00000000
00000000
00000000
00000000
00000000
00000000
00000000
00000000
00000000
00000000
00000000
00000000
00000000
,
00010000
00000000
00000000
00000000
00000010
00000100
00000010
00000100
00000010
00001000
00000001
00001000
00000010
00000000
00010000
00001000
00010000
00001000
00010000
01000000
00100000
00000000
00010000
00100000
00010000
10000000
00010000
10000000
00010000
01000000
00001000
00010000
,
00001000
00000000
00000000
00000000
00000010
00000100
00001000
00000100
00001000
00000001
00000100
00000001
00000100
00000000
00000010
00001000
00000100
00010000
00001000
00010000
00001000
00000000
00100000
00010000
10000000
00010000
10000000
01000000
10000000
00010000
01000000
00010000
,
10000000
00000000
00000000
00000000
00010000
00000000
10000000
00010000
00100000
00001000
00100000
00001000
00010000
00000000
00000100
00001000
00000010
00001000
00000010
00001000
00000010
00000100
00000001
00000000
00000100
00000010
00001000
00000100
00010000
00000100
00010000
00001000
,
00010000
00000000
00000000
00000000
00001000
00010000
00001000
00010000
00001000
00100000
00010000
01000000
00100000
00000000
10000000
01000000
00010000
00000000
00000000
00000000
00001000
00000000
00011000
00000000
00000000
00000000
00010000
00001000
00010000
00000010
00001000
00000001
,
00002000
00000000
00000000
00000000
00003001
00000000
00000100
00000010
00000100
00000000
00001000
00010000
00100000
00000000
01000000
00010000
,
10000000
00000000
00100000
01000000
00100000
00000000
01000000
00010000
10000000
00000000
01000000
00010000
00001000
00000000
00000010
00000100
,
00002000
00000000
00000000
00000000
00003001
00000000
00000100
00000010
00001000
00000000
00000001
00000010
00001000
00000000
00010000
01000000
,
00100000
00000000
10000000
00010000
10000000
00000000
01000000
00010000
00002000
00000000
00003020
00000000
00000230
00000000
00002300
00000000
,
00003020
00000000
00000000
00000000
00001030
00000000
00000001
00000100
00001000
00000000
00010000
00100000
10000000
00000000
10000000
01000000
,
00010000
00000000
00001000
00000010
00000001
00000000
00000001
00000010
00001000
00000000
00010000
01000000
10000000
00000000
00010000
10000000
,
00200000
00000000
01300000
00001000
00010000
00001000
00000100
00000001
,
00001000
00000001
00000100
00010000
01000000
00100000
10000000
00010000
,
00100000
00000000
00000000
00022000
00000000
00000000
00000000
00000000
,
00000000
00000000
00000000
00000000
00000000
00000000
00033000
00100000
,
01000000
00000000
00000000
20020000
00000000
00000000
00000000
00000000
,
00000000
00000000
00000000
30030000
10010000
00000000
00011000
00000000
,
00010000
00001000
00000100
00000001
00000010
00000100
00010000
00001000
00000100
00000001
00000010
00000100
,
00000010
00001000
00010000
01000000
00100000
00010000
10000000
00100000
00010000
00100000
01000000
00100000
,
10000000
01000000
10000000
00010000
00100000
00001000
00010000
00000010
00001000
00000001
00000010
00000100
00000010
00000001
00001000
00000100
,
00010000
00001000
00010000
00001000
00010000
00000000
00001000
00000000
00000020
00000000
00000032
00000000
00002003
00000000
00003001
00000000
,
00000011
00000000
00000101
00000000
00001100
00000000
00000101
00000000
00000011
00000000
00001010
00000000
,
00010010
00000000
00011000
00000000
00010100
00000000
00101000
00000000
00011000
00000000
01010000
00000000
,
10100000
00000000
11000000
00000000
01010000
00000000
11000000
00000000
10100000
00000000
00110000
00000000
,
00101000
00000000
00011000
00000000
01001000
00000000
00010000
00000010
00010000
00001000
00010000
00000100
,
00001000
00000000
00001010
00000000
00000001
00000100
00000010
00000000
00001010
00000000
00010000
00001000
,
01000000
00000000
01100000
00000000
10010000
00000000
10000000
01000000
00100000
00000000
00001000
00001000
,
00010000
00000100
00001000
00000100
00000001
00000100
00010000
00001000
00100000
00001000
00010000
00001000
,
00011000
00000000
00000000
00000000
00000000
00000000
00000000
00000000
00000000
00000000
00000000
00000000
00000000
00000000
00000000
00000000
00000000
00000000
00000000
00000000
00000000
00000000
00000000
00000000
00000000
00000000
00000000
00000000
00000000
00000000
00000000
00000000
00110000
00000000
00000000
00000000
00000000
00000000
00000000
00000000
00000000
00000000
00000000
00000000
00000000
00000000
00000000
00000000
00000000
00000000
00000000
00000000
00000000
00000000
00000000
00000000
00000000
00000000
00000000
00000000
00000000
00000000
00000000
00000000
10100000
00000000
00000000
00000000
00000000
00000000
00000000
00000000
00000000
00000000
00000000
00000000
00000000
00000000
00000000
00000000
00000000
00000000
00000000
00000000
00000000
00000000
00000000
00000000
00000000
00000000
00000000
00000000
00000000
00000000
00000000
00000000
10010000
00000000
00000000
00000000
00000000
00000000
00000000
00000000
00000000
00000000
00000000
00000000
00000000
00000000
00000000
00000000
00000000
00000000
00000000
00000000
00000000
00000000
00000000
00000000
00000000
00000000
00000000
00000000
00000000
00000000
00000000
00000000
00000000
00000000
00000000
00000000
00000000
00000000
00000000
00000000
00000000
00000000
00000000
00000000
00000000
00000000
00000000
00000000
00020000
00000000
00000000
00030000
00000000
00000000
00000000
00000000
00000000
00000000
00000000
00000000
00200000
00000000
00000000
00300000
00000000
00000000
00000000
00000000
00000000
00000000
00000000
00000000
02000000
00000000
00000000
03000000
00000000
00000000
00000000
00000000
00000000
00000000
00000000
00000000
00200000
00000000
00000000
00300000
00000000
00000000
00000000
00000000
00000000
00000000
00000000
00000000
,
00010000
10000000
00100000
00000000
00010000
00001000
00000100
00000010
00000000
00001000
00000010
00000001
00000010
00000100
00000001
00000100
,
00001000
00000100
00000001
00000010
00000100
00000010
00001000
00010000
01000000
00100000
00010000
10000000
00100000
00010000
00001000
00010000
,
00100000
01000000
00010000
10000000
01000000
00010000
00001000
00000020
00000000
00000130
00001000
00000100
00000010
00000001
00000100
00001000
,
00010000
00000000
00000000
01000000
00000000
00000000
00010000
00000000
00000000
00001000
00000000
00000000
00010000
00000000
00000000
01000000
00000000
00000000
10000000
00000000
00000000
00010000
00000000
00000000
00100000
00000000
00000000
01000000
00000000
00000000
10000000
00000000
00000000
00010000
00000000
00000000
01000000
00000000
00100000
00000000
00010000
00000000
00001000
00000000
00000100
00000000
00000010
00000000
,
00001000
00000000
00000100
00000000
00000010
00000000
00000001
00000100
00000010
00000000
00001000
00000000
00000100
00010000
00001000
00000000
00100000
01000000
00100000
00000000
00001000
00000000
00000010
00000100
00000010
00000000
00001000
00000000
00100000
01000000
00100000
00000000
,
00010000
00000000
00100000
00000000
01000000
00000000
10000000
00010000
01000000
00000000
00100000
00000000
10000000
01000000
00100000
00000000
00001000
00010000
00001000
00000000
01000000
00000000
00001000
00010000
00001000
00000000
00000010
00000000
00001000
00010000
00001000
00000000
,
01000000
00000000
00010000
00000000
00001000
00000000
00000010
00000100
00000010
00000000
00001000
00000000
00000001
00000010
00000100
00000000
00001000
00000100
00001000
00000000
00000001
00000000
00000010
00000100
00010000
00000000
00001000
00000000
01000000
00010000
10000000
00000000
,
00010000
00000000
00000000
00000000
00100000
00000000
00000000
00000000
01000000
00000000
00000000
00000000
00010000
00000000
00000000
00000000
00001000
00000000
00000000
00000000
00000010
00000000
00000000
00000000
00000100
00000000
00000000
00000000
00000010
00000000
00000000
00000000
00000002
00000003
00000000
00000000
00002000
00003000
00000000
00000000
00000002
00000003
00000000
00000000
00002000
00003000
00000000
00000000
00000001
00000000
00000000
00000000
00000100
00000000
00001000
00000000
00020000
00000000
00000000
00000000
00000000
00000000
00000000
00000000
,
00130000
01000000
00010000
10000000
01000000
00001000
00000100
00000000
,
00000010
00000000
00000001
00000000
00001000
00000000
00000100
00000000
00010000
00001000
00100000
00001000
00020000
00000000
00000000
00000000
,
00031000
00010000
00100000
01000000
00001000
00010000
01000000
00000000
,
10000000
00000000
00100000
00000000
00001000
00000000
00000010
00000000
00000100
00000000
00000001
00001000
00000020
00000000
00000000
00000030
,
00001000
00000100
00000001
00000100
00001000
00000001
00000100
00010000
,
01000000
10000000
01000000
00010000
00100000
10000000
00100000
00010000
,
10000000
01000000
00100000
00010000
01000000
00001000
00010000
00000100
00010000
00001000
00000010
00000100
00001000
00000010
00000100
00000001
,
00001000
00000000
00000000
00000000
00000001
00000100
00000010
00001000
00000001
00000000
00000010
00000100
00000000
00010000
00001000
00000000
,
00012000
00000000
00000000
00000000
00000010
00000000
00000000
00000000
01000000
00000000
00000000
00000000
00013000
00001000
00001000
00001000
,
00010000
00000000
00001000
00000000
00100000
00000000
00010000
01000000
00100000
10000000
00010000
00100000
01000000
00100000
00010000
00000000
,
10000000
00000000
01000000
00000000
00001000
00000000
00000100
00000010
00000001
00001000
00000010
00000100
00000001
00001000
00000100
00000000
,
00000010
00000000
00000001
00000000
00001000
00000000
00000001
00000010
00000100
00010000
00001000
01000000
00001000
00010000
00001000
00000000
,
00100000
00001000
00010000
00000000
00000010
00000000
00010000
00001000
01000000
00010000
00100000
00010000
10000000
00010000
01000000
00000000
,
00010000
00000000
10000000
00000000
00100000
00000000
00010000
00001000
00010000
00000100
00000010
00000001
00001000
00000010
00000100
00000000
,
00000001
00000000
00000000
00000001
00000000
00000000
00000001
00000000
00000100
00000000
00000100
00000000
00000010
00000000
00001000
00000000
,
00000001
00000000
00000010
00000000
00000100
00000000
00001000
00000010
00010000
00001000
00010000
00100000
01000000
00010000
10000000
00000000
,
01000000
00000000
00000000
00000000
00000000
00000000
00000000
00000000
00100000
00000000
00000000
00000000
00000000
00000000
00000000
00000000
00010000
00000000
00000000
00000000
00000000
00000000
00000000
00000000
01000000
00000000
00000000
00000000
00001000
00000000
00000000
00000000
00020000
00030000
00000000
00000000
00002000
00003000
00000000
00000000
00000200
00000300
00000000
00000000
00000020
00000030
00000000
00000000
00002000
00000000
00000000
00000000
00000000
00000000
00000000
00000000
00000000
00000000
00000000
00000000
00000000
00000000
00000000
00000000
,
00003100
00000000
00001000
00000000
00000001
00000000
00000100
00000010
00001000
00000010
00000100
00000001
00000010
00000100
00000010
00000000
,
00000001
00000010
00001000
00000000
00010000
00000000
01000000
10000000
00010000
00000000
10000000
00000000
00100000
00000000
00000000
00000000
,
10000000
01000000
00001000
00000100
00000010
00000001
00001000
00000001
,
00000100
00010000
01000000
00100000
10000000
00100000
00010000
00001000
,
00100000
00010000
01000000
00010000
01000000
00001000
00010000
00000100
00000010
00000100
00000010
00000001
00000100
00000010
00000100
00000010
,
00001000
00000000
00000000
00000100
00000000
00000000
00000100
00000000
00010000
00000000
00001000
00000000
00010000
00000000
00000100
00000000
,
00001100
00000000
00000000
00000101
00000000
00000000
00001100
00000000
00001000
00000000
00000010
00000000
00001000
00000000
00000100
00000000
,
00010100
00000000
00000000
00011000
00000000
00000000
00010100
00000000
00010000
00000000
00001000
00100000
00010000
00000000
10000000
00000000
,
10100000
00000000
00000000
01100000
00000000
00000000
10100000
00000000
00100000
00000000
01000000
00000000
00001000
00000000
00010000
00000000
,
00011000
00000000
00000000
00010010
00000000
00000000
00011000
00000000
00010000
00000100
00000010
00000001
00001000
00000010
00001000
00000100
,
00000010
00000000
00000000
00000101
00000000
00000000
00000001
00001000
00000100
00000000
00000000
00010100
00000000
00000000
00010000
00001000
,
01000000
00000000
00000000
01100000
00000000
00000000
00100000
10000000
00010000
00000000
00000000
00110000
00000000
00000000
00100000
00001000
,
00010000
00000000
00000010
00000000
00001000
00000000
00000010
00000000
00000100
00001000
00010000
00000000
00100000
01000000
00010000
00000000
,
20020000
00000000
00000000
00000000
00000000
00000000
00000000
00000000
00000000
00000000
00000000
00000000
00000000
00000000
00000000
00000000
00000000
00000000
00000000
00000000
00000000
00000000
00000000
00000000
00000000
00000000
00000000
00000000
00000000
00000000
00000000
00000000
00000000
00000000
00000000
00000000
00000000
00000000
00000000
00000000
00000000
00000000
00000000
00000000
00000000
00000000
00000000
00000000
00000000
00000000
00000000
00000000
00000000
00000000
00000000
00000000
00000000
00000000
00000000
00000000
00000000
00000000
00000000
00000000
00000000
00000000
00000000
00000000
00000000
00000000
00000000
00000000
30030000
00000000
00000000
00000000
00000000
00000000
00000000
00000000
00000000
00000000
00000000
00000000
00000000
00000000
00000000
00000000
00000000
00000000
00000000
00000000
00000000
00000000
00000000
00000000
20000000
00000000
00000000
30000000
00000000
00000000
00000000
00000000
00000000
00000000
00000000
00000000
00000000
00000000
00000000
00000000
02000000
00000000
00000000
03000000
00000000
00000000
00000000
00000000
00000000
00000000
00000000
00000000
00000000
00000000
00000000
00000000
00020000
00000000
00000000
00030000
00000000
00000000
00000000
00000000
00000000
00000000
00000000
00000000
00000000
00000000
00000000
00000000
00002000
00000000
00000000
00003000
00000000
00000000
00000000
00000000
00000000
00000000
00000000
00000000
00000000
00000000
00000000
00000000
00000020
00000000
00000000
00000030
00000000
00000000
00000000
00000000
00000000
00000000
00000000
00000000
00000000
00000000
00000000
00000000
00000002
00000000
00000000
00000003
00000000
00000000
00000000
00000000
00000000
00000000
00000000
00000000
00000000
00000000
00000000
00000000
,
00001001
00000000
00000101
00000000
00001100
00000000
00000101
00000000
00000011
00000000
00001010
00000000
,
00011000
00000000
00110000
00000000
10100000
00000000
00110000
00000000
00011000
00000000
01001000
00000000
,
00011000
00000000
00010100
00000000
00101000
00000000
00011000
00000000
00001100
00000000
00000101
00000000
,
00001001
00000000
00000110
00000000
00001001
00000000
00000001
00000100
00000010
00001000
00000001
00000000
,
00000100
00000010
00001000
00000100
00010000
01000000
00010000
00001000
00010000
00000100
00000010
00000100
,
00000010
00001000
00010000
01000000
00100000
00010000
00100000
01000000
00010000
00001000
00000100
00000010
,
00001000
00000100
00000010
00000001
00000100
00001000
00010000
00100000
10000000
01000000
00010000
00001000
,
00011000
00000000
00001010
00000000
00000011
00000000
00000202
00000000
00000000
00000303
00000000
00000000
,
00001001
00000000
00000000
00000000
;
