#VERSION:0.83;
#TITLE:Overturn;
#ARTIST:Mameyudoufu feat.Kanata.N;
#BANNER:Overturn.png;
#BACKGROUND:Overturn-bg.png;
#CDTITLE:./CDTitles/CHUNITHM LUMINOUS.png;
#MUSIC:Overturn.ogg;
#SAMPLESTART:112.112;
#SAMPLELENGTH:15;
#BPMS:0=175;
#BGSTAGE:15;

//--------------- dance-single - Fred-104 ----------------
#NOTEDATA:;
#STEPSTYPE:dance-single;
#DESCRIPTION:Fred-104;
#DIFFICULTY:Beginner;
#METER:4;
#CREDIT:Fred-104;
#NOTES:
0000
0000
0000
0000
,
0000
0000
0000
0000
,
0000
0000
0000
0000
,
0000
0000
0000
0000
,
0000
0000
0000
0000
,
0000
0000
0000
0000
,
1000
0000
0000
0000
,
0001
0000
0000
0000
,
1000
0000
0000
0000
,
0001
0000
0001
0000
,
0010
0000
0000
0010
,
0000
0000
0100
0000
,
0100
0000
0000
0100
,
0000
0000
0010
0000
,
0100
0000
0000
1000
,
0000
0000
0001
0000
,
1000
0000
0000
0001
,
0000
0001
0000
0000
,
0001
0000
0000
0000
,
0000
0000
0000
0000
,
1000
0000
0000
0000
,
0000
0000
0000
0000
,
0010
0000
0000
0000
,
0100
0000
0000
0000
,
0100
0000
0000
0000
,
0010
0000
0010
0000
,
1000
0000
1000
0000
,
0100
0000
0010
0000
,
0001
0000
0001
0000
,
0001
0000
0100
0000
,
1000
0000
0010
0000
,
0001
0000
0001
0000
,
1001
0000
0000
0000
,
0000
0000
0000
0000
,
2000
0000
0000
3000
,
0002
0000
0000
0003
,
2000
0000
0000
3000
,
0002
0003
2000
3000
,
0002
0000
0003
0000
,
0010
0000
0010
0000
,
0100
0000
0100
0000
,
1000
0000
2000
3000
,
0001
0000
0000
0000
,
0100
0000
0000
0000
,
1000
0000
0000
0000
,
0010
0000
0001
0000
,
0001
0000
0001
0000
,
1000
0000
1000
0000
,
0001
0001
0001
0001
,
0000
0000
0000
0000
,
1000
0000
0000
0000
,
0010
0000
0000
0000
,
1000
0000
0000
0000
,
0001
0000
0000
0000
,
0010
0000
0000
0000
,
0010
0000
0000
0000
,
0100
0000
0000
0000
,
0110
0000
0000
0000
,
1000
0000
0000
0000
,
1000
0000
0000
0000
,
0001
0000
0000
0000
,
1000
0000
0000
0000
,
0010
0000
0000
0000
,
1000
0000
0000
0000
,
1000
0000
0001
0000
,
1000
0000
0001
0001
,
0001
0000
0000
0000
,
0000
0000
0000
0000
,
1000
0000
0000
0000
,
0001
0000
0100
0100
,
0100
0000
0001
0000
,
0001
0000
1000
0000
,
0001
0000
0010
0000
,
0010
0000
0100
0100
,
0100
0000
1000
0000
,
1000
0000
0001
0000
,
0001
0000
1000
0000
,
0001
0000
0000
0000
,
0001
0000
1000
0000
,
1000
0000
0000
0000
0000
0001
0000
1001
,
0000
0000
0000
0000
,
0000
0000
0000
0000
,
1000
0000
1000
0000
,
0010
0000
0010
0000
,
0001
0000
0001
0000
,
0100
0000
0100
0000
,
1000
0000
1000
0000
,
1000
0000
0001
0000
,
0010
0000
0001
0000
,
1001
0000
1000
1000
,
0001
0000
0001
0000
,
1000
0000
0001
0001
,
0100
0000
0100
0100
,
0001
0000
0000
0000
0000
1001
0000
0000
,
1000
0000
0100
0000
,
0010
0000
0001
0000
,
1001
0000
0000
0110
,
0000
0000
1001
0000
,
0000
0000
0000
2002
0000
0000
0000
0000
,
0000
0000
0000
0000
,
0000
0000
0000
0000
,
0000
0000
0000
0000
,
0000
0000
0000
3003
0000
0000
0000
0000
;

//--------------- dance-single - Fred-104 ----------------
#NOTEDATA:;
#STEPSTYPE:dance-single;
#DESCRIPTION:Fred-104;
#DIFFICULTY:Easy;
#METER:8;
#CREDIT:Fred-104;
#NOTES:
0000
0000
0000
0000
,
0000
0000
0000
0000
,
0000
0000
0000
0000
,
0000
0000
0000
0000
,
0000
0000
0000
0000
,
0000
0000
0000
0000
,
1000
0000
0100
0000
,
0010
0010
0001
1000
,
0010
0000
0100
0000
,
0001
0000
0001
0000
1000
0001
1000
0000
,
0100
0000
0000
0000
0100
0000
0000
0010
,
0000
0010
0000
0000
0001
0000
1000
0000
,
0001
0000
0000
0000
0100
0000
0000
0010
,
0000
0010
0000
0000
0100
0000
0001
0000
,
1000
0000
0000
0000
0100
0000
0000
0010
,
0000
0010
0000
0000
0001
0000
1000
0000
,
0001
0000
0000
0000
0100
0000
0000
0010
,
0000
0220
0000
0330
,
0001
1000
0001
0010
,
0100
0000
0000
1000
0000
1000
0000
1000
,
0000
0001
1000
0010
,
0100
0000
0000
0002
0000
0000
0003
0000
,
1000
0100
0010
0000
,
0001
0000
0000
0100
0000
0010
0000
0100
,
0000
0001
1000
0001
,
0010
0000
0000
0100
0000
1001
0000
0000
,
1000
0100
0100
0000
,
0001
0100
0100
0000
,
1000
0001
0010
0010
,
0100
0010
0010
0001
,
1000
0000
0000
0001
0000
0000
0100
0000
,
0010
0000
0000
1000
0000
0000
0001
0000
,
1001
0000
0000
0110
0000
0000
1001
0000
,
0000
0110
0000
0000
2002
0000
3003
0000
,
0002
0000
2003
0000
,
3010
0010
0200
0000
,
0302
0000
2003
0000
,
3100
0100
0010
0001
,
1001
0000
0000
0000
0001
0000
0000
1000
,
0000
0000
0010
0000
0010
0000
0000
0100
,
0000
0000
0010
0000
1000
0000
0000
0010
,
0000
0100
0000
2002
0000
3000
0003
0000
,
2000
0000
3100
0000
,
0002
0000
0013
0000
,
2000
0000
3010
0000
,
0002
0000
0103
0100
,
1000
1000
0001
0001
,
0100
0100
0010
0010
,
0100
0000
0100
0000
0001
0000
0000
1001
,
0000
0000
0000
0000
,
1000
1000
0100
0010
,
0100
0001
0001
0100
,
1000
1000
0001
0100
,
0010
1000
1001
0000
,
0001
0001
0100
0010
,
0100
1000
0100
0100
,
0001
0000
1000
0000
0100
0000
0000
0010
,
0000
0001
1001
0000
,
1000
0100
1000
0010
,
0100
0001
0010
0010
,
0100
0000
0010
0000
0001
0000
0000
1000
,
0000
0000
0001
0000
0100
0010
0100
0000
,
0001
0000
0001
0000
1000
0000
0000
0100
,
0000
0010
0000
0010
0000
0000
0001
0000
,
1000
0000
0000
0001
0000
0000
0000
0100
,
0000
0010
0100
0100
,
1001
0000
0000
0000
,
0000
0000
0000
0000
,
1000
0100
0001
0100
,
1000
0001
1000
1000
,
0001
0100
1000
0100
,
0001
1000
0001
0001
,
1000
0000
0001
0000
0100
0000
0000
0010
,
0000
0100
0010
0010
,
1001
1000
0001
0100
,
1000
0100
0001
0000
,
1000
0000
0100
0000
0100
0000
0000
0010
,
0000
0001
1000
1000
,
1001
0001
0100
0010
,
0100
0000
0000
0001
0000
1000
0000
1100
,
0000
0000
0000
0000
0000
0000
0000
2002
,
0000
0000
0000
3003
,
1000
0100
0001
0010
,
1000
0000
0001
0000
1000
0100
1000
0000
,
0001
0100
1000
0010
,
0001
0000
1000
0000
0001
0100
0001
0000
,
1000
0000
0000
0010
0000
0010
0000
0100
,
0000
0000
0000
0010
0000
0100
0000
0000
,
0001
0000
0000
1000
0000
0001
0000
0010
,
0000
0100
0100
0100
,
0010
0001
0001
1000
,
0010
0000
1000
0000
0100
0010
0100
0000
,
0010
0000
0000
0001
0000
1000
0000
0001
,
0000
0100
0000
0010
0000
1001
0000
0000
,
1000
0100
1000
0100
,
0001
0010
1000
0001
,
1001
0000
0000
0110
0000
0000
1001
0000
,
0000
0110
0000
0000
1001
0000
0000
0000
,
0000
0000
0000
2002
0000
0000
0000
0000
,
0000
0000
0000
0000
,
0000
0000
0000
0000
,
0000
0000
0000
0000
,
0000
0000
0000
3003
0000
0000
0000
0000
;

//--------------- dance-single - Fred-104 ----------------
#NOTEDATA:;
#STEPSTYPE:dance-single;
#DESCRIPTION:Fred-104;
#DIFFICULTY:Medium;
#METER:12;
#CREDIT:Fred-104;
#NOTES:
0000
0000
0000
0000
,
0000
0000
0000
0000
,
0000
0000
0000
0000
,
0000
0000
0000
0000
,
0000
0000
0000
0000
,
0000
0000
0000
0000
,
0001
0000
0010
0000
0110
0000
1000
0001
,
0000
0001
0000
0001
0100
0000
0010
0000
,
1000
0000
0100
0000
0110
0000
0001
1000
,
0000
1000
0010
1000
0001
0010
0200
0000
,
1300
0100
0000
0001
0100
0000
0010
1000
,
0000
0010
0001
0010
0001
0000
1000
0000
,
0001
0100
0000
1000
0100
0000
0010
0001
,
0000
0010
1000
0001
1000
0001
1000
0000
,
0001
0010
0000
0100
1000
0000
0001
0100
,
0000
0010
1000
0100
0010
0001
1000
0010
,
1000
0001
0010
0100
0010
0001
0100
0010
,
0000
0010
0220
0000
0000
0000
0330
0000
,
1000
0010
1000
0001
,
0010
0000
0001
0100
0000
0010
0000
0100
,
0000
0010
1000
0001
,
0010
0000
0100
0200
0000
0000
0300
0000
,
1000
0000
0000
0000
0001
0000
0000
0000
0010
0000
0000
0100
0000
0000
1000
0000
,
0001
0000
0100
0010
0000
1000
0000
0001
,
0000
0000
0100
0010
0100
0000
0001
0000
,
1000
0000
0100
0010
0000
0011
0000
0000
,
1001
0000
0001
0000
0100
0000
0001
0100
,
0010
1000
0010
1000
0000
1000
0000
1000
,
0001
0010
0100
0010
,
0001
0000
1000
0001
0100
0010
0100
0001
,
1000
0000
0100
0020
0000
0000
0031
0000
,
1000
0000
0010
0100
0000
0001
1000
0001
,
0101
0000
0000
1100
0000
0000
1010
0000
,
0000
0011
0000
0001
2002
0000
3003
0000
,
1000
0010
1000
0010
1000
0010
1000
0001
,
0000
0010
0100
0010
0000
0001
1000
1000
,
0000
0001
0100
0010
0100
0001
0100
0001
,
0000
1000
0001
0010
0100
1000
0010
0100
,
0001
0000
0000
1000
0100
1000
0001
0100
,
0000
0010
0100
0001
1000
0100
0010
0010
,
0000
0001
1000
0010
1000
0001
0010
0100
,
0000
1000
0001
2002
0000
0003
3000
0000
,
1001
0000
0000
0001
0000
0000
0000
0000
,
1000
0000
0000
1000
0000
0000
0000
0000
,
0001
0000
0000
0001
0000
0000
1000
1000
,
0000
0001
1000
0001
0100
0000
0110
0000
,
0001
0010
0100
1000
0010
0100
0001
0000
,
1000
0100
0010
0001
0100
0010
1000
0001
,
0010
0010
0100
0100
1000
0001
0100
0020
,
0000
0100
0000
0100
0000
0130
0110
0000
,
1001
0000
0001
0010
0001
0010
0100
1000
,
0000
1001
0000
0001
1000
0010
1000
0001
,
0010
0000
0100
1000
0001
0100
0000
1100
,
0000
0100
0001
2000
0000
3100
0010
0001
,
1000
0001
1000
0010
0100
0001
1000
0100
,
0000
0110
0000
0010
0001
1000
0010
0100
,
0001
0010
0100
1000
0000
0001
0010
0100
,
0000
0000
1000
0000
1000
0000
1000
0000
0001
0000
0000
0001
0000
0000
0001
0000
,
1001
0000
1000
0100
0010
0100
0010
0001
,
0000
1001
0000
1000
0010
0100
1000
0100
,
0001
0000
0000
0000
1001
0000
0000
1000
0010
0000
1000
0000
0001
0000
0010
0000
,
0000
0000
0100
0000
0010
0000
0000
0001
0000
0000
1000
0000
0010
0000
0010
0000
,
0110
0000
0001
1000
0100
0010
0100
1000
,
0000
0001
1000
0010
0000
0001
1000
0100
,
0001
1000
0100
0010
0000
1000
0010
0001
,
0000
1000
0100
0010
0110
0000
0110
0000
,
1001
0000
0000
0000
,
0000
0000
0000
0000
,
0001
0010
0100
0010
0100
1000
0001
1000
,
0010
0100
0001
1000
0100
0010
0001
0000
,
1000
0010
1000
0001
1000
0010
1000
0001
,
0010
0100
1000
0001
0010
0100
0010
0001
,
1000
0000
0010
0000
0100
0000
0010
0000
1000
0000
0001
0000
0010
0000
0000
0100
,
0000
0001
0100
0010
0011
0000
0011
0000
,
0001
0010
0100
1000
0010
0100
0010
1000
,
0001
0000
1000
0000
0100
0000
0010
0000
0001
0000
0000
0001
0000
0000
0001
0000
,
0100
0000
0010
0000
1000
0000
0000
1000
0000
0000
1000
0000
0100
0000
0100
0000
,
0000
0010
0001
1000
0010
0000
1001
0000
,
0001
1000
0010
1000
0001
1000
0100
0010
,
0001
0100
0010
1000
0000
0110
0000
0022
,
0000
0000
0000
0000
0000
0033
0000
2002
,
0000
0000
0000
3003
,
0001
0000
0010
0000
0100
1000
0001
1000
,
0000
0010
1000
0001
0010
0000
0100
0010
,
0100
0000
1000
0001
0000
0100
0001
1000
,
0000
0100
1000
0001
0000
0100
0001
1000
,
0100
0000
0010
0001
0000
1000
0001
0010
,
0000
0001
1000
0010
0000
1000
0001
0010
,
0100
0000
1000
0001
0000
0100
0010
0110
,
0000
1000
0001
0010
0110
0000
0110
0000
,
1000
0000
0001
0000
1000
0010
0100
0010
,
0000
0100
0001
1000
0100
0010
0100
1000
,
0001
0000
0100
0001
0000
1000
0001
0100
,
0000
0001
1000
0100
0000
1001
0000
0000
,
0001
0010
0001
0010
0100
0010
0100
1000
,
0001
1000
0010
1000
0001
0000
1001
0000
,
1100
0000
0000
0101
0000
0000
0001
0011
,
0000
1010
0000
0000
2002
0000
0000
3003
,
0000
0000
0000
2002
0000
0000
0000
0000
,
0000
0000
0000
0000
,
0000
0000
0000
0000
,
0000
0000
0000
0000
,
0000
0000
0000
3003
0000
0000
0000
0000
;

//--------------- dance-single - Fred-104 ----------------
#NOTEDATA:;
#STEPSTYPE:dance-single;
#DESCRIPTION:Fred-104;
#DIFFICULTY:Hard;
#METER:16;
#CREDIT:Fred-104;
#NOTES:
0000
0000
0000
0000
,
0000
0000
0000
0000
,
0000
0000
0000
0000
,
0000
0000
0000
0000
,
0000
0000
0000
0000
,
0000
0000
0000
0000
,
1000
0010
0000
0010
0110
0000
0100
0100
,
0000
0001
0000
1000
1001
0001
0010
0100
,
1000
1000
0000
0001
0101
0000
0001
0100
,
0000
0000
0100
0000
0010
0000
0100
0001
1000
0001
1000
0001
0010
0100
0010
0100
,
1000
0001
0100
0010
0001
1000
0100
0001
,
1000
0100
0001
1000
0010
0001
0100
0010
,
1000
0100
0010
1000
0001
0100
0010
0001
,
0100
0010
0001
1000
0100
0001
0010
0110
,
0100
1000
0001
0100
1000
0001
0010
1000
,
0100
0001
1000
0010
0001
1000
0010
1000
,
0001
0010
1000
0001
0100
0010
0001
0011
,
0000
1010
0202
0000
0000
0000
0303
0000
,
1100
0200
0320
0032
,
2003
0000
3001
0200
0000
0320
0000
0230
,
0000
0302
2003
3002
,
0023
0000
0130
2000
0000
0000
3000
0000
,
0001
0000
0000
0000
2000
0000
0000
0000
3010
0000
0000
0010
0000
0000
0100
0000
,
0002
0000
1003
0200
0000
0320
0000
0032
,
0000
0000
0103
0010
0200
0000
0302
0000
,
0023
0000
0031
0100
0000
1001
0000
0000
,
0110
0000
1000
0100
0110
0000
0010
0011
,
0000
0010
0001
0010
0011
0000
0001
1000
,
1010
0000
1000
0001
0101
0000
0100
0110
,
0000
0010
0100
0010
1010
0000
0001
1000
,
0100
0010
0001
0000
1001
0000
0001
0100
,
0000
0110
0000
0010
0100
0001
1000
1000
,
1100
0000
0000
0101
0000
0000
0011
0000
,
0000
1010
0000
1000
2002
0000
3003
0000
,
1000
0001
0010
0001
0010
0001
1000
0100
,
0000
0010
0001
1000
0000
0010
0100
0101
,
0000
0000
0001
0000
1000
0000
0010
0000
0100
0000
0001
0100
0010
0000
0110
0000
,
0000
0000
0010
0000
1000
0001
1000
0000
0100
0000
0010
0001
0010
0000
0001
1000
,
0002
0000
0000
0000
0000
0000
1003
0000
0001
0000
0100
0010
0001
0000
0020
0000
,
0000
0130
1000
0001
0010
1000
0000
1001
,
0000
0000
0001
0000
0010
0100
0010
0000
0001
0000
1000
0010
0100
0001
1000
0000
,
0000
0100
0010
0022
0000
0030
0003
0000
,
2000
0000
0010
3020
0000
0000
0031
0010
,
0200
0000
0001
0302
0000
0000
1003
0001
,
0200
0000
1000
2300
0000
0000
0100
3200
,
0000
0000
0310
0000
0100
0000
0001
0000
1000
0000
0000
1000
0002
0000
0003
0000
,
1000
0000
0100
0000
1000
0000
0100
0000
0010
0000
0001
1000
0001
0000
1000
0000
,
0001
0000
0100
0000
0001
0000
0100
0000
0010
0000
1000
0001
1000
0000
0001
0000
,
0100
0010
1000
0001
0010
0100
0010
0001
0100
0010
1000
0100
1000
0001
0100
0000
,
0000
1100
0100
0010
0100
0001
1001
0000
,
1001
0000
2000
0010
3002
0100
1003
1100
,
0000
0000
0101
0000
0000
0000
1000
0001
0010
0000
0100
0000
0001
0000
0100
0000
,
2100
0000
0000
0000
3001
0000
0010
1000
0010
0000
0110
0000
0000
0000
0011
0000
,
0000
1000
0100
0002
0000
2003
3020
0032
,
2003
0010
3200
0001
2300
0010
3001
1001
,
0000
0000
1010
0000
0000
0000
0010
0001
0010
0000
0100
0000
0001
0000
1000
0000
,
0002
0000
0010
0000
1003
0000
0001
0000
2000
0000
0010
0000
3001
0000
2002
0003
,
3000
0000
0100
0000
0100
0000
0100
0000
0110
0000
0000
1001
0000
0000
0001
0000
,
0010
0000
0100
0000
1000
0000
0001
0100
0010
0000
0001
0000
1000
0000
0100
0000
,
0000
0000
0101
0000
0000
0000
0001
1000
0100
0010
0001
0000
1000
0010
0100
0010
,
1000
0000
0000
0000
0110
0000
1000
0001
0010
0000
1000
0000
0001
0000
0100
0000
,
0000
0000
0010
0000
0100
1000
0000
0001
1000
0001
0100
0000
0010
1000
0010
0100
,
0001
0000
0000
0000
1000
0000
0100
0010
0001
0000
1000
0000
0010
0000
0001
0000
,
1000
0000
0100
0000
1000
0000
0001
0000
0010
0000
1000
0001
0010
0000
0100
0000
,
1000
0001
0100
1000
0000
0100
0010
0100
,
0001
1000
0010
1000
0001
0000
0010
0000
0110
0000
0000
0000
0110
0000
0000
0000
,
1000
0000
0001
0000
0010
0000
0100
1000
0100
1000
0001
0000
0100
0010
0100
0010
,
0000
0100
0001
0000
1000
0000
0100
0010
0000
0010
0001
0000
2000
0000
3002
0000
,
1003
0010
1000
0001
0100
0000
0010
0001
0010
0000
0100
0000
0010
0000
1000
0001
,
1000
0000
0100
0000
0010
0000
0001
1000
0000
0001
0100
0000
0010
1000
0001
0000
,
1000
0000
0001
0010
0100
0000
0001
1000
0010
0000
0100
1000
0001
0000
1000
0001
,
0100
0000
0010
0000
0001
0000
0010
0100
0010
0000
1000
0000
0001
1000
0010
0100
,
0001
0000
1000
0100
1000
0001
0100
0010
0100
0000
0010
0000
0001
0000
0010
1000
,
0000
0000
0100
0000
0010
0001
1000
0000
1001
0000
0000
0000
1001
0000
0000
0000
,
1000
0000
0001
0000
0100
0000
0010
1000
0010
0100
0010
1000
0001
0000
1000
0000
,
0001
0010
0100
0000
0001
1000
0010
0000
0011
0000
0000
1100
0000
0000
0101
0000
,
1001
0000
0001
0000
0100
0000
0010
1000
0000
0000
1000
0000
0001
0000
0011
0000
,
0000
0000
1001
0000
0001
1000
0010
0000
0110
0000
0100
0001
1000
0100
0010
0001
,
1000
0000
0001
1000
0010
0000
0100
0010
0000
0001
0010
0000
1000
0000
0001
0100
,
0010
0000
1000
0001
0010
0100
0010
0000
0000
0000
1010
0000
0000
0000
0022
0000
,
0000
0000
0000
0000
0000
0033
0000
0220
,
0000
0000
0330
1001
,
0001
0000
0100
0010
0100
0000
1000
0001
0010
0000
0100
0010
1000
0000
0001
1000
,
0100
0000
0010
0100
0001
0000
1000
0010
0100
0000
0010
0001
2000
0000
3002
0000
,
1003
0000
0100
0010
1000
0000
0001
0100
0010
0000
0100
1000
0001
0010
0100
0000
,
1000
0001
0100
0000
0010
0000
0100
1000
0001
0010
0100
0000
0001
0000
1000
0000
,
0100
0000
0010
0001
1000
0000
0010
0100
1000
0000
0001
0010
0100
0000
0001
0010
,
0100
0000
0001
1000
0010
0000
0100
1000
0001
0000
0100
0010
1000
0001
1000
0000
,
0001
0000
0100
0010
1000
0000
0001
0010
0100
0000
1000
0001
0100
0000
0110
0000
,
0000
1001
1000
0100
0110
0000
0110
0001
,
1000
0000
0001
1000
0010
0000
0001
0010
0100
0000
1000
0100
0010
0000
1000
0000
,
0001
0010
0100
0010
0001
0000
1000
0000
0010
0100
0001
0100
0010
0000
1000
0000
,
0001
0000
1000
0001
0010
0000
1000
0010
0100
0000
0001
0100
0010
0000
0001
0000
,
1000
0000
0010
0100
0001
1000
0100
0000
0000
0000
0011
0000
0000
0000
0000
0000
,
1000
0000
0001
0100
1000
0000
0001
0010
1000
0000
0001
0010
1000
0001
0100
0000
,
0010
0000
0001
1000
0010
0000
0001
0000
0010
0000
1000
0000
1001
0000
0000
0000
,
1010
0000
0000
0011
0000
0000
0101
0101
,
0000
1100
0000
0000
0220
0000
0330
1000
,
0001
0001
0001
2002
0000
0000
0000
0000
,
0000
0000
0000
0000
,
0000
0000
0000
0000
,
0000
0000
0000
0000
,
0000
0000
0000
3003
0000
0000
0000
0000
;

//--------------- dance-double - Fred-104 ----------------
#NOTEDATA:;
#STEPSTYPE:dance-double;
#DESCRIPTION:Fred-104;
#DIFFICULTY:Easy;
#METER:8;
#CREDIT:Fred-104;
#NOTES:
00000000
00000000
00000000
00000000
,
00000000
00000000
00000000
00000000
,
00000000
00000000
00000000
00000000
,
00000000
00000000
00000000
00000000
,
00000000
00000000
00000000
00000000
,
00000000
00000000
00000000
00000000
,
00010000
00000000
00000100
00000000
,
00000010
00000001
00001000
00000010
,
00000100
00000000
00001000
00000000
,
00010000
00000000
00001000
00000000
00010000
00001000
00010000
00000000
,
00001000
00000000
00000000
00000000
00010000
00000000
00000000
00100000
,
00000000
00100000
00000000
00000000
10000000
00000000
01000000
00000000
,
00100000
00000000
00000000
00000000
00001000
00000000
00000000
00010000
,
00000000
00010000
00000000
00000000
00000100
00000000
00001000
00000000
,
00000001
00000000
00000000
00000000
00000100
00000000
00000000
00001000
,
00000000
00001000
00000000
00000000
00010000
00000000
00001000
00000000
,
01000000
00000000
00010000
00000000
10000000
00000000
00000000
00010000
,
00000000
20020000
00000000
30030000
,
10000000
01000000
00100000
00100000
,
00001000
00000000
00000000
00010000
00000000
00010000
00000000
00010000
,
00000000
00000100
00001000
00000010
,
00000100
00000000
00000000
00000002
00000000
00000000
00000003
00000000
,
00000010
00000100
00001000
00000000
,
00000010
00000000
00000000
00010000
00000000
00010000
00000000
00010000
,
00000000
00001000
01000000
00001000
,
00010000
00000000
00000000
00001000
00000000
00011000
00000000
00000000
,
00001000
00010000
00100000
00000000
,
10000000
01000000
00010000
00000000
,
00001000
00000010
00000001
00000100
,
00001000
00010000
00001000
00010000
,
00001000
00000000
00000000
01000000
00000000
00000000
00010000
00000000
,
00100000
00000000
00000000
00001000
00000000
00000000
00100000
00000000
,
00101000
00000000
00000000
00010010
00000000
00000000
01001000
00000000
,
00000000
00010100
00000000
00000000
00022000
00000000
00033000
00000000
,
00020000
00000000
00032000
00000000
,
00003100
00000001
00002000
00000000
,
00003200
00000000
00000320
00000000
,
00000031
00000100
00001000
00010000
,
00011000
00000000
00000000
00000000
00001000
00000000
00000000
01000000
,
00000000
00000000
00010000
00000000
10000000
00000000
00000000
01000000
,
00000000
00000000
00100000
00000000
00010000
00000000
00000000
01000000
,
00000000
00100000
00000000
20020000
00000000
00000000
30030000
00000000
,
20000000
00000000
31000000
00000000
,
00020000
00000000
00031000
00000000
,
00000020
00000000
00000031
00000000
,
00000200
00000000
00000000
00000000
00001300
00010000
00001000
00000000
,
00010000
00010000
00001000
00001000
,
00010000
00010000
00001000
00001000
,
00010000
00001000
00010000
00000000
00001000
00010000
00000000
00011000
,
00000000
00000000
00000000
00000000
,
00001000
01000000
00010000
01000000
,
00100000
01000000
10000000
01000000
,
00100000
01000000
00010000
10000000
,
01000000
00010000
00011000
00000000
,
00010000
00000100
00001000
00000100
,
00000010
00000100
00000001
00000100
,
00010000
00000000
00001000
00000000
00010000
00000000
00000000
00001000
,
00000000
00010000
00011000
00000000
,
00001000
00010000
00100000
10000000
,
00010000
10000000
01000000
00010000
,
00001000
00000000
00010000
00000000
00001000
00000000
00000000
00010000
,
00000000
00000000
00000100
00000000
00000010
00000001
00000010
00000000
,
00001000
00000000
00001000
00000000
00010000
00000000
00000000
00001000
,
00000000
00010000
00000000
00010000
00000000
00000000
00001000
00000000
,
01000000
00000000
00000000
00100000
00000000
00000000
00000000
10000000
,
00000000
01000000
00100000
00010000
,
10010000
00000000
00000000
00000000
,
00000000
00000000
00000000
00000000
,
10000000
01000000
00010000
00001000
,
00000010
00000001
00001000
00001000
,
00000001
00000100
00001000
00010000
,
00100000
10000000
00010000
00010000
,
10000000
00000000
01000000
00000000
00100000
00000000
00000000
00001000
,
00000000
00010000
00100000
00010000
,
00011000
00001000
00010000
00000100
,
00000010
00000100
00010000
00000000
,
00001000
00000000
00100000
00000000
01000000
00000000
00000000
00100000
,
00000000
00001000
00010000
00001000
,
00011000
00001000
00010000
00100000
,
10000000
00000000
00000000
01000000
00000000
00100000
00000000
01100000
,
00000000
00000000
00000000
00000000
00000000
00000000
00000000
00022000
,
00000000
00000000
00000000
00033000
,
00010000
00001000
00000010
00000001
,
00000100
00000000
00001000
00000000
00010000
00001000
00010000
00000000
,
00001000
00010000
01000000
10000000
,
00100000
00000000
00010000
00000000
00001000
00010000
00001000
00000000
,
00010000
00000000
00000000
00000100
00000000
00000010
00000000
00000001
,
00000000
00000000
00000000
00001000
00000000
00000010
00000000
00000000
,
00010000
00000000
00000000
00100000
00000000
01000000
00000000
00010000
,
00000000
10000000
10000000
10000000
,
01000000
00010000
00001000
00010000
,
00100000
00000000
00010000
00000000
00001000
00010000
00001000
00000000
,
00010000
00000000
00000000
00000100
00000000
00000010
00000000
00000001
,
00000000
00000100
00000000
00000010
00000000
00001001
00000000
00000000
,
00000001
00000010
00000100
00001000
,
00010000
00100000
01000000
10000000
,
10010000
00000000
00000000
01010000
00000000
00000000
01001000
00000000
,
00000000
00010100
00000000
00000000
00101000
00000000
00000000
00000000
,
00000000
00000000
00000000
20020000
00000000
00000000
00000000
00000000
,
00000000
00000000
00000000
00000000
,
00000000
00000000
00000000
00000000
,
00000000
00000000
00000000
00000000
,
00000000
00000000
00000000
30030000
00000000
00000000
00000000
00000000
;

//--------------- dance-double - Fred-104 ----------------
#NOTEDATA:;
#STEPSTYPE:dance-double;
#DESCRIPTION:Fred-104;
#DIFFICULTY:Medium;
#METER:13;
#CREDIT:Fred-104;
#NOTES:
00000000
00000000
00000000
00000000
,
00000000
00000000
00000000
00000000
,
00000000
00000000
00000000
00000000
,
00000000
00000000
00000000
00000000
,
00000000
00000000
00000000
00000000
,
00000000
00000000
00000000
00000000
,
00001000
00010000
00000000
00001000
01000000
00000000
00010000
10000000
,
00000000
01000000
00100000
01000000
00100000
00000000
00001000
00000000
,
00010000
00000100
00000000
00001000
00000001
00000000
00000010
00000100
,
00000000
00010000
00001000
01000000
00001000
00010000
00001000
00000000
,
00010000
00001000
00010000
00000100
00001000
00000000
00000100
00000010
,
00000000
00000001
00001000
00000010
00000100
00001000
00010000
00000000
,
00001000
00010000
00001000
01000000
00010000
00000000
01000000
00100000
,
00000000
10000000
00010000
00100000
01000000
00010000
00001000
00001000
,
00010000
00000100
00010000
00000010
00001000
00000000
00000100
00000010
,
00000000
00000001
00001000
00000010
00000100
00001000
00010000
00010000
,
00001000
01000000
00010000
00100000
01000000
00000000
10000000
00100000
,
00000000
00010000
00022000
00000000
00000000
00000000
00033000
00000000
,
00010000
00001000
00000010
00000001
,
00000100
00000000
00001000
00010000
00000000
00100000
00000000
10000000
,
00000000
01000000
00010000
00001000
,
00000010
00000000
00000001
00000100
00000000
00000000
00000000
00000000
,
00001000
00000000
00000000
00000000
00010000
00000000
00000000
00000000
00001000
00000000
00000000
00010000
00000000
00000000
00010000
00000000
,
00001000
00000000
00000100
00000010
00000000
00001000
00000000
00000001
,
00000000
00000000
00000010
00000100
00010000
00000000
00001000
00000000
,
01000000
00000000
00010000
00100000
00000000
01100000
00000000
00000000
,
00010000
10000000
00100000
10000000
00010000
10000000
00100000
00000000
,
01000000
00001000
00010000
00001000
01000000
00001000
00010000
00000000
,
00001000
00000010
00000100
00000010
00001000
00000010
00000100
00000000
,
00001000
00000100
00000010
00000100
00001000
00000100
00000010
00000000
,
00000011
00000000
00000001
00000100
00000000
00001000
00010000
00001000
,
01000000
00000000
00010000
00001000
00000000
00000010
00001000
00000001
,
00000011
00000000
00000000
00001010
00000000
00000000
00011000
00000000
,
00000000
01010000
00000000
10000000
22000000
00000000
33000000
00000000
,
10000000
00010000
10000000
00010000
10000000
00010000
00100000
01000000
,
00000000
00010000
00001000
00010000
00000000
00000100
00000010
00000010
,
00000000
00000001
00000100
00001000
00010000
00001000
00000010
00001000
,
00000000
00010000
00001000
01000000
00001000
00010000
00100000
00010000
,
00001000
00000000
00000000
00010000
00001000
00000010
00001000
00010000
,
00000000
00001000
01000000
00010000
00000000
00100000
01000000
10000000
,
00000000
00010000
10000000
00100000
00010000
00001000
00000010
00000001
,
00000000
00000100
00000010
00002002
00000000
00000003
00003000
00000000
,
00001001
00000000
00000000
00000001
00000000
00000000
00000010
00000000
,
00001000
00000000
00000000
00010000
00000000
00000000
00001000
00000000
,
00000100
00000000
00000000
00001000
00000000
00000000
00010000
00010000
,
00000000
00001000
00010000
00100000
00010000
00000000
00011000
00000000
,
00001000
00010000
00100000
01000000
00100000
10000000
01000000
00100000
,
00001000
00010000
00000100
00000010
00000001
00000100
00001000
00010000
,
00001000
01000000
00100000
10000000
01000000
00010000
00001000
00010000
,
00000000
00000100
00000010
00000001
00001000
00000001
00001001
00000000
,
00000110
00000000
00001000
00000001
00000100
00001000
00010000
00001000
,
00000000
00011000
00000000
00010000
00100000
10000000
01000000
00100000
,
00101000
00000000
00001000
00010000
00000100
00000010
00000100
00010000
,
00000000
00001000
00010000
00000100
00000000
00000001
00000100
00000010
,
00000001
00000100
00001000
00000100
00000001
00000010
00001000
00010000
,
00000000
00011000
00000000
00001000
00100000
00010000
10000000
01000000
,
00100000
00001000
00010000
00100000
00010000
00001000
00010000
00000100
,
00000000
00000000
00000010
00000000
00000010
00000000
00000010
00000000
00000100
00000000
00000000
00000010
00000000
00000000
00001000
00000000
,
00011000
00000000
00010000
00001000
00000010
00000100
00010000
00001000
,
00000000
00011000
00000000
00010000
00001000
01000000
00001000
00010000
,
00000100
00000000
00000000
00000000
00000110
00000000
00000000
00000010
00000001
00000000
00001000
00000000
00000001
00000000
00000100
00000000
,
00000000
00001000
00010000
00001000
00000010
00000001
00001000
00000010
,
00000110
00000000
00000001
00000100
00001000
01000000
00010000
00100000
,
00000000
10000000
00100000
01000000
00000000
00100000
00001000
00010000
,
00000100
00000010
00001000
00000001
00000000
00000100
00001000
00000001
,
00000000
00000100
00001000
00010000
00011000
00000000
00011000
00000000
,
00011000
00000000
00000000
00000000
,
00000000
00000000
00000000
00000000
,
10000000
01000000
00010000
01000000
10000000
01000000
00010000
00001000
,
00010000
00100000
00010000
00001000
00000010
00000001
00001000
00000000
,
00000001
00000010
00001000
00000010
00000001
00000100
00001000
00010000
,
00001000
01000000
00010000
00100000
00001000
00010000
00000010
00001000
,
00000100
00000000
00010000
00000000
00001000
00000000
00000100
00000000
00000010
00000000
00000001
00000000
00000010
00000000
00000000
00001000
,
00000000
00000001
00000010
00001000
00011000
00000000
00011000
00000000
,
00001000
00010000
01000000
00100000
00010000
10000000
00100000
00010000
,
00001000
00000000
00010000
00000000
01000000
00000000
00010000
00000000
00001000
00000000
00000000
00001000
00000000
00000000
00001000
00000000
,
00010000
00000000
00000100
00000000
00000010
00000000
00000000
00000010
00000000
00000000
00000010
00000000
00000001
00000000
00001001
00000000
,
00000000
00000001
00000100
00001000
00010000
00000000
00011000
00000000
,
00001000
00010000
00100000
00001000
00100000
00010000
00001000
00010000
,
00000100
00000010
00000001
00000100
00000000
00000101
00000000
00002200
,
00000000
00000000
00000000
00000000
00000000
00003300
00000000
00000220
,
00000000
00000000
00000330
00001001
,
00000001
00001000
00000001
00000010
00000100
00010000
00001000
01000000
,
00010000
00100000
01000000
00100000
00001000
00010000
00001000
00001000
,
00100000
00010000
10000000
00100000
01000000
00100000
00010000
00001000
,
00010000
00001000
00010000
00000100
00000010
00000001
00001000
00000000
,
00000001
00000010
00000100
00000010
00001000
00010000
00001000
01000000
,
00100000
00010000
00001000
00010000
01000000
00100000
01000000
10000000
,
00010000
01000000
00100000
00010000
00001000
00010000
00000100
00000110
,
00000000
00000010
00000001
00001000
00001001
00000000
00001001
00000000
,
00001000
00000001
00000100
00000001
00000100
00001000
00010000
00001000
,
00010000
00001000
00000010
00000001
00001000
00000010
00010000
00000000
,
00001000
00010000
00100000
01000000
00010000
01000000
00100000
00010000
,
00001000
00000100
00000010
00010000
00000000
00011000
00000000
00000000
,
00001000
00010000
00001000
00010000
00100000
10000000
00100000
10000000
,
01000000
00010000
01000000
00010000
00001000
00000000
00011000
00000000
,
00010100
00000000
00000000
01001000
00000000
00000000
00010000
00010010
,
00000000
00101000
00000000
00000000
00022000
00000000
00033000
00010000
,
00001000
00000100
00000001
00002002
00000000
00000000
00000000
00000000
,
00000000
00000000
00000000
00000000
,
00000000
00000000
00000000
00000000
,
00000000
00000000
00000000
00000000
,
00000000
00000000
00000000
00003003
00000000
00000000
00000000
00000000
;

//--------------- dance-double - Fred-104 ----------------
#NOTEDATA:;
#STEPSTYPE:dance-double;
#DESCRIPTION:Fred-104;
#DIFFICULTY:Hard;
#METER:16;
#CREDIT:Fred-104;
#NOTES:
00000000
00000000
00000000
00000000
,
00000000
00000000
00000000
00000000
,
00000000
00000000
00000000
00000000
,
00000000
00000000
00000000
00000000
,
00000000
00000000
00000000
00000000
,
00000000
00000000
00000000
00000000
,
00010000
00001000
00000000
00001000
00011000
00000000
00010000
00000100
,
00000000
00000010
00000001
00001000
00001001
00000000
00000001
00000000
,
00000010
00000100
00000000
00010000
00011000
00000000
00001000
00010000
,
00000000
00000000
00100000
00000000
10000000
00000000
00010000
10000000
01000000
00100000
00010000
00000000
00100000
00001000
00010000
00000000
,
00001000
01000000
00100000
01000000
10000000
01000000
00100000
01000000
,
00010000
01000000
10000000
01000000
00100000
00010000
00001000
00000000
,
00010000
00000100
00000010
00000100
00000001
00000100
00000010
00000100
,
00001000
00000100
00000001
00000100
00000010
00001000
00010000
00011000
,
00001000
00100000
01000000
00010000
10000000
00100000
01000000
10000000
,
00010000
00100000
10000000
00100000
01000000
00010000
00001000
00001000
,
00010000
00000010
00000100
00001000
00000001
00000010
00000100
00000101
,
00000000
00000110
00002002
00000000
00000000
00000000
00003003
00000000
,
00001001
00002000
00003020
00020030
,
00032000
00000000
00013000
00200000
00000000
20300000
00000000
30020000
,
00000000
20030000
32000000
03200000
,
00302000
00000000
00013000
00002000
00000000
00000000
00003000
00000000
,
00010000
00000000
00000000
00000000
00002000
00000000
00000000
00000000
00003100
00000000
00000000
00000100
00000000
00000000
00000100
00000000
,
00000002
00000000
00001003
00000200
00000000
00000320
00000000
00000032
,
00000000
00000000
00001003
00000010
00000200
00000000
00002300
00000000
,
00023000
00000000
00031000
00010000
00000000
00011000
00000000
00000000
,
00011000
00000000
00001000
01000000
01010000
00000000
00100000
10100000
,
00000000
00100000
10000000
00100000
10000000
00010000
10000000
01000000
,
00010000
00000000
00001000
00010000
00011000
00000000
00010000
00010100
,
00000000
00000100
00010000
00000100
00001100
00000000
00000001
00001000
,
00000010
00000100
00001000
00010000
00000000
00010000
00001000
00000000
,
00100000
01000000
00010000
00001000
00000000
00001000
00010000
00000100
,
00000110
00000000
00000000
00011000
00000000
00000000
01100000
00000000
,
00000000
00011000
00000000
00000010
00000220
00000000
00000330
00000000
,
00001000
00000001
00001000
00000001
00001000
00000001
00000010
00000200
,
00000000
00001300
00000100
00020000
00000000
00031000
00010000
00011000
,
00000000
00000000
00001000
00000000
00100000
00000000
00010000
00000000
01000000
00000000
00100000
10000000
00100000
00000000
10100000
00000000
,
00000000
00000000
10000000
00000000
00010000
01000000
00010000
00000000
10000000
00000000
01000000
00100000
00010000
00000000
00100000
00001000
,
00020000
00000000
00000000
00000000
00000000
00000000
00031000
00000000
00010000
00000000
00000010
00001000
00000010
00000000
00020000
00000000
,
00000000
00031000
00000100
00000001
00000010
00001000
00010000
00011000
,
00000000
00000000
00010000
00000000
00000100
00001000
00000100
00000000
00000010
00000000
00000001
00001000
00000010
00000100
00001000
00000000
,
00000000
00010000
00001000
00022000
00000000
00030000
00003000
00000000
,
00020000
00000000
00001000
00001000
00000000
00000000
00000000
00031000
,
00000200
00000000
00000010
00000010
00000000
00000000
00000000
00000310
,
00002000
00000000
00000001
00000001
00000000
00000000
00003010
00000200
,
00000000
00000000
00001300
00000000
00010000
00000000
00100000
00000000
01000000
00000000
00000000
01000000
00020000
00000000
00030000
00000000
,
10000000
00000000
01000000
00000000
00100000
00000000
00001000
00000000
00010000
00000000
00000010
00001000
00000010
00000000
00000100
00000000
,
00000001
00000000
00000100
00000000
00000010
00000000
00010000
00000000
00001000
00000000
00100000
00010000
00100000
00000000
01000000
00000000
,
10000000
00010000
10000000
00010000
01000000
00001000
00010000
00001000
00010000
00000100
00000010
00000100
00000010
00000001
00001000
00000000
,
00000000
00000010
00000100
00001000
00010000
00100000
10100000
00000000
,
10010000
00000000
10000000
00100000
00010000
00001000
00010000
00010100
,
00000000
00000000
00001001
00000000
00000000
00000000
00000001
00000100
00000010
00000000
00000100
00000000
00001000
00000000
00010000
00000000
,
00011000
00000000
00001000
00010000
01000000
00100000
00001000
00020000
,
00000000
00130000
01000000
00020000
00000000
02030000
03200000
20300000
,
30010000
00100000
00001000
00000010
00000100
00010000
00001000
00010000
,
00000000
00000000
00011000
00000000
00000000
00000000
00010000
00000100
00001000
00000000
00000010
00000000
00000100
00000000
00001000
00000000
,
00010000
00001000
00100000
01000000
00010000
00001000
00010000
00022000
,
00033000
00000000
00010000
00000000
00001000
00000000
00000100
00000000
00000101
00000000
00000000
00000011
00000000
00000000
00000001
00000000
,
00001000
00000000
00000001
00000000
00000100
00000000
00001000
00010000
00001000
00000000
01000000
00000000
00010000
00000000
10000000
00000000
,
00010000
00000000
00100000
00000000
01000000
00000000
00010000
00001000
00010000
00000000
00000100
00000000
00010000
00001000
00010000
00000000
,
00011000
00000000
00000000
00000000
01001000
00000000
01000000
00010000
10000000
00000000
01000000
00000000
00100000
00000000
00001000
00000000
,
00000000
00000000
00001000
00000000
00010000
00000100
00000000
00000010
00000100
00000010
00000100
00000000
00001000
00000001
00000100
00000010
,
00001000
00000000
00000000
00000000
00000001
00000000
00000100
00000010
00000100
00000000
00001000
00000000
00010000
00000000
00100000
00000000
,
01000000
00000000
10000000
00000000
00010000
00000000
00100000
00000000
01000000
00000000
10000000
01000000
00100000
00000000
10000000
00000000
,
00010000
01000000
00100000
00010000
00001000
00010000
00000100
00000010
,
00000001
00001000
00000001
00001000
00000010
00000000
00000100
00000000
00000110
00000000
00000000
00000000
00000110
00000000
00000000
00000000
,
00001000
00000000
00000001
00000000
00000010
00000000
00000100
00000010
00000100
00000010
00000001
00000000
00001000
00000010
00001000
00000010
,
00000000
00010000
00001000
00000000
00010000
00000000
00100000
01000000
00000000
01000000
00100000
00000000
20000000
00000000
30020000
00000000
,
10030000
01000000
10000000
01000000
00100000
00000000
00001000
00010000
00001000
00000000
01000000
00000000
00010000
00000000
00001000
00000000
,
00000010
00000000
00000100
00000000
00000001
00000000
00001000
00000100
00000000
00001000
00000100
00000000
00000010
00000000
00000001
00000000
,
00001000
00000000
00000010
00010000
00000010
00000000
00010000
00001000
00010000
00000000
00001000
00100000
00001000
00000000
00010000
00001000
,
00010000
00000000
00100000
00000000
01000000
00000000
10000000
01000000
00100000
00000000
10000000
00000000
00010000
00100000
00001000
00010000
,
00001000
00000000
00010000
00000010
00001000
00000010
00010000
00000000
00001000
00000000
00010000
00000000
00100000
00000000
10000000
00010000
,
00000000
00100000
01000000
00010000
00011000
00000000
00011000
00000000
,
00010000
00000000
00000100
00000000
00001000
00000000
00000001
00000100
00000010
00000100
00000001
00000100
00000010
00000000
00001000
00000000
,
00000001
00000010
00000100
00000000
00010000
00001000
00010000
00000000
00011000
00000000
00000000
00010010
00000000
00000000
00101000
00000000
,
00011000
00000000
00001000
00000000
00100000
00000000
01000000
10000000
00000000
00000000
00010000
00000000
01000000
00000000
01100000
00000000
,
00000000
00000000
10100000
00000000
10000000
00010000
00100000
00000000
00101000
00000000
00001000
00010000
00001000
00010000
00001000
00000000
,
00010000
00000000
00000100
00000010
00000100
00000000
00000001
00000100
00000000
00000010
00000001
00000000
00001000
00000000
00000010
00000100
,
00001000
00000000
00010000
00001000
00010000
00001000
00010000
00000000
00000000
00000000
00110000
00000000
00000000
00000000
20200000
00000000
,
00000000
00000000
00000000
00000000
00000000
30300000
00000000
02200000
,
00000000
00000000
03300000
10010000
,
10000000
01000000
00010000
00001000
00000010
00000001
00001000
00000001
,
00000100
00001000
00010000
00100000
10000000
01000000
00010000
00001000
,
00010000
00000100
00001000
00010000
00100000
01000000
00010000
00000100
,
00000010
00001000
00100000
01000000
00010000
00001000
00000010
00000100
,
00010000
00000010
00000100
00001000
00000100
00000010
00001000
00010000
,
01000000
00010000
00000100
00000010
00001000
00010000
00100000
01000000
,
00010000
00001000
00000010
00000100
00010000
00001000
00010000
00011000
,
00000000
00010010
00010000
00001000
01001000
00000000
00011000
00001000
,
00010000
00001000
00000010
00000100
00010000
00001000
00000100
00010000
,
01000000
00001000
00010000
00100000
01000000
00001000
00100000
01000000
,
00010000
00000100
00001000
00100000
00010000
00000010
00001000
00010000
,
01000000
00001000
00010000
00001000
00000000
00011000
00000000
00000000
,
00010000
00001000
00000100
00000001
00000010
00001000
00010000
01000000
,
10000000
00100000
00010000
00001000
00010000
00000000
00011000
00000000
,
01001000
00000000
00000000
00010100
00000000
00000000
00101000
00101000
,
00000000
00010010
00000000
00000000
00022000
00000000
00033000
00001000
,
00010000
00010000
00010000
00022000
00000000
00000000
00000000
00000000
,
00000000
00000000
00000000
00000000
,
00000000
00000000
00000000
00000000
,
00000000
00000000
00000000
00000000
,
00000000
00000000
00000000
00033000
00000000
00000000
00000000
00000000
;
