#VERSION:0.83;
#TITLE:Our Faith;
#ARTIST:kors k;
#BANNER:Our Faith.png;
#BACKGROUND:Our Faith-bg.png;
#CDTITLE:./CDTitles/RB colette -Winter-.png;
#MUSIC:Our Faith.ogg;
#SAMPLESTART:12.311;
#SAMPLELENGTH:15;
#BPMS:0=175;
#BGSTAGE:15;

//--------------- dance-single - Fred-104 ----------------
#NOTEDATA:;
#STEPSTYPE:dance-single;
#DESCRIPTION:Fred-104;
#DIFFICULTY:Beginner;
#METER:3;
#CREDIT:Fred-104;
#NOTES:
0000
0000
0000
0000
,
0000
0000
0000
0000
,
0000
0000
0000
0000
,
0000
0000
0000
0000
,
0000
0000
0000
0000
,
0001
0000
0000
0000
,
0100
0000
0000
0000
,
0001
0000
0000
0000
,
1001
0000
0000
0000
,
1000
0000
0100
0000
,
1000
0000
0000
0000
,
0001
0000
0100
0000
,
0001
0000
0000
0000
,
1000
0000
0010
0000
,
1000
0000
0000
0000
,
0001
0000
0010
0000
,
0001
0000
1000
1000
,
2000
0000
0000
0000
,
0000
0000
0000
0000
,
3000
0000
0000
0000
,
0002
0000
0003
0000
,
0002
0000
0000
0000
,
0000
0000
0000
0000
,
0003
0000
0000
0000
,
2000
0000
3000
0000
,
0002
0000
2003
0000
,
3002
0000
2003
0000
,
3010
0000
0000
0010
,
0100
0000
0001
0000
,
1000
0000
1000
0000
,
0001
0000
0001
0000
,
0100
0000
0100
0000
,
0002
0003
2000
3000
,
1001
0000
0000
0000
,
1000
0000
0000
0000
,
0001
0000
0000
0000
,
0100
0000
0000
0000
,
0001
0000
0001
0000
,
1000
0000
1000
0000
,
0001
0000
1000
0000
,
1001
0000
0000
0000
,
1000
0000
0100
0000
,
1000
0000
0000
0000
,
0001
0000
1000
0000
,
0010
0000
0000
0000
,
1000
0000
0001
0000
,
0010
0000
0000
0000
,
0001
0000
0001
0000
,
1000
0000
1000
0000
,
0001
0000
0001
0000
,
0010
0000
0000
0000
,
0100
0000
0100
0000
,
1000
0000
0000
0000
,
0001
0000
0010
0000
,
0001
0000
1000
0000
,
0001
0000
1000
0000
,
1001
0000
0000
0000
,
1000
0000
0100
0000
,
1000
0000
0010
0010
,
0010
0000
1000
0000
,
0001
0000
0010
0010
,
0010
0000
0001
0000
,
1000
0000
0100
0100
,
0100
0000
1000
0000
,
0001
0000
1000
1000
,
1001
0000
0000
0000
,
0000
0000
1000
0000
,
0001
0000
0100
0000
,
0001
0000
1000
1000
,
1000
0000
0100
0000
,
0010
0000
0001
0000
,
1000
1000
1000
1000
,
1001
0000
0000
0000
,
1001
0000
0000
0000
;

//--------------- dance-single - Fred-104 ----------------
#NOTEDATA:;
#STEPSTYPE:dance-single;
#DESCRIPTION:Fred-104;
#DIFFICULTY:Easy;
#METER:9;
#CREDIT:Fred-104;
#NOTES:
0000
0000
0000
0000
,
0000
0000
0000
0000
,
0000
0000
0000
0000
,
0000
0000
0000
0000
,
0000
0000
0000
0000
,
1000
0000
0010
0000
,
0001
0000
0100
0000
,
1000
0100
0010
0001
,
1001
0000
0100
0000
,
0110
0000
0010
0000
,
1000
0000
0001
0000
1000
0000
0100
0100
,
0100
0000
1000
0000
,
0010
0000
1000
0000
0001
0001
0001
0000
,
0100
0000
0010
0100
,
0001
0000
1000
0000
0001
0001
0001
0000
,
0100
0010
0100
0001
,
1000
1000
0001
0001
,
2001
0000
3002
0000
,
0203
0000
0320
0000
,
0230
0000
0000
0302
,
2003
0000
0000
3000
,
0200
0000
0320
0000
,
0032
0000
2003
0000
,
3002
0000
0023
0000
0032
0000
0000
1003
,
0000
0001
0100
0000
0010
0000
0100
0000
,
0002
0000
2003
0000
,
3200
0000
0302
0000
,
0023
0000
0000
2030
,
3002
0000
0000
0000
0103
0010
0100
0000
,
0110
0100
0010
0010
,
1000
1000
0001
0001
,
1000
0100
0010
0001
,
2000
0000
0002
3003
,
1001
0000
1000
0000
,
0010
0000
0001
0000
,
0100
0000
1000
0000
,
0001
0100
0010
0100
,
0001
0000
0010
0000
0001
0000
0100
0010
,
0100
0000
0001
0000
1000
0000
0100
0010
,
0100
0000
1000
0000
0001
1000
0001
0000
,
1001
0000
0110
0000
,
0001
0000
0000
0001
0000
0000
0100
0000
0010
0000
0000
0000
0100
0000
0000
0000
,
0010
0000
0000
0010
0000
0000
1000
0000
0001
0000
0000
0000
1000
0000
0000
0000
,
0100
0000
0000
0100
0000
0000
0010
0000
0100
0000
0000
0000
1000
0000
0000
0000
,
0001
0000
0100
0000
0001
0010
0100
0000
,
1000
0000
0000
0010
0000
0000
0100
0000
0010
0000
0000
0000
1000
0000
0000
0000
,
0100
0000
0000
0010
0000
0000
0001
0000
0100
0000
0000
0000
0010
0000
0000
0000
,
0100
0000
0000
0000
0100
0000
0000
0000
0001
0000
0000
1000
0000
0000
0001
0000
,
0000
0100
0010
0000
0100
0100
0100
0000
,
0001
0000
0000
0010
0000
0000
0001
0000
1000
0000
0000
0010
0000
0000
1000
0000
,
0100
0000
0000
0010
0000
0000
0100
0000
1000
0000
0000
0001
0000
0000
0100
0000
,
0001
0000
0000
0010
0000
0000
0100
0000
1000
0000
0000
0001
0000
0000
1000
0000
,
0010
0000
0010
0000
0100
0010
0100
0000
,
0001
0000
1000
0000
0001
0000
0100
0100
,
0000
0010
0000
1000
0000
0100
1000
0000
,
0001
0000
0000
0000
0100
0000
0000
0000
0001
0000
0000
1000
0000
0000
1001
0000
,
0000
0001
0100
0010
,
1000
0000
0000
1000
0000
0000
0010
0000
0000
1000
0000
0000
0100
0000
0000
0000
,
0010
0000
0000
0010
0000
0000
0001
0000
0000
0100
0000
0000
0001
0000
0000
0000
,
0100
0000
0000
0100
0000
0000
0001
0000
0000
0010
0000
0000
0001
0000
0000
0000
,
0100
0000
0010
0000
0100
0001
1000
0000
,
0010
0000
0000
1000
0000
0000
0100
0000
0000
1000
0000
0000
0001
0000
0000
0000
,
0100
0000
0000
0010
0000
0000
0100
0000
0000
0001
0000
0000
0010
0000
0000
0000
,
0001
0000
0001
0000
0100
0010
0100
0000
,
0001
1000
0001
0000
0100
0010
0100
0000
,
2002
0000
0000
3003
,
0000
0100
0010
0000
0001
1000
0001
0000
,
1000
0000
0000
0100
0000
0000
1000
0000
0000
0010
0000
0000
0100
0000
0000
0000
,
0001
0000
0000
1000
0000
0000
0001
0000
0100
0000
0010
0000
0100
0000
0000
0000
,
0001
0001
0100
0100
,
0010
1000
0010
0000
1000
0100
1000
0000
,
0001
0100
0001
0000
1000
0010
1000
0000
,
1001
0000
0110
0000
,
1001
0000
0000
0000
;

//--------------- dance-single - Fred-104 ----------------
#NOTEDATA:;
#STEPSTYPE:dance-single;
#DESCRIPTION:Fred-104;
#DIFFICULTY:Medium;
#METER:12;
#CREDIT:Fred-104;
#NOTES:
0000
0000
0000
0000
,
0000
0000
0000
0000
,
0000
0000
0000
0000
,
0000
0000
0000
0000
,
0000
0000
0000
0000
,
0001
0001
0100
0100
,
0001
0010
0001
0100
0010
1000
0100
0010
,
0002
0203
0320
2030
,
3100
0000
1000
0100
1000
0001
1001
0000
,
0110
0000
0000
0000
0000
0000
0001
1000
0001
0000
0000
0000
0010
0000
0100
0000
,
2000
0000
3020
0000
0230
0000
0301
0010
,
0011
0000
0000
0000
0000
0000
0001
1000
0001
0000
0000
0000
0100
0000
0010
0000
,
2000
0000
3020
0000
0031
0010
0100
0001
,
1001
0000
0000
0000
0000
0000
1000
0100
1000
0000
0000
0000
0010
0000
1000
0000
,
0200
0000
0320
0000
0031
0100
0001
0010
,
0100
0000
1000
0000
0001
0000
0100
0010
0100
0000
0001
0000
1000
0000
0100
0000
,
0110
0000
0011
0000
0001
1000
0001
0100
,
0020
0000
0230
0000
,
0302
0000
2003
0000
,
3200
0000
0000
0320
,
0032
0000
0000
0000
0000
0000
1003
0001
,
2000
0000
3200
0000
,
0302
0000
0023
0000
,
2030
0000
3200
0000
0320
0000
0000
2030
,
0000
3020
0032
0000
1003
0001
1000
0000
,
2001
0000
3001
1000
0200
0000
0310
0001
,
0200
0000
0310
1000
0200
0000
1300
0001
,
0020
0000
0031
0010
0200
0000
1300
0001
,
2000
0000
3100
0000
1000
0010
0100
0001
,
0010
0010
0001
0001
,
1000
1000
0100
0100
,
1000
0010
1000
0010
0100
0001
0100
0001
,
2000
0000
0002
3003
,
1100
0000
0000
1000
0000
0000
1000
0000
0100
0000
0000
0100
0000
0000
0100
0000
,
0010
0000
0000
0010
0000
0000
0010
0000
0001
0000
0000
0001
0000
0000
0001
0000
,
0100
0000
0000
0001
0000
0000
0010
0000
0001
0000
0000
0100
0000
0000
0010
0000
,
1000
0000
0100
0000
1000
0100
0001
0100
,
1000
0010
1000
0000
0010
0000
0100
0001
,
0010
0001
1000
0000
0001
0010
0100
1000
,
0001
0100
0010
0100
0001
0010
0100
1000
,
0001
0000
0100
0010
1000
0001
1001
0000
,
0001
0000
0000
0010
0000
0000
0001
0000
1000
0000
0000
0001
0000
0000
0100
0000
,
0010
0000
0000
1000
0000
0000
0100
0000
0010
0000
0000
0001
0000
0000
1000
0000
,
0001
0000
0000
0100
0000
0000
0010
0000
0100
0000
0000
0001
0000
0000
0010
0000
,
0001
0000
0010
0000
0001
0100
0000
0100
0010
0000
1000
0000
0100
0000
0000
0000
,
1000
0000
0000
0001
0000
0000
0010
0000
0001
0000
0000
0100
0000
0000
0010
0000
,
0100
0000
0000
0001
0000
0000
0010
0000
0100
0000
0000
1000
0000
0000
0001
1000
,
0001
0000
0000
0000
0100
0000
0000
0000
0001
0000
0000
0010
0000
0000
0110
0000
,
0000
0100
1000
0001
0100
0010
1000
0100
,
1000
0000
0010
0100
0000
0010
1000
0000
0100
0000
0000
0010
0000
0000
0001
0000
,
1000
0000
0001
0100
0000
0010
0100
0000
0001
0000
0000
1000
0000
0000
0001
0000
,
0010
0000
0100
1000
0000
0001
1000
0000
0010
0000
0000
1000
0000
0000
0100
0000
,
0010
0000
0001
1000
0000
0001
0100
0000
0001
0000
0010
0000
0100
0000
1000
0000
,
1010
0000
0101
0000
1100
0000
1000
0100
,
0000
0000
0010
0000
0001
0000
1000
0000
0001
0000
0100
0010
0100
0000
0001
0000
,
0010
0000
0100
0000
1000
0000
0010
0000
0100
0000
0000
0001
0000
0000
1001
0000
,
0000
0000
1000
0000
0001
0000
1000
0000
0001
1000
0001
1000
0001
0000
0000
0000
,
1000
0000
0000
0100
0000
0000
0010
0000
0000
0001
0000
0000
1000
0000
0001
0000
,
0100
0000
0000
0010
0000
0000
1000
0000
0000
0010
0000
0000
0100
0000
0001
0000
,
0010
0000
0000
0100
0000
0000
0010
0000
0000
0001
0000
0000
0100
0000
0001
0000
,
0010
0000
0000
0001
0000
0000
1000
0000
0001
0000
0100
0000
0010
0000
1000
0000
,
0100
0000
0000
1000
0000
0000
0010
0000
0000
1000
0000
0000
0100
0000
0010
0000
,
0001
0000
0000
1000
0000
0000
0010
0000
0000
0100
0000
0000
0010
0000
1000
0000
,
1100
0000
0011
0000
1000
0010
1000
0001
,
0010
0000
0100
0000
0010
0000
0001
0000
0100
0000
0010
0000
1000
0100
1000
0000
,
0000
0001
0100
0010
1000
0100
1000
1001
,
0000
0000
0001
1000
0001
0000
0000
0000
0100
0000
0010
0000
0100
0000
0001
0000
,
1000
0000
0000
0100
0000
0000
1000
0000
0000
0001
0000
0000
0100
0000
0010
0000
,
0100
0000
0000
0001
0000
0000
0010
0000
0100
0000
1000
0000
0010
0000
0000
0000
,
0100
0001
0100
0000
0010
1000
0010
0000
,
1000
0100
1000
0000
0001
0010
0001
0000
,
0100
0010
1000
0001
0010
0100
1000
0010
,
0200
0000
0020
0330
,
1001
0000
0000
0000
;

//--------------- dance-single - Fred-104 ----------------
#NOTEDATA:;
#STEPSTYPE:dance-single;
#DESCRIPTION:Fred-104;
#DIFFICULTY:Hard;
#METER:16;
#CREDIT:Fred-104;
#NOTES:
0000
0000
0000
0000
,
0000
0000
0000
0000
,
0000
0000
0000
0000
,
0000
0000
0000
0000
,
0000
0000
0000
0000
,
1000
1000
0001
0001
,
1000
0010
0100
0010
1000
0001
0010
0001
,
0100
0001
0100
0001
0010
0001
0010
0001
1000
0010
1000
0010
1000
0001
0100
0010
,
0100
0000
0000
0000
0001
0100
0010
0000
1000
0001
0100
0001
1000
0000
0000
0000
,
1001
0000
0000
0000
0001
0000
0010
0100
1000
0000
0000
0000
0010
0000
1000
0000
,
0002
0100
2003
0010
3001
0010
0100
1000
,
1010
0000
0000
0000
1000
0000
0010
0100
0001
0000
0000
0000
1000
0000
0001
0000
,
2000
0010
3002
0100
1003
0010
0100
0001
,
0011
0000
0000
0000
0100
0000
1000
0010
0100
0000
0000
0000
0010
0000
1000
0000
,
0002
0010
0203
0010
0301
0100
0010
1000
,
0001
0000
0010
0000
0100
0000
1000
0001
1000
0000
0010
0000
0100
0000
0001
1000
,
0001
0000
0000
0000
0010
0000
0000
0000
0001
0000
1000
0000
0001
0100
0000
0100
,
2000
0000
3002
0000
,
0203
0000
0320
0000
,
2030
0000
0000
3200
,
0320
0000
0000
0000
0000
0000
0032
0203
,
0320
0000
0032
0000
,
0023
0000
2030
0000
,
3020
0000
0230
0000
0302
0000
0000
2003
,
0000
3200
0320
0000
0032
2003
3002
1003
,
2001
0000
0100
0100
3200
0000
0010
0000
,
2300
0010
3002
0100
,
0023
0100
0032
0100
,
2003
0000
0000
0000
0010
0000
0000
0000
3100
0010
0001
1000
0100
0010
0001
0000
,
1001
1000
0010
0010
,
0001
0001
0100
0100
,
1000
0100
0010
0001
1000
0100
0010
0001
,
1000
0100
1000
0100
0010
0001
0010
0001
1000
0100
0010
0001
1000
0000
0000
0000
,
1001
0000
0000
0001
0000
0000
0001
0000
0100
0000
0000
0100
0000
0000
0100
0000
,
0010
0000
0000
0010
0000
0000
0010
0000
1000
0000
0000
1000
0000
0000
1000
0000
,
0100
0000
0000
0100
0000
0000
0100
0000
0010
0000
0000
0010
0000
0000
0010
0000
,
0001
0000
0000
0001
0100
0000
0000
0100
0010
0000
1000
0000
0010
0000
0100
0000
,
0001
0000
0010
0001
0010
0000
0100
1000
0100
0000
1000
0001
0010
0000
0001
0000
,
0100
0000
0010
1000
0010
0000
0100
0001
0100
0000
0001
1000
0010
0000
0100
0000
,
0001
0010
0001
0010
0100
1000
0100
1000
0001
0100
0001
0100
0010
1000
0100
0010
,
0001
0000
0000
0000
1000
0001
0100
0000
0001
0010
0100
1000
0002
0000
0000
0003
,
1001
0000
0001
0010
0000
0001
0100
0000
0010
0000
1000
0001
0000
1000
0100
0000
,
0010
0000
0100
1000
0000
0010
0100
0000
0010
0000
1000
0001
0000
0010
0001
0000
,
0100
0000
0001
0010
0000
0100
1000
0000
0001
0000
0100
0010
0000
1000
0010
0000
,
0100
0000
0001
0010
0100
1000
0000
0010
0200
0000
0001
0000
0320
0000
1000
0000
,
0130
0000
0010
1000
0000
0001
1000
0000
0100
0000
0010
0001
0000
0100
0010
0000
,
0001
0000
0010
0100
0000
0001
1000
0000
0001
0000
0010
0100
0000
1000
0010
0100
,
0001
0000
0000
0000
0101
0000
0000
0000
1100
0000
0000
0011
0000
0000
1010
0000
,
0000
0000
1001
0000
0001
0000
0100
0010
0100
0000
0001
0000
0010
0000
0100
0000
,
1000
0100
1000
0100
0000
0010
0100
0000
1000
0010
1000
0010
0000
0100
0010
0000
,
1000
0001
1000
0001
0000
0010
0100
0000
1000
0001
1000
0001
0000
0100
0010
0000
,
1000
0100
1000
0010
0000
0100
0001
0000
0010
0100
0010
0001
0000
0100
0010
1000
,
0001
0000
0010
0001
1000
0000
0100
1000
0001
0000
0100
0000
0010
0000
1000
0000
,
1100
0000
0000
0000
0101
0000
0000
0000
1100
0000
1000
0000
0001
1000
0200
0000
,
0010
0000
2300
0000
0001
0000
3020
0000
0100
0000
1030
0001
0100
0000
0010
0000
,
1001
0000
1000
0000
0100
0000
0010
0000
0001
0000
0100
0010
0000
1000
0002
0000
,
0000
0000
0103
0001
0010
0001
1000
0010
0100
0001
1000
0100
0020
0000
0000
0030
,
0011
0000
0001
0100
0000
0010
0100
0000
0001
0010
0000
0100
1000
0000
0001
0000
,
1000
0000
0010
0100
0000
0010
1000
0000
0100
1000
0000
0001
0100
0000
0010
0000
,
1000
0000
0010
0100
0000
0010
1000
0000
0100
0010
0000
0001
1000
0000
0001
0010
,
0100
0000
0010
0001
0000
1000
0001
0000
0100
0001
1000
0000
0001
0100
0010
1000
,
0001
0000
0010
0100
0000
1000
0001
0000
0100
0010
0000
1000
0100
0000
1000
0001
,
0010
0000
0100
1000
0000
0010
1000
0000
0100
0010
0000
0001
1000
0000
0001
0100
,
0010
0000
0100
0001
0010
0000
0100
1000
0001
0000
0100
0000
0010
0000
1000
0000
,
1100
0000
0100
0000
0110
0000
0010
0000
0001
0100
0010
0000
1000
0100
0010
0000
,
0001
0000
0100
0010
1000
0010
0100
0010
1000
0010
0100
0001
1000
0000
1001
0000
,
0000
0000
0000
0000
0000
0000
0001
0000
0010
0000
0100
0000
1000
0000
0000
0000
0000
0000
0001
0000
0000
0000
0000
0000
0100
0000
0000
0010
0000
0000
0000
0000
0000
1000
0000
0000
0001
0000
0000
0010
0000
0000
0001
0000
0000
1000
0000
0000
,
0001
0000
0010
0100
0000
1000
0010
0000
0100
0001
0000
1000
0100
0010
0001
1000
,
0010
0000
0100
0001
0000
0010
0001
0000
1000
0001
0010
0001
0100
0010
1000
0010
,
0100
0001
0010
0001
0100
0010
1000
0010
,
0100
0001
1000
0100
0010
1000
0010
0001
,
1000
0100
1000
0001
0100
0001
1000
0010
1000
0001
0010
0100
1000
0010
0100
0001
,
1000
0000
0100
0010
0000
0001
0000
0100
0010
1000
0001
0010
0100
1000
0001
0000
,
1001
0000
0000
0000
;

//--------------- dance-double - Fred-104 ----------------
#NOTEDATA:;
#STEPSTYPE:dance-double;
#DESCRIPTION:Fred-104;
#DIFFICULTY:Easy;
#METER:9;
#CREDIT:Fred-104;
#NOTES:
00000000
00000000
00000000
00000000
,
00000000
00000000
00000000
00000000
,
00000000
00000000
00000000
00000000
,
00000000
00000000
00000000
00000000
,
00000000
00000000
00000000
00000000
,
00000001
00000000
00000100
00000000
,
00000010
00000000
00001000
00000000
,
00000001
00000010
00000100
00010000
,
00011000
00000000
00001000
00000000
,
00101000
00000000
00010000
00000000
,
01000000
00000000
00100000
00000000
10000000
00000000
01000000
01000000
,
01000000
00000000
00100000
00000000
,
00001000
00000000
00010000
00000000
00001000
00001000
00001000
00000000
,
00010000
00000000
00100000
01000000
,
00001000
00000000
00010000
00000000
00001000
00001000
00001000
00000000
,
00010000
00001000
00000010
00000100
,
00001000
00000001
00000100
00000010
,
00002001
00000000
00003002
00000000
,
00002003
00000000
00003020
00000000
,
00000230
00000000
00000000
00000320
,
00002030
00000000
00000000
00003000
,
00000200
00000000
00020300
00000000
,
00032000
00000000
00023000
00000000
,
00230000
00000000
02300000
00000000
03020000
00000000
00000000
10030000
,
00000000
01000000
00100000
00000000
00001000
00000000
00010000
00000000
,
00002000
00000000
00023000
00000000
,
00030020
00000000
00002030
00000000
,
00003020
00000000
00000000
00000230
,
00000302
00000000
00000000
00000000
00001003
00000001
00001000
00000000
,
00001001
00000001
00000100
00000100
,
00000010
00000010
00010000
00010000
,
00001000
00010000
00001000
00100000
,
00020000
00000000
20000000
30030000
,
11000000
00000000
01000000
00000000
,
00010000
00000000
00001000
00000000
,
00010000
00000000
00000100
00000000
,
00000010
00000001
00001000
00000001
,
00000100
00000000
00000010
00000000
00001000
00000000
00000100
00000010
,
00000100
00000000
00010000
00000000
00001000
00000000
00010000
00001000
,
00010000
00000000
01000000
00000000
00100000
01000000
00100000
00000000
,
10010000
00000000
01100000
00000000
,
10000000
00000000
00000000
00100000
00000000
00000000
10000000
00000000
01000000
00000000
00000000
00000000
00100000
00000000
00000000
00000000
,
00010000
00000000
00000000
00100000
00000000
00000000
01000000
00000000
00100000
00000000
00000000
00000000
00001000
00000000
00000000
00000000
,
00010000
00000000
00000000
00000010
00000000
00000000
00001000
00000000
00000100
00000000
00000000
00000000
00010000
00000000
00000000
00000000
,
00000100
00000000
00001000
00000000
00000100
00000010
00000001
00000000
,
00001000
00000000
00000000
00000001
00000000
00000000
00000010
00000000
00000001
00000000
00000000
00000000
00000100
00000000
00000000
00000000
,
00000010
00000000
00000000
00001000
00000000
00000000
00000010
00000000
00000100
00000000
00000000
00000000
00000010
00000000
00000000
00000000
,
00010000
00000000
00000000
00000000
00001000
00000000
00000000
00000000
00010000
00000000
00000000
00000100
00000000
00000000
00001000
00000000
,
00000000
00000010
00010000
00000000
00001000
00001000
00001000
00000000
,
00100000
00000000
00000000
00010000
00000000
00000000
10000000
00000000
01000000
00000000
00000000
00100000
00000000
00000000
01000000
00000000
,
00010000
00000000
00000000
01000000
00000000
00000000
10000000
00000000
00100000
00000000
00000000
00010000
00000000
00000000
00001000
00000000
,
00010000
00000000
00000000
00000100
00000000
00000000
00000010
00000000
00000001
00000000
00000000
00000100
00000000
00000000
00001000
00000000
,
00010000
00000000
00001000
00000000
00000010
00000100
00010000
00000000
,
00001000
00000000
00100000
00000000
01000000
00000000
00010000
00010000
,
00000000
00001000
00000000
00100000
00000000
00001000
00010000
00000000
,
00000010
00000000
00000000
00000000
00010000
00000000
00000000
00000000
00001000
00000000
00000000
00100000
00000000
00000000
00110000
00000000
,
00000000
01000000
00100000
10000000
,
01000000
00000000
00000000
01000000
00000000
00000000
00100000
00000000
00000000
00001000
00000000
00000000
00010000
00000000
00000000
00000000
,
00001000
00000000
00000000
00001000
00000000
00000000
01000000
00000000
00000000
00001000
00000000
00000000
00010000
00000000
00000000
00000000
,
00001000
00000000
00000000
00001000
00000000
00000000
00010000
00000000
00000000
00000100
00000000
00000000
00001000
00000000
00000000
00000000
,
00000010
00000000
00001000
00000000
00000100
00010000
00001000
00000000
,
00010000
00000000
00000000
01000000
00000000
00000000
00100000
00000000
00000000
00010000
00000000
00000000
01000000
00000000
00000000
00000000
,
00001000
00000000
00000000
00010000
00000000
00000000
00001000
00000000
00000000
00100000
00000000
00000000
00001000
00000000
00000000
00000000
,
00010000
00000000
00010000
00000000
00000100
00001000
00000010
00000000
,
00000100
00000001
00000100
00000000
00000001
00001000
00000100
00000000
,
00002002
00000000
00000000
00003003
,
00000000
00000100
00000100
00000000
00000001
00001000
00000001
00000000
,
00000010
00000000
00000000
00000100
00000000
00000000
00010000
00000000
00000000
00001000
00000000
00000000
00010000
00000000
00000000
00000000
,
00100000
00000000
00000000
01000000
00000000
00000000
00010000
00000000
10000000
00000000
01000000
00000000
00100000
00000000
00000000
00000000
,
00010000
00010000
10000000
10000000
,
01000000
00100000
00001000
00000000
00010000
00000100
00010000
00000000
,
00000100
00001000
00000001
00000000
00000100
00000010
00000100
00000000
,
00000110
00000000
00001001
00000000
,
00001100
00000000
00000000
00000000
;

//--------------- dance-double - Fred-104 ----------------
#NOTEDATA:;
#STEPSTYPE:dance-double;
#DESCRIPTION:Fred-104;
#DIFFICULTY:Medium;
#METER:12;
#CREDIT:Fred-104;
#NOTES:
00000000
00000000
00000000
00000000
,
00000000
00000000
00000000
00000000
,
00000000
00000000
00000000
00000000
,
00000000
00000000
00000000
00000000
,
00000000
00000000
00000000
00000000
,
10000000
00010000
01000000
00010000
,
10000000
01000000
00100000
00000000
00001000
00010000
00001000
00000000
,
00020000
00032000
00003200
00000302
,
00001003
00000000
00000100
00000010
00000001
00001000
00000001
00000000
,
00001001
00000000
00000000
00000000
00000000
00000000
00000001
00000100
00000001
00000000
00000000
00000000
00000010
00000000
00000100
00000000
,
00000020
00000000
00002030
00000000
00023000
00000000
00130000
01000000
,
00010000
00000000
00000000
00000000
00000000
00000000
10000000
01000000
10000000
00000000
00000000
00000000
00100000
00000000
01000000
00000000
,
00020000
00000000
20030000
00000000
31000000
00100000
00001000
00010000
,
00011000
00000000
00000000
00000000
00000000
00000000
00000010
00000100
00000010
00000000
00000000
00000000
00001000
00000000
00000100
00000000
,
00000020
00000000
00000032
00000000
00001003
00000001
00000100
00000010
,
00001000
00000000
00000100
00000000
00010000
00000000
00001000
00010000
00001000
00000000
00100000
00000000
00010000
00000000
01000000
00000000
,
00100000
00000000
10000000
00000000
01000000
00010000
00001000
00000010
,
00000200
00000000
00002300
00000000
,
00003002
00000000
00000203
00000000
,
00002300
00000000
00000000
00023000
,
00230000
00000000
00000000
00000000
00000000
00000000
10300000
00010000
,
20000000
00000000
32000000
00000000
,
03200000
00000000
00302000
00000000
,
00023000
00000000
00230000
00000000
20300000
00000000
00000000
32000000
,
00000000
03200000
00302000
00000000
00013000
00001000
00010000
00000000
,
00011000
00000000
00010000
00001000
00000200
00000000
00000310
00000001
,
00002000
00000000
00003001
00001000
00000200
00000000
00001300
00000010
,
00000200
00000000
00000310
00010000
00002000
00000000
00103000
00010000
,
02000000
00000000
03010000
00000000
10000000
01000000
00010000
00001000
,
00011000
00010000
00001000
00001000
,
00000010
00000010
00000001
00000001
,
00001000
00000001
00000100
00000001
00001000
00000010
00010000
00001000
,
00020000
00000000
00002000
00033000
,
00011000
00000000
00000000
00001000
00000000
00000000
00001000
00000000
00010000
00000000
00000000
00010000
00000000
00000000
00010000
00000000
,
01000000
00000000
00000000
01000000
00000000
00000000
01000000
00000000
10000000
00000000
00000000
10000000
00000000
00000000
10000000
00000000
,
00100000
00000000
00000000
00100000
00000000
00000000
00100000
00000000
00010000
00000000
00000000
00010000
00000000
00000000
00010000
00000000
,
00001000
00000000
00000010
00000000
00000100
00001000
00000001
00000100
,
00000001
00000010
00000100
00000000
00000010
00000000
00000001
00001000
,
00000010
00001000
00000100
00000000
00010000
00000000
00000010
00001000
,
00000100
00010000
00001000
01000000
00010000
00100000
00001000
00000000
,
00010000
00000000
00100000
01000000
00010000
10000000
10010000
00000000
,
10000000
00000000
00000000
10000000
00000000
00000000
00100000
00000000
01000000
00000000
00000000
00010000
00000000
00000000
00100000
00000000
,
00001000
00000000
00000000
00010000
00000000
00000000
00001000
00000000
00000010
00000000
00000000
00000001
00000000
00000000
00001000
00000000
,
00000001
00000000
00000000
00000100
00000000
00000000
00000010
00000000
00000100
00000000
00000000
00001000
00000000
00000000
00010000
00000000
,
00100000
01000000
00010000
00100000
01000000
10000000
00010000
00000000
,
01000000
00000000
00000000
00001000
00000000
00000000
00010000
00000000
00001000
00000000
00000000
00100000
00000000
00000000
00010000
00000000
,
01000000
00000000
00000000
00001000
00000000
00000000
00010000
00000000
00000100
00000000
00000000
00001000
00000000
00000000
00000010
00000000
,
00001000
00000000
00000000
00000000
00000100
00000000
00000000
00000000
00000010
00000000
00000000
00000001
00000000
00000000
00000101
00000000
,
00000000
00000001
00000010
00001000
00010000
00100000
10000000
00010000
,
10000000
00000000
00100000
01000000
00000000
00100000
10000000
00000000
01000000
00000000
00000000
00100000
00000000
00000000
00001000
00000000
,
00010000
00000000
00000000
00001000
00000000
00000000
00100000
00000000
00001000
00000000
00000000
00010000
00000000
00000000
00000100
00000000
,
00001000
00000000
00000100
00000010
00000000
00000001
00001000
00000000
00000001
00000000
00000000
00000010
00000000
00000000
00000001
00000000
,
00000100
00000000
00000010
00000100
00000000
00000010
00001000
00000000
00000001
00000000
00000010
00000000
00000100
00000000
00010000
00000000
,
00011000
00000000
00010010
00000000
00011000
00000000
00001000
00100000
,
00000000
00000000
00010000
00000000
01000000
00000000
00100000
00000000
10000000
00000000
01000000
10000000
01000000
00000000
00100000
00000000
,
00010000
00000000
00010000
00000000
01000000
00000000
01000000
00000000
00001000
00000000
00000000
00010000
00000000
00000000
00011000
00000000
,
00000000
00000000
00010000
00000000
00001000
00000000
00010000
00000000
00001000
00010000
00001000
00010000
00001000
00000000
00000000
00000000
,
00010000
00000000
00000000
00001000
00000000
00000000
00000010
00000000
00000000
00000001
00000000
00000000
00001000
00000000
00000100
00000000
,
00000010
00000000
00000000
00000001
00000000
00000000
00000100
00000000
00000000
00001000
00000000
00000000
00010000
00000000
00001000
00000000
,
00000010
00000000
00000000
00001000
00000000
00000000
00010000
00000000
00000000
00001000
00000000
00000000
00100000
00000000
00010000
00000000
,
01000000
00000000
00000000
00010000
00000000
00000000
10000000
00000000
01000000
00000000
00010000
00000000
01000000
00000000
10000000
00000000
,
00010000
00000000
00000000
00100000
00000000
00000000
01000000
00000000
00000000
00100000
00000000
00000000
00001000
00000000
00010000
00000000
,
00000010
00000000
00000000
00001000
00000000
00000000
00000010
00000000
00000000
00010000
00000000
00000000
00001000
00000000
00010000
00000000
,
00100000
01000000
00010000
00000000
00100000
00001000
00010000
00001000
,
00000000
00000000
00000010
00000000
00000100
00000000
00001000
00000000
00000001
00000000
00000100
00000000
00000010
00001000
00000010
00000000
,
00000000
00001000
00000001
00000010
00000100
00001000
00010000
00100000
,
00000000
00000000
01000000
10000000
01000000
00000000
00000000
00000000
10000000
00000000
00010000
00000000
01000000
00000000
00100000
00000000
,
10000000
00000000
00000000
01000000
00000000
00000000
00010000
00000000
00000000
00001000
00000000
00000000
00010000
00000000
00000100
00000000
,
00000010
00000000
00000000
00000001
00000000
00000000
00001000
00000000
00000010
00000000
00000100
00000000
00000010
00000000
00001000
00000000
,
00000001
00000100
00000001
00000010
00000100
00001000
00000100
00000000
,
00010000
00000010
00001000
00000100
00010000
00001000
01000000
00000000
,
00010000
00100000
01000000
10000000
00010000
01000000
10000000
01000000
,
00020000
00000000
20000000
30030000
,
10010000
00000000
00000000
00000000
;

//--------------- dance-double - Fred-104 ----------------
#NOTEDATA:;
#STEPSTYPE:dance-double;
#DESCRIPTION:Fred-104;
#DIFFICULTY:Hard;
#METER:16;
#CREDIT:Fred-104;
#NOTES:
00000000
00000000
00000000
00000000
,
00000000
00000000
00000000
00000000
,
00000000
00000000
00000000
00000000
,
00000000
00000000
00000000
00000000
,
00000000
00000000
00000000
00000000
,
00010000
00001000
00000010
00000100
,
00010000
00001000
00000010
00000100
00010000
00001000
00000100
00000001
,
00001000
00000100
00001000
00000100
00000010
00000001
00000010
00000001
00001000
00000010
00000100
00000010
00001000
00000100
00010000
00001000
,
00010000
00000000
00000000
00000000
00001000
00100000
00001000
00000000
01000000
00100000
01000000
00100000
01000000
00000000
00000000
00000000
,
10010000
00000000
00000000
00000000
10000000
00000000
00010000
01000000
00010000
00000000
00000000
00000000
00100000
00000000
01000000
00000000
,
11000000
00000000
01010000
00000000
10000000
01000000
00010000
00001000
,
00011000
00000000
00000000
00000000
00010000
00000000
00000100
00000010
00000001
00000000
00000000
00000000
00001000
00000000
00000010
00000000
,
00000110
00000000
00000101
00000000
00000001
00000010
00001000
00010000
,
00011000
00000000
00000000
00000000
00001000
00000000
01000000
00100000
10000000
00000000
00000000
00000000
01000000
00000000
00100000
00000000
,
00020000
01000000
00230000
00001000
00310000
01000000
00001000
00010000
,
00001000
00000000
00000010
00000000
00000100
00000000
00001000
00000001
00000100
00000000
00000010
00000000
00001000
00000000
00000100
00000010
,
00000001
00000000
00000000
00000000
00000100
00000000
00000000
00000000
00001000
00000000
00010000
00000000
00100000
01000000
00000000
00010000
,
20000000
00000000
32000000
00000000
,
03020000
00000000
00032000
00000000
,
00003020
00000000
00000000
00000032
,
00002003
00000000
00000000
00000000
00000000
00000000
00003002
00000203
,
00002300
00000000
00023000
00000000
,
00230000
00000000
20300000
00000000
,
32000000
00000000
03020000
00000000
00032000
00000000
00000000
00003020
,
00000000
00000032
00002003
00000000
00003002
00000203
00000320
00001030
,
00002001
00000010
00003200
00001000
,
00020300
00001000
00030020
00001000
,
00020030
00001000
02030000
10000000
,
03200000
00000000
00000000
00000000
01000000
00000000
00000000
00000000
00310000
01000000
00100000
10000000
00010000
00100000
00010000
00000000
,
10010000
10000000
00010000
00010000
,
00001000
00001000
00000001
00000001
,
00000100
00000010
00000100
00000010
00001000
00000001
00001000
00000001
,
00000010
00000001
00000010
00000001
00001000
00000100
00001000
00000100
00010000
00001000
00010000
00001000
00010000
00000000
00000000
00000000
,
00011000
00000000
00000000
00001000
00000000
00000000
00000010
00000000
00000001
00000000
00000000
00000100
00000000
00000000
00001000
00000000
,
00010000
00000000
00000000
00001000
00000000
00000000
00100000
00000000
01000000
00000000
00000000
10000000
00000000
00000000
00010000
00000000
,
10000000
00000000
00000000
00100000
00000000
00000000
00010000
00000000
00001000
00000000
00000000
00000100
00000000
00000000
00000010
00000000
,
00001000
00000000
00000000
00000001
00000010
00000000
00000000
00000100
00001000
00000000
00000001
00000000
00000100
00000000
00000010
00000000
,
00001000
00000000
00000001
00000100
00000001
00000000
00000010
00000100
00000010
00000000
00000001
00000010
00000100
00000000
00010000
00000000
,
00001000
00000000
00010000
00000010
00010000
00000000
00001000
00010000
00001000
00000000
00100000
00010000
01000000
00000000
00100000
00000000
,
10000000
00100000
10000000
00100000
01000000
00010000
01000000
00010000
00100000
00001000
00100000
00001000
00010000
00001000
00010000
00001000
,
00010000
00000000
00000000
00000000
00000100
00001000
00000001
00000000
00000100
00000010
00000100
00000010
00000200
00000000
00000000
00000300
,
00000110
00000000
00000010
00001000
00000000
00000001
00001000
00000000
00000100
00000000
00000010
00000001
00000000
00001000
00000010
00000000
,
00010000
00000000
00000100
00001000
00000000
00000010
00001000
00000000
00000100
00000000
00010000
00001000
00000000
00100000
00001000
00000000
,
00010000
00000000
00001000
00100000
00000000
00010000
01000000
00000000
00001000
00000000
00010000
00000010
00000000
00001000
00000100
00000000
,
00010000
00000000
00001000
00100000
00010000
01000000
00000000
00010000
00200000
00000000
00001000
00000000
00320000
00000000
01000000
00000000
,
00130000
00000000
00010000
00100000
00000000
01000000
10000000
00000000
00010000
00000000
01000000
00100000
00000000
10000000
00100000
00000000
,
10000000
00000000
01000000
00100000
00000000
00001000
00010000
00000000
00001000
00000000
00000010
00000100
00000000
00001000
00000001
00000100
,
00000001
00000000
00000000
00000000
00001001
00000000
00000000
00000000
00000011
00000000
00000000
00001010
00000000
00000000
00011000
00000000
,
00000000
00000000
00010000
00000000
01000000
00000000
10000000
00010000
10000000
00000000
00010000
00000000
10000000
00000000
00100000
00000000
,
01000000
00010000
01000000
00010000
00000000
00100000
00001000
00000000
00010000
00000010
00010000
00000010
00000000
00001000
00000010
00000000
,
00001000
00000100
00001000
00000100
00000000
00000010
00000100
00000000
00001000
00000001
00001000
00000001
00000000
00000010
00000100
00000000
,
00010000
00001000
00010000
00001000
00000000
00100000
00010000
00000000
01000000
00010000
01000000
00010000
00000000
00100000
01000000
00100000
,
01000000
00000000
10000000
00100000
01000000
00000000
00100000
10000000
01000000
00000000
00100000
00000000
00001000
00000000
00010000
00000000
,
00011000
00000000
00000000
00000000
00010010
00000000
00000000
00000000
00010000
00000000
00001000
00000000
00000100
00000001
00001000
00000000
,
00000001
00001000
00000200
00000000
00010000
00000000
00002300
00000000
00000010
00000000
00003100
00010000
00001000
00000000
00010000
00000000
,
00011000
00000000
00001000
00000000
00100000
00000000
00010000
00000000
10000000
00000000
00100000
01000000
00000000
00100000
20000000
00000000
,
00000000
00000000
31000000
00100000
00010000
00100000
00001000
00010000
00000100
00001000
00000100
00000010
00000001
00000000
00000000
00000000
,
00001001
00000000
00000001
00000010
00000000
00000001
00001000
00000000
00000010
00000100
00000000
00000010
00001000
00000000
00000100
00000000
,
00010000
00000000
00000010
00001000
00000000
00000100
00001000
00000000
00000010
00010000
00000000
00001000
00100000
00000000
00010000
00000000
,
01000000
00000000
00001000
00010000
00000000
00001000
01000000
00000000
00010000
00100000
00000000
00001000
00100000
00000000
00010000
10000000
,
00100000
00000000
10000000
01000000
00000000
00100000
00001000
00000000
00010000
00000100
00001000
00000000
00000100
00000010
00000001
00001000
,
00000010
00000000
00001000
00000001
00000000
00000010
00000001
00000000
00000100
00000001
00000000
00000010
00000100
00000000
00001000
00000100
,
00001000
00000000
00000010
00010000
00000000
00001000
00100000
00000000
00001000
00010000
00000000
00000100
00010000
00000000
00001000
00100000
,
00001000
00000000
00010000
00001000
00100000
00000000
00010000
10000000
00100000
00000000
01000000
00000000
00010000
00000000
10000000
00000000
,
11000000
00000000
01000000
00000000
01100000
00000000
00100000
00000000
00001000
00000000
00010000
00000000
00001000
00000010
00000100
00000000
,
00001000
00000000
00000010
00000100
00000010
00000100
00000001
00000100
00000001
00000010
00000100
00001000
00000100
00000000
00001001
00000000
,
00000000
00000000
00000000
00000000
00000000
00000000
00000001
00000000
00001000
00000000
00000001
00000000
00001000
00000000
00000000
00000000
00000000
00000000
00000001
00000000
00000000
00000000
00000000
00000000
00000010
00000000
00000000
00000100
00000000
00000000
00000000
00000000
00000000
00000010
00000000
00000000
00000001
00000000
00000000
00000000
00000000
00000000
00001000
00000000
00000000
00000001
00000000
00000000
,
00000010
00000000
00000100
00001000
00000000
00000010
00001000
00000000
00000100
00010000
00000000
00001000
01000000
00010000
00100000
00010000
,
01000000
00000000
00010000
00100000
00000000
01000000
10000000
00000000
00010000
00100000
01000000
10000000
00010000
01000000
00100000
00000000
,
10000000
01000000
00100000
01000000
00010000
00001000
00000010
00000100
,
00001000
00000001
00000100
00001000
00010000
00100000
01000000
00010000
,
10000000
01000000
10000000
01000000
00100000
00010000
00100000
00010000
00100000
00001000
00010000
00000100
00001000
00000001
00001000
00000100
,
00000010
00000000
00000001
00000100
00000000
00000010
00000000
00001000
00000001
00000010
00000100
00010000
00001000
00010000
00001000
00000000
,
00011000
00000000
00000000
00000000
;
