#VERSION:0.83;
#TITLE:Onion Ninja;
#ARTIST:BEMANI Sound Team "Coyaan";
#ARTISTTRANSLIT:Coyaan;
#BANNER:Onion Ninja.png;
#BACKGROUND:Onion Ninja-bg.png;
#CDTITLE:./CDTitles/GITADORA FUZZ-UP.png;
#MUSIC:Onion Ninja.ogg;
#SAMPLESTART:73.125;
#SAMPLELENGTH:15;
#BPMS:0=128,228.5=121,229.25=112,230=104,230.75=96,231.5=88,233=80;
#BGSTAGE:30;

//--------------- dance-single - Fred-104 ----------------
#NOTEDATA:;
#STEPSTYPE:dance-single;
#DESCRIPTION:Fred-104;
#DIFFICULTY:Beginner;
#METER:3;
#CREDIT:Fred-104;
#NOTES:
0000
0000
0000
0000
,
0000
0000
0000
0000
,
0000
0000
0000
0000
,
0000
0000
0000
0000
,
0000
0000
0000
0000
,
1000
0000
0000
0000
,
0001
0000
0000
0000
,
1000
0000
0000
0000
,
0001
0000
0000
0000
,
1000
0000
1000
0000
,
0001
0000
0100
0000
,
1000
0000
0100
0000
,
0002
0000
0000
0003
,
1000
0000
0000
1000
,
1000
0000
0001
0000
,
0100
0000
1000
0000
,
0010
0000
0001
0000
,
0001
0000
0000
0001
,
0001
0000
1000
0000
,
0100
0000
0001
0000
,
0010
0000
1000
0000
,
1001
0000
0000
1001
,
0000
0000
0001
0001
,
0001
0000
1000
0000
,
0001
0000
1000
0000
,
1001
0000
0000
1001
,
0000
0000
1000
1000
,
1000
0000
0001
0000
,
0100
0000
0010
0010
,
0010
0000
0010
0000
,
0100
0000
0001
0000
,
1001
0000
0000
0000
,
1001
0000
0000
0000
,
1000
0000
0001
0000
,
1000
0000
0001
0000
,
1001
0000
0000
0000
,
1001
0000
0000
0000
,
1000
0000
0001
0000
,
1000
0000
0001
0001
,
0001
0000
0010
0000
,
0010
0000
1000
0000
,
1000
0000
0100
0000
,
0010
0000
0100
0000
,
0001
0000
0000
1000
,
0000
0000
0001
0000
,
1000
0000
0000
0001
,
0000
0000
1000
0000
,
1001
0000
0000
0000
,
1001
0000
0000
0000
,
0001
0000
0000
0000
,
1000
0000
0000
0000
,
0001
0000
0000
0000
,
1000
0000
0000
0000
,
0001
0000
0001
0000
,
1000
0000
0100
0000
,
0001
0000
0100
0000
,
2000
0000
0000
3000
,
0000
2002
0000
0000
0000
0000
0000
0000
,
0000
3003
0000
0000
;

//--------------- dance-single - Fred-104 ----------------
#NOTEDATA:;
#STEPSTYPE:dance-single;
#DESCRIPTION:Fred-104;
#DIFFICULTY:Easy;
#METER:7;
#CREDIT:Fred-104;
#NOTES:
0000
0000
0000
0000
,
0000
0000
0000
0000
,
0000
0000
0000
0000
,
0000
0000
0000
0000
,
0000
0000
0000
0000
,
1001
0000
0000
0000
1000
0000
0000
0000
1000
0000
0010
0000
0000
0010
0000
0000
,
0110
0000
0000
0000
0100
0000
0000
0000
0100
0000
0001
0000
0000
0001
0000
0000
,
1001
0000
0000
0000
1000
0000
0000
0000
1000
0000
0100
0000
0000
0100
0000
0000
,
0110
0000
0000
0000
0010
0000
0000
0000
0010
0000
0000
0001
0000
0000
0001
0000
,
1001
1000
0010
0001
,
0010
1000
0010
0100
,
0001
0000
1000
0000
0100
0010
0100
0000
,
2002
0000
0000
3003
,
1100
0000
0000
1100
0000
0000
0100
0000
,
0010
0001
1000
1000
,
0001
0010
1000
0010
,
0001
0100
1000
0100
,
0101
0000
0000
0101
0000
0000
0100
0000
,
0010
1000
0001
0001
,
1000
0010
0001
0010
,
1000
0100
0001
0100
,
1000
0000
0000
0110
0000
0000
0001
0001
,
0000
0100
0010
0100
,
0001
0000
0000
0001
0000
0000
0001
0000
,
1000
0100
0020
0030
,
0001
0000
0000
0110
0000
0000
1000
1000
,
0000
0001
1000
0010
,
0100
0100
0001
0001
,
1000
0100
0110
0000
,
0001
0010
0001
0010
,
1000
0000
0000
0100
0000
0000
0001
0000
0001
0000
0001
0000
,
1001
0000
0001
0100
,
1001
0000
1000
0100
,
0010
0010
0001
0100
,
0100
0000
0010
0000
0100
0010
0100
0000
,
1001
0000
1000
0100
,
1001
0000
0001
0100
,
0010
0010
0100
0100
,
0001
0000
1000
0000
0100
0010
0100
0000
,
1000
1000
0001
0100
,
1000
0100
0001
0001
,
1000
0100
0100
0010
,
0001
1000
1001
0000
,
1100
0000
0000
1001
0000
0000
0101
0000
,
0000
1001
0000
0000
0110
0000
1001
0000
,
0011
0000
0000
1001
0000
0000
1010
0000
,
0000
1001
0000
0000
0110
0000
0110
0000
,
1001
0000
1000
0100
,
2000
3020
0230
0301
,
1001
0000
0000
0000
0001
0000
0000
0000
0001
0000
0010
0000
0000
0010
0000
0000
,
0110
0000
0000
0000
0100
0000
0000
0000
0100
0000
1000
0000
0000
1000
0000
0000
,
1001
0000
0000
0000
0001
0000
0000
0000
0001
0000
0100
0000
0000
0100
0000
0000
,
0110
0000
0000
0000
0010
0000
0000
0000
0010
0000
0000
1000
0000
0000
1000
0000
,
1001
0001
0010
1000
,
0010
0001
0010
0100
,
1000
0000
0001
0000
0100
0010
0100
0000
,
2002
0000
0000
3003
,
0000
1001
0000
0000
0110
0000
0000
2002
,
0000
3003
0000
0000
;

//--------------- dance-single - Fred-104 ----------------
#NOTEDATA:;
#STEPSTYPE:dance-single;
#DESCRIPTION:Fred-104;
#DIFFICULTY:Medium;
#METER:11;
#CREDIT:Fred-104;
#NOTES:
0000
0000
0000
0000
,
0000
0000
0000
0000
,
0000
0000
0000
0000
,
0000
0000
0000
0000
,
0000
0000
0000
0000
,
1001
0000
0000
0000
0001
0000
0100
0000
0010
0000
0110
0000
0000
0011
0000
0000
,
1010
0000
0000
0000
1000
0000
0100
0000
0010
0000
0100
0010
0000
0010
0100
0000
,
1100
0000
0000
0000
1000
0000
0001
0000
1000
0000
1010
0000
0000
0110
0000
0000
,
0101
0000
0000
0000
1000
0000
0100
0000
0010
0000
0100
0010
0000
0000
0110
0000
,
0010
0001
0100
0010
1000
0100
0010
0001
,
1000
0010
0001
0010
0100
1000
0100
0001
,
1000
0100
0010
1000
0001
0100
0010
0001
,
2002
0000
0000
3003
,
1001
0000
0000
1000
0100
0000
0100
0000
0000
0000
0010
0000
0001
0000
1000
0000
,
0001
0100
1000
0001
0010
0000
1010
0000
,
1000
0100
0001
0100
1000
0010
0001
0010
,
1000
0100
0010
0001
1000
0000
1001
0000
,
0001
0000
0000
0001
0100
0000
0100
0000
0000
0000
0010
0000
1000
0000
0001
0000
,
1000
0100
0001
1000
0010
0000
0011
0000
,
0001
0100
1000
0100
0001
0010
1000
0010
,
0001
0100
0010
1000
0100
0010
0011
0000
,
1000
0100
0100
0010
0100
0100
1000
1001
,
0000
0001
0100
0010
1000
0100
0010
0000
,
0001
1000
0000
0001
1000
0000
0010
1000
0000
0000
0001
0000
1000
0000
0100
0000
,
0010
0010
0001
0010
0010
0100
1000
0000
,
0001
0100
0100
0010
0100
0100
0001
1001
,
0000
1000
0100
0010
0001
0100
0010
0000
,
1000
0000
0100
0000
0010
0000
0001
0010
0000
0001
0010
0000
0001
0000
0100
0000
,
0110
0000
0010
1000
0100
1000
1001
0000
,
0002
0023
2030
3020
,
0130
0000
0000
1000
0000
0000
0001
0000
1000
0000
0001
0000
,
2002
0000
0000
0000
3003
0000
1000
0001
1000
0000
0001
0000
0000
0010
0000
0000
,
0220
0000
0000
0000
0330
0000
0010
0100
0010
0000
0001
1000
0001
0000
0000
0000
,
0100
0000
0000
0100
0010
0000
0100
0000
0001
0000
1000
0000
0100
0000
0000
0000
,
0010
0100
0001
0100
1000
0001
1000
0000
,
2002
0000
0000
0000
3003
0000
0001
1000
0001
0000
0100
0000
0000
0100
0000
0000
,
0220
0000
0000
0000
0330
0000
0010
1000
0010
0000
1000
0001
1000
0000
0000
0000
,
1001
0000
0001
0100
0001
1000
0001
0010
,
0110
0000
0100
0100
0100
1000
1000
0000
,
0001
0100
0001
0100
0010
1000
0001
1000
,
0100
0010
0001
1000
0010
0100
0001
0000
,
1001
0000
0000
1000
0001
0000
0100
0000
1000
0000
0100
0000
0010
0000
0100
0000
,
0001
1000
0100
0010
0001
1000
0001
0000
,
1000
0100
0100
0010
0001
0001
0100
0010
,
0010
1000
0001
0001
1001
0000
1001
0000
,
0001
0100
0100
0010
1000
1000
0100
0010
,
0010
0001
1000
1000
1001
0000
1001
0000
,
0220
0000
0000
0000
0330
0000
1000
0001
1000
0000
0001
0000
0100
0000
0010
0000
,
1000
0001
1000
0001
1000
0001
1000
0100
0010
0001
0000
0000
,
1001
0000
0000
0000
1000
0000
0100
0000
0010
0000
0110
0000
0000
1010
0000
0000
,
0011
0000
0000
0000
0001
0000
0100
0000
0010
0000
0100
0010
0000
0010
0100
0000
,
0101
0000
0000
0000
0001
0000
1000
0000
0001
0000
0011
0000
0000
0110
0000
0000
,
1100
0000
0000
0000
0001
0000
0100
0000
0010
0000
0100
0010
0000
0000
0110
0000
,
0010
1000
0100
0010
0001
0100
0010
1000
,
0001
0010
1000
0010
0100
0001
0100
1000
,
0001
0100
0010
0001
1000
0100
0010
1000
,
2002
0000
0000
3003
,
1000
0000
1100
0000
0000
0101
0000
0000
1010
0000
0000
0011
0000
0000
1001
0000
,
0000
2002
0000
0000
,
3003
0000
0000
0000
;

//--------------- dance-single - Fred-104 ----------------
#NOTEDATA:;
#STEPSTYPE:dance-single;
#DESCRIPTION:Fred-104;
#DIFFICULTY:Hard;
#METER:15;
#CREDIT:Fred-104;
#NOTES:
0000
0000
0000
0000
,
0000
0000
0000
0000
,
0000
0000
0000
0000
,
0000
0000
0000
0000
,
0000
0000
0000
0000
,
1001
0000
0000
1000
0100
0010
0001
1000
0010
0000
0011
0000
0000
0110
0000
0000
,
0101
0000
0000
0001
1000
0001
0100
0010
1000
0000
0001
0010
0000
0010
0001
0000
,
1001
0000
0000
1000
0001
0100
0010
1000
0100
0000
0110
0000
0000
0101
0000
0000
,
1100
0000
0000
0001
1000
0100
0010
0001
0100
0000
0010
0100
0000
0000
0110
0000
,
1001
0000
0001
0000
1000
0000
0001
0100
0020
0000
1000
0130
0020
0000
0001
0130
,
0020
0000
1000
0130
0010
0001
1000
0001
0100
0000
0010
1000
0010
1000
0000
1000
,
0001
0010
0100
0010
0100
1000
0001
0000
0100
0010
1000
0100
0010
0001
1000
0000
,
2002
0000
0000
3003
,
0110
0000
0000
1000
0100
0000
0110
0000
0010
0000
0001
0000
0100
0010
0100
0010
,
1000
0100
0010
0100
0010
0000
0001
0100
0010
0000
0000
0000
1001
0000
0000
0000
,
1000
0010
0100
1000
0100
0000
0001
0000
1000
0100
0010
1000
0010
0000
0001
0000
,
1000
0001
0100
1000
0100
0000
0010
0000
0110
0000
0000
0000
1001
0000
0000
0000
,
0110
0000
0000
0001
0100
0000
0110
0000
0010
0000
1000
0000
0100
0010
0100
0010
,
0001
0100
0010
0100
0010
0000
1000
0100
0010
0000
0000
0000
1001
0000
0000
0000
,
0001
0010
0100
0001
0100
0000
1000
0000
0001
0100
0010
0001
0010
0000
1000
0000
,
0001
0010
0001
0010
0100
0010
0100
0020
0000
0000
0031
1000
0010
0000
1000
0000
,
1001
0000
0000
0000
0000
0000
0001
0000
0000
0100
0000
0000
0010
0000
0000
0000
0000
0000
0110
0000
0000
0000
0000
0000
1000
0000
0100
0000
1000
0000
0100
0000
0000
0000
0000
0000
0110
0000
0000
0000
0000
0000
0021
0000
0000
0000
0000
0000
,
0000
0000
0031
1000
0010
0000
0100
0000
1000
0000
0100
0000
0010
1000
0001
0000
,
0010
0100
0000
1000
0001
0000
0100
0020
0000
0000
1030
0100
0010
0001
1000
0000
,
0001
0100
0001
0100
0010
1000
0001
0000
1000
0100
1000
0100
0010
0001
1000
0000
,
1001
0000
0000
0000
0000
0000
1000
0000
0000
0100
0000
0000
0010
0000
0000
0000
0000
0000
0110
0000
0000
0000
0000
0000
0001
0000
0100
0000
0001
0000
0100
0000
0000
0000
0000
0000
0110
0000
0000
0000
0000
0000
1020
0000
0000
0000
0000
0000
,
0000
0000
1030
0001
0010
0000
0100
0000
0001
0000
0100
0000
0010
0001
1000
0000
,
0001
0010
0100
1000
0001
0000
0100
0010
1000
0001
0010
0000
0100
1000
0100
1000
,
0100
0000
0000
1000
0001
0100
0001
1000
0100
0010
0100
0010
0100
0000
0100
0000
,
1001
0000
0000
0000
0000
0000
0001
0000
0000
1000
0000
0000
0001
0000
0000
0000
0000
0000
0010
0000
0000
0001
0000
0000
0100
0000
0000
0000
0000
0000
0010
0000
0000
1000
0000
0000
0001
0000
0000
0000
0010
0000
0000
0000
0100
0000
0000
0000
,
1100
0000
0000
0000
0000
0000
0001
0000
0000
0010
0000
0000
1010
0000
0000
0000
0110
0000
0000
0000
0011
0000
0000
0000
,
2001
0000
0000
0000
0000
0000
3001
1000
0010
0000
0110
0000
0000
0101
0000
0000
,
1002
0000
0000
0000
0000
0000
1003
0001
0010
0000
1000
0010
0001
0000
0000
0000
,
0110
0000
0000
1000
0001
0000
0100
0001
1000
0001
0010
0000
0100
0010
0001
0000
,
1000
0000
0000
0000
0000
0000
1000
0000
0000
0000
0000
0000
1001
0000
0000
0000
0000
0000
0001
0000
0000
1000
0000
0000
0100
0000
0000
0000
0000
0000
0001
0000
0000
0100
0000
0000
1000
0000
0000
0000
0001
0000
0000
0000
0100
0000
0000
0000
,
0120
0000
0000
0000
0000
0000
1030
0001
0010
0000
0110
0000
0000
0101
0000
0000
,
2100
0000
0000
0000
0000
0000
3001
1000
0100
0000
0001
0100
1000
0000
0000
0000
,
1001
0000
0000
0001
0100
0010
0100
0010
0100
0000
0001
1000
0100
0010
0001
0000
,
1001
0000
0000
0000
0100
0010
1000
0001
0010
0000
0100
0010
0001
0000
0000
0000
,
1000
0000
0010
0000
0001
0000
0010
0100
0010
0000
1000
0001
0010
0100
1000
0000
,
0001
0000
0100
0000
0010
0000
0001
0010
1000
0000
0100
0010
0001
0000
0000
0000
,
1001
0000
0000
1000
0100
0000
0010
0001
0010
0001
1000
0000
0010
0100
0001
0100
,
0001
0000
0000
0000
0110
0000
1000
0001
0010
0000
0100
1000
0100
1000
0001
0000
,
1000
0010
1000
0010
0100
0000
0001
0010
0001
0010
0100
0000
1000
0100
1000
0100
,
0010
0000
0001
0100
0001
0100
0010
0000
1010
0000
0110
0000
1001
0000
0000
0000
,
0001
0010
0001
0010
0100
0000
1000
0010
1000
0010
0100
0000
0001
0100
0001
0100
,
0010
0000
1000
0100
1000
0100
0010
0000
0011
0000
0110
0000
1001
0000
0000
0000
,
0220
0000
0000
0000
0330
0000
1000
0001
0010
0000
0000
0100
0010
0001
0100
0010
,
1000
0100
0001
0100
1000
0001
0100
1000
0100
0001
0000
0000
,
1001
0000
0000
0001
0100
0010
1000
0001
0010
0000
1010
0000
0000
0110
0000
0000
,
1100
0000
0000
1000
0001
1000
0100
0010
0001
0000
1000
0010
0000
0010
1000
0000
,
1001
0000
0000
0001
1000
0100
0010
0001
0100
0000
0110
0000
0000
1100
0000
0000
,
0101
0000
0000
1000
0001
0100
0010
1000
0100
0000
0010
0100
0000
0000
0110
0000
,
1001
0000
1000
0000
0001
0000
1000
0100
0020
0000
0001
0130
0020
0000
1000
0130
,
0020
0000
0001
0130
0010
1000
0001
1000
0100
0000
0010
0100
0010
0001
0000
0001
,
1000
0010
0100
0010
0100
0001
1000
0100
0010
1000
0010
0100
1000
0001
0100
0000
,
2002
0000
0000
0000
0000
0000
0000
0000
0000
0000
0000
0000
3003
0000
1000
0001
,
1000
0000
0000
0000
0000
0000
0000
0000
0002
0003
0000
0000
0010
0000
0000
0000
0100
0000
0000
0000
2000
3000
0000
0000
0010
0000
0000
0000
0100
0000
0000
0000
0002
0003
0000
0000
0100
0000
0000
0000
0010
0000
0000
0000
2000
3000
0000
0000
0100
0000
0000
0000
0010
0000
0000
0000
0002
0000
0000
0000
0000
0000
0000
0000
,
0000
1003
0000
2002
0000
0000
0000
0000
0000
0000
0000
0000
,
3003
0000
0000
0000
;

//--------------- dance-single - Fred-104 ----------------
#NOTEDATA:;
#STEPSTYPE:dance-single;
#DESCRIPTION:Fred-104;
#DIFFICULTY:Challenge;
#METER:17;
#CREDIT:Fred-104;
#NOTES:
0000
0000
0000
0000
,
0000
0000
0000
0000
,
0000
0000
0000
0000
,
0000
0000
0000
0000
,
0000
0000
0000
0000
,
1001
0000
0001
0010
0001
1000
0010
0100
0101
0000
1100
0000
0000
0110
0000
0000
,
1001
0000
0000
1000
0100
0010
0001
1000
1001
0000
0001
0010
0000
1000
0010
0000
,
0011
0000
0000
0001
1000
0010
0100
0001
1001
0000
1100
0000
0000
0011
0000
0000
,
1001
0000
0000
1000
0010
1000
0001
0010
0110
0000
1000
1000
0000
0000
1001
0000
,
0110
0000
0000
0000
0000
0000
0000
0000
0000
0000
0000
0000
0000
0000
0000
0000
0000
0000
0000
0000
0000
0000
0000
0000
1000
0000
0000
0000
0000
0000
0000
0000
0000
0000
0000
0000
0000
0000
0000
0000
0000
0000
0000
0000
0000
0000
0000
0000
0001
0000
0000
0000
0000
0000
0000
0000
0000
0000
0000
0000
0000
0000
0000
0000
0000
0000
0000
0000
0000
0000
0000
0000
0010
0000
0000
0000
0000
0000
0000
0000
0100
0000
0000
0000
0000
0000
0000
0000
0010
0000
0000
0000
0000
0000
0000
0000
0200
0000
0000
0000
0000
0000
0000
0000
0000
0000
0000
0000
0000
0000
0000
0000
0000
0000
0000
0000
0000
0000
0000
0000
1000
0000
0000
0000
0000
0000
0000
0000
0000
0000
0000
0000
0010
0000
0000
0000
0000
0000
0000
0000
0000
0300
0000
0000
0200
0000
0000
0000
0000
0000
0000
0000
0000
0000
0000
0000
0000
0000
0000
0000
0000
0000
0000
0000
0000
0000
0000
0000
0001
0000
0000
0000
0000
0000
0000
0000
0000
0000
0000
0000
0010
0000
0000
0000
0000
0000
0000
0000
0000
0300
0000
0000
,
0200
0000
0000
0000
0000
0000
0000
0000
0000
0000
0000
0000
0000
0000
0000
0000
0000
0000
0000
0000
0000
0000
0000
0000
1000
0000
0000
0000
0000
0000
0000
0000
0000
0000
0000
0000
0010
0000
0000
0000
0000
0000
0000
0000
0000
0300
0000
0000
0200
0000
0000
0000
0000
0000
0000
0000
0000
0000
0000
0000
0001
0000
0000
0000
0000
0000
0000
0000
0000
0000
0000
0000
0010
0000
0000
0000
0000
0000
0000
0000
0000
0300
0000
0000
0100
0000
0000
0000
0000
0000
0000
0000
0000
0000
0000
0000
1000
0000
0000
0000
0000
0000
0000
0000
0000
0000
0000
0000
0000
0000
0000
0000
0000
0000
0000
0000
0000
0000
0000
0000
0001
0000
0000
0000
0000
0000
0000
0000
1000
0000
0000
0000
0000
0000
0000
0000
0001
0000
0000
0000
0000
0000
0000
0000
0100
0000
0000
0000
0000
0000
0000
0000
0000
0000
0000
0000
0010
0000
0000
0000
0000
0000
0000
0000
0000
0000
0000
0000
0000
0000
0000
0000
0000
0000
0000
0000
0000
0000
0000
0000
0010
0000
0000
0000
0000
0000
0000
0000
0000
0000
0000
0000
,
1000
0100
0010
0001
1000
0010
0100
1000
0100
0010
1000
1000
0100
0010
0001
1000
,
2002
0000
0000
3003
,
1100
0000
0000
0000
0000
0000
1000
0000
0000
0100
0000
0000
0010
0000
0000
0000
0000
0000
1010
0000
0000
0000
0000
0000
1000
0000
0000
0000
0000
0000
0010
0000
0000
0000
0000
0000
0001
0000
1000
0000
0001
0000
1000
0000
0010
0000
0100
0000
,
0001
1000
0100
0010
1000
0000
0010
0001
0011
0000
0000
0000
1001
0000
0000
0000
,
0001
0100
0010
0100
1000
0000
1001
0000
1000
0100
0010
0100
0001
0000
1001
0000
,
0001
0100
0010
0001
0010
0000
0110
0000
1010
0000
0000
0000
1001
0000
0000
0000
,
0110
0000
0000
0000
0000
0000
1000
0000
0000
0010
0000
0000
0100
0000
0000
0000
0000
0000
1100
0000
0000
0000
0000
0000
1000
0000
0000
0000
0000
0000
0100
0000
0000
0000
0000
0000
0001
0000
1000
0000
0001
0000
1000
0000
0100
0000
0010
0000
,
0001
1000
0010
0001
0010
0000
0100
0010
1010
0000
0000
0000
1001
0000
0000
0000
,
1000
0100
0010
0100
0001
0000
1001
0000
0001
0100
0010
0100
1000
0000
1001
0000
,
0001
0100
0010
0100
1000
0100
0010
0200
0000
0000
0301
1000
0100
0000
0010
0001
,
1001
0000
0000
0000
0000
0000
1000
0000
0000
0001
0000
0000
0100
0000
0000
0000
0000
0000
1100
0000
0000
0000
0000
0000
0100
0000
0010
0000
0100
0000
0010
0000
0000
0000
0000
0000
1001
0000
0000
0000
0000
0000
0220
0000
0000
0000
0000
0000
,
0330
0000
0000
0000
1000
0000
0100
0000
0010
0000
0000
0000
0001
0000
0000
0000
0200
0000
0000
0000
0320
0000
0000
0000
1030
0001
1000
0001
2000
0000
0000
0000
,
3001
0000
0010
0000
0000
0000
1000
0000
0001
0000
0000
0000
0100
0000
2000
0000
0000
0000
0000
0000
3001
0010
0001
0010
0001
0000
1000
0000
0010
0000
0100
0000
,
0001
1000
0100
0010
1000
0001
0100
0010
0001
0100
0010
1000
0001
0000
0100
0001
,
1001
0000
0000
0000
0000
0000
0001
0000
0000
0010
0000
0000
0100
0000
0000
0000
0000
0000
0101
0000
0000
0000
0000
0000
0100
0000
1000
0000
0100
0000
1000
0000
0000
0000
0000
0000
1001
0000
0000
0000
0000
0000
0220
0000
0000
0000
0000
0000
,
0330
0000
0000
0000
1000
0000
0010
0000
0100
0000
0000
0000
0001
0000
0000
0000
0020
0000
0000
0000
0230
0000
0000
0000
1300
0001
1000
0001
2000
0000
0000
0000
,
3001
0010
0100
0010
1000
0010
0001
1000
0001
0000
0100
0000
0010
1000
0010
0100
,
0101
0000
0000
1000
0100
0010
0001
0100
0010
0100
0010
0100
0110
0000
1001
0000
,
0001
0000
0000
0010
0000
0000
0100
0000
0000
1000
0000
0000
0001
0000
0000
1000
0000
0000
0010
0000
0000
0100
0000
0000
0001
0000
0000
1000
0000
0000
0100
0000
0000
0010
0000
0000
0001
0000
0000
0000
0100
0000
0000
0000
0010
0000
0000
0000
,
0110
0000
0000
0000
0000
0000
1000
0000
0000
0001
0000
0000
0101
0000
0000
0000
1010
0000
0000
0000
0011
0000
0000
0000
,
2002
0000
0000
0000
0000
0000
0000
0000
3003
0000
0000
0000
1000
0001
1000
0001
1000
0000
0000
0000
0100
0000
0001
0000
0100
0000
0010
0000
0100
0000
1000
0000
,
2002
0000
0000
0000
3003
0000
0001
0100
1000
0000
0001
0010
1000
0000
0000
0000
,
1001
0000
0000
0001
1000
0000
0001
0100
0010
0100
1000
0100
0010
0100
0001
1000
,
0200
0000
0000
0300
0000
0000
0200
0000
0000
0300
0000
0000
1001
0000
0000
0000
0000
0000
0001
0000
0000
0100
0000
0000
0010
0000
0000
0000
0000
0000
1000
0000
0100
0000
0010
0000
0001
0000
0000
0000
0100
0000
0000
0000
0010
0000
0000
0000
,
0220
0000
0000
0000
0330
0000
1000
0001
0010
0000
0100
0010
1000
0010
0001
0100
,
0220
0000
0000
0000
0330
0000
1000
0010
0001
0000
1000
0100
0001
0000
0000
0000
,
1001
0000
0001
1000
0001
0100
0010
0001
0010
0000
0100
0010
1000
0001
1000
0001
,
1001
0000
0000
0000
1000
0001
0010
0001
0100
0000
0001
1000
0100
0010
0100
0010
,
0001
0000
0000
0000
1000
0000
0000
0000
0010
0000
0000
0000
0100
0001
0100
0001
0100
0000
0000
0000
0010
0000
0100
0000
1000
0000
0100
0000
0010
0000
1000
0000
,
0100
0000
0000
0000
0000
0000
0010
0000
0000
0000
0000
0000
0001
0000
0000
0000
0000
0000
0100
0000
0010
0000
0100
0000
0010
0000
0000
0000
0000
0000
1000
0000
0000
0001
0000
0000
1001
0000
0000
0000
0000
0000
0000
0000
0000
0000
0000
0000
,
0101
0000
0000
1000
0001
0000
0010
0100
0010
1000
0010
0100
0010
0001
1000
0001
,
0100
0000
0000
0000
0110
0000
0010
0100
0010
0100
0001
1000
0100
0010
0001
1000
,
1001
0000
0000
0000
0000
0000
0001
0000
1000
0000
0001
0000
1000
0000
0000
0010
0000
0000
0100
0000
0000
1000
0000
0000
0100
0000
0000
0010
0000
0000
0100
0000
0000
0001
0000
0000
0010
0000
0000
0100
0000
0000
0010
0000
0000
1000
0000
0000
,
0010
0001
1000
0010
0001
1000
0100
0010
1000
0100
0010
0001
0100
0010
1000
0001
,
1001
0000
0000
0000
0000
0000
0001
0000
0100
0000
0001
0000
1000
0000
0000
0100
0000
0000
0001
0000
0000
0100
0000
0000
0010
0000
0000
0100
0000
0000
1000
0000
0000
0001
0000
0000
0100
0000
0000
1000
0000
0000
0100
0000
0000
0010
0000
0000
,
0100
0001
0010
1000
0001
0100
1000
0001
0100
0010
1000
0100
0010
0001
1000
0001
,
2002
0000
0000
0000
0000
0000
0000
0000
3003
0000
0000
0000
1000
0001
1000
0001
1000
0000
0000
0000
0001
0000
0100
0000
0010
0000
1000
0000
0100
0000
0010
0000
,
0001
0001
0001
1000
1000
1000
0001
0001
0001
1001
0000
0000
,
1001
0000
1000
0010
1000
0001
0010
0100
1100
0000
0101
0000
0000
0110
0000
0000
,
1001
0000
0000
0001
0100
0010
1000
0001
1001
0000
1000
0010
0000
0001
0010
0000
,
1010
0000
0000
1000
0001
0010
0100
1000
1001
0000
0101
0000
0000
1010
0000
0000
,
1001
0000
0000
0001
0010
0001
1000
0010
0110
0000
0001
0001
0000
0000
1001
0000
,
0110
0000
0000
0000
0000
0000
0000
0000
0000
0000
0000
0000
0000
0000
0000
0000
0000
0000
0000
0000
0000
0000
0000
0000
0001
0000
0000
0000
0000
0000
0000
0000
0000
0000
0000
0000
0000
0000
0000
0000
0000
0000
0000
0000
0000
0000
0000
0000
1000
0000
0000
0000
0000
0000
0000
0000
0000
0000
0000
0000
0000
0000
0000
0000
0000
0000
0000
0000
0000
0000
0000
0000
0010
0000
0000
0000
0000
0000
0000
0000
0100
0000
0000
0000
0000
0000
0000
0000
0010
0000
0000
0000
0000
0000
0000
0000
0200
0000
0000
0000
0000
0000
0000
0000
0000
0000
0000
0000
0001
0000
0000
0000
0000
0000
0000
0000
0000
0000
0000
0000
0010
0000
0000
0000
0000
0000
0000
0000
0000
0300
0000
0000
0200
0000
0000
0000
0000
0000
0000
0000
0000
0000
0000
0000
1000
0000
0000
0000
0000
0000
0000
0000
0000
0000
0000
0000
0010
0000
0000
0000
0000
0000
0000
0000
0000
0300
0000
0000
0200
0000
0000
0000
0000
0000
0000
0000
0000
0000
0000
0000
0001
0000
0000
0000
0000
0000
0000
0000
0000
0000
0000
0000
,
0010
0000
0000
0300
0100
0000
0000
0000
0001
0000
0000
0000
0100
0000
0000
0000
0010
0000
0000
0000
0001
0000
0000
0000
0100
0000
0000
0000
0010
0000
0000
0000
1000
0000
0000
0000
0000
0000
0000
0000
0100
0000
0010
0000
0100
0000
0010
0000
0100
0000
0000
0000
0010
0000
0000
0000
0001
0000
0000
0000
0010
0000
0000
0000
,
0001
1000
0010
0001
1000
0100
0010
1000
0100
0010
1000
0001
0100
1000
0001
0100
,
0220
0000
0000
0000
0000
0000
0000
0000
0000
0000
0000
0000
0330
0000
1000
0001
,
1001
0000
0000
0000
0000
0000
0000
0000
0000
0000
0000
0000
0000
0000
0000
0000
0000
0000
0000
0000
0000
0000
0000
0000
2200
0000
0000
3300
0000
0000
0000
0000
0000
0000
0000
0000
0100
0000
0000
0000
0000
0000
0000
0000
0000
0000
0000
0000
0010
0000
0000
0000
0000
0000
0000
0000
0000
0000
0000
0000
0022
0000
0000
0033
0000
0000
0000
0000
0000
0000
0000
0000
0001
0000
0000
0000
0000
0000
0000
0000
0000
0000
0000
0000
0100
0000
0000
0000
0000
0000
0000
0000
0000
0000
0000
0000
0220
0000
0000
0330
0000
0000
0000
0000
0000
0000
0000
0000
0010
0000
0000
0000
0000
0000
0000
0000
0000
0000
0000
0000
1000
0000
0000
0000
0000
0000
0000
0000
0000
0000
0000
0000
2002
0000
0000
3003
0000
0000
0000
0000
0000
0000
0000
0000
0001
0000
0000
0000
0000
0000
0000
0000
0000
0000
0000
0000
0010
0000
0000
0000
0000
0000
0000
0000
0000
0000
0000
0000
0220
0000
0000
0330
0000
0000
0000
0000
0100
0000
0000
0000
0000
0000
0000
0000
1000
0000
0000
0000
0000
0000
0000
0000
,
0001
1000
0010
0000
0000
0000
2002
0000
0000
0000
0000
0000
0000
0000
0000
0000
0000
0000
0000
0000
0000
0000
0000
0000
,
3003
0000
0000
0000
;

//--------------- dance-double - Fred-104 ----------------
#NOTEDATA:;
#STEPSTYPE:dance-double;
#DESCRIPTION:Fred-104;
#DIFFICULTY:Easy;
#METER:7;
#CREDIT:Fred-104;
#NOTES:
00000000
00000000
00000000
00000000
,
00000000
00000000
00000000
00000000
,
00000000
00000000
00000000
00000000
,
00000000
00000000
00000000
00000000
,
00000000
00000000
00000000
00000000
,
00011000
00000000
00000000
00000000
00001000
00000000
00000000
00000000
00001000
00000000
00010000
00000000
00000000
00000100
00000000
00000000
,
00001100
00000000
00000000
00000000
00001000
00000000
00000000
00000000
00001000
00000000
00000001
00000000
00000000
00000100
00000000
00000000
,
00000110
00000000
00000000
00000000
00010000
00000000
00000000
00000000
00010000
00000000
00001000
00000000
00000000
01000000
00000000
00000000
,
01100000
00000000
00000000
00000000
00100000
00000000
00000000
00000000
00100000
00000000
00000000
10000000
00000000
00000000
10000000
00000000
,
11000000
01000000
00010000
00001000
,
00010000
00100000
00010000
00001000
,
00000010
00000001
00000100
00001000
,
00022000
00000000
00000000
00033000
,
00011000
00000000
00000000
00010100
00000000
00000000
00010000
00000000
,
00001000
00000000
00000100
00000000
00000001
00001000
00000001
00000000
,
00000100
00001000
00020000
00030000
,
00100000
00000000
10000000
00000000
01000000
00010000
00001000
00000000
,
00011000
00000000
00000000
01001000
00000000
00000000
00001000
00000000
,
00010000
00000000
01000000
00000000
10000000
00010000
10000000
00000000
,
01000000
00010000
00002000
00003000
,
00000010
00000000
00000001
00000000
00000100
00001000
00010000
00000000
,
00011000
00000000
00000000
00010010
00000000
00000000
00010000
00010000
,
00000000
00001000
00001000
00000000
,
00010000
00100000
01000000
00010000
,
10000000
01000000
00010000
00001000
,
00011000
00000000
00000000
00101000
00000000
00000000
00001000
00001000
,
00000000
00010000
00010000
00000000
,
00001000
00000010
00000100
00001000
,
00000001
00000100
00001000
00010000
,
00011000
00000000
00001000
00000000
,
01000000
00000000
00000000
00100000
00000000
00000000
00010000
00000000
00010000
00000000
00001000
00000000
,
00022000
00033000
00001000
01000000
,
01010000
00000000
10000000
01000000
,
00010000
00010000
00001000
00001000
,
00010000
00001000
00010000
00000100
,
00022000
00033000
00010000
00000100
,
00000220
00000330
00000001
00001000
,
00000100
00000100
00000010
00000001
,
00000100
00001000
00010000
00000000
,
00001000
00000000
00010000
00000000
00001000
00001000
00001000
00000000
,
00010000
00000000
00100000
00000000
01000000
01000000
01000000
00000000
,
00010000
10000000
01000000
00010000
,
00001000
00000000
00010000
00000000
00001000
00001000
00001000
00000000
,
00011000
00000000
00000000
00001010
00000000
00000000
00011000
00000000
,
00000000
00110000
00000000
00000000
00011000
00000000
00011000
00000000
,
00011000
00000000
00000000
01010000
00000000
00000000
00011000
00000000
,
00000000
00001100
00000000
00000000
00011000
00000000
00011000
00000000
,
01100000
00000000
10000000
00010000
,
20000000
30200000
00320000
00031000
,
00011000
00000000
00000000
00000000
00010000
00000000
00000000
00000000
00010000
00000000
00001000
00000000
00000000
01000000
00000000
00000000
,
01010000
00000000
00000000
00000000
00010000
00000000
00000000
00000000
00010000
00000000
10000000
00000000
00000000
01000000
00000000
00000000
,
01100000
00000000
00000000
00000000
00001000
00000000
00000000
00000000
00001000
00000000
00010000
00000000
00000000
00000100
00000000
00000000
,
00000110
00000000
00000000
00000000
00000010
00000000
00000000
00000000
00000010
00000000
00000000
00000001
00000000
00000000
00000001
00000000
,
00000101
00000100
00001000
00010000
,
00001000
00000010
00001000
00010000
,
00100000
10000000
01000000
00010000
,
00022000
00000000
00000000
00033000
,
00000000
00011000
00000000
00000000
00001000
00000000
00000000
00022000
,
00000000
00033000
00000000
00000000
;

//--------------- dance-double - Fred-104 ----------------
#NOTEDATA:;
#STEPSTYPE:dance-double;
#DESCRIPTION:Fred-104;
#DIFFICULTY:Medium;
#METER:11;
#CREDIT:Fred-104;
#NOTES:
00000000
00000000
00000000
00000000
,
00000000
00000000
00000000
00000000
,
00000000
00000000
00000000
00000000
,
00000000
00000000
00000000
00000000
,
00000000
00000000
00000000
00000000
,
00011000
00000000
00000000
00000000
00010000
00000000
00001000
00000000
00000010
00000000
00000110
00000000
00000000
00001100
00000000
00000000
,
00001001
00000000
00000000
00000000
00000001
00000000
00000010
00000000
00001000
00000000
00010000
00001000
00000000
00001000
00010000
00000000
,
00011000
00000000
00000000
00000000
00001000
00000000
01000000
00000000
00100000
00000000
10100000
00000000
00000000
00110000
00000000
00000000
,
11000000
00000000
00000000
00000000
10000000
00000000
00100000
00000000
00010000
00000000
00001000
00010000
00000000
00000000
00011000
00000000
,
00010000
00001000
01000000
00100000
00010000
00001000
00100000
01000000
,
00001000
00000100
00010000
00001000
00000010
00000100
00010000
00001000
,
00000100
00000010
00001000
00010000
00001000
00000010
00000100
00000001
,
00002002
00000000
00000000
00003003
,
00001001
00000000
00000000
00000001
00000010
00000000
00000010
00000000
00000000
00000000
00001000
00000000
00010000
00000000
00001000
00000000
,
00000100
00010000
01000000
00001000
00010000
00000000
00011000
00000000
,
00001000
00010000
01000000
00010000
00001000
00010000
00100000
00010000
,
00001000
00100000
01000000
10000000
00100000
00000000
10010000
00000000
,
10010000
00000000
00000000
10000000
00100000
00000000
00100000
00000000
00000000
00000000
00010000
00000000
00001000
00000000
00010000
00000000
,
01000000
00001000
00000100
00010000
00001000
00000000
00011000
00000000
,
00010000
00001000
00000100
00001000
00010000
00001000
00000010
00001000
,
00010000
00000000
00000010
00000000
00000100
00000000
00000001
00000000
00000010
00000000
00000100
00001000
00000100
00000000
00000000
00000000
,
00010000
00001000
00000010
00000001
00000100
00001000
00010000
00011000
,
00000000
00001000
00010000
00100000
10000000
01000000
00100000
00000000
,
00001000
00010000
00000000
00001000
01000000
00000000
00010000
00100000
00000000
00000000
00001000
00000000
00010000
00000000
00001000
00000000
,
00000100
00000001
00001000
00000001
00000010
00001000
00010000
00000000
,
00001000
00010000
01000000
10000000
00100000
00010000
00001000
00011000
,
00000000
00010000
00001000
00000010
00000100
00000010
00000001
00000000
,
00001000
00000010
00000100
00001000
00010000
00100000
10000000
00010000
,
00100000
00000000
00000000
00100000
00001000
00000000
00000010
00000000
00000100
00000000
00010000
00000000
00011000
00000000
00000000
00000000
,
00020000
00032000
00003200
00000320
,
00010030
00000000
00000000
00001000
00000000
00000000
00000010
00000000
00000001
00000000
00000100
00000000
,
00000220
00000000
00000000
00000000
00000330
00000000
00000001
00001000
00000001
00000000
00000100
00000000
00000000
00000100
00000000
00000000
,
00000220
00000000
00000000
00000000
00000330
00000000
00000010
00001000
00000010
00000000
00010000
00001000
00010000
00000000
00000000
00000000
,
00001000
00000000
00000000
00001000
00010000
00000000
00100000
00000000
00010000
00000000
00001000
00000000
01000000
00000000
00010000
00000000
,
00100000
10000000
00100000
00001000
00010000
00000100
00000010
00000000
,
00002002
00000000
00000000
00000000
00003003
00000000
00001000
00000010
00001000
00000000
00000100
00000000
00000000
00000100
00000000
00000000
,
00022000
00000000
00000000
00000000
00033000
00000000
01000000
00010000
01000000
00000000
00010000
10000000
00010000
00000000
00000000
00000000
,
01100000
00000000
10000000
00100000
00010000
10000000
01000000
00100000
,
10000000
00000000
01000000
00010000
00001000
00000100
00000001
00000000
,
00001000
00000100
00000010
00000100
00010000
00000010
00000100
00001000
,
01000000
00100000
00010000
00001000
00100000
00001000
00010000
00000000
,
00011000
00000000
00000000
00001000
00010000
00000000
01000000
00000000
00010000
00000000
00001000
00000000
01000000
00000000
00010000
00000000
,
00000200
00000000
00000000
00000000
00002300
00000000
00010000
00000000
00013000
00001000
00010000
00001000
00010000
00000000
00000000
00000000
,
00001000
00010000
00100000
10000000
01000000
00010000
00001000
00010000
,
00100000
10000000
01000000
00010000
00001000
00000000
00011000
00000000
,
00010000
00001000
00000100
00000001
00000010
00001000
00010000
00001000
,
00000100
00000001
00000010
00001000
00010000
00000000
00011000
00000000
,
00022000
00000000
00000000
00000000
00033000
00000000
00001000
01000000
00001000
00000000
00010000
00000000
00000100
00000000
00000100
00000000
,
00010000
00001000
00010000
00001000
00010000
00001000
00010000
00001000
00010000
00001000
00000000
00000000
,
00011000
00000000
00000000
00000000
00001000
00000000
00010000
00000000
00100000
00000000
01100000
00000000
00000000
01010000
00000000
00000000
,
10010000
00000000
00000000
00000000
10000000
00000000
00100000
00000000
00010000
00000000
00001000
00010000
00000000
00010000
00001000
00000000
,
00011000
00000000
00000000
00000000
00010000
00000000
00000100
00000000
00000010
00000000
00000011
00000000
00000000
00001010
00000000
00000000
,
00000101
00000000
00000000
00000000
00000001
00000000
00000010
00000000
00001000
00000000
00010000
00001000
00000000
00000000
00011000
00000000
,
00001000
00010000
00000100
00000010
00001000
00010000
00000010
00000100
,
00010000
01000000
00001000
00010000
00100000
01000000
00001000
00010000
,
01000000
00100000
00010000
00001000
00010000
00100000
01000000
10000000
,
20020000
00000000
00000000
30030000
,
10000000
00000000
11000000
00000000
00000000
01010000
00000000
00000000
00011000
00000000
00000000
00001010
00000000
00000000
00000011
00000000
,
00000000
00002002
00000000
00000000
,
00003003
00000000
00000000
00000000
;

//--------------- dance-double - Fred-104 ----------------
#NOTEDATA:;
#STEPSTYPE:dance-double;
#DESCRIPTION:Fred-104;
#DIFFICULTY:Hard;
#METER:15;
#CREDIT:Fred-104;
#NOTES:
00000000
00000000
00000000
00000000
,
00000000
00000000
00000000
00000000
,
00000000
00000000
00000000
00000000
,
00000000
00000000
00000000
00000000
,
00000000
00000000
00000000
00000000
,
00011000
00000000
00000000
00010000
00001000
00100000
00001000
00100000
01000000
00000000
11000000
00000000
00000000
01010000
00000000
00000000
,
00011000
00000000
00000000
00010000
00000010
00001000
00000010
00001000
00000100
00000000
00000001
00000100
00000000
00000010
00000001
00000000
,
00001001
00000000
00000000
00000001
00000100
00000001
00000100
00000010
00000100
00000000
00001100
00000000
00000000
00011000
00000000
00000000
,
01100000
00000000
00000000
00010000
10000000
01000000
10000000
01000000
00100000
00000000
00001000
00010000
00000000
00000000
00011000
00000000
,
00010000
00000000
00000100
00000000
00001000
00000000
00000001
00001000
00000200
00000000
00001000
00000301
00000200
00000000
00000001
00001300
,
00000200
00000000
00001000
00000301
00000100
00000010
00001000
00000001
00000010
00000000
00000100
00010000
00001000
00010000
00000000
00010000
,
00000100
00000010
00000001
00001000
00000010
00000100
00001000
00000000
00010000
00001000
00010000
01000000
00100000
00010000
10000000
00000000
,
20020000
00000000
00000000
30030000
,
01100000
00000000
00000000
10000000
01000000
00000000
01100000
00000000
00100000
00000000
00010000
00000000
01000000
00100000
01000000
00100000
,
10000000
00010000
01000000
00001000
00010000
00000000
00001000
00000010
00000001
00000000
00000000
00000000
00001001
00000000
00000000
00000000
,
00000001
00000100
00000010
00000100
00001000
00000000
00001000
00000000
00010000
00100000
01000000
00100000
10000000
00000000
10000000
00000000
,
00010000
10000000
01000000
00100000
01000000
00000000
00010000
00000000
00011000
00000000
00000000
00000000
00001100
00000000
00000000
00000000
,
00000110
00000000
00000000
00001000
00000100
00000000
00000110
00000000
00000010
00000000
00000001
00000000
00000100
00000010
00000100
00000010
,
00001000
00000001
00000010
00001000
00010000
00000000
01000000
00100000
00010000
00000000
00000000
00000000
10010000
00000000
00000000
00000000
,
10000000
01000000
00100000
01000000
00010000
00000000
00010000
00000000
00001000
00000010
00000100
00000010
00000001
00000000
00000001
00000000
,
00001000
00000001
00001000
00000001
00000010
00000100
00000010
00000100
00000000
00000000
00010000
00001000
01000000
00000000
00010000
00000000
,
10010000
00000000
00000000
00000000
00000000
00000000
10000000
00000000
00000000
01000000
00000000
00000000
00100000
00000000
00000000
00000000
00000000
00000000
00101000
00000000
00000000
00000000
00000000
00000000
00001000
00000000
00010000
00000000
00001000
00000000
00010000
00000000
00000000
00000000
00000000
00000000
00000010
00000000
00000000
00000000
00000000
00000000
00002001
00000000
00000000
00000000
00000000
00000000
,
00000000
00000000
00003001
00001000
00000100
00000000
00000010
00000000
00001000
00000000
00010000
00000000
01000000
00100000
00010000
00000000
,
10000000
00100000
00000000
01000000
00100000
00000000
10000000
00200000
00000000
00000000
01300000
00010000
00100000
01000000
10000000
00000000
,
00010000
01000000
00001000
00000000
00010000
00000100
00001000
00000000
00000100
00000010
00000001
00000000
00000100
00000010
00001000
00000000
,
00001001
00000000
00000000
00000000
00000000
00000000
00000001
00000000
00000000
00000100
00000000
00000000
00000010
00000000
00000000
00000000
00000000
00000000
00010010
00000000
00000000
00000000
00000000
00000000
00010000
00000000
00001000
00000000
00010000
00000000
00001000
00000000
00000000
00000000
00000000
00000000
00100000
00000000
00000000
00000000
00000000
00000000
10020000
00000000
00000000
00000000
00000000
00000000
,
00000000
00000000
10030000
00010000
01000000
00000000
00100000
00000000
00010000
00000000
00001000
00000000
00000100
00000010
00001000
00000000
,
00000100
00000010
00000001
00000100
00000010
00000000
00010000
00001000
01000000
00010000
00100000
00000000
01000000
10000000
00010000
01000000
,
00100000
00000000
00000000
00100000
10000000
01000000
10000000
01000000
00010000
00001000
00010000
00001000
00000010
00000000
00000010
00000000
,
00000011
00000000
00000000
00000000
00000000
00000000
00000001
00000000
00000000
00000100
00000000
00000000
00000010
00000000
00000000
00000000
00000000
00000000
00000100
00000000
00000000
00001000
00000000
00000000
00010000
00000000
00000000
00000000
00000000
00000000
00100000
00000000
00000000
01000000
00000000
00000000
00010000
00000000
00000000
00000000
10000000
00000000
00000000
00000000
00010000
00000000
00000000
00000000
,
10010000
00000000
00000000
00000000
00000000
00000000
10000000
00000000
00000000
01000000
00000000
00000000
01010000
00000000
00000000
00000000
00011000
00000000
00000000
00000000
00001100
00000000
00000000
00000000
,
00021000
00000000
00000000
00000000
00000000
00000000
00031000
00010000
00000010
00000000
00001010
00000000
00000000
00000101
00000000
00000000
,
00002100
00000000
00000000
00000000
00000000
00000000
00003001
00000010
00001000
00000000
00000010
00000001
00000100
00000000
00000000
00000000
,
00000110
00000000
00000000
00001000
00000001
00000000
00000010
00000100
00000010
00001000
00010000
00000000
00001000
01000000
00010000
00100000
,
00001000
00000000
00000000
00000000
00000000
00000000
00001000
00000000
00000000
00000000
00000000
00000000
00011000
00000000
00000000
00000000
00000000
00000000
00001000
00000000
00000000
00010000
00000000
00000000
00100000
00000000
00000000
00000000
00000000
00000000
01000000
00000000
00000000
10000000
00000000
00000000
01000000
00000000
00000000
00000000
00100000
00000000
00000000
00000000
10000000
00000000
00000000
00000000
,
10020000
00000000
00000000
00000000
00000000
00000000
10030000
01000000
00010000
00000000
00011000
00000000
00000000
00001010
00000000
00000000
,
00000012
00000000
00000000
00000000
00000000
00000000
00001003
00000001
00000100
00000000
00001000
00010000
00100000
00000000
00000000
00000000
,
10100000
00000000
00000000
10000000
01000000
00100000
01000000
00100000
00001000
00000000
00010000
00000010
00010000
00000010
00001000
00000000
,
00001001
00000000
00000000
00000000
00000001
00001000
00000001
00000100
00001000
00000000
00010000
00100000
10000000
00000000
00000000
00000000
,
00010000
00000000
00100000
00000000
00010000
00000000
00001000
00000100
00010000
00000000
00001000
00000100
00000010
00001000
00000010
00000000
,
00010000
00000000
00000100
00000000
00000010
00000000
00001000
00010000
01000000
00000000
00100000
00001000
00010000
00000000
00000000
00000000
,
00011000
00000000
00000000
00001000
01000000
00000000
00010000
00100000
00010000
00100000
00001000
00000000
00010000
00000010
00010000
00000010
,
00001000
00000000
00000000
00000000
00010010
00000000
00010000
00000010
00001000
00000000
00010000
01000000
00010000
01000000
00001000
00000000
,
00010000
00001000
00000100
00001000
00010000
00000000
00001000
00010000
00100000
00010000
00001000
00000000
00010000
00001000
00000010
00001000
,
00010000
00000000
00001000
00010000
01000000
00010000
00001000
00000000
00011000
00000000
00010000
00000000
00011000
00000000
00000000
00000000
,
00001000
00010000
01000000
00010000
00001000
00000000
00010000
00001000
00000010
00001000
00010000
00000000
00001000
00010000
00100000
00010000
,
00001000
00000000
00010000
00001000
00000100
00001000
00010000
00000000
00011000
00000000
00001000
00000000
00011000
00000000
00000000
00000000
,
00000220
00000000
00000000
00000000
00000330
00000000
00001000
00000010
00000100
00000000
00000000
00000100
00000001
00001000
00000100
00000010
,
00000001
00001000
00000001
00001000
00000010
00000100
00001000
00010000
00001000
00010000
00000000
00000000
,
00011000
00000000
00000000
00001000
00010000
00000010
00010000
00000010
00000100
00000000
00000101
00000000
00000000
00001100
00000000
00000000
,
00011000
00000000
00000000
00001000
00100000
00010000
00100000
00010000
01000000
00000000
10000000
01000000
00000000
00100000
10000000
00000000
,
10010000
00000000
00000000
10000000
01000000
10000000
01000000
00100000
01000000
00000000
01010000
00000000
00000000
00011000
00000000
00000000
,
00000110
00000000
00000000
00001000
00000001
00000100
00000001
00000100
00000010
00000000
00010000
00001000
00000000
00000000
00011000
00000000
,
00001000
00000000
01000000
00000000
00010000
00000000
10000000
00010000
02000000
00000000
00010000
13000000
02000000
00000000
10000000
03010000
,
02000000
00000000
00010000
13000000
01000000
00100000
00010000
10000000
00100000
00000000
01000000
00001000
00010000
00001000
00000000
00001000
,
01000000
00100000
10000000
00010000
00100000
01000000
00010000
00001000
00010000
00001000
00000100
00000010
00001000
00000001
00001000
00000000
,
00002002
00000000
00000000
00000000
00000000
00000000
00000000
00000000
00000000
00000000
00000000
00000000
00003003
00000000
00001000
00000001
,
00001000
00000000
00000000
00000000
00000000
00000000
00000000
00000000
00000002
00000003
00000000
00000000
00000010
00000000
00000000
00000000
00000100
00000000
00000000
00000000
00002000
00003000
00000000
00000000
00000100
00000000
00000000
00000000
00010000
00000000
00000000
00000000
00002000
00003000
00000000
00000000
00100000
00000000
00000000
00000000
00010000
00000000
00000000
00000000
00200000
00300000
00000000
00000000
01000000
00000000
00000000
00000000
10000000
00000000
00000000
00000000
00020000
00000000
00000000
00000000
00000000
00000000
00000000
00000000
,
00000000
10030000
00000000
20020000
00000000
00000000
00000000
00000000
00000000
00000000
00000000
00000000
,
30030000
00000000
00000000
00000000
;

//--------------- dance-double - Fred-104 ----------------
#NOTEDATA:;
#STEPSTYPE:dance-double;
#DESCRIPTION:Fred-104;
#DIFFICULTY:Challenge;
#METER:17;
#CREDIT:Fred-104;
#NOTES:
00000000
00000000
00000000
00000000
,
00000000
00000000
00000000
00000000
,
00000000
00000000
00000000
00000000
,
00000000
00000000
00000000
00000000
,
00000000
00000000
00000000
00000000
,
00011000
00000000
00010000
00001000
00010000
00000100
00000010
00000001
00001001
00000000
00000101
00000000
00000000
00001100
00000000
00000000
,
00011000
00000000
00000000
00010000
00001000
00100000
01000000
10000000
10010000
00000000
00010000
01000000
00000000
10000000
01000000
00000000
,
01100000
00000000
00000000
10000000
01000000
00100000
00001000
00010000
00010100
00000000
00001100
00000000
00000000
00000101
00000000
00000000
,
00001001
00000000
00000000
00000001
00000100
00000010
00000100
00001000
00011000
00000000
00010000
00001000
00000000
00000000
00011000
00000000
,
00010000
00000000
00000000
00000000
00000000
00000000
00000000
00000000
00000000
00000000
00000000
00000000
00000000
00000000
00000000
00000000
00000000
00000000
00000000
00000000
00000000
00000000
00000000
00000000
00100000
00000000
00000000
00000000
00000000
00000000
00000000
00000000
00000000
00000000
00000000
00000000
00000000
00000000
00000000
00000000
00000000
00000000
00000000
00000000
00000000
00000000
00000000
00000000
10000000
00000000
00000000
00000000
00000000
00000000
00000000
00000000
00000000
00000000
00000000
00000000
00000000
00000000
00000000
00000000
00000000
00000000
00000000
00000000
00000000
00000000
00000000
00000000
00010000
00000000
00000000
00000000
00000000
00000000
00000000
00000000
10000000
00000000
00000000
00000000
00000000
00000000
00000000
00000000
01000000
00000000
00000000
00000000
00000000
00000000
00000000
00000000
00200000
00000000
00000000
00000000
00000000
00000000
00000000
00000000
00000000
00000000
00000000
00000000
00000000
00000000
00000000
00000000
00000000
00000000
00000000
00000000
00000000
00000000
00000000
00000000
00010000
00000000
00000000
00000000
00000000
00000000
00000000
00000000
00000000
00000000
00000000
00000000
01000000
00000000
00000000
00000000
00000000
00000000
00000000
00000000
00000000
00300000
00000000
00000000
00200000
00000000
00000000
00000000
00000000
00000000
00000000
00000000
00000000
00000000
00000000
00000000
00000000
00000000
00000000
00000000
00000000
00000000
00000000
00000000
00000000
00000000
00000000
00000000
10000000
00000000
00000000
00000000
00000000
00000000
00000000
00000000
00000000
00000000
00000000
00000000
01000000
00000000
00000000
00000000
00000000
00000000
00000000
00000000
00000000
00300000
00000000
00000000
,
00200000
00000000
00000000
00000000
00000000
00000000
00000000
00000000
00000000
00000000
00000000
00000000
00000000
00000000
00000000
00000000
00000000
00000000
00000000
00000000
00000000
00000000
00000000
00000000
00010000
00000000
00000000
00000000
00000000
00000000
00000000
00000000
00000000
00000000
00000000
00000000
01000000
00000000
00000000
00000000
00000000
00000000
00000000
00000000
00000000
00300000
00000000
00000000
00200000
00000000
00000000
00000000
00000000
00000000
00000000
00000000
00000000
00000000
00000000
00000000
10000000
00000000
00000000
00000000
00000000
00000000
00000000
00000000
00000000
00000000
00000000
00000000
01000000
00000000
00000000
00000000
00000000
00000000
00000000
00000000
00000000
00300000
00000000
00000000
00100000
00000000
00000000
00000000
00000000
00000000
00000000
00000000
00000000
00000000
00000000
00000000
00001000
00000000
00000000
00000000
00000000
00000000
00000000
00000000
00000000
00000000
00000000
00000000
00000000
00000000
00000000
00000000
00000000
00000000
00000000
00000000
00000000
00000000
00000000
00000000
00010000
00000000
00000000
00000000
00000000
00000000
00000000
00000000
00001000
00000000
00000000
00000000
00000000
00000000
00000000
00000000
00010000
00000000
00000000
00000000
00000000
00000000
00000000
00000000
00001000
00000000
00000000
00000000
00000000
00000000
00000000
00000000
00000000
00000000
00000000
00000000
00000100
00000000
00000000
00000000
00000000
00000000
00000000
00000000
00000000
00000000
00000000
00000000
00000000
00000000
00000000
00000000
00000000
00000000
00000000
00000000
00000000
00000000
00000000
00000000
00000100
00000000
00000000
00000000
00000000
00000000
00000000
00000000
00000000
00000000
00000000
00000000
,
00000001
00001000
00000010
00010000
00001000
00100000
00010000
00100000
01000000
10000000
00010000
00010000
01000000
00100000
00010000
00001000
,
00022000
00000000
00000000
00033000
,
00011000
00000000
00000000
00000000
00000000
00000000
00000000
00000000
00000000
00010000
00000000
00000000
00000100
00000000
00000000
00000000
00000000
00000000
00000110
00000000
00000000
00000000
00000000
00000000
00000010
00000000
00000000
00000000
00000000
00000000
00000001
00000000
00000000
00000000
00000000
00000000
00001000
00000000
00000010
00000000
00001000
00000000
00000001
00000000
00000000
00000010
00000000
00000000
,
00000100
00000010
00001000
00010000
01000000
00000000
00100000
01000000
11000000
00000000
00000000
00000000
10010000
00000000
00000000
00000000
,
10000000
01000000
00010000
00001000
00010000
00000000
00011000
00000000
00001000
00000010
00000001
00001000
00000001
00000000
00001001
00000000
,
00000001
00000100
00000010
00000100
00001000
00000000
00010000
00000000
00011000
00000000
00000000
00000000
01100000
00000000
00000000
00000000
,
00011000
00000000
00000000
00000000
00000000
00000000
00000000
00000000
00000000
00001000
00000000
00000000
00010000
00000000
00000000
00000000
00000000
00000000
00110000
00000000
00000000
00000000
00000000
00000000
00100000
00000000
00000000
00000000
00000000
00000000
10000000
00000000
00000000
00000000
00000000
00000000
00010000
00000000
00100000
00000000
01000000
00000000
10000000
00000000
00000000
00010000
00000000
00000000
,
01000000
00100000
00010000
00001000
00010000
00000000
00000100
00000010
00000011
00000000
00000000
00000000
00001001
00000000
00000000
00000000
,
00000001
00000100
00001000
00010000
00001000
00000000
00011000
00000000
00010000
00100000
10000000
00010000
10000000
00000000
10010000
00000000
,
10000000
01000000
00100000
00010000
01000000
00100000
00010000
00002000
00000000
00000000
00013000
00000100
00000010
00000000
00000001
00001000
,
00001010
00000000
00000000
00000000
00000000
00000000
00000010
00000000
00000000
00000100
00000000
00000000
00001000
00000000
00000000
00000000
00000000
00000000
00001100
00000000
00000000
00000000
00000000
00000000
00000100
00000000
00000001
00000000
00000100
00000000
00000001
00000000
00000000
00000000
00000000
00000000
00000010
00000000
00000000
00000000
00000000
00000000
00002002
00000000
00000000
00000000
00000000
00000000
,
00003003
00000000
00000000
00000000
00000001
00000000
00000100
00000000
00001000
00000000
00000000
00000000
00010000
00000000
00000000
00000000
00200000
00000000
00000000
00000000
20300000
00000000
00000000
00000000
30010000
10000000
00010000
10000000
00020000
00000000
00000000
00000000
,
10030000
00100000
00000000
00010000
00001000
00000000
00010000
02000000
00000000
00000000
03010000
00001000
00010000
00000010
00001000
00000010
,
00000100
00000010
00000001
00000010
00000100
00000010
00001000
00000010
00010000
00001000
00100000
01000000
00100000
00000000
00010000
00000000
,
10010000
00000000
00000000
00000000
00000000
00000000
00010000
00000000
00000000
01000000
00000000
00000000
00100000
00000000
00000000
00000000
00000000
00000000
00110000
00000000
00000000
00000000
00000000
00000000
00100000
00000000
10000000
00000000
00100000
00000000
10000000
00000000
00000000
00000000
00000000
00000000
01000000
00000000
00000000
00000000
00000000
00000000
20020000
00000000
00000000
00000000
00000000
00000000
,
30030000
00000000
00000000
00000000
10000000
00000000
00100000
00000000
00010000
00000000
00000000
00000000
00001000
00000000
00000000
00000000
00000200
00000000
00000000
00000000
00000302
00000000
00000000
00000000
00001003
00000001
00001000
00000001
00002000
00000000
00000000
00000000
,
00003100
00000010
00000001
00000010
00000100
00001000
00000010
00000100
00001000
00000000
00010000
00000000
00001000
01000000
00001000
00010000
,
00011000
00000000
00000000
00001000
00010000
00100000
01000000
10000000
01000000
00010000
01000000
00010000
01010000
00000000
10010000
00000000
,
10000000
00000000
00000000
00100000
00000000
00000000
01000000
00000000
00000000
10000000
00000000
00000000
01000000
00000000
00000000
00100000
00000000
00000000
00010000
00000000
00000000
00001000
00000000
00000000
00000100
00000000
00000000
00000010
00000000
00000000
00000001
00000000
00000000
00000010
00000000
00000000
00000100
00000000
00000000
00000000
00000001
00000000
00000000
00000000
00001000
00000000
00000000
00000000
,
00001001
00000000
00000000
00000000
00000000
00000000
00000001
00000000
00000000
00000100
00000000
00000000
00001100
00000000
00000000
00000000
00011000
00000000
00000000
00000000
00110000
00000000
00000000
00000000
,
20200000
00000000
00000000
00000000
00000000
00000000
00000000
00000000
30300000
00000000
00000000
00000000
10000000
00010000
10000000
00010000
10000000
00000000
00000000
00000000
00100000
00000000
10000000
00000000
01000000
00000000
00100000
00000000
00001000
00000000
00010000
00000000
,
00022000
00000000
00000000
00000000
00033000
00000000
00010000
00001000
00000010
00000000
00000001
00000100
00001000
00000000
00000000
00000000
,
00011000
00000000
00000000
00001000
00010000
00000000
00001000
00000010
00000100
00000010
00000001
00000010
00000100
00000010
00001000
00010000
,
00002000
00000000
00000000
00003000
00000000
00000000
00002000
00000000
00000000
00003000
00000000
00000000
00011000
00000000
00000000
00000000
00000000
00000000
00010000
00000000
00000000
01000000
00000000
00000000
10000000
00000000
00000000
00000000
00000000
00000000
00010000
00000000
00100000
00000000
01000000
00000000
10000000
00000000
00000000
00000000
00010000
00000000
00000000
00000000
01000000
00000000
00000000
00000000
,
02200000
00000000
00000000
00000000
03300000
00000000
10000000
01000000
00100000
00000000
10000000
00100000
01000000
00010000
00001000
00010000
,
00022000
00000000
00000000
00000000
00033000
00000000
00010000
00001000
00000100
00000000
00000001
00000010
00001000
00000000
00000000
00000000
,
00011000
00000000
00010000
00001000
00010000
01000000
00100000
01000000
10000000
00000000
01000000
00100000
01000000
00010000
00001000
00010000
,
00011000
00000000
00000000
00000000
00010000
00001000
00000100
00000001
00001000
00000000
00000100
00000010
00000001
00001000
00000001
00001000
,
00000010
00000000
00000000
00000000
00000100
00000000
00000000
00000000
00001000
00000000
00000000
00000000
00010000
00001000
00010000
00001000
00010000
00000000
00000000
00000000
00001000
00000000
00100000
00000000
00010000
00000000
10000000
00000000
00100000
00000000
01000000
00000000
,
00010000
00000000
10000000
00000000
01000000
00000000
00010000
00001000
00000010
00000000
00000001
00000100
00001000
00000000
00000000
00000000
,
00011000
00000000
00000000
00010000
00001000
00000000
00000100
00000010
00000100
00000001
00000100
00000010
00000100
00001000
00010000
00001000
,
00020000
00000000
00000000
00000000
00001000
00000000
00031000
00010000
00001000
01000000
00010000
10000000
01000000
00100000
00001000
00010000
,
00011000
00000000
00010000
00001000
00000100
00000010
00001000
00000100
00000010
00000001
00001000
00000010
00000100
00001000
00010000
00100000
,
10000000
00010000
00100000
01000000
10000000
00010000
01000000
00100000
01000000
10000000
01000000
00100000
00010000
00001000
00000100
00001000
,
00011000
00000000
00001000
00010000
01000000
00100000
00010000
01000000
00100000
10000000
00010000
00100000
01000000
00010000
00001000
00000010
,
00000001
00001000
00000010
00000100
00000001
00001000
00000100
00000010
00000100
00000001
00000100
00000010
00001000
00010000
01000000
00010000
,
00022000
00000000
00000000
00000000
00000000
00000000
00000000
00000000
00033000
00000000
00000000
00000000
00010000
00001000
00010000
00001000
00010000
00000000
00000000
00000000
00001000
00000000
00010000
00000000
00100000
00000000
01000000
00000000
00100000
00000000
00010000
00000000
,
00001000
00000100
00000001
00000010
00001000
00010000
01000000
10000000
00100000
00010000
00000000
00000000
,
00011000
00000000
00001000
00010000
00001000
01000000
00100000
10000000
10010000
00000000
11000000
00000000
00000000
01010000
00000000
00000000
,
00011000
00000000
00000000
00001000
00010000
00000010
00000100
00000001
00001001
00000000
00001000
00000100
00000000
00000001
00000100
00000000
,
00000110
00000000
00000000
00000001
00000100
00000010
00010000
00001000
01001000
00000000
01010000
00000000
00000000
11000000
00000000
00000000
,
10010000
00000000
00000000
10000000
01000000
00100000
01000000
00010000
00011000
00000000
00001000
00010000
00000000
00000000
00011000
00000000
,
00001000
00000000
00000000
00000000
00000000
00000000
00000000
00000000
00000000
00000000
00000000
00000000
00000000
00000000
00000000
00000000
00000000
00000000
00000000
00000000
00000000
00000000
00000000
00000000
00000010
00000000
00000000
00000000
00000000
00000000
00000000
00000000
00000000
00000000
00000000
00000000
00000000
00000000
00000000
00000000
00000000
00000000
00000000
00000000
00000000
00000000
00000000
00000000
00000001
00000000
00000000
00000000
00000000
00000000
00000000
00000000
00000000
00000000
00000000
00000000
00000000
00000000
00000000
00000000
00000000
00000000
00000000
00000000
00000000
00000000
00000000
00000000
00001000
00000000
00000000
00000000
00000000
00000000
00000000
00000000
00000001
00000000
00000000
00000000
00000000
00000000
00000000
00000000
00000100
00000000
00000000
00000000
00000000
00000000
00000000
00000000
00000020
00000000
00000000
00000000
00000000
00000000
00000000
00000000
00000000
00000000
00000000
00000000
00001000
00000000
00000000
00000000
00000000
00000000
00000000
00000000
00000000
00000000
00000000
00000000
00000100
00000000
00000000
00000000
00000000
00000000
00000000
00000000
00000000
00000030
00000000
00000000
00000020
00000000
00000000
00000000
00000000
00000000
00000000
00000000
00000000
00000000
00000000
00000000
00000001
00000000
00000000
00000000
00000000
00000000
00000000
00000000
00000000
00000000
00000000
00000000
00000100
00000000
00000000
00000000
00000000
00000000
00000000
00000000
00000000
00000030
00000000
00000000
00000020
00000000
00000000
00000000
00000000
00000000
00000000
00000000
00000000
00000000
00000000
00000000
00001000
00000000
00000000
00000000
00000000
00000000
00000000
00000000
00000000
00000000
00000000
00000000
,
00000100
00000000
00000000
00000000
00000000
00000000
00000000
00000000
00000000
00000030
00000000
00000000
00000010
00000000
00000000
00000000
00000000
00000000
00000000
00000000
00000000
00000000
00000000
00000000
00000001
00000000
00000000
00000000
00000000
00000000
00000000
00000000
00000000
00000000
00000000
00000000
00001000
00000000
00000000
00000000
00000000
00000000
00000000
00000000
00000000
00000000
00000000
00000000
00000001
00000000
00000000
00000000
00000000
00000000
00000000
00000000
00000000
00000000
00000000
00000000
00000100
00000000
00000000
00000000
00000000
00000000
00000000
00000000
00000000
00000000
00000000
00000000
00000010
00000000
00000000
00000000
00000000
00000000
00000000
00000000
00000000
00000000
00000000
00000000
00000100
00000000
00000000
00000000
00000000
00000000
00000000
00000000
00000000
00000000
00000000
00000000
00001000
00000000
00000000
00000000
00000000
00000000
00000000
00000000
00000000
00000000
00000000
00000000
00010000
00000000
00000000
00000000
00000000
00000000
00000000
00000000
00000000
00000000
00000000
00000000
00001000
00000000
00000000
00000000
00000000
00000000
00000000
00000000
00010000
00000000
00000000
00000000
00000000
00000000
00000000
00000000
00001000
00000000
00000000
00000000
00000000
00000000
00000000
00000000
00010000
00000000
00000000
00000000
00000000
00000000
00000000
00000000
00000000
00000000
00000000
00000000
01000000
00000000
00000000
00000000
00000000
00000000
00000000
00000000
00000000
00000000
00000000
00000000
00000000
00000000
00000000
00000000
00000000
00000000
00000000
00000000
00000000
00000000
00000000
00000000
01000000
00000000
00000000
00000000
00000000
00000000
00000000
00000000
00000000
00000000
00000000
00000000
,
10000000
00010000
00100000
01000000
00010000
00001000
00010000
00000100
00000010
00000001
00000100
00001000
00010000
00001000
01000000
00001000
,
00022000
00000000
00000000
00000000
00000000
00000000
00000000
00000000
00000000
00000000
00000000
00000000
00033000
00000000
00010000
00001000
,
00011000
00000000
00000000
00000000
00000000
00000000
00000000
00000000
00000000
00000000
00000000
00000000
00000000
00000000
00000000
00000000
00000000
00000000
00000000
00000000
00000000
00000000
00000000
00000000
00022000
00000000
00000000
00033000
00000000
00000000
00000000
00000000
00000000
00000000
00000000
00000000
00010000
00000000
00000000
00000000
00000000
00000000
00000000
00000000
00000000
00000000
00000000
00000000
00001000
00000000
00000000
00000000
00000000
00000000
00000000
00000000
00000000
00000000
00000000
00000000
00002200
00000000
00000000
00003300
00000000
00000000
00000000
00000000
00000000
00000000
00000000
00000000
00000100
00000000
00000000
00000000
00000000
00000000
00000000
00000000
00000000
00000000
00000000
00000000
00000001
00000000
00000000
00000000
00000000
00000000
00000000
00000000
00000000
00000000
00000000
00000000
00002002
00000000
00000000
00003003
00000000
00000000
00000000
00000000
00000000
00000000
00000000
00000000
00000001
00000000
00000000
00000000
00000000
00000000
00000000
00000000
00000000
00000000
00000000
00000000
00000010
00000000
00000000
00000000
00000000
00000000
00000000
00000000
00000000
00000000
00000000
00000000
00002020
00000000
00000000
00003030
00000000
00000000
00000000
00000000
00000000
00000000
00000000
00000000
00001000
00000000
00000000
00000000
00000000
00000000
00000000
00000000
00000000
00000000
00000000
00000000
00010000
00000000
00000000
00000000
00000000
00000000
00000000
00000000
00000000
00000000
00000000
00000000
00022000
00000000
00000000
00033000
00000000
00000000
00000000
00000000
00001000
00000000
00000000
00000000
00000000
00000000
00000000
00000000
00010000
00000000
00000000
00000000
00000000
00000000
00000000
00000000
,
01000000
10000000
00100000
00000000
00000000
00000000
00022000
00000000
00000000
00000000
00000000
00000000
00000000
00000000
00000000
00000000
00000000
00000000
00000000
00000000
00000000
00000000
00000000
00000000
,
00033000
00000000
00000000
00000000
;
