#VERSION:0.83;
#TITLE:鬼天;
#ARTIST:兎々;
#TITLETRANSLIT:Onigami;
#ARTISTTRANSLIT:Totto;
#GENRE:ASURA TEK CORE;
#BANNER:Onigami.png;
#BACKGROUND:Onigami-bg.png;
#CDTITLE:./CDTitles/RB groovin'!!.png;
#MUSIC:Onigami.ogg;
#SAMPLESTART:77.515;
#SAMPLELENGTH:15;
#BPMS:0=161;
#BGSTAGE:30;

//--------------- dance-single - Fred-104 ----------------
#NOTEDATA:;
#STEPSTYPE:dance-single;
#DESCRIPTION:Fred-104;
#DIFFICULTY:Beginner;
#METER:4;
#CREDIT:Fred-104;
#NOTES:
0000
0000
0000
0000
,
0000
0000
0000
0000
,
0000
0000
0000
0000
,
0000
0000
0000
0000
,
0000
0000
0000
0000
,
0000
0000
0000
0000
,
1000
0000
0000
0000
,
0000
0000
0000
0000
,
0001
0000
0000
0000
,
1000
0000
0001
0000
,
1001
0000
0000
0000
,
0000
0000
0000
0000
,
1000
0000
1000
0000
,
0001
0000
0100
0100
,
0100
0000
0001
0000
,
1000
0000
0010
0010
,
0010
0000
1000
0000
,
0001
0000
1000
1000
,
1000
0000
0001
0000
,
1000
0000
0001
0000
,
1000
0000
0100
0000
,
2000
0000
3000
0000
,
0001
0000
0100
0000
,
0002
0000
0003
0000
,
1000
1000
1000
0000
,
0001
0001
0001
0000
,
0100
0000
0010
0000
,
1001
0000
0000
0000
,
1000
1000
1000
0000
,
0010
0000
1000
0000
,
0100
0100
0100
0000
,
0010
0000
0001
0000
,
1000
1000
1000
0000
,
0001
0001
0001
0000
,
0100
0000
0010
0000
,
2002
0000
0000
3003
,
1000
0000
0010
0000
,
1000
0000
0100
0100
,
0100
0000
0010
0000
,
0100
0000
0001
0001
,
0001
0000
1000
0000
,
0001
0000
1000
1000
,
1000
0000
0010
0000
,
1000
0000
0001
0000
,
2000
0000
0000
0000
,
0000
0000
3000
0000
,
0002
0000
0000
0000
,
0000
0000
0003
0000
,
2000
0000
0000
0000
,
3000
0000
0000
0000
,
0002
0000
0000
0000
,
0003
0000
0000
0000
,
1000
0000
0010
0000
,
1000
0000
0100
0000
,
0010
0000
0001
0000
,
1000
0000
0001
0001
,
0001
0000
0100
0000
,
0010
0000
1000
0000
,
0001
0000
0010
0000
,
0100
0000
1000
1000
,
1000
0000
0001
0000
,
1000
0000
0100
0100
,
0100
0000
1000
0000
,
0010
0000
0100
0100
,
0100
0000
0001
0000
,
1000
0000
0001
0000
,
1000
0000
0001
0000
,
2002
0000
3003
0000
,
2000
0000
0000
0000
,
3000
0000
0000
0000
,
0002
0000
0000
0000
,
0003
0000
0000
0000
,
2002
0000
0000
0000
,
0000
0000
0000
0000
,
0000
0000
0000
0000
,
3003
0000
0000
0000
;

//--------------- dance-single - Fred-104 ----------------
#NOTEDATA:;
#STEPSTYPE:dance-single;
#DESCRIPTION:Fred-104;
#DIFFICULTY:Easy;
#METER:8;
#CREDIT:Fred-104;
#NOTES:
0000
0000
0000
0000
,
0000
0000
0000
0000
,
0000
0000
0000
0000
,
0000
0000
0000
0000
,
0000
0000
0000
0000
,
0000
0000
0000
0000
,
1010
0000
0000
1001
0000
0000
0000
0000
,
0001
1000
0001
0010
,
0011
0000
0000
1001
0000
0000
0000
0000
,
1000
0010
0100
0001
,
2002
0000
0000
0000
,
3003
0000
0000
0000
,
1000
0010
0001
0100
,
1000
0000
0010
0000
1000
0010
0100
0000
,
0001
0100
1000
0010
,
0001
0000
0100
0000
0001
1000
0010
0000
,
1000
0010
0001
0100
,
1000
0000
0100
0000
1000
0010
0100
0000
,
0001
0010
1000
0100
,
0001
0100
0001
0000
1000
0010
1000
0000
,
0001
0100
0001
0000
0100
0010
0100
0000
,
0020
1030
0200
0310
,
0100
1000
0100
0000
1000
0010
1000
0000
,
0002
0103
0020
0130
,
0001
0000
0100
0001
0100
0000
0010
0000
,
0100
0000
0010
1000
0010
0000
1000
0000
,
0001
1000
0001
0000
0100
0000
0010
0000
,
2000
3020
0230
0302
,
0103
0010
0100
0000
0001
0010
0001
0000
,
0200
0320
2030
3200
,
1300
0010
1000
0000
0010
0100
0010
0000
,
2000
3002
0203
0320
,
1030
0010
1000
0000
0001
0100
0001
0000
,
0100
0010
0100
0000
0010
1000
0010
0000
,
1000
0001
0010
0100
,
2000
3200
0320
0032
,
1003
0100
0001
0010
,
1000
0000
0100
0000
1000
0100
0010
0000
,
0001
0010
1000
0100
,
0001
0000
0010
0000
0001
1000
0100
0000
,
1000
0100
0001
0010
,
1000
0000
0010
0000
1000
0100
0010
0000
,
0001
0100
1000
0010
,
0001
0010
0001
0000
1000
0100
1000
0000
,
2002
0000
0000
0000
,
0000
0000
3003
0000
,
0220
0000
0000
0000
,
0000
0000
0330
0000
,
0110
0000
0000
0110
0000
0000
0000
0000
,
0001
0100
0010
1000
,
1100
0000
0000
0011
0000
0000
0110
0000
,
2002
0000
3003
0000
,
2000
0000
3010
1000
,
0200
0000
0310
0001
,
2000
0000
3002
0000
,
0203
0320
2030
3200
,
0320
0000
0031
1000
,
0020
0000
1030
0001
,
0200
0000
0301
0010
,
0200
0000
0000
0000
1300
0000
0010
1000
,
0020
0100
1000
0130
,
2000
0100
0010
3100
,
2000
0001
0100
3001
,
0020
0032
0203
0301
,
1001
0000
0110
0000
,
1002
0203
0320
2030
,
3001
0000
1000
0000
0100
0000
0010
0001
,
0200
0000
0020
0330
,
2000
0000
0000
0010
0000
0000
3010
0000
,
0100
0001
1000
0001
,
0020
0000
0000
0001
0000
0000
0031
0000
,
0100
0000
0010
0000
1000
0001
1000
0000
,
2002
0000
0000
0000
,
0000
0000
0000
0000
,
0000
0000
0000
0000
,
3003
0000
0000
0000
;

//--------------- dance-single - Fred-104 ----------------
#NOTEDATA:;
#STEPSTYPE:dance-single;
#DESCRIPTION:Fred-104;
#DIFFICULTY:Medium;
#METER:12;
#CREDIT:Fred-104;
#NOTES:
0000
0000
0000
0000
,
0000
0000
0000
0000
,
0000
0000
0000
0000
,
0000
0000
0000
0000
,
0000
0000
0000
0000
,
0000
0000
0000
0000
,
1100
0000
0000
0110
0000
0000
0000
0000
,
0010
0000
0001
0000
1000
0001
0100
0000
,
0101
0000
0000
0110
0000
0000
0010
0000
,
1000
0100
1000
0010
1000
0100
0010
0001
,
2002
0000
0000
3003
,
1000
0100
0100
1000
0100
0100
1000
0000
,
1000
0000
0000
1100
0000
0000
0100
0000
0010
0000
0000
0011
0000
0000
0001
0000
,
0100
0000
0000
0110
0000
0000
0010
0000
2000
0000
0000
0000
3002
0000
0000
0000
,
0103
0000
0000
0101
0000
0000
0001
0000
0010
0000
0000
0110
0000
0000
0100
0000
,
1000
0000
0000
1010
0000
0000
0010
0000
2000
0000
0000
0000
3002
0000
0000
0000
,
1003
0000
0000
1100
0000
0000
0100
0000
0001
0000
0000
0101
0000
0000
0100
0000
,
1000
0000
0000
1010
0000
0000
0010
0000
0200
0000
0000
0000
0302
0000
0000
0000
,
1003
0000
0000
1010
0000
0000
0010
0000
0001
0000
0000
0011
0000
0000
0010
0000
,
2000
0000
3002
0000
1003
0100
0001
0100
,
1000
0000
0000
1000
0100
0000
0000
0100
0010
0000
0001
0000
1000
0000
0000
0000
,
0001
0100
1000
0000
0001
0010
1000
0000
,
0001
0000
0000
0001
0100
0000
0000
0100
0010
0000
1000
0000
0001
0000
0000
0000
,
1000
0010
0100
0000
1000
0100
0010
0000
,
1000
0000
0000
1000
0100
0000
0010
0000
0001
0000
0000
0001
0100
0000
0010
0000
,
0100
0000
0000
0100
0001
0000
0010
0000
0100
0000
0000
0100
1000
0000
0010
0000
,
0200
0001
1000
0301
,
0020
0001
1030
1001
,
0001
0000
0000
0001
0010
0000
0000
0010
0100
0000
1000
0000
0010
0000
0100
0000
,
0010
0000
0000
0010
1000
0000
0000
1000
0100
0000
0000
0100
0010
0000
0001
0000
,
1000
0000
0000
1000
0001
0000
0000
0001
0010
0000
0100
0000
0010
0000
0001
0000
,
0100
0000
0000
0100
0010
0000
0000
0010
1000
0000
0000
1000
0100
0000
0010
0000
,
0001
0000
0000
0001
0100
0000
0010
0000
1000
0000
0000
1000
0001
0000
0010
0000
,
0100
0000
0000
0100
1000
0000
0010
0000
0100
0000
1000
0000
0100
0000
0001
0000
,
1000
0000
0000
1000
0001
0000
0000
0001
1000
0000
0010
0000
0001
0000
0010
0000
,
0200
0001
1300
1001
,
0001
0000
0000
0101
0000
0000
0010
0000
1000
0000
0000
1100
0000
0000
0010
0000
,
0001
0000
0000
1001
0000
0000
1000
0000
0020
0000
0000
0000
0230
0000
0000
0000
,
0302
0000
0000
0010
0000
0000
0013
0000
0002
0000
0000
0100
0000
0000
0103
0000
,
0010
0000
0000
1010
0000
0000
1000
0000
0200
0000
0000
0000
0320
0000
0000
0000
,
0130
0000
0000
1100
0000
0000
1000
0000
0010
0000
0000
0110
0000
0000
0100
0000
,
0001
0000
0000
1001
0000
0000
1000
0000
0002
0000
0000
0000
2003
0000
0000
0000
,
3001
0000
0000
0101
0000
0000
0100
0000
1000
0000
0000
1100
0000
0000
0100
0000
,
0001
0100
1000
0100
0001
0010
0100
1000
,
0002
0000
0010
0000
,
0100
0000
0010
0003
,
2000
0000
0010
0000
,
0100
0000
0010
3000
,
1100
0000
0000
0110
0000
0000
0000
0000
,
0010
0000
0001
0000
,
1000
0000
0001
0000
0100
0000
0010
0000
0100
0001
1000
0000
0001
1000
0100
0000
,
1000
0000
0000
1000
0000
0000
1000
0000
0001
0000
0100
0010
0200
0000
0000
0000
,
0301
0000
0000
0001
0010
0000
0000
0010
0100
0000
0000
0100
1000
0000
0001
0000
,
0100
0000
0000
0100
0010
0000
0000
0010
1000
0000
0000
1000
0100
0000
0010
0000
,
0100
0000
0000
0100
1000
0000
0000
1000
0010
0000
0000
0010
0100
0000
0000
0100
,
0001
0000
0000
0001
0010
0000
0100
0000
1000
0000
0010
0000
0100
0000
0001
0000
,
1000
0000
0000
1000
0100
0000
0000
0100
0010
0000
0000
0010
0001
0000
0100
0000
,
1000
0000
0000
1000
0100
0000
0000
0100
0001
0000
0000
0001
0010
0000
0100
0000
,
1000
0000
0000
1000
0010
0000
0000
0010
0100
0000
0000
0100
0010
0000
1000
0000
,
0200
0000
1000
0000
0001
0000
1300
0001
,
1000
0100
1000
0010
0100
0001
1000
0000
,
0200
0000
1000
0000
0001
0000
0301
0100
,
1000
0001
0010
0100
0010
0001
1000
0100
,
0020
0001
0230
1000
,
0301
0100
1000
0000
0100
0010
0001
0000
,
1000
0001
0100
0000
0001
1000
0100
0000
,
1000
0100
0001
0100
1000
0010
0100
0010
,
0200
0000
0020
0330
,
2001
0000
0000
0001
0000
0000
3100
0000
,
0010
1000
0100
0010
,
0021
0000
0000
0001
0000
0000
1030
0000
,
0001
0100
1000
0100
0001
1000
0010
0000
,
0220
0000
0000
0000
,
0000
0000
0000
0000
,
0000
0000
0000
0000
,
0330
0000
0000
0000
;

//--------------- dance-single - Fred-104 ----------------
#NOTEDATA:;
#STEPSTYPE:dance-single;
#DESCRIPTION:Fred-104;
#DIFFICULTY:Hard;
#METER:16;
#CREDIT:Fred-104;
#NOTES:
0000
0000
0000
0000
,
0000
0000
0000
0000
,
0000
0000
0000
0000
,
0000
0000
0000
0000
,
0000
0000
0000
0000
,
0000
0000
0000
0000
,
1010
0000
0000
0101
0000
0000
0010
0000
,
1000
0010
0100
0001
1000
0100
0010
0001
,
1000
0100
0001
1000
0010
0001
1000
0001
,
0100
0010
0100
0000
0001
0100
0001
0000
1000
0010
1000
0010
0100
0001
0100
0001
,
2000
0000
0000
3000
,
0001
1000
0001
1000
0100
0010
0001
0000
0100
0000
0010
1000
0001
0000
0000
0000
,
1000
0000
0000
1100
0000
0000
0100
1000
0020
0000
0000
0130
0000
0000
0001
0010
,
0100
0000
0000
0110
0000
0000
0010
0001
1000
0100
1000
0010
0100
0010
1000
0001
,
0100
0000
0000
0110
0000
0000
0010
1000
0002
0000
0000
0103
0000
0000
0010
1000
,
0100
0000
0000
1100
0000
0000
1000
0000
0010
1000
0100
1000
0010
1000
0001
0100
,
0001
0000
0000
0101
0000
0000
0100
0010
2000
0000
0000
3001
0000
0000
1000
0100
,
0010
0000
0000
0011
0000
0000
0001
1000
0010
0100
0010
1000
0100
0010
0001
1000
,
0001
0000
0000
0101
0000
0000
0100
1000
0200
0000
0000
0301
0000
0000
0010
0000
,
0100
1000
0010
0000
0100
0001
0010
0000
0100
1000
0001
1000
0100
1000
0001
1000
,
0100
0000
0010
0001
0010
0000
0010
0001
0010
0000
0001
0000
0100
0000
0010
0000
,
1000
0000
0000
0001
0100
0000
0000
1000
0100
0000
0010
1000
0100
0000
0010
0000
,
0001
0000
1000
0010
1000
0000
1000
0010
1000
0000
0010
0000
0100
0000
0001
0000
,
1000
0000
0000
0100
0010
0000
0000
0001
0100
0000
0010
0001
0010
0000
1000
0000
,
0001
0000
0001
0100
0010
0000
0010
0000
1000
0000
1000
0100
0010
0000
0010
0000
,
0001
0000
1000
0001
0100
0000
0010
0000
1000
0000
0010
1000
0001
0100
0001
0010
,
0200
1000
0010
0000
1000
0000
0301
0000
,
1100
0000
1000
0010
0100
0000
0001
0000
1000
0100
0010
0000
0001
0100
0010
0000
,
0200
0000
0010
1300
0200
0000
0010
0301
0100
0000
0010
1000
0001
0000
0010
0000
,
0001
0000
0000
0100
0010
0000
0000
0001
0010
0000
1000
0001
1000
0000
0001
0000
,
0200
0000
0001
0310
0200
0000
1000
0310
0100
0000
0001
1000
0010
0000
1000
0000
,
0001
0000
0000
1000
0100
0000
0000
0010
1000
0000
0010
0001
1000
0000
0001
0000
,
1000
0000
1000
0100
0010
0000
0010
0000
0001
0000
0001
0100
0010
0000
0010
0000
,
1000
0000
0001
1000
0010
0000
0100
0000
0001
0100
0001
0100
0010
0000
1000
0000
,
0001
0000
1000
0001
0010
0000
1000
0010
0001
0000
1000
0010
0100
0000
0001
0000
,
2000
0000
0000
0000
0010
0000
0000
0000
3001
0000
1000
0001
1000
0000
0000
0000
,
1100
0000
0000
0110
0000
0000
0010
0001
1000
0000
0000
1001
0000
0000
0001
0100
,
0010
0000
0000
1010
0000
0000
1000
0010
0100
0001
1000
0000
0001
1000
0010
0000
,
0200
0000
0000
0010
0000
0000
0310
1000
0002
0000
0000
0010
0000
0000
0013
0001
,
2000
0000
0000
0100
0000
0000
3100
0000
1000
0010
0100
0010
1000
0001
0010
0001
,
1000
0000
0000
1100
0000
0000
0100
0001
0100
0000
0000
1100
0000
0000
0001
1000
,
0200
0000
0000
1000
0000
0000
1300
0001
0010
0001
0100
0000
0010
1000
0001
0000
,
0100
0000
0000
0110
0000
0000
0010
1000
0001
0000
0000
0101
0000
0000
0100
0010
,
1000
0100
0010
0000
0001
0100
0010
0000
1000
0100
1000
0001
0100
0001
1000
0100
,
0020
0000
0000
0001
0000
0000
0000
0000
,
1000
0000
0031
0000
,
0200
0000
0000
0010
0000
0000
0000
0000
,
1000
0001
1300
0000
,
1001
0000
0000
0110
0000
0000
0000
0000
,
1000
0100
1000
0010
0100
0010
1000
0001
,
1000
0100
1000
0100
0010
0100
0010
0100
0010
0001
0010
0001
1000
0001
0100
0001
,
2000
0000
0000
3020
0000
0000
0032
0000
0013
1000
0010
0100
0002
0000
0000
0000
,
1003
0000
0100
1000
0010
0000
0100
0000
0001
0000
0010
0001
1000
0000
0010
0000
,
0100
0000
0001
1000
0100
0000
0010
0000
0001
0000
1000
0010
0100
0000
0010
1000
,
0100
0000
0010
0001
1000
0000
0010
0000
0100
0000
0001
0010
0100
0000
0010
0001
,
1000
0000
0001
1000
0100
0000
0010
0000
0001
0000
1000
0010
0100
0010
1000
0010
,
0100
0000
0001
0010
0100
0000
1000
0000
0001
0000
1000
0010
0100
0000
0010
0000
,
1000
0000
0001
0010
0100
0000
0010
0000
0001
0000
1000
0010
0100
0000
0010
1000
,
0100
0000
0010
0001
1000
0000
0001
0000
0100
0000
0001
0100
0010
0000
0100
0001
,
0020
0000
0000
0000
0001
0000
0000
0000
1000
0000
0000
0000
0031
1000
0001
1000
,
0200
0000
1000
0001
0300
0000
0001
1000
0200
0000
1000
0001
0300
0000
0001
1000
,
0020
0000
1000
0001
0030
0000
0001
1000
0020
0000
1000
0001
0030
0000
0001
1000
,
0200
0000
0010
0001
0300
0000
0010
1000
0100
0000
0010
0001
0100
0000
0010
0000
,
1000
0000
0001
1000
0010
0000
1000
0001
0100
0000
0010
1000
0001
0000
1000
0000
,
0001
0000
0100
1000
0100
0000
0010
0000
1000
0000
0100
0001
0100
0000
0010
0001
,
1000
0000
0010
1000
0100
0000
0010
0001
1000
0000
0001
0100
0010
0000
1000
0000
,
0001
0000
0010
1000
0010
0000
0001
0100
0010
0000
1000
0010
0100
0001
1000
0001
,
0020
0000
0200
0330
,
2010
0000
0000
0010
0000
0000
0100
0000
,
3002
0010
2003
0100
,
3002
0000
0000
0100
0000
0000
0010
0000
,
0103
0000
0001
0000
0010
0001
1000
0000
0010
0000
0100
0001
1000
0100
0010
0001
,
2000
0000
0000
0000
,
0000
0000
0000
0000
,
0000
0000
0000
0000
,
3000
0000
0000
0000
;

//--------------- dance-single - Fred-104† ----------------
#NOTEDATA:;
#STEPSTYPE:dance-single;
#DESCRIPTION:Fred-104†;
#DIFFICULTY:Challenge;
#METER:18;
#CREDIT:Fred-104†;
#NOTES:
0000
0000
0000
0000
,
0000
0000
0000
0000
,
0000
0000
0000
0000
,
0000
0000
0000
0000
,
0000
0000
0000
0000
,
0000
0000
0000
0000
,
0110
0000
0000
1001
0000
0000
0000
0000
,
0000
0000
0000
0000
,
1010
0000
0000
0101
0000
0000
0000
0000
,
1000
0100
1000
0100
0010
1000
0010
1000
0001
0100
0001
0100
0010
0001
0010
0001
,
2000
0000
0000
3000
,
0001
0100
1000
0100
0001
0010
0100
0000
1000
0010
0100
0001
1000
0000
0000
0000
,
0001
0000
0000
0101
0000
0000
0100
1000
0100
0000
0000
0101
0000
0000
0001
0010
,
0100
0000
0000
1100
0000
0000
1000
0001
0100
0010
1000
0001
0010
0001
0100
0010
,
1000
0000
0000
1010
0000
0000
0010
0001
0010
0000
0000
1010
0000
0000
1000
0100
,
0001
0000
0000
0101
0000
0000
1100
0000
1000
0100
0010
0001
1000
0100
0010
0001
,
0100
0000
0000
0110
0000
0000
0010
0001
0010
0000
0000
1010
0000
0000
1000
0001
,
0100
0000
0000
0110
0000
0000
1000
0100
0010
0001
1000
0001
0100
0010
1000
0001
,
0010
0000
0000
1010
0000
0000
0010
0001
1000
0000
0000
1100
0000
0000
0100
0010
,
0001
0100
0120
0030
1000
0100
0120
0030
0001
0010
0100
1000
0100
0010
0001
1000
,
0020
0000
0000
0000
0000
0000
0000
0000
0000
0000
0000
0000
0000
0000
0000
0000
0000
0000
0000
0000
0000
0000
0000
0000
1000
0000
0000
0000
0000
0000
0000
0000
0000
0000
0000
0000
0100
0000
0000
0000
0000
0000
0000
0000
0000
0000
0000
0030
0020
0000
0000
0000
0000
0000
0000
0000
0000
0000
0000
0000
0000
0000
0000
0000
0000
0000
0000
0000
0000
0000
0000
0000
0001
0000
0000
0000
0000
0000
0000
0000
0000
0000
0000
0000
0100
0000
0000
0000
0000
0000
0000
0000
0000
0000
0000
0030
0020
0000
0000
0000
0000
0000
0000
0000
0000
0000
0000
0000
0000
0000
0000
0000
0000
0000
0000
0000
0000
0000
0000
0000
1000
0000
0000
0000
0000
0000
0000
0000
0000
0000
0000
0000
0001
0000
0000
0000
0000
0000
0000
0000
0000
0000
0000
0030
0010
0000
0000
0000
0000
0000
0000
0000
0000
0000
0000
0000
0000
0000
0000
0000
0000
0000
0000
0000
0000
0000
0000
0000
0001
0000
0000
0000
0000
0000
0000
0000
0000
0000
0000
0000
0000
0000
0000
0000
0000
0000
0000
0000
0000
0000
0000
0000
,
1002
0000
0000
0000
0000
0000
0000
0000
0000
0000
0000
0000
0000
0000
0000
0000
0000
0000
0000
0000
0000
0000
0000
0000
1003
0000
0000
0000
0000
0000
0000
0000
0000
0000
0000
0000
0100
0000
0000
0000
0000
0000
0000
0000
0000
0000
0000
0000
0020
0000
0000
0000
0000
0000
0000
0000
0000
0000
0000
0000
0000
0000
0000
0000
0000
0000
0000
0000
0000
0000
0000
0000
0001
0000
0000
0000
0000
0000
0000
0000
0000
0000
0000
0000
0100
0000
0000
0000
0000
0000
0000
0000
0000
0000
0000
0030
0020
0000
0000
0000
0000
0000
0000
0000
0000
0000
0000
0000
0000
0000
0000
0000
0000
0000
0000
0000
0000
0000
0000
0000
1000
0000
0000
0000
0000
0000
0000
0000
0000
0000
0000
0000
0100
0000
0000
0000
0000
0000
0000
0000
0000
0000
0000
0030
0020
0000
0000
0000
0000
0000
0000
0000
0000
0000
0000
0000
0000
0000
0000
0000
0000
0000
0000
0000
0000
0000
0000
0000
0032
0000
0000
0000
0000
0000
0000
0000
0000
0000
0000
0000
0000
0000
0000
0000
0000
0000
0000
0000
0000
0000
0000
0000
,
0203
0000
0000
0000
0000
0000
0000
0000
0000
0000
0000
0000
0000
0000
0000
0000
0000
0000
0000
0000
0000
0000
0000
0000
0001
0000
0000
0000
0000
0000
0000
0000
0000
0000
0000
0000
0010
0000
0000
0000
0000
0000
0000
0000
0000
0000
0000
0300
0200
0000
0000
0000
0000
0000
0000
0000
0000
0000
0000
0000
0000
0000
0000
0000
0000
0000
0000
0000
0000
0000
0000
0000
1000
0000
0000
0000
0000
0000
0000
0000
0000
0000
0000
0000
0010
0000
0000
0000
0000
0000
0000
0000
0000
0000
0000
0300
0200
0000
0000
0000
0000
0000
0000
0000
0000
0000
0000
0000
0000
0000
0000
0000
0000
0000
0000
0000
0000
0000
0000
0000
0001
0000
0000
0000
0000
0000
0000
0000
0000
0000
0000
0000
1000
0000
0000
0000
0000
0000
0000
0000
0000
0000
0000
0300
0100
0000
0000
0000
0000
0000
0000
0000
0000
0000
0000
0000
0000
0000
0000
0000
0000
0000
0000
0000
0000
0000
0000
0000
1000
0000
0000
0000
0000
0000
0000
0000
0000
0000
0000
0000
0000
0000
0000
0000
0000
0000
0000
0000
0000
0000
0000
0000
,
2001
0000
0000
0000
0000
0000
0000
0000
0000
0000
0000
0000
0000
0000
0000
0000
0000
0000
0000
0000
0000
0000
0000
0000
3001
0000
0000
0000
0000
0000
0000
0000
0000
0000
0000
0000
0010
0000
0000
0000
0000
0000
0000
0000
0000
0000
0000
0000
0200
0000
0000
0000
0000
0000
0000
0000
0000
0000
0000
0000
0000
0000
0000
0000
0000
0000
0000
0000
0000
0000
0000
0000
1000
0000
0000
0000
0000
0000
0000
0000
0000
0000
0000
0000
0010
0000
0000
0000
0000
0000
0000
0000
0000
0000
0000
0300
0200
0000
0000
0000
0000
0000
0000
0000
0000
0000
0000
0000
0000
0000
0000
0000
0000
0000
0000
0000
0000
0000
0000
0000
0001
0000
0000
0000
0000
0000
0000
0000
0000
0000
0000
0000
0010
0000
0000
0000
0000
0000
0000
0000
0000
0000
0000
0300
0200
0000
0000
0000
0000
0000
0000
0000
0000
0000
0000
0000
0000
0000
0000
0000
0000
0000
0000
0000
0000
0000
0000
0000
2300
0000
0000
0000
0000
0000
0000
0000
0000
0000
0000
0000
3000
0000
0000
0000
0000
0000
0000
0000
0000
0000
0000
0000
,
2001
0000
3001
0100
0010
0000
1000
0000
1200
0000
1300
0100
0010
0000
0001
0000
,
0201
0000
0301
0100
1000
0000
0100
0000
0120
0000
1030
0100
0010
0001
0010
0100
,
1000
0000
0100
0001
0100
0000
0010
0000
0001
0000
0100
1000
0100
0000
0010
0000
,
1000
0000
0100
0010
0001
0000
1000
0000
0001
0010
0210
0300
1000
0010
0210
0300
,
1002
0000
0000
0000
0000
0000
0000
0000
0000
0000
0000
0000
0000
0000
0000
0000
0000
0000
0000
0000
0000
0000
0000
0000
1003
0000
0000
0000
0000
0000
0000
0000
0000
0000
0000
0000
0001
0000
0000
0000
0000
0000
0000
0000
0000
0000
0000
0000
0200
0000
0000
0000
0000
0000
0000
0000
0000
0000
0000
0000
0000
0000
0000
0000
0000
0000
0000
0000
0000
0000
0000
0000
0001
0000
0000
0000
0000
0000
0000
0000
0000
0000
0000
0000
1000
0000
0000
0000
0000
0000
0000
0000
0000
0000
0000
0300
0200
0000
0000
0000
0000
0000
0000
0000
0000
0000
0000
0000
0000
0000
0000
0000
0000
0000
0000
0000
0000
0000
0000
0000
1000
0000
0000
0000
0000
0000
0000
0000
0000
0000
0000
0000
0001
0000
0000
0000
0000
0000
0000
0000
0000
0000
0000
0300
0100
0000
0000
0000
0000
0000
0000
0000
0000
0000
0000
0000
0010
0000
0000
0000
0000
0000
0000
0000
0000
0000
0000
0000
1000
0000
0000
0000
0000
0000
0000
0000
0000
0000
0000
0000
0000
0000
0000
0000
0000
0000
0000
0000
0000
0000
0000
0000
,
1002
0000
0000
0000
0000
0000
0000
0000
0000
0000
0000
0000
0000
0000
0000
0000
0000
0000
0000
0000
0000
0000
0000
0000
1003
0000
0000
0000
0000
0000
0000
0000
0000
0000
0000
0000
0100
0000
0000
0000
0000
0000
0000
0000
0000
0000
0000
0000
0020
0000
0000
0000
0000
0000
0000
0000
0000
0000
0000
0000
0000
0000
0000
0000
0000
0000
0000
0000
0000
0000
0000
0000
0001
0000
0000
0000
0000
0000
0000
0000
0000
0000
0000
0000
0100
0000
0000
0000
0000
0000
0000
0000
0000
0000
0000
0030
0010
0000
0000
0000
0000
0000
0000
0000
0000
0000
0000
0000
1000
0000
0000
0000
0000
0000
0000
0000
0000
0000
0000
0000
0100
0000
0000
0000
0000
0000
0000
0000
0000
0000
0000
0000
0010
0000
0000
0000
0000
0000
0000
0000
0000
0000
0000
0000
0002
0000
0000
0000
0000
0000
0000
0000
0000
0000
0000
0000
0000
0000
0000
0000
0000
0000
0000
0000
0000
0000
0000
0000
2003
0000
0000
0000
0000
0000
0000
0000
0000
0000
0000
0000
3000
0000
0000
0000
0000
0000
0000
0000
0000
0000
0000
0000
,
1002
0000
0000
0000
0000
0000
0000
0000
0000
0000
0000
0000
0000
0000
0000
0000
0000
0000
0000
0000
0000
0000
0000
0000
1003
0000
0000
0000
0000
0000
0000
0000
0000
0000
0000
0000
0001
0000
0000
0000
0000
0000
0000
0000
0000
0000
0000
0000
0020
0000
0000
0000
0000
0000
0000
0000
0000
0000
0000
0000
0000
0000
0000
0000
0000
0000
0000
0000
0000
0000
0000
0000
0001
0000
0000
0000
0000
0000
0000
0000
0000
0000
0000
0000
1000
0000
0000
0000
0000
0000
0000
0000
0000
0000
0000
0030
0020
0000
0000
0000
0000
0000
0000
0000
0000
0000
0000
0000
0000
0000
0000
0000
0000
0000
0000
0000
0000
0000
0000
0000
1000
0000
0000
0000
0000
0000
0000
0000
0000
0000
0000
0000
0001
0000
0000
0000
0000
0000
0000
0000
0000
0000
0000
0030
0010
0000
0000
0000
0000
0000
0000
0000
0000
0000
0000
0000
0100
0000
0000
0000
0000
0000
0000
0000
0000
0000
0000
0000
1000
0000
0000
0000
0000
0000
0000
0000
0000
0000
0000
0000
0000
0000
0000
0000
0000
0000
0000
0000
0000
0000
0000
0000
,
1002
0000
0000
0000
0000
0000
0000
0000
0000
0000
0000
0000
0000
0000
0000
0000
0000
0000
0000
0000
0000
0000
0000
0000
1003
0000
0000
0000
0000
0000
0000
0000
0000
0000
0000
0000
0010
0000
0000
0000
0000
0000
0000
0000
0000
0000
0000
0000
0200
0000
0000
0000
0000
0000
0000
0000
0000
0000
0000
0000
0000
0000
0000
0000
0000
0000
0000
0000
0000
0000
0000
0000
0001
0000
0000
0000
0000
0000
0000
0000
0000
0000
0000
0000
0010
0000
0000
0000
0000
0000
0000
0000
0000
0000
0000
0300
0100
0000
0000
0000
0000
0000
0000
0000
0000
0000
0000
0000
1000
0000
0000
0000
0000
0000
0000
0000
0000
0000
0000
0000
0010
0000
0000
0000
0000
0000
0000
0000
0000
0000
0000
0000
0100
0000
0000
0000
0000
0000
0000
0000
0000
0000
0000
0000
0001
0000
0000
0000
0000
0000
0000
0000
0000
0000
0000
0000
0000
0000
0000
0000
0000
0000
0000
0000
0000
0000
0000
0000
0100
0000
0000
0000
0000
0000
0000
0000
0000
0000
0000
0000
0000
0000
0000
0000
0000
0000
0000
0000
0000
0000
0000
0000
,
0120
0000
1030
0100
0001
0000
0100
0000
0120
0000
0031
0100
1000
0000
0100
0000
,
0210
0000
0310
1000
0001
0000
0100
0001
1000
0100
0010
0001
0100
0010
1000
0000
,
0001
0000
0000
0000
0000
0000
0010
0000
0000
1000
0000
0000
0010
0000
0000
0000
0000
0000
0001
0000
0000
0100
0000
0000
0010
0000
0000
0000
0000
0000
1000
0000
0010
0000
0100
0000
0001
0000
0000
0000
0000
0000
1000
0000
0000
0000
0000
0000
,
0001
0000
0000
0010
0000
0000
0100
0000
0000
0010
0000
0000
0001
0000
0000
0100
0000
0000
0001
0000
0000
0000
0000
0000
1000
0000
0000
0000
0000
0000
0100
0000
0010
0000
0001
0000
1000
0000
0000
0000
0000
0000
0100
0000
0000
0000
0000
0000
,
1100
0000
0000
1010
0000
0000
0010
0100
0101
0000
0000
0011
0000
0000
0001
1000
,
1010
0000
0000
0101
0000
0000
1000
0010
1000
0100
0120
0030
0001
0100
0120
0030
,
1010
0000
0000
1001
0000
0000
0001
1000
1100
0000
0000
0101
0000
0000
1000
0010
,
0110
0000
0000
0101
0000
0000
1001
0000
1000
0010
0001
0010
0100
0001
1000
0001
,
0011
0000
0000
1010
0000
0000
0010
0001
0101
0000
0000
1100
0000
0000
0100
0001
,
0011
0000
0000
0110
0000
0000
0100
1000
0001
0100
0120
0030
1000
0100
0120
0030
,
1001
0000
0000
1100
0000
0000
0100
0010
0011
0000
0000
0101
0000
0000
0100
0010
,
1000
0100
0010
0001
0100
0010
0001
0010
1000
0001
0100
1000
0100
0010
1000
0001
,
0100
0000
0000
0120
0000
0000
0000
0000
,
2030
0000
0002
3003
,
0102
0000
0000
2000
0000
0000
3003
0000
,
0001
0000
0010
0000
1000
0010
0100
0000
1000
0000
0001
1000
0001
0000
0000
0000
,
1000
0010
1000
0010
0100
0001
0100
0001
0010
0001
0010
0001
1000
0100
1000
0100
,
1000
0001
1000
0001
0100
0010
0100
0010
1000
0001
1000
0001
0010
0100
0010
0100
,
1000
0001
0100
0010
1000
0100
0010
0001
1000
0100
0001
0100
1000
0010
0001
0010
,
2000
0000
0000
3002
0000
0000
0023
0000
0031
0100
0010
1000
0002
0000
0000
0000
,
1003
0100
1000
0100
0010
0100
0010
0100
1000
0010
1000
0010
0100
0001
0100
0010
,
1000
0001
1000
0001
0100
0001
0100
0001
1000
0100
1000
0100
0010
0001
1000
0001
,
0100
0001
0100
0001
1000
0001
1000
0001
0010
0100
0010
0100
1000
0100
0010
0001
,
1000
0010
1000
0010
0100
0001
0100
0001
0100
0010
0100
0010
1000
0001
0010
0100
,
0010
0001
1000
0001
0010
0100
1000
0001
1000
0100
1000
0001
0100
0010
1000
0001
,
1000
0100
0010
0001
0010
0100
1000
0001
0100
0010
1000
0001
0010
0001
1000
0100
,
0001
0100
0001
0100
1000
0001
0100
1000
0100
1000
0100
0001
1000
0100
0010
0001
,
1000
0100
0010
0001
1000
0010
1000
0000
2010
0000
0000
0000
3001
0100
0010
1000
,
0200
0000
0000
0000
0000
0000
0000
0000
0000
0000
0000
0000
0000
0000
0000
0000
0000
0000
0000
0000
0000
0000
0000
0000
1000
0000
0000
0000
0000
0000
0000
0000
0000
0000
0000
0000
0010
0000
0000
0000
0000
0000
0000
0000
0000
0000
0000
0300
0200
0000
0000
0000
0000
0000
0000
0000
0000
0000
0000
0000
0000
0000
0000
0000
0000
0000
0000
0000
0000
0000
0000
0000
0001
0000
0000
0000
0000
0000
0000
0000
0000
0000
0000
0000
0010
0000
0000
0000
0000
0000
0000
0000
0000
0000
0000
0300
0200
0000
0000
0000
0000
0000
0000
0000
0000
0000
0000
0000
0000
0000
0000
0000
0000
0000
0000
0000
0000
0000
0000
0000
1000
0000
0000
0000
0000
0000
0000
0000
0000
0000
0000
0000
0010
0000
0000
0000
0000
0000
0000
0000
0000
0000
0000
0300
0100
0000
0000
0000
0000
0000
0000
0000
0000
0000
0000
0000
0010
0000
0000
0000
0000
0000
0000
0000
0000
0000
0000
0000
1000
0000
0000
0000
0000
0000
0000
0000
0000
0000
0000
0000
0001
0000
0000
0000
0000
0000
0000
0000
0000
0000
0000
0000
,
0020
0000
0000
0000
0000
0000
0000
0000
0000
0000
0000
0000
0000
0000
0000
0000
0000
0000
0000
0000
0000
0000
0000
0000
0001
0000
0000
0000
0000
0000
0000
0000
0000
0000
0000
0000
1000
0000
0000
0000
0000
0000
0000
0000
0000
0000
0000
0030
0020
0000
0000
0000
0000
0000
0000
0000
0000
0000
0000
0000
0000
0000
0000
0000
0000
0000
0000
0000
0000
0000
0000
0000
1000
0000
0000
0000
0000
0000
0000
0000
0000
0000
0000
0000
0001
0000
0000
0000
0000
0000
0000
0000
0000
0000
0000
0030
0020
0000
0000
0000
0000
0000
0000
0000
0000
0000
0000
0000
0000
0000
0000
0000
0000
0000
0000
0000
0000
0000
0000
0000
0001
0000
0000
0000
0000
0000
0000
0000
0000
0000
0000
0000
1000
0000
0000
0000
0000
0000
0000
0000
0000
0000
0000
0030
0010
0000
0000
0000
0000
0000
0000
0000
0000
0000
0000
0000
0100
0000
0000
0000
0000
0000
0000
0000
0000
0000
0000
0000
0001
0000
0000
0000
0000
0000
0000
0000
0000
0000
0000
0000
0010
0000
0000
0000
0000
0000
0000
0000
0000
0000
0000
0000
,
0200
0000
0000
0000
0000
0000
0000
0000
0000
0000
0000
0000
0000
0000
0000
0000
0000
0000
0000
0000
0000
0000
0000
0000
1000
0000
0000
0000
0000
0000
0000
0000
0000
0000
0000
0000
0001
0000
0000
0000
0000
0000
0000
0000
0000
0000
0000
0300
0200
0000
0000
0000
0000
0000
0000
0000
0000
0000
0000
0000
0000
0000
0000
0000
0000
0000
0000
0000
0000
0000
0000
0000
0001
0000
0000
0000
0000
0000
0000
0000
0000
0000
0000
0000
1000
0000
0000
0000
0000
0000
0000
0000
0000
0000
0000
0300
0200
0000
0000
0000
0000
0000
0000
0000
0000
0000
0000
0000
0000
0000
0000
0000
0000
0000
0000
0000
0000
0000
0000
0000
1000
0000
0000
0000
0000
0000
0000
0000
0000
0000
0000
0000
0001
0000
0000
0000
0000
0000
0000
0000
0000
0000
0000
0300
0100
0000
0000
0000
0000
0000
0000
0000
0000
0000
0000
0000
0001
0000
0000
0000
0000
0000
0000
0000
0000
0000
0000
0000
0010
0000
0000
0000
0000
0000
0000
0000
0000
0000
0000
0000
0100
0000
0000
0000
0000
0000
0000
0000
0000
0000
0000
0000
,
0020
0000
0000
0000
0000
0000
0000
0000
0000
0000
0000
0000
0000
0000
0000
0000
0000
0000
0000
0000
0000
0000
0000
0000
0001
0000
0000
0000
0000
0000
0000
0000
0000
0000
0000
0000
1000
0000
0000
0000
0000
0000
0000
0000
0000
0000
0000
0030
0020
0000
0000
0000
0000
0000
0000
0000
0000
0000
0000
0000
0000
0000
0000
0000
0000
0000
0000
0000
0000
0000
0000
0000
1000
0000
0000
0000
0000
0000
0000
0000
0000
0000
0000
0000
0001
0000
0000
0000
0000
0000
0000
0000
0000
0000
0000
0030
0020
0000
0000
0000
0000
0000
0000
0000
0000
0000
0000
0000
0000
0000
0000
0000
0000
0000
0000
0000
0000
0000
0000
0000
0001
0000
0000
0000
0000
0000
0000
0000
0000
0000
0000
0000
1000
0000
0000
0000
0000
0000
0000
0000
0000
0000
0000
0030
0010
0000
0000
0000
0000
0000
0000
0000
0000
0000
0000
0000
1000
0000
0000
0000
0000
0000
0000
0000
0000
0000
0000
0000
0001
0000
0000
0000
0000
0000
0000
0000
0000
0000
0000
0000
0100
0000
0000
0000
0000
0000
0000
0000
0000
0000
0000
0000
,
0001
1000
0100
0001
0100
0010
0001
0100
1000
0100
0010
1000
0100
0010
0001
0100
,
0010
0001
0010
1000
0001
0010
0100
1000
0001
0100
1000
0001
0010
1000
0001
0100
,
0001
1000
0010
0001
0010
0100
0001
1000
0001
0010
0100
0001
1000
0010
0100
1000
,
0002
0000
2000
3003
,
0012
0000
0000
1000
0000
0000
0010
0000
,
0203
0000
0001
0000
0010
0000
0000
0000
1000
0000
0000
0000
0310
0001
0010
0001
,
2000
0000
0000
0010
0000
0000
0100
0000
,
3010
1000
0100
0010
0001
0100
0010
0001
0010
1000
0001
1000
0100
0001
1000
0010
,
0002
0000
0000
0000
,
0000
0000
0000
0000
,
0000
0000
0000
0000
,
0003
0000
0000
0000
;

//--------------- dance-double - Fred-104 ----------------
#NOTEDATA:;
#STEPSTYPE:dance-double;
#DESCRIPTION:Fred-104;
#DIFFICULTY:Easy;
#METER:8;
#CREDIT:Fred-104;
#NOTES:
00000000
00000000
00000000
00000000
,
00000000
00000000
00000000
00000000
,
00000000
00000000
00000000
00000000
,
00000000
00000000
00000000
00000000
,
00000000
00000000
00000000
00000000
,
00000000
00000000
00000000
00000000
,
00000110
00000000
00000000
00000110
00000000
00000000
00000000
00000000
,
00010000
00000000
00001000
00000000
,
01100000
00000000
00000000
01100000
00000000
00000000
00000000
00000000
,
10000000
00100000
01000000
00010000
,
00220000
00000000
00000000
00000000
,
00330000
00000000
00000000
00000000
,
00001000
00001000
00010000
00010000
,
00001000
00000000
00001000
00000000
00010000
00001000
00010000
00000000
,
00000100
00000100
00001000
00001000
,
00000010
00000000
00000010
00000000
00010000
00001000
00000100
00000000
,
00000001
00000001
00001000
00001000
,
00000001
00000000
00000100
00000000
00001000
00000100
00000001
00000000
,
00000010
00000100
00001000
00000100
,
00010000
00001000
00010000
00000000
00001000
00100000
00001000
00000000
,
01000000
01000000
00100000
00100000
,
10000000
00000000
01000000
00000000
00100000
01000000
10000000
00000000
,
00100000
10000000
00100000
00010000
,
00001000
00000000
00010000
00000000
00001000
00000010
00000001
00000000
,
00001000
00000000
00000001
00000000
00000100
00000010
00000100
00000000
,
00000001
00000000
00000010
00000000
00000100
00001000
00000100
00000000
,
00010000
00000100
00010000
00001000
,
00100000
00010000
10000000
00000000
00010000
10000000
00100000
00000000
,
10000000
01000000
00100000
01000000
,
00010000
00000000
00001000
00000000
00010000
00001000
00010000
00000000
,
00000100
00001000
00000010
00000100
,
00000001
00000000
00001000
00000000
00000001
00000010
00000100
00000000
,
00000010
00000001
00001000
00000000
00000010
00010000
00000010
00000000
,
00010000
00001000
00010000
00000000
00001000
00100000
00010000
00000000
,
01000000
00100000
10000000
01000000
,
00020000
00000000
00002000
00033000
,
00010000
00001000
00000010
00000100
,
00010000
00000000
00001000
00000000
00100000
01000000
00100000
00000000
,
00001000
00010000
01000000
00100000
,
00001000
00000000
00010000
00000000
00000100
00000010
00000100
00000000
,
00010000
00001000
00000100
00000001
,
00001000
00000000
00000001
00000000
00000010
00000100
00000010
00000000
,
00000001
00000100
00001000
00010000
,
01000000
10000000
01000000
00000000
10000000
00010000
10000000
00000000
,
20020000
00000000
00000000
00000000
,
00000000
00000000
30030000
00000000
,
00220000
00000000
00000000
00000000
,
00000000
00000000
00330000
00000000
,
00011000
00000000
00000000
00011000
00000000
00000000
00000000
00000000
,
00010000
00001000
00000100
00000001
,
00000011
00000000
00000000
00000110
00000000
00000000
00001100
00000000
,
00022000
00000000
00000000
00033000
,
00020000
00000000
00031000
00100000
,
00020000
00000000
01030000
00100000
,
02000000
00000000
03020000
00000000
,
02030000
03200000
20300000
32000000
,
03200000
00000000
00302000
00023000
,
00230000
00000000
20300000
32000000
,
03020000
00000000
00032000
00003200
,
00000302
00000000
00002003
00003002
,
00000103
00000000
00000001
00000000
00000010
00000000
00000100
00000010
,
00000100
00000000
00001000
00000000
00000001
00000000
00000100
00001000
,
00010000
00000000
00001000
00000000
00010000
00000000
01000000
00100000
,
00010000
10000000
00100000
10000000
,
00010000
00000000
10000000
00000000
01000000
00000000
00100000
01000000
,
00100000
00000000
00001000
00000000
00010000
00000000
00000100
00010000
,
00000100
00000000
00010000
00000000
00001000
00000000
00010000
00001000
,
00020000
00000000
00002000
00033000
,
00010000
00000000
00000000
00001000
00000000
00000000
00000100
00000000
,
00000001
00000000
00000010
00001000
,
00010000
00000000
00000000
01000000
00000000
00000000
10000000
00000000
,
00100000
00010000
00001000
00010000
,
00022000
00000000
00000000
00000000
,
00000000
00000000
00000000
00000000
,
00000000
00000000
00000000
00000000
,
00033000
00000000
00000000
00000000
;

//--------------- dance-double - Fred-104 ----------------
#NOTEDATA:;
#STEPSTYPE:dance-double;
#DESCRIPTION:Fred-104;
#DIFFICULTY:Medium;
#METER:12;
#CREDIT:Fred-104;
#NOTES:
00000000
00000000
00000000
00000000
,
00000000
00000000
00000000
00000000
,
00000000
00000000
00000000
00000000
,
00000000
00000000
00000000
00000000
,
00000000
00000000
00000000
00000000
,
00000000
00000000
00000000
00000000
,
01010000
00000000
00000000
10100000
00000000
00000000
00000000
00000000
,
10000000
00000000
01000000
00000000
00100000
00001000
00010000
00000000
,
00011000
00000000
00000000
00010100
00000000
00000000
00001000
00000000
,
00000001
00000010
00000100
00000000
00010000
00000010
00010000
00000000
,
00022000
00000000
00000000
00033000
,
00100000
00001000
01000000
00000000
00001000
00010000
00001000
00000000
,
00010000
00000000
00000000
00010010
00000000
00000000
00000010
00000000
00001000
00000000
00000000
00001100
00000000
00000000
00000010
00000000
,
00000001
00000000
00000000
00000101
00000000
00000000
00000100
00000000
00000020
00000000
00000000
00000000
00020030
00000000
00000000
00000000
,
00031000
00000000
00000000
00011000
00000000
00000000
00001000
00000000
00100000
00000000
00000000
00110000
00000000
00000000
00100000
00000000
,
00010000
00000000
00000000
10010000
00000000
00000000
00010000
00000000
20000000
00000000
00000000
00000000
30020000
00000000
00000000
00000000
,
10030000
00000000
00000000
11000000
00000000
00000000
00100000
00000000
00001000
00000000
00000000
00011000
00000000
00000000
00000010
00000000
,
00001000
00000000
00000000
00001010
00000000
00000000
00000010
00000000
00000200
00000000
00000000
00000000
00000302
00000000
00000000
00000000
,
00001003
00000000
00000000
00001100
00000000
00000000
00000001
00000000
00000001
00000000
00000000
00000101
00000000
00000000
00001000
00000000
,
00000020
00000000
00020030
00000000
00031000
00100000
00010000
01000000
,
00001000
00000000
00000000
00001000
00010000
00000000
00000000
00010000
00000010
00000000
00001000
00000000
00000001
00000000
00000000
00000000
,
00000100
00000000
00000000
00000100
00001000
00000000
00000000
00001000
00010000
00000000
01000000
00000000
10000000
00000000
00000000
00000000
,
00010000
00000000
00000000
00010000
10000000
00000000
00000000
10000000
01000000
00000000
00100000
00000000
00001000
00000000
00000000
00000000
,
00010000
00000000
00000000
00010000
00000100
00000000
00000000
00000100
00001000
00000000
00000010
00000000
00000100
00000000
00000000
00000000
,
00000001
00000000
00000000
00000001
00000100
00000000
00001000
00000000
00010000
00000000
00000000
00010000
00100000
00000000
10000000
00000000
,
00010000
00000000
00000000
10000000
01000000
00000000
00010000
00000000
00001000
00000000
00000000
00001000
00000010
00000000
00000001
00000000
,
00001000
00000020
00000100
00000000
00001000
00000000
00000130
00000000
,
00000010
00001000
00000001
00000100
00001000
00010000
00001000
00000000
,
00010000
00000000
00000000
00001000
00010000
00000000
00000000
00010000
00100000
00000000
00000000
00100000
01000000
00000000
00010000
00000000
,
10000000
00000000
00000000
00010000
10000000
00000000
00000000
10000000
01000000
00000000
00000000
01000000
00100000
00000000
00000000
00000000
,
00001000
00000000
00000000
00001000
00010000
00000000
00000000
00010000
00000010
00000000
00000000
00001000
00000100
00000000
00001000
00000000
,
00000001
00000000
00000000
00000001
00000010
00000000
00000000
00000010
00001000
00000000
00000000
00010000
00100000
00000000
00000000
00000000
,
10000000
01000000
00100000
01000000
10000000
00100000
01000000
00000000
,
00010000
00100000
10000000
00100000
00010000
01000000
00001000
00000000
,
00010000
00001000
00000100
00000001
00000010
00000100
00010000
00000000
,
00002000
00010000
00013000
00011000
,
00010000
00000000
00000000
00001010
00000000
00000000
00000010
00000000
00000100
00000000
00000000
00000101
00000000
00000000
00000001
00000000
,
00000010
00000000
00000000
00000110
00000000
00000000
00010000
00000000
00002000
00000000
00000000
00000000
00203000
00000000
00000000
00000000
,
00320000
00000000
00000000
01000000
00000000
00000000
01030000
00000000
20000000
00000000
00000000
01000000
00000000
00000000
31000000
00000000
,
00010000
00000000
00000000
00110000
00000000
00000000
00001000
00000000
00020000
00000000
00000000
00000000
00030020
00000000
00000000
00000000
,
00001030
00000000
00000000
00010010
00000000
00000000
00001000
00000000
00010000
00000000
00000000
00101000
00000000
00000000
00010000
00000000
,
00001000
00000000
00000000
00010100
00000000
00000000
00001000
00000000
00020000
00000000
00000000
00000000
00032000
00000000
00000000
00000000
,
00013000
00000000
00000000
00010010
00000000
00000000
00010000
00000000
00001000
00000000
00000000
00101000
00000000
00000000
00001000
00000000
,
00010000
00001000
00000100
00000001
00001000
00000100
00000010
00000001
,
00002000
00000000
00000010
00000000
,
00010000
00000000
00000010
00003000
,
00020000
00000000
00001000
00000000
,
01000000
00000000
00001000
00030000
,
01100000
00000000
00000000
00011000
00000000
00000000
00000000
00000000
,
00000100
00000010
00000001
00001000
,
00000001
00000010
00000001
00000010
00001000
00010000
00001000
00010000
,
00200000
00000000
00000000
20300000
00000000
00000000
30020000
00000000
20030000
00000000
00000000
00000000
30020000
00000000
00000000
00000000
,
01030000
00000000
00000000
01000000
00100000
00000000
00000000
00100000
10000000
00000000
00000000
10000000
01000000
00000000
00000000
01000000
,
00100000
00000000
00000000
00100000
00001000
00000000
00000000
00001000
00000010
00000000
00000000
00000010
00000100
00000000
00000000
00000100
,
00001000
00000000
00000000
00001000
00000001
00000000
00000000
00000001
00000100
00000000
00000000
00000100
00001000
00000000
00000000
00001000
,
00010000
00000000
00000000
00010000
00100000
00000000
00000000
00100000
01000000
00000000
00000000
00010000
10000000
00000000
00100000
00000000
,
10000000
00000000
00000000
10000000
01000000
00000000
00000000
01000000
00010000
00000000
00000000
00010000
01000000
00000000
00000000
01000000
,
10000000
00000000
00000000
10000000
00100000
00000000
00000000
00100000
00010000
00000000
00000000
00010000
00001000
00000000
00000000
00001000
,
00000010
00000000
00000000
00000010
00000001
00000000
00000000
00000001
00000100
00000000
00000000
00000100
00001000
00000000
00000000
00001000
,
00020000
00000000
00001000
00000000
00031000
00000000
00001000
00010000
,
00000100
00001000
00000010
00010000
00001000
00010000
00100000
00000000
,
01000000
00010000
10000000
01000000
00100000
00010000
10000000
00000000
,
01000000
00010000
00001000
00010000
00100000
10000000
00010000
00000000
,
10000000
01000000
00010000
00001000
00010000
00100000
00010000
00000000
,
00001000
00000000
00000000
00001000
00010000
00000000
00000100
00000000
00001000
00000000
00000000
00001000
00000010
00000000
00000100
00000000
,
00000001
00000000
00000000
00000001
00000010
00000000
00000000
00000010
00001000
00000000
00000000
00001000
00010000
00000000
00000000
00000000
,
00100000
01000000
00010000
10000000
01000000
00100000
00010000
10000000
,
00020000
00000000
20000000
30030000
,
10000000
00000000
00100000
10000000
00000000
00010000
01000000
00000000
,
00001000
00010000
00001000
00000000
00010000
00000100
00001000
00000000
,
00000001
00000000
00000010
00000100
00000000
00000010
00000001
00000000
,
00001000
00000001
00000100
00001000
00010000
00100000
01000000
00000000
,
22000000
00000000
00000000
00000000
,
00000000
00000000
00000000
00000000
,
00000000
00000000
00000000
00000000
,
33000000
00000000
00000000
00000000
;

//--------------- dance-double - Fred-104 ----------------
#NOTEDATA:;
#STEPSTYPE:dance-double;
#DESCRIPTION:Fred-104;
#DIFFICULTY:Hard;
#METER:16;
#CREDIT:Fred-104;
#NOTES:
00000000
00000000
00000000
00000000
,
00000000
00000000
00000000
00000000
,
00000000
00000000
00000000
00000000
,
00000000
00000000
00000000
00000000
,
00000000
00000000
00000000
00000000
,
00000000
00000000
00000000
00000000
,
00000110
00000000
00000000
00011000
00000000
00000000
00010000
00000000
,
00001000
00010000
00100000
00000000
01000000
00010000
10000000
00000000
,
00010000
10000000
01000000
00100000
00000000
00001000
00010000
00000000
,
00001000
00010000
00001000
00000000
00010000
00000100
00001000
00000000
00000001
00000100
00000010
00001000
00000100
00000010
00000001
00000000
,
00002002
00000000
00000000
00003003
,
00000001
00000100
00000001
00000100
00000010
00001000
00000001
00000000
00001000
00000000
00000100
00010000
00002000
00000000
00000000
00000000
,
00013000
00000000
00000000
00011000
00000000
00000000
00001000
00100000
00020000
00000000
00000000
10030000
00000000
00000000
00010000
01000000
,
00100000
00000000
00000000
10100000
00000000
00000000
10000000
01000000
00100000
00010000
00100000
00000000
00001000
00010000
00001000
00000000
,
00010000
00000000
00000000
00010100
00000000
00000000
00000100
00001000
00000020
00000000
00000000
00000130
00000000
00000000
00000001
00000010
,
00000100
00000000
00000000
00000110
00000000
00000000
00000010
00000000
00000001
00001000
00000100
00000010
00000001
00001000
00000010
00000100
,
00000001
00000000
00000000
00000101
00000000
00000000
00000100
00000010
00002000
00000000
00000000
00003100
00000000
00000000
00010000
00001000
,
00010000
00000000
00000000
00011000
00000000
00000000
00001000
00010000
00100000
10000000
01000000
00000000
00100000
00010000
10000000
00000000
,
01000000
00000000
00000000
01100000
00000000
00000000
00100000
00001000
00010000
00000000
00000000
00010100
00000000
00000000
00000100
00001000
,
00000001
00000100
00000001
00000000
00001000
00000010
00001000
00000000
00000001
00000010
00000100
00001000
00000100
00000010
00000001
00000000
,
00001000
00000000
00000100
00010000
00000100
00000000
00000100
00010000
00000100
00000000
00001000
00000000
00000001
00000000
00000010
00000000
,
00000001
00000000
00000000
00000001
00000100
00000000
00000000
00000100
00001000
00000000
00010000
00001000
00010000
00000000
01000000
00000000
,
10000000
00000000
00100000
10000000
00100000
00000000
00100000
10000000
00100000
00000000
10000000
00000000
01000000
00000000
00100000
00000000
,
00010000
00000000
00000000
10000000
00100000
00000000
00000000
00100000
00010000
00000000
00001000
00010000
00001000
00000000
00000010
00000000
,
00000001
00000000
00000001
00000100
00000001
00000000
00000010
00000000
00000100
00000000
00000100
00001000
00000100
00000000
00010000
00000000
,
00001000
00000000
00100000
00001000
00100000
00000000
00001000
00000000
00010000
00000000
00000010
00010000
00000010
00000000
00010000
00000000
,
00001000
00010000
00002000
00000000
00100000
00000000
00003010
00000000
,
00011000
00000000
00001000
00010000
00001000
00000000
00100000
00000000
00010000
10000000
00010000
00000000
00100000
00010000
10000000
00000000
,
02000000
00000000
00100000
03010000
02000000
00000000
00100000
13000000
01000000
00000000
00100000
00010000
00100000
00000000
00001000
00000000
,
00010000
00000000
00000000
00010000
00001000
00000000
00000000
00001000
00000010
00000000
00000001
00001000
00000001
00000000
00000100
00000000
,
00000020
00000000
00001000
00000130
00000020
00000000
00000001
00000130
00000010
00000000
00001000
00000001
00000100
00000000
00000001
00000000
,
00001000
00000000
00000000
00000001
00000010
00000000
00000000
00001000
00010000
00000000
00100000
01000000
00100000
00000000
10000000
00000000
,
00010000
00000000
10000000
01000000
10000000
00000000
00100000
00000000
01000000
00000000
00001000
00010000
00001000
00000000
00100000
00000000
,
00001000
00000000
00010000
00000100
00010000
00000000
00000100
00000000
00001000
00000010
00001000
00000010
00000100
00000000
00000010
00000000
,
00001000
00000000
00000001
00000010
00000100
00000000
00001000
00000010
00000100
00000000
00000010
00001000
00000001
00000000
00000100
00000000
,
00002000
00000000
00000000
00000000
00023000
00000000
00000000
00000000
01030000
00000000
10000000
00010000
10000000
00000000
00000000
00000000
,
10100000
00000000
00000000
01010000
00000000
00000000
00100000
00001000
00010000
00000000
00000000
00010100
00000000
00000000
00001000
00000010
,
00000100
00000000
00000000
00000110
00000000
00000000
00000100
00000001
00000010
00000100
00001000
00000000
00000010
00000100
00000001
00000000
,
00000200
00000000
00000000
00000010
00000000
00000000
00000310
00001000
00000200
00000000
00000000
00010000
00000000
00000000
00010300
00001000
,
02000000
00000000
00000000
00100000
00000000
00000000
03100000
00000000
10000000
01000000
00100000
00010000
00100000
01000000
10000000
00100000
,
01000000
00000000
00000000
01001000
00000000
00000000
00001000
00010000
00001000
00000000
00000000
00101000
00000000
00000000
00001000
00010000
,
00001000
00000000
00000000
00011000
00000000
00000000
00010000
00000010
00001000
00000001
00000010
00000000
00000100
00001000
00000001
00000000
,
00000101
00000000
00000000
00001100
00000000
00000000
00000001
00000010
00000100
00000000
00000000
00000110
00000000
00000000
00000100
00010000
,
00001000
00100000
00010000
00000000
01000000
00100000
10000000
00000000
00010000
10000000
00010000
00100000
00001000
00010000
00000010
00010000
,
00002000
00000000
00000000
00100000
00000000
00000000
00000000
00000000
,
00023000
00000000
00030200
00000300
,
00002000
00000000
00000000
00000001
00000000
00000000
00000000
00000000
,
00023000
00030200
00020300
00031000
,
00010000
00000100
00000100
00010000
00001000
00001000
00010000
00001000
,
00100000
00010000
10000000
00100000
01000000
00010000
10000000
00100000
,
01000000
00010000
00100000
00000000
00001000
00010000
00000010
00000000
00010000
00001000
00100000
00001000
00010000
00001000
00100000
00001000
,
00020000
00000000
00030000
00020000
00000000
00030000
00020000
00000000
00031000
00010000
00001000
00010000
00002000
00000000
00000000
00000000
,
00013000
00000000
00000010
00001000
00000010
00000000
00000100
00000000
00000001
00000000
00000010
00000100
00000010
00000000
00000001
00000000
,
00001000
00000000
00000001
00000100
00000001
00000000
00000010
00000000
00000100
00000000
00010000
00001000
00010000
00000000
00001000
00000000
,
01000000
00000000
00010000
00100000
00010000
00000000
00100000
00000000
01000000
00000000
10000000
00100000
10000000
00000000
00100000
01000000
,
00100000
00000000
10000000
01000000
10000000
00000000
01000000
00000000
00100000
00000000
01000000
10000000
00100000
10000000
00010000
01000000
,
00010000
00000000
01000000
00100000
01000000
00000000
00001000
00000000
00010000
00000000
00000100
00000010
00000100
00000000
00001000
00000000
,
00000001
00000000
00000100
00001000
00000100
00000000
00000010
00000000
00001000
00000000
00000100
00000010
00000100
00000000
00000010
00000001
,
00000010
00000000
00000001
00001000
00000001
00000000
00000100
00000000
00001000
00000000
00010000
00001000
00010000
00000000
00001000
00000000
,
00020000
00000000
00000000
00000000
00001000
00000000
00000000
00000000
00031000
00000000
00000000
00000000
00001000
00100000
00010000
10000000
,
02000000
00000000
10000000
00100000
03000000
00000000
00100000
10000000
02000000
00000000
00100000
00010000
03000000
00000000
00100000
10000000
,
00020000
00000000
01000000
00001000
00030000
00000000
00001000
00100000
00020000
00000000
00100000
00001000
00030000
00000000
00001000
00010000
,
00000020
00000000
00001000
00000001
00000030
00000000
00000001
00001000
00000010
00000000
00001000
00000001
00000010
00000000
00000001
00000000
,
00001000
00000000
00000001
00000100
00001000
00000000
00010000
01000000
10000000
00000000
00010000
00000000
10010000
00000000
00000000
00000000
,
00010000
00000000
10000000
00010000
10000000
00000000
01000000
00000000
00100000
00000000
00010000
01000000
00010000
00000000
01000000
00100000
,
10000000
00000000
00100000
10000000
01000000
00000000
00100000
00010000
10000000
00000000
00010000
10000000
01000000
00000000
00010000
00000000
,
00001000
00000000
00000100
00000010
00001000
00000000
00000010
00001000
00000100
00000000
00001000
00000001
00000100
00000000
00000001
00000010
,
00000200
00000000
00000020
00000330
,
00000001
00000100
00001000
00010000
00100000
10000000
00010000
00000000
,
10000000
01000000
00010000
00001000
00000010
00000001
00001000
00000000
,
00000001
00000010
00001000
00010000
01000000
10000000
00010000
00000000
,
01000000
00000000
00100000
00000000
10000000
01000000
00100000
00000000
00001000
00000000
00010000
00000100
00001000
00000001
00000100
00000010
,
00000200
00000000
00000000
00000000
,
00000000
00000000
00000000
00000000
,
00000000
00000000
00000000
00000000
,
00000300
00000000
00000000
00000000
;

//--------------- dance-double - Fred-104† ----------------
#NOTEDATA:;
#STEPSTYPE:dance-double;
#DESCRIPTION:Fred-104†;
#DIFFICULTY:Challenge;
#METER:18;
#CREDIT:Fred-104†;
#NOTES:
00000000
00000000
00000000
00000000
,
00000000
00000000
00000000
00000000
,
00000000
00000000
00000000
00000000
,
00000000
00000000
00000000
00000000
,
00000000
00000000
00000000
00000000
,
00000000
00000000
00000000
00000000
,
00001001
00000000
00000000
00011000
00000000
00000000
00000000
00000000
,
00000000
00000000
00000000
00000000
,
10010000
00000000
00000000
00011000
00000000
00000000
00000000
00000000
,
00010000
00001000
00000010
00000100
00001000
00000001
00000100
00001000
00000100
00000010
00001000
00000100
00000010
00000001
00001000
00000010
,
00000200
00000000
00000000
00000300
,
00000001
00000010
00001000
00010000
01000000
10000000
00010000
00000000
01000000
00100000
10000000
00010000
20000000
00000000
00000000
30000000
,
11000000
00000000
00000000
01100000
00000000
00000000
00100000
00001000
00010000
00000000
00000000
00010010
00000000
00000000
00000010
00001000
,
00000001
00000000
00000000
00001100
00000000
00000000
00000100
00000010
00000001
00000100
00000010
00001000
00000001
00000010
00000100
00010000
,
00001000
00000000
00000000
00010100
00000000
00000000
00010000
00001000
01000000
00000000
00000000
01100000
00000000
00000000
00100000
10000000
,
00100000
00000000
00000000
00110000
00000000
00000000
10100000
00000000
10000000
01000000
00100000
00010000
01000000
00100000
00010000
00001000
,
00010000
00000000
00000000
00011000
00000000
00000000
00010000
00001000
00000010
00000000
00000000
00000011
00000000
00000000
00000001
00001000
,
00000100
00000000
00000000
00000110
00000000
00000000
00000010
00000001
00001000
00000001
00000100
00001000
00000100
00000001
00000010
00000100
,
00001000
00000000
00000000
00001010
00000000
00000000
00000010
00010000
00001000
00000000
00000000
01001000
00000000
00000000
00001000
00100000
,
00010000
00100000
10000000
00000000
00010000
01000000
10000000
00000000
00010000
01000000
00100000
01000000
00010000
10000000
01000000
00100000
,
00002000
00000000
00000000
00000000
00000000
00000000
00000000
00000000
00000000
00000000
00000000
00000000
00000000
00000000
00000000
00000000
00000000
00000000
00000000
00000000
00000000
00000000
00000000
00000000
00010000
00000000
00000000
00000000
00000000
00000000
00000000
00000000
00000000
00000000
00000000
00000000
00000100
00000000
00000000
00000000
00000000
00000000
00000000
00000000
00000000
00000000
00000000
00003000
00002000
00000000
00000000
00000000
00000000
00000000
00000000
00000000
00000000
00000000
00000000
00000000
00000000
00000000
00000000
00000000
00000000
00000000
00000000
00000000
00000000
00000000
00000000
00000000
00000100
00000000
00000000
00000000
00000000
00000000
00000000
00000000
00000000
00000000
00000000
00000000
00010000
00000000
00000000
00000000
00000000
00000000
00000000
00000000
00000000
00000000
00000000
00003000
00001000
00000000
00000000
00000000
00000000
00000000
00000000
00000000
00000000
00000000
00000000
00000000
00000000
00000000
00000000
00000000
00000000
00000000
00000000
00000000
00000000
00000000
00000000
00000000
00010000
00000000
00000000
00000000
00000000
00000000
00000000
00000000
00000000
00000000
00000000
00000000
00001000
00000000
00000000
00000000
00000000
00000000
00000000
00000000
00000000
00000000
00000000
00000000
00000010
00000000
00000000
00000000
00000000
00000000
00000000
00000000
00000000
00000000
00000000
00000000
00000000
00000000
00000000
00000000
00000000
00000000
00000000
00000000
00000000
00000000
00000000
00000000
00000100
00000000
00000000
00000000
00000000
00000000
00000000
00000000
00000000
00000000
00000000
00000000
00000000
00000000
00000000
00000000
00000000
00000000
00000000
00000000
00000000
00000000
00000000
00000000
,
00000010
00000000
00000001
00000010
00001000
00000000
00001000
00000010
00000001
00000000
00001000
00000010
00000100
00000000
00000001
00000000
,
00000200
00000000
00000000
00000000
00000000
00000000
00000000
00000000
00000000
00000000
00000000
00000000
00000000
00000000
00000000
00000000
00000000
00000000
00000000
00000000
00000000
00000000
00000000
00000000
00000001
00000000
00000000
00000000
00000000
00000000
00000000
00000000
00000000
00000000
00000000
00000000
00000010
00000000
00000000
00000000
00000000
00000000
00000000
00000000
00000000
00000000
00000000
00000300
00000200
00000000
00000000
00000000
00000000
00000000
00000000
00000000
00000000
00000000
00000000
00000000
00000000
00000000
00000000
00000000
00000000
00000000
00000000
00000000
00000000
00000000
00000000
00000000
00001000
00000000
00000000
00000000
00000000
00000000
00000000
00000000
00000000
00000000
00000000
00000000
00000001
00000000
00000000
00000000
00000000
00000000
00000000
00000000
00000000
00000000
00000000
00000300
00000100
00000000
00000000
00000000
00000000
00000000
00000000
00000000
00000000
00000000
00000000
00000000
00000000
00000000
00000000
00000000
00000000
00000000
00000000
00000000
00000000
00000000
00000000
00000000
00000010
00000000
00000000
00000000
00000000
00000000
00000000
00000000
00000000
00000000
00000000
00000000
00001000
00000000
00000000
00000000
00000000
00000000
00000000
00000000
00000000
00000000
00000000
00000000
00000001
00000000
00000000
00000000
00000000
00000000
00000000
00000000
00000000
00000000
00000000
00000000
00000000
00000000
00000000
00000000
00000000
00000000
00000000
00000000
00000000
00000000
00000000
00000000
00000010
00000000
00000000
00000000
00000000
00000000
00000000
00000000
00000000
00000000
00000000
00000000
00000000
00000000
00000000
00000000
00000000
00000000
00000000
00000000
00000000
00000000
00000000
00000000
,
00000100
00000000
00001000
00000010
00000100
00000000
00000001
00000100
00001000
00010000
00100000
01000000
00010000
00000000
10000000
00000000
,
10020000
00000000
10030000
01000000
00100000
00000000
00001000
00000000
00012000
00000000
00013000
00000010
00001000
00000000
00000100
00000000
,
00000210
00000000
00000310
00000001
00001000
00000000
00000001
00000000
00001000
00000000
00000010
00000100
00001000
00010000
00100000
10000000
,
00010000
00000000
01000000
10000000
01000000
00000000
00010000
00000000
10000000
00000000
01000000
00010000
01000000
00000000
10000000
00000000
,
00010000
00000000
01000000
00100000
10000000
00000000
01000000
00000000
00100000
00001000
00010000
00000000
00000010
00001000
00000100
00000000
,
00000120
00000000
00000000
00000000
00000000
00000000
00000000
00000000
00000000
00000000
00000000
00000000
00000000
00000000
00000000
00000000
00000000
00000000
00000000
00000000
00000000
00000000
00000000
00000000
00000001
00000000
00000000
00000000
00000000
00000000
00000000
00000000
00000000
00000000
00000000
00000000
00000100
00000000
00000000
00000000
00000000
00000000
00000000
00000000
00000000
00000000
00000000
00000030
00000020
00000000
00000000
00000000
00000000
00000000
00000000
00000000
00000000
00000000
00000000
00000000
00000000
00000000
00000000
00000000
00000000
00000000
00000000
00000000
00000000
00000000
00000000
00000000
00001000
00000000
00000000
00000000
00000000
00000000
00000000
00000000
00000000
00000000
00000000
00000000
00000100
00000000
00000000
00000000
00000000
00000000
00000000
00000000
00000000
00000000
00000000
00000030
00000020
00000000
00000000
00000000
00000000
00000000
00000000
00000000
00000000
00000000
00000000
00000000
00000000
00000000
00000000
00000000
00000000
00000000
00000000
00000000
00000000
00000000
00000000
00000000
00000001
00000000
00000000
00000000
00000000
00000000
00000000
00000000
00000000
00000000
00000000
00000000
00000100
00000000
00000000
00000000
00000000
00000000
00000000
00000000
00000000
00000000
00000000
00000030
00000010
00000000
00000000
00000000
00000000
00000000
00000000
00000000
00000000
00000000
00000000
00000000
00000000
00000000
00000000
00000000
00000000
00000000
00000000
00000000
00000000
00000000
00000000
00000000
00001000
00000000
00000000
00000000
00000000
00000000
00000000
00000000
00000000
00000000
00000000
00000000
00000000
00000000
00000000
00000000
00000000
00000000
00000000
00000000
00000000
00000000
00000000
00000000
,
00000100
00000000
00010000
00000010
00001000
00000000
00000100
00010000
00001000
00010000
00100000
01000000
00010000
00000000
10000000
00000000
,
12000000
00000000
00000000
00000000
00000000
00000000
00000000
00000000
00000000
00000000
00000000
00000000
00000000
00000000
00000000
00000000
00000000
00000000
00000000
00000000
00000000
00000000
00000000
00000000
10000000
00000000
00000000
00000000
00000000
00000000
00000000
00000000
00000000
00000000
00000000
00000000
00100000
00000000
00000000
00000000
00000000
00000000
00000000
00000000
00000000
00000000
00000000
03000000
02000000
00000000
00000000
00000000
00000000
00000000
00000000
00000000
00000000
00000000
00000000
00000000
00000000
00000000
00000000
00000000
00000000
00000000
00000000
00000000
00000000
00000000
00000000
00000000
00010000
00000000
00000000
00000000
00000000
00000000
00000000
00000000
00000000
00000000
00000000
00000000
00100000
00000000
00000000
00000000
00000000
00000000
00000000
00000000
00000000
00000000
00000000
03000000
02000000
00000000
00000000
00000000
00000000
00000000
00000000
00000000
00000000
00000000
00000000
00000000
00000000
00000000
00000000
00000000
00000000
00000000
00000000
00000000
00000000
00000000
00000000
00000000
10000000
00000000
00000000
00000000
00000000
00000000
00000000
00000000
00000000
00000000
00000000
00000000
00100000
00000000
00000000
00000000
00000000
00000000
00000000
00000000
00000000
00000000
00000000
03000000
01000000
00000000
00000000
00000000
00000000
00000000
00000000
00000000
00000000
00000000
00000000
00000000
00000000
00000000
00000000
00000000
00000000
00000000
00000000
00000000
00000000
00000000
00000000
00000000
00010000
00000000
00000000
00000000
00000000
00000000
00000000
00000000
00000000
00000000
00000000
00000000
00000000
00000000
00000000
00000000
00000000
00000000
00000000
00000000
00000000
00000000
00000000
00000000
,
00100000
00000000
00001000
00010000
00001000
00000000
01000000
00001000
00010000
00001000
00000010
00000100
00001000
00000000
00000100
00000000
,
00001200
00000000
00001300
00000100
00000001
00000000
00000100
00000000
00000210
00000000
00000310
00001000
00000001
00000000
00000100
00000000
,
00001200
00000000
00001300
00010000
01000000
00000000
10000000
00010000
10000000
00100000
01000000
00010000
10000000
01000000
00100000
00000000
,
00010000
00000000
10000000
01000000
00010000
00000000
00001000
00000010
00000001
00000000
00000001
00000100
00001000
00000000
00010000
00000000
,
00100000
00000000
00000000
10000000
00000000
00000000
00010000
00000000
00000000
10000000
00000000
00000000
00010000
00000000
00000000
01000000
00000000
00000000
00100000
00000000
00000000
00000000
00000000
00000000
10000000
00000000
00000000
00000000
00000000
00000000
01000000
00000000
00100000
00000000
00010000
00000000
00100000
00000000
00000000
00000000
00000000
00000000
00001000
00000000
00000000
00000000
00000000
00000000
,
00011000
00000000
00000000
00010100
00000000
00000000
00000100
00001000
00001010
00000000
00000000
00000110
00000000
00000000
00000001
00000100
,
00000110
00000000
00000000
00001010
00000000
00000000
00001000
00000001
00001000
00000100
00000120
00000030
00000001
00000100
00000120
00000030
,
00001010
00000000
00000000
00010010
00000000
00000000
00010000
00001000
01001000
00000000
00000000
00011000
00000000
00000000
00010000
00000100
,
00010100
00000000
00000000
00101000
00000000
00000000
00011000
00000000
00001000
00010000
00100000
10000000
00010000
00100000
01000000
10000000
,
10010000
00000000
00000000
10100000
00000000
00000000
10000000
01000000
01100000
00000000
00000000
00101000
00000000
00000000
00001000
00010000
,
00010010
00000000
00000000
00001010
00000000
00000000
00000001
00000100
00000010
00001000
00001200
00000300
00000010
00000001
00000201
00000300
,
00000110
00000000
00000000
00011000
00000000
00000000
00100000
01000000
01100000
00000000
00000000
11000000
00000000
00000000
00010000
10000000
,
00100000
01000000
00100000
00010000
00001000
00000100
00000010
00000100
00000001
00000010
00000100
00001000
00010000
00001000
00000100
00000010
,
00000001
00000000
00000000
00021000
00000000
00000000
00000000
00000000
,
01000000
00000000
00000010
00030000
,
00100000
00000000
00000000
00012000
00000000
00000000
00000000
00000000
,
00000010
00000000
01000000
00013000
,
00001000
00010000
00001000
00010000
00000010
00010000
00000010
00010000
00000010
00001000
00000010
00001000
00000001
00001000
00000001
00001000
,
00000001
00000100
00000001
00000100
00001000
00010000
00001000
00010000
01000000
10000000
01000000
10000000
00010000
10000000
00010000
10000000
,
01000000
00100000
00010000
01000000
00001000
00010000
00001000
00000010
00000001
00000010
00000100
00001000
00000010
00010000
00001000
00100000
,
00002000
00000000
00000000
00023000
00000000
00000000
00032000
00000000
00013000
00001000
00000100
00001000
00020000
00000000
00000000
00000000
,
00030010
00001000
00000001
00000100
00000010
00000100
00001000
00010000
00100000
01000000
00010000
10000000
01000000
00000000
00100000
00000000
,
00010000
10000000
01000000
00100000
01000000
00010000
00001000
00000010
00000100
00000010
00000001
00001000
00000010
00000000
00001000
00000000
,
00000001
00000010
00000100
00010000
00001000
00000100
00000010
00001000
00000001
00000010
00000001
00001000
00000010
00000000
00001000
00000000
,
00000001
00000010
00000100
00001000
00000010
00000100
00001000
00010000
00000100
00001000
00010000
00100000
00001000
00010000
00100000
01000000
,
00010000
00100000
10000000
00100000
00010000
10000000
00010000
01000000
10000000
01000000
00010000
10000000
01000000
00000000
00100000
00000000
,
00001000
00010000
00100000
00010000
00001000
00100000
00001000
00010000
01000000
00010000
00001000
00010000
00000010
00000000
00001000
00000000
,
00000001
00000010
00000100
00000001
00000100
00000010
00000001
00001000
00000010
00000100
00001000
00000100
00000010
00000000
00010000
00000000
,
00002000
00000000
00000000
00000000
00010000
00000000
00000000
00000000
00013000
00000000
00000000
00000000
00000100
00001000
00000001
00000100
,
00000020
00000000
00000000
00000000
00000000
00000000
00000000
00000000
00000000
00000000
00000000
00000000
00000000
00000000
00000000
00000000
00000000
00000000
00000000
00000000
00000000
00000000
00000000
00000000
00001000
00000000
00000000
00000000
00000000
00000000
00000000
00000000
00000000
00000000
00000000
00000000
00000001
00000000
00000000
00000000
00000000
00000000
00000000
00000000
00000000
00000000
00000000
00000030
00000020
00000000
00000000
00000000
00000000
00000000
00000000
00000000
00000000
00000000
00000000
00000000
00000000
00000000
00000000
00000000
00000000
00000000
00000000
00000000
00000000
00000000
00000000
00000000
00000001
00000000
00000000
00000000
00000000
00000000
00000000
00000000
00000000
00000000
00000000
00000000
00001000
00000000
00000000
00000000
00000000
00000000
00000000
00000000
00000000
00000000
00000000
00000030
00000020
00000000
00000000
00000000
00000000
00000000
00000000
00000000
00000000
00000000
00000000
00000000
00000000
00000000
00000000
00000000
00000000
00000000
00000000
00000000
00000000
00000000
00000000
00000000
00001000
00000000
00000000
00000000
00000000
00000000
00000000
00000000
00000000
00000000
00000000
00000000
00000001
00000000
00000000
00000000
00000000
00000000
00000000
00000000
00000000
00000000
00000000
00000030
00000010
00000000
00000000
00000000
00000000
00000000
00000000
00000000
00000000
00000000
00000000
00000000
00001000
00000000
00000000
00000000
00000000
00000000
00000000
00000000
00000000
00000000
00000000
00000000
00010000
00000000
00000000
00000000
00000000
00000000
00000000
00000000
00000000
00000000
00000000
00000000
00100000
00000000
00000000
00000000
00000000
00000000
00000000
00000000
00000000
00000000
00000000
00000000
,
02000000
00000000
00000000
00000000
00000000
00000000
00000000
00000000
00000000
00000000
00000000
00000000
00000000
00000000
00000000
00000000
00000000
00000000
00000000
00000000
00000000
00000000
00000000
00000000
00010000
00000000
00000000
00000000
00000000
00000000
00000000
00000000
00000000
00000000
00000000
00000000
10000000
00000000
00000000
00000000
00000000
00000000
00000000
00000000
00000000
00000000
00000000
03000000
02000000
00000000
00000000
00000000
00000000
00000000
00000000
00000000
00000000
00000000
00000000
00000000
00000000
00000000
00000000
00000000
00000000
00000000
00000000
00000000
00000000
00000000
00000000
00000000
10000000
00000000
00000000
00000000
00000000
00000000
00000000
00000000
00000000
00000000
00000000
00000000
00010000
00000000
00000000
00000000
00000000
00000000
00000000
00000000
00000000
00000000
00000000
03000000
02000000
00000000
00000000
00000000
00000000
00000000
00000000
00000000
00000000
00000000
00000000
00000000
00000000
00000000
00000000
00000000
00000000
00000000
00000000
00000000
00000000
00000000
00000000
00000000
00010000
00000000
00000000
00000000
00000000
00000000
00000000
00000000
00000000
00000000
00000000
00000000
10000000
00000000
00000000
00000000
00000000
00000000
00000000
00000000
00000000
00000000
00000000
03000000
01000000
00000000
00000000
00000000
00000000
00000000
00000000
00000000
00000000
00000000
00000000
00000000
00010000
00000000
00000000
00000000
00000000
00000000
00000000
00000000
00000000
00000000
00000000
00000000
00001000
00000000
00000000
00000000
00000000
00000000
00000000
00000000
00000000
00000000
00000000
00000000
00000010
00000000
00000000
00000000
00000000
00000000
00000000
00000000
00000000
00000000
00000000
00000000
,
00000200
00000000
00000000
00000000
00000000
00000000
00000000
00000000
00000000
00000000
00000000
00000000
00000000
00000000
00000000
00000000
00000000
00000000
00000000
00000000
00000000
00000000
00000000
00000000
00001000
00000000
00000000
00000000
00000000
00000000
00000000
00000000
00000000
00000000
00000000
00000000
00000010
00000000
00000000
00000000
00000000
00000000
00000000
00000000
00000000
00000000
00000000
00000300
00000200
00000000
00000000
00000000
00000000
00000000
00000000
00000000
00000000
00000000
00000000
00000000
00000000
00000000
00000000
00000000
00000000
00000000
00000000
00000000
00000000
00000000
00000000
00000000
00000001
00000000
00000000
00000000
00000000
00000000
00000000
00000000
00000000
00000000
00000000
00000000
00000010
00000000
00000000
00000000
00000000
00000000
00000000
00000000
00000000
00000000
00000000
00000300
00000200
00000000
00000000
00000000
00000000
00000000
00000000
00000000
00000000
00000000
00000000
00000000
00000000
00000000
00000000
00000000
00000000
00000000
00000000
00000000
00000000
00000000
00000000
00000000
00001000
00000000
00000000
00000000
00000000
00000000
00000000
00000000
00000000
00000000
00000000
00000000
00000001
00000000
00000000
00000000
00000000
00000000
00000000
00000000
00000000
00000000
00000000
00000300
00000100
00000000
00000000
00000000
00000000
00000000
00000000
00000000
00000000
00000000
00000000
00000000
00001000
00000000
00000000
00000000
00000000
00000000
00000000
00000000
00000000
00000000
00000000
00000000
00010000
00000000
00000000
00000000
00000000
00000000
00000000
00000000
00000000
00000000
00000000
00000000
01000000
00000000
00000000
00000000
00000000
00000000
00000000
00000000
00000000
00000000
00000000
00000000
,
00200000
00000000
00000000
00000000
00000000
00000000
00000000
00000000
00000000
00000000
00000000
00000000
00000000
00000000
00000000
00000000
00000000
00000000
00000000
00000000
00000000
00000000
00000000
00000000
00010000
00000000
00000000
00000000
00000000
00000000
00000000
00000000
00000000
00000000
00000000
00000000
10000000
00000000
00000000
00000000
00000000
00000000
00000000
00000000
00000000
00000000
00000000
00300000
00200000
00000000
00000000
00000000
00000000
00000000
00000000
00000000
00000000
00000000
00000000
00000000
00000000
00000000
00000000
00000000
00000000
00000000
00000000
00000000
00000000
00000000
00000000
00000000
10000000
00000000
00000000
00000000
00000000
00000000
00000000
00000000
00000000
00000000
00000000
00000000
00010000
00000000
00000000
00000000
00000000
00000000
00000000
00000000
00000000
00000000
00000000
00300000
00200000
00000000
00000000
00000000
00000000
00000000
00000000
00000000
00000000
00000000
00000000
00000000
00000000
00000000
00000000
00000000
00000000
00000000
00000000
00000000
00000000
00000000
00000000
00000000
00010000
00000000
00000000
00000000
00000000
00000000
00000000
00000000
00000000
00000000
00000000
00000000
10000000
00000000
00000000
00000000
00000000
00000000
00000000
00000000
00000000
00000000
00000000
00300000
00100000
00000000
00000000
00000000
00000000
00000000
00000000
00000000
00000000
00000000
00000000
00000000
01000000
00000000
00000000
00000000
00000000
00000000
00000000
00000000
00000000
00000000
00000000
00000000
00010000
00000000
00000000
00000000
00000000
00000000
00000000
00000000
00000000
00000000
00000000
00000000
10000000
00000000
00000000
00000000
00000000
00000000
00000000
00000000
00000000
00000000
00000000
00000000
,
00010000
01000000
10000000
01000000
00100000
10000000
00010000
00100000
01000000
10000000
00100000
00010000
00001000
00000100
00000010
00000100
,
00000001
00001000
00000100
00000010
00001000
00010000
01000000
00100000
00010000
01000000
00100000
10000000
01000000
00100000
01000000
10000000
,
00010000
10000000
01000000
00100000
00010000
01000000
00100000
00010000
00001000
00100000
00010000
00001000
00000100
00010000
00001000
00000100
,
00000020
00000000
00020000
00030030
,
00001000
00000000
00010000
00100000
10000000
00000000
00010000
00000000
01000000
00000000
10000000
00000000
01000000
00000000
00100000
00000000
,
10000000
01000000
00100000
00001000
00010000
00000100
00000010
00000000
,
00000001
00000000
00000100
00001000
00010000
00000000
00100000
00000000
10000000
00000000
01000000
00000000
00010000
00000000
00000000
00000000
,
00001000
00010000
00000010
00001000
00000001
00000010
00000100
00010000
00001000
00100000
01000000
10000000
00010000
01000000
10000000
01000000
,
00020000
00000000
00000000
00000000
,
00000000
00000000
00000000
00000000
,
00000000
00000000
00000000
00000000
,
00030000
00000000
00000000
00000000
;
