#TITLE:One More Lovely;
#ARTIST:Risk Junk;
#GENRE:HAPPY;
#BANNER:One More Lovely.png;
#BACKGROUND:One More Lovely-bg.png;
#CDTITLE:./CDTitles/bm IIDX 10th style.png;
#MUSIC:One More Lovely.ogg;
#SAMPLESTART:46.8;
#SAMPLELENGTH:15;
#BPMS:0=200;
#BGSTAGE:16;

//--------------- dance-single - Fred-104 ----------------
#NOTES:
     dance-single:
     Fred-104:
     Beginner:
     4:
     :
0000
0000
0000
0000
,
0000
0000
0000
0000
,
0000
0000
0000
0000
,
1000
0000
0000
0001
,
0000
0000
0000
0100
,
0000
0000
0000
0010
,
0010
0000
1000
0000
,
0001
0000
0000
0100
,
0000
0000
0000
0010
,
0000
0000
0000
1000
,
0000
0001
0001
0001
,
0001
0000
1000
0000
,
0001
0000
0000
0000
,
1000
0000
0010
0000
,
0100
0000
0000
0000
,
0001
0000
1000
0000
,
0001
0000
0000
0000
,
1000
0000
0001
0000
,
2000
0000
3000
0000
,
0002
0000
0003
0000
,
1000
0000
0001
0000
,
1000
1000
1000
1000
,
2002
0000
0000
0000
,
0000
0000
0000
0000
,
3003
0000
0000
0000
,
0000
0000
0000
0000
,
0002
0000
0000
0003
,
2000
0000
0000
3000
,
0002
0000
0000
0003
,
2000
0000
0000
3000
,
0001
0000
0000
0100
,
0100
0000
0010
0000
,
1000
0000
0000
0001
,
0001
0000
1000
0000
,
0001
0000
0000
1000
,
1000
0000
0100
0000
,
0010
0000
0000
0001
,
2002
0000
0000
0000
,
3003
0000
0000
0000
,
1000
0000
0010
0000
,
1000
0000
0100
0000
,
2000
0000
3000
0000
,
0001
0000
0100
0000
,
0002
0000
0003
0000
,
2000
0000
3000
0000
,
0001
0000
1000
0000
,
0001
0001
0001
0001
,
0002
0000
0003
1000
,
1000
0000
0010
0000
,
0100
0000
0000
0001
,
0001
0000
1000
0000
,
0002
0000
0003
0010
,
0010
0000
0100
0000
,
2000
0000
3000
0001
,
1001
0000
0000
0000
,
1000
0000
0010
0000
,
1000
0000
0100
0000
,
1000
0000
0001
0000
,
1000
0000
0001
0000
,
0100
0000
0001
0000
,
0010
0000
0100
0000
,
1000
0000
0001
0000
,
1000
0000
0001
0001
,
0001
0000
1000
0000
,
0001
0000
1000
0000
,
0010
0000
1000
0000
,
0100
0000
0010
0000
,
0001
0000
0100
0000
,
0001
0000
0100
0000
,
0001
0000
1000
0000
,
2002
0000
3003
0000
,
0001
0000
1000
0000
,
0010
0010
0010
0000
,
1000
0000
0100
0000
,
1000
1000
1000
0000
,
0002
0000
0003
0000
,
1000
0000
0001
0000
,
1000
0000
0001
0000
,
2002
0000
3003
0000
,
0001
0000
0000
1000
,
1000
0000
0010
0000
,
0100
0000
0000
0001
,
0001
0000
0010
0000
,
0100
0000
0000
1000
,
1000
0000
0001
0000
,
1000
0000
0000
0001
,
1001
0000
0000
0000
,
1001
0000
0000
0000
,
1001
0000
0110
0000
,
2002
0000
0000
0000
,
0000
0000
0000
0000
0000
0000
0000
3003
0000
0000
0000
0000
0000
0000
0000
0000
;

//--------------- dance-single - Fred-104 ----------------
#NOTES:
     dance-single:
     Fred-104:
     Easy:
     9:
     :
0000
0000
0000
0000
,
0000
0000
0000
0000
,
0000
0000
0000
0000
,
0001
0100
0010
0000
,
0100
0010
1000
0001
,
1000
0100
0010
0000
,
0100
0000
1000
0000
0001
0000
0100
0010
,
0100
0001
1000
0000
,
0001
0010
0100
1000
,
0001
0100
0010
0000
,
0100
0000
0001
0000
1000
0001
1000
0000
,
0001
0010
0100
1000
,
0010
0100
0010
0000
,
1000
0010
1000
0100
,
0010
0001
1000
0000
,
0001
0100
0010
0100
,
0001
1000
0010
0000
,
1000
0100
0010
0001
,
1000
0100
0001
0010
,
1000
0010
0001
0100
,
1000
1000
0001
0001
,
1000
0100
1000
0000
0001
0100
0001
0000
,
2002
0000
0000
0000
,
0000
0000
0000
3003
,
2000
0000
0000
0000
,
3020
0000
0000
0000
,
0230
0000
0302
0000
,
0023
0000
0230
0000
,
2300
0000
3002
0000
,
2003
3200
0320
0031
,
1001
0000
0001
0100
,
0001
0010
0100
1000
,
0001
0000
0100
0010
,
0100
0001
1000
0001
,
1000
0100
0001
0100
,
1000
0001
1000
0010
,
1000
0100
0001
0010
,
1000
0000
0000
0001
0000
2002
0000
3003
,
2002
0000
3003
0000
,
0001
0100
0001
0010
,
0001
0100
2000
0000
,
3100
1000
0100
0001
,
1000
0001
0010
0001
,
0100
0010
0100
0001
,
0010
1000
0020
0000
,
0031
1000
0010
0100
,
0001
0000
0100
0000
0010
1000
0010
0000
,
1001
0000
1000
0010
,
0100
0001
1000
0100
,
0110
0000
0010
0001
,
1000
0000
0001
0000
0100
0010
0100
0000
,
1001
0000
0001
0100
,
0001
0010
0100
1000
,
1001
0000
0001
0100
,
0010
0000
0000
1000
0000
2002
0000
3003
,
2000
3200
0320
0230
,
1300
0000
0010
0000
0100
0010
0100
0000
,
0002
0203
0320
0230
,
0301
0100
0001
0000
0100
0010
0100
0000
,
0010
1000
0100
1000
,
0010
0100
0001
1000
,
0100
0010
0001
1000
,
0001
0100
0001
0000
1000
0010
1000
0000
,
1001
0000
0001
0000
,
1000
0010
1000
0000
0010
0000
0100
0000
,
0001
0000
1000
0000
,
0100
0010
0100
0000
0010
0001
0010
0000
,
0001
0000
1000
0000
,
0100
1000
0010
0100
,
0001
0100
0001
0100
,
1000
0010
1000
0010
,
1001
0001
0100
0100
,
0010
0010
1000
1000
,
0100
0100
0010
0010
,
0001
0001
1000
0001
,
2002
3003
0001
0100
,
0001
0010
0001
0010
,
1000
0100
1000
0100
,
0001
0000
1000
0000
0001
1000
0001
0000
,
1001
0000
0000
0000
1000
0000
0100
1000
,
0100
0000
0010
0000
0001
1000
0001
0000
,
0101
0000
0100
0010
,
1000
0000
0010
1000
0010
0000
0100
0000
,
2002
0000
3003
2000
,
3200
0320
0032
2003
,
3002
0000
0000
1003
,
0001
0000
0000
0100
0000
0010
0100
0000
,
0001
0000
0000
0010
0000
0100
1000
0000
,
0010
1000
0001
1000
,
2002
0000
0000
0000
,
0000
0000
0000
0000
0000
0000
0000
3003
0000
0000
0000
0000
0000
0000
0000
0000
;

//--------------- dance-single - Fred-104 ----------------
#NOTES:
     dance-single:
     Fred-104:
     Medium:
     14:
     :
0000
0000
0000
0000
,
0000
0000
0000
0000
,
0000
0000
0000
0000
,
1000
0010
1000
0010
1000
0001
1000
0100
,
0000
0110
0000
0010
0001
1000
0001
0100
,
0000
0110
0000
0010
1000
0001
1000
0100
,
1000
0010
0100
0000
0001
0010
0002
0000
,
1003
0001
0100
0001
1000
0001
0010
0100
,
0000
1100
0000
1000
0001
0100
0010
1000
,
0000
1001
0000
1000
0100
0010
0001
2000
,
0000
0000
3001
1000
0010
0100
0001
0000
,
1000
0100
1000
0010
0100
0010
1000
0100
,
0000
0010
0001
1000
0001
0100
0001
0010
,
0000
0001
1000
0010
0100
0001
1000
0100
,
1000
2000
0001
3002
1003
0001
1001
0000
,
0001
0010
0001
1000
0001
0100
0010
0200
,
0000
0301
1000
0100
1000
0010
0100
0020
,
0000
1030
0100
0010
0001
0100
0010
0000
,
1100
0101
0011
1010
,
1010
0011
0101
1100
,
1000
0010
1000
0010
0100
0001
0100
0001
,
1000
0100
0010
0001
0100
0010
1000
0000
,
2002
0000
0000
0000
,
0000
0000
0000
3003
,
0001
0000
0000
0010
0000
0000
0100
0000
,
1000
0000
0000
0010
0000
0000
0100
0000
,
0001
0000
1000
0100
0000
0010
0001
0000
,
1000
0000
0001
0100
0000
0010
0100
0000
,
0001
0000
1000
0100
0000
0001
0100
0000
,
0020
0032
2003
3001
,
2001
3020
0130
0002
,
2003
3200
0302
0203
,
2300
3010
0100
0002
,
2003
3002
0023
0230
,
0302
0103
1000
0002
,
2003
3020
0032
0023
,
0230
0302
1003
0002
,
1003
0100
0000
0110
0000
2002
0000
3003
,
2002
0000
3003
0000
,
1000
0001
0100
0001
1000
0000
1100
0000
,
0120
0000
0001
0000
0032
0000
1003
0001
,
0100
0010
0100
0000
0001
1000
0010
1000
,
1100
0101
1010
0011
,
1001
0000
1000
0100
0010
0001
0100
0000
,
0110
0000
0010
1000
0001
1000
0100
0000
,
1100
0010
0101
0010
,
1001
1000
0100
0010
0000
0001
1000
0001
,
0012
1000
0103
0020
,
2030
3200
0302
0023
,
2030
0000
3001
0000
0010
0100
2000
0000
,
3002
0203
2300
3200
,
0301
0010
0100
0000
0010
0001
2000
0000
,
3002
2003
3002
0103
,
0110
0000
1000
0100
0010
0001
1000
0000
,
0001
0100
0010
1000
0000
2002
0000
3003
,
0001
0010
0001
0100
0001
0010
0001
1000
,
0100
1000
0010
0100
0010
1000
0001
1000
,
0100
1000
0001
0100
0001
0010
0001
0100
,
0010
1000
0010
0100
0001
0010
0100
1000
,
0010
0100
0010
1000
0001
1000
0100
0010
,
0001
0100
0010
1000
0001
1000
0100
1000
,
0010
0100
0001
0010
0100
1000
0001
0100
,
0010
1000
0100
0010
0001
1000
1001
0000
,
0001
0010
0001
1000
0100
0010
0001
0100
,
0010
0100
0001
0010
0100
0010
0001
1000
,
0010
0100
0001
0010
0100
0010
0001
1000
,
0001
0100
0010
0100
0001
1000
0100
0010
,
0001
0010
0100
1000
0001
0100
0010
0100
,
0001
0010
0100
1000
0001
0100
0001
0010
,
0100
0010
0001
0100
0001
0010
0001
1000
,
0100
0000
1000
0000
0001
0000
0100
0000
0001
1000
0001
1000
0001
0000
0000
0000
,
2100
3010
0102
0013
,
0120
1030
0210
0301
,
2001
3100
1002
0013
,
1100
0000
0000
0110
0000
0000
0011
0000
0000
0001
1000
0001
,
0200
0000
0320
1030
,
1100
1010
0101
0011
,
0002
0203
0320
2030
,
3001
0100
0010
0100
0001
1000
0001
0000
,
1001
0000
1000
0010
0100
0001
1000
0000
,
0001
0010
0100
0000
1000
0010
0100
0000
,
0101
0000
0001
1000
0010
1000
0100
0000
,
1000
0100
0001
0000
1000
0010
0001
0000
,
2002
0000
3003
0002
,
0203
0320
2030
3200
,
0320
0000
0000
0031
,
1000
0010
0100
0001
0000
0011
0000
0000
,
0001
0010
0100
1000
0000
1010
0000
0000
,
1000
0000
0010
0000
0100
0000
0001
0000
1000
0001
1000
0000
0001
1000
0001
0000
,
2002
0000
0000
0000
,
0000
0000
0000
0000
0000
3003
0000
1001
0000
0000
0000
0000
0000
0000
0000
0000
;

//--------------- dance-single - Fred-104 ----------------
#NOTES:
     dance-single:
     Fred-104:
     Hard:
     16:
     :
0000
0000
0000
0000
,
0000
0000
0000
0000
,
0000
0000
0000
0000
,
1000
0100
1000
0010
0100
0010
1000
0001
,
0000
1001
0000
1000
0001
0100
0001
0010
,
0000
0011
0000
0001
1000
0001
0100
0010
,
1000
0000
0100
0000
0010
0000
0001
0000
0010
0000
0100
0000
1000
0001
1000
0001
,
1000
0010
1000
0100
0010
0100
0001
0100
,
0000
1100
0000
1000
0001
1000
0010
0001
,
0000
0011
0000
0010
0100
0001
1000
0020
,
0000
0000
0000
0000
1030
0000
0010
0000
0100
0001
0100
0001
0100
0000
0001
0000
,
1000
0000
0001
0100
0001
0000
0010
0000
0100
0000
0010
0001
0010
0000
0002
0000
,
0000
0000
0103
0010
0100
0000
0001
0000
1000
0000
0010
0100
0010
0000
2000
0000
,
0000
0000
3100
0010
0100
0000
1000
0000
0001
0000
0100
0001
0100
0000
0010
0000
,
1000
2000
0001
3002
1003
0001
1001
0000
,
1000
0000
0001
0100
0001
0000
0010
0000
0100
0000
0010
0001
0010
0000
0200
0000
,
0000
0000
1300
0001
1000
0000
0010
0000
0100
0000
0010
1000
0010
0000
0200
0000
,
0000
0000
0301
0100
0001
0000
0010
0000
0100
0000
1000
0001
1000
0000
0100
0000
,
1100
0000
0101
0000
0011
0000
1010
1000
,
1100
0000
0101
0000
0011
0000
1010
1000
,
0001
0001
0010
0010
0100
0100
1000
1000
,
0001
0100
0001
0000
1000
0100
1000
0000
0001
0010
0001
0000
1000
0010
1000
0000
,
0001
0010
0100
0020
0000
0031
1000
0010
,
0100
0001
1000
0200
0000
1300
0001
0100
,
0001
1000
0100
0020
0000
0031
1000
0010
,
1000
0100
0001
1000
0010
0001
1000
0000
,
0001
0010
0100
0002
0000
0103
1000
0001
,
1000
0010
0001
0020
0000
0130
0001
1000
,
0001
0010
0100
0001
1000
0010
0100
1000
,
0002
0203
0320
1030
,
1200
0320
0130
2000
,
3002
0023
2030
3200
,
0302
0013
0001
2000
,
3002
0203
2300
3002
,
0203
0320
1030
0200
,
2300
3200
0320
0032
,
2003
3020
0031
0200
,
2300
3020
0000
0230
0300
0202
0000
0303
,
1001
0000
0000
0000
0000
0000
0000
0000
0001
0100
0010
1000
0001
0000
0000
0000
,
1000
0100
0010
0001
0201
0000
0310
0100
,
0002
1000
0203
0001
,
0320
0000
0100
0000
1030
0000
0100
1000
,
1001
0110
1010
0101
,
1001
0001
0100
0010
1010
1000
0100
0010
,
0011
0001
0100
0001
0101
0001
0010
0100
,
1100
0010
0001
0000
0101
0010
1000
0000
,
1001
0000
0001
0000
0100
0000
0010
1000
0001
0000
1000
0001
0010
0000
0100
0000
,
2100
0010
3100
0020
,
0032
0000
0000
0000
0203
0000
0000
0000
0301
1000
0010
0000
2000
0000
0000
0000
,
3200
0000
0000
0000
0010
0000
0000
0000
1300
0010
0100
0000
0002
0000
0000
0000
,
2003
0000
0000
0000
3200
0000
0000
0000
0310
0100
1000
0000
0002
0000
0000
0000
,
0203
0010
0301
2000
,
3020
0000
0000
0000
2030
0000
0000
0000
3100
0010
0001
0000
2000
0000
0000
0000
,
3002
0010
1000
0203
,
0302
0203
0300
0220
0330
2002
0000
3003
,
1000
0100
1000
0000
0010
0100
0010
0000
0100
0001
0100
0000
0001
0010
0001
0000
,
0100
0000
0010
0100
0000
0010
1000
0000
0010
0100
0000
0001
0100
0000
0001
0000
,
1000
0100
1000
0000
0001
0100
0001
0000
0100
0010
0100
0000
0010
1000
0010
0000
,
1000
0000
0001
0100
0001
0000
1000
0010
1000
0010
0100
0000
0001
0010
0001
0000
,
0100
0000
0001
1000
0001
0000
0010
0100
0010
0000
0001
0000
0100
0000
0010
0000
,
1000
0010
1000
0010
0100
0010
0100
0010
1000
0000
0100
0000
0010
0000
0001
0000
,
0100
0000
0001
0010
0001
0000
1000
0000
0010
0100
0010
0000
0100
0001
0100
0000
,
0001
0010
0001
0000
1000
0010
1000
0000
0001
1000
0001
1000
0010
0000
0100
0000
,
0001
0000
0010
0000
0100
0000
1000
0000
0010
0100
0010
0000
1000
0100
1000
0000
,
0001
0000
0100
0001
0000
1000
0001
0000
0010
0001
0000
1000
0001
0000
0100
0000
,
0010
1000
0010
0000
1000
0000
0001
0000
0100
0010
0100
0000
0001
0000
1000
0000
,
0001
0000
0100
0000
1000
0000
0100
0000
0001
0010
0001
0000
1000
0100
1000
0000
,
0001
0000
0100
0010
0100
0000
0001
0010
0001
0000
0100
0010
0100
0000
0001
0000
,
1000
0010
1000
0000
0001
0100
0001
0000
0100
0000
0010
0000
0100
0000
0001
0000
,
0010
0100
0010
0000
0100
1000
0100
0000
1000
0010
1000
0000
0001
0100
0001
0000
,
1000
0100
1000
0000
0001
0010
0001
0000
1000
0000
0001
0000
1001
0000
0000
0000
,
1100
0101
0110
1001
,
1010
0101
1100
0011
,
1100
0101
1010
0011
,
0110
0000
0000
1001
0000
0000
0101
0000
0000
1000
0010
0100
,
0020
0000
1000
0000
0130
0010
1000
0000
,
1100
0101
0011
1010
,
1000
0100
0000
0000
0100
0010
0000
0000
0010
0001
0000
0000
0001
1000
0000
0000
,
1000
0100
0010
0100
1000
0001
1000
0000
,
1001
0000
0001
0010
0100
0010
0001
1000
,
0001
0000
0100
0010
0100
0000
0001
0000
1000
0000
0001
0100
0001
0000
0010
0000
,
0110
0000
0100
1000
0001
0100
0010
0100
,
0001
0000
0100
0001
0100
0000
1000
0000
0100
0000
0001
0010
0001
0000
1000
0000
,
2002
0000
3003
2000
,
3002
0203
2300
3020
,
0032
0000
0000
2003
,
3001
0000
0100
0000
0010
0000
1020
0000
0000
0000
1030
0000
0100
0010
0100
0010
,
0100
0000
1000
0000
0001
0000
0012
0000
0000
0000
0103
0000
0001
0100
0001
0100
,
0001
0000
0010
0000
0100
1000
0100
1000
0100
0000
1000
0000
0001
0100
0010
1000
,
0002
0000
0000
0000
,
0000
0000
0000
0000
0000
0003
0000
1001
0000
0000
0000
0000
0000
0000
0000
0000
;

//--------------- dance-double - Fred-104 ----------------
#NOTES:
     dance-double:
     Fred-104:
     Easy:
     9:
     :
00000000
00000000
00000000
00000000
,
00000000
00000000
00000000
00000000
,
00000000
00000000
00000000
00000000
,
00001000
00010000
00001000
00000000
,
00100000
00010000
00100000
00001000
,
00100000
00001000
00010000
00000000
,
00001000
00000000
00010000
00000000
00000100
00000000
00010000
00001000
,
00010000
00001000
00010000
00000000
,
00000010
00001000
00000100
00010000
,
00001000
00010000
00001000
00000000
,
00100000
00000000
00010000
00000000
01000000
00100000
01000000
00000000
,
00010000
01000000
00010000
10000000
,
00100000
10000000
00100000
00000000
,
10000000
00100000
10000000
00100000
,
01000000
00010000
01000000
00000000
,
00010000
00001000
00010000
00001000
,
00000100
00001000
00000100
00000000
,
00000010
00000001
00000010
00000001
,
00001000
00000010
00010000
00000010
,
00010000
00001000
00010000
00001000
,
00010000
00010000
00001000
00001000
,
00100000
00010000
00100000
00000000
01000000
10000000
01000000
00000000
,
20020000
00000000
00000000
00000000
,
00000000
00000000
00000000
30030000
,
02000000
00000000
00000000
00000000
,
03200000
00000000
00000000
00000000
,
00302000
00000000
00023000
00000000
,
00030200
00000000
00000320
00000000
,
00000032
00000000
00002003
00000000
,
00003002
00000203
00002300
00013000
,
00011000
00000000
00001000
00010000
,
01000000
10000000
00010000
10000000
,
00010000
00000000
10000000
00100000
,
00010000
00001000
00010000
00001000
,
00000010
00001000
00000010
00000001
,
00001000
00000001
00001000
00000010
,
00000100
00000001
00001000
00000100
,
00000010
00000000
00000000
00000001
00000000
00002002
00000000
00003003
,
00002200
00000000
00003300
00000000
,
00010000
00001000
00010000
00000010
,
00010000
00001000
00020000
00000000
,
00031000
00010000
00001000
01000000
,
00001000
00010000
00001000
00100000
,
00001000
00010000
00001000
00000010
,
00000001
00001000
00000200
00000000
,
00000310
00000100
00001000
00000001
,
00000100
00000000
00000010
00000000
00001000
00000100
00001000
00000000
,
00011000
00000000
00001000
00100000
,
01000000
10000000
00010000
01000000
,
01100000
00000000
10000000
01000000
,
00100000
00000000
00001000
00000000
00010000
00001000
00010000
00000000
,
00011000
00000000
00010000
00000010
,
00000100
00000001
00001000
00000100
,
00000110
00000000
00000001
00000100
,
00001000
00000000
00000000
00010000
00000000
00022000
00000000
00033000
,
00002000
00023000
00230000
20300000
,
30010000
00000000
10000000
00000000
01000000
00100000
01000000
00000000
,
20000000
30200000
02300000
03200000
,
00301000
00010000
00001000
00000000
00010000
00000100
00010000
00000000
,
00000100
00001000
00000100
00001000
,
00000001
00001000
00000001
00000100
,
00000010
00001000
00010000
00001000
,
00010000
00001000
00010000
00000000
00100000
01000000
00100000
00000000
,
00210000
00000000
00302000
00000000
,
00103000
00010000
10000000
00100000
,
02000000
00000000
03020000
00000000
,
10030000
01000000
00100000
00010000
,
02000000
00000000
03200000
00000000
,
10300000
00100000
00010000
00001000
,
00010000
00000000
00001000
00000000
,
00000010
00000000
00000001
00000000
00001000
00000001
00001000
00000000
,
00001001
00000001
00000100
00000100
,
00000010
00000010
00001000
00001000
,
00010000
00010000
01000000
01000000
,
00100000
00100000
10000000
10000000
,
20020000
30030000
10000000
01000000
,
00010000
01000000
10000000
00100000
,
01000000
00100000
00001000
00010000
,
00001000
00000000
00010000
00000000
00000100
00001000
00000100
00000000
,
00000110
00000000
00000001
00001000
,
00000010
00000000
00000100
00000000
00000001
00000010
00001000
00000000
,
00011000
00000000
00010000
00001000
,
00000100
00000000
00001000
00010000
00001000
00000000
00010000
00000000
,
00022000
00000000
00033000
00002000
,
00023000
02030000
03020000
00032000
,
00023000
00000000
00000000
00130000
,
00010000
00000000
00000000
00001000
00000000
00010000
00000100
00000000
,
00001000
00000000
00000000
00000001
00000000
00000010
00000100
00000000
,
00010000
00000000
00001000
00000000
00010000
00001000
00010000
00000000
,
00022000
00000000
00000000
00000000
,
00000000
00000000
00000000
00000000
00000000
00000000
00000000
00033000
00000000
00000000
00000000
00000000
00000000
00000000
00000000
00000000
;

//--------------- dance-double - Fred-104 ----------------
#NOTES:
     dance-double:
     Fred-104:
     Medium:
     14:
     :
00000000
00000000
00000000
00000000
,
00000000
00000000
00000000
00000000
,
00000000
00000000
00000000
00000000
,
00001000
00010000
00001000
00000000
00100000
00010000
10000000
00010000
,
00000000
11000000
00000000
01000000
00100000
00001000
00010000
00000100
,
00000000
00000110
00000000
00000010
00000001
00001000
00000001
00000100
,
00000001
00000010
00001000
00000000
00010000
00001000
00000100
00000000
,
00000001
00000010
00000001
00001000
00000001
00000100
00000010
00001000
,
00000000
00001100
00000000
00000100
00010000
00001000
00100000
01000000
,
00000000
11000000
00000000
00010000
10000000
00100000
01000000
00020000
,
00000000
00000000
10030000
01000000
00010000
01000000
10000000
00000000
,
00010000
01000000
00010000
01000000
00100000
01000000
00100000
10000000
,
00000000
10000000
01000000
00100000
01000000
00100000
00001000
00010000
,
00000000
00010000
00000100
00001000
00000010
00000100
00000001
00001000
,
00000001
00000002
00001000
00002003
00003001
00001000
00001001
00000000
,
00000001
00000010
00000001
00000100
00000001
00000010
00000001
00002000
,
00000000
00003010
00010000
00001000
00100000
01000000
00100000
00020000
,
00000000
10030000
00010000
01000000
00100000
10000000
01000000
00000000
,
11000000
01010000
00011000
00001010
,
00000011
00000101
00001100
00011000
,
00001000
00010000
00001000
00010000
00001000
00100000
00001000
00100000
,
00010000
01000000
00100000
10000000
01000000
00010000
00001000
00010000
,
00022000
00000000
00000000
00000000
,
00000000
00000000
00000000
00033000
,
00010000
00000000
00000000
00001000
00000000
00000000
00000010
00000000
,
00001000
00000000
00000000
00010000
00000000
00000000
00001000
00000000
,
00000100
00000000
00000000
00001000
00000000
00000000
00010000
00000000
,
01000000
00000000
00000000
00010000
00000000
00000000
00001000
00000000
,
00010000
00000000
00000000
00100000
00000000
00000000
00010000
00000000
,
00002000
00003020
00000032
00001003
,
00001002
00000203
00000310
00002000
,
00003200
00000320
00000032
00002003
,
00003020
00010030
00001000
00020000
,
00230000
20300000
30020000
20030000
,
32000000
03100000
00010000
02000000
,
03200000
20300000
30020000
20030000
,
32000000
03100000
00001000
00020000
,
00031000
00010000
00000000
01010000
00000000
02200000
00000000
03300000
,
20020000
00000000
30030000
00000000
,
10000000
01000000
00100000
00001000
00010000
00000000
00011000
00000000
,
00002000
00003010
00020000
00130000
,
00002000
00000000
00010000
00000000
00013000
00000000
00000100
00001000
,
00001001
00000101
00001001
00001010
,
00001001
00000000
00000001
00000100
00001000
00000000
00010000
00000000
,
00011000
00000000
00001000
00010000
00100000
00000000
10000000
00000000
,
11000000
00100000
01010000
00100000
,
10000000
01000000
00100000
00001000
00000000
00010000
00000100
00001000
,
00001200
00000001
00001300
00000020
,
00000230
00000302
00002003
00003020
,
00020030
00000000
00031000
00100000
00010000
00000000
02000000
00000000
,
03200000
00000000
20300000
00000000
30010000
10000000
01000000
00000000
,
00200000
00000000
00301000
00010000
00001000
00000000
00000200
00000000
,
00000302
00002003
00003002
00000103
,
00000110
00000000
00000010
00001000
00000001
00001000
00000100
00000000
,
00000001
00000100
00000010
00001000
00000000
00002002
00000000
00003003
,
00000001
00000100
00000010
00001000
00000100
00010000
00001000
00100000
,
00010000
01000000
00100000
10000000
00010000
10000000
01000000
00000000
,
00100000
00001000
00010000
00001000
01000000
00001000
00010000
00000100
,
00001000
00000100
00000010
00000001
00000100
00000010
00001000
00000000
,
00000001
00000010
00001000
00010000
00001000
00010000
00100000
10000000
,
00010000
10000000
01000000
00100000
01000000
10000000
00100000
00000000
,
01000000
00010000
10000000
00010000
01000000
00010000
10000000
01000000
,
00100000
00010000
00100000
00001000
00010000
00000100
00002000
00000000
,
00003001
00000100
00000010
00001000
00000001
00000010
00001000
00000010
,
00000001
00000100
00000001
00001000
00000010
00001000
00000100
00000000
,
00010000
00001000
00000010
00001000
00010000
00001000
00000100
00001000
,
00010000
01000000
00010000
00001000
00010000
00100000
00010000
00000000
,
00001000
00010000
00000100
00001000
00000010
00010000
00001000
01000000
,
00010000
00100000
00001000
00010000
00000010
00010000
00001000
00000000
,
00100000
00001000
00010000
00001000
01000000
00010000
00100000
00010000
,
01000000
00000000
00100000
00000000
10000000
00000000
00010000
00000000
10000000
01000000
10000000
01000000
10000000
00000000
00000000
00000000
,
21000000
30100000
01020000
00130000
,
00012000
00003100
00001002
00000013
,
00000120
00010030
00012000
00013000
,
00002100
00000000
00000000
00003100
00000000
00000000
00000210
00000000
00000000
00000310
00000001
00001000
,
00000002
00000000
00000203
00000310
,
00001100
00000101
00001010
00000011
,
00000002
00000203
00002300
00023000
,
00031000
00000100
00001000
00010000
00100000
00010000
00001000
00000000
,
00011000
00000000
00001000
00100000
00010000
10000000
00010000
00000000
,
01000000
00100000
10000000
00000000
00010000
10000000
00100000
00000000
,
01100000
00000000
01000000
00010000
10000000
00010000
00100000
00000000
,
00001000
00010000
00100000
00000000
00010000
00001000
00000010
00000000
,
00000220
00000000
00000330
00002000
,
00003002
00002003
00003200
00000302
,
00000203
00000000
00000000
00001300
,
00000001
00000010
00000100
00001000
00000000
00011000
00000000
00000000
,
00001000
00010000
00100000
01000000
00000000
10010000
00000000
00000000
,
00010000
00000000
01000000
00000000
00100000
00000000
01000000
00000000
00010000
10000000
00010000
00000000
10000000
01000000
10000000
00000000
,
20020000
00000000
00000000
00000000
,
00000000
00000000
00000000
00000000
00000000
30030000
00000000
10010000
00000000
00000000
00000000
00000000
00000000
00000000
00000000
00000000
;

//--------------- dance-double - Fred-104 ----------------
#NOTES:
     dance-double:
     Fred-104:
     Hard:
     16:
     :
00000000
00000000
00000000
00000000
,
00000000
00000000
00000000
00000000
,
00000000
00000000
00000000
00000000
,
00001000
00010000
00001000
00000010
00001000
00010000
00001000
00000100
,
00000000
00000110
00000000
00000010
00000001
00001000
00000001
00000100
,
00000000
00000110
00000000
00000010
00001000
00000001
00000100
00001000
,
00010000
00000000
00001000
00000000
00000010
00000000
00000001
00000000
00001000
00000000
00000001
00000000
00000100
00000010
00000100
00000010
,
00000100
00000001
00000010
00000100
00000010
00000001
00000100
00001000
,
00000000
00011000
00000000
00010000
00100000
10000000
00010000
10000000
,
00000000
11000000
00000000
01000000
00100000
00010000
00100000
00002000
,
00000000
00000000
00000000
00000000
00013000
00000000
00000010
00000000
00010000
00001000
00010000
00001000
00010000
00000000
00000000
00000000
,
00001000
00000000
00010000
00000000
00000100
00000000
00001000
00000000
00000001
00000000
00000100
00000010
00000100
00000000
00000002
00000000
,
00000000
00000000
00000013
00000000
00000100
00000000
00000010
00000000
00000001
00000000
00001000
00000100
00001000
00000000
00000020
00000000
,
00000000
00000000
00010030
00000000
00001000
00000000
00010000
00000000
00100000
00000000
10000000
00010000
10000000
00000000
01000000
00000000
,
10000000
20000000
00010000
30020000
10030000
00010000
10010000
00000000
,
10000000
00000000
01000000
00000000
00100000
00000000
01000000
00000000
10000000
00000000
00010000
01000000
00010000
00000000
00200000
00000000
,
00000000
00000000
00301000
00000000
00010000
00000000
00001000
00000000
00000100
00000000
00000001
00001000
00000001
00000000
00000020
00000000
,
00000000
00000000
00000031
00000000
00000100
00000000
00000010
00000000
00001000
00000000
00000100
00000010
00000100
00000000
00000010
00000000
,
00000011
00000000
00001010
00000000
00000101
00000000
00000100
00001000
,
00011000
00000000
00110000
00000000
10100000
00000000
00010000
10000000
,
00010000
01000000
00100000
10000000
00010000
01000000
00100000
10000000
,
01000000
00100000
01000000
00000000
00100000
00001000
00100000
00000000
00001000
00010000
00001000
00000000
00010000
00000100
00010000
00000000
,
00001000
00010000
00000010
00002000
00000000
00003100
00010000
00001000
,
01000000
00010000
00100000
00002000
00000000
00013000
00001000
00010000
,
00000010
00001000
00000100
00020000
00000000
00031000
00100000
00010000
,
01000000
00010000
00001000
00010000
00100000
00010000
00001000
00000000
,
00010000
00001000
00000100
00000002
00000000
00001003
00000001
00000100
,
00000010
00001000
00000001
00000020
00000000
00000130
00000001
00000100
,
00001000
00000001
00000010
00000200
00000000
00000310
00000001
00000100
,
00002000
00023000
00230000
10300000
,
10020000
02030000
03100000
20000000
,
32000000
03020000
00032000
00023000
,
00230000
10300000
00010000
20000000
,
32000000
03020000
00032000
00003020
,
00000032
00002003
00003010
00000200
,
00000302
00002003
00003200
00000320
,
00000230
00020300
00031000
00200000
,
00310000
01000000
00000000
01001000
00000000
00022000
00000000
00033000
,
00010100
00000000
00000000
00000000
00000000
00000000
00000000
00000000
00001000
00100000
00010000
10000000
00100000
00000000
00000000
00000000
,
10000000
00100000
01000000
00010000
00100000
00001000
00010000
00000100
,
00000010
00000001
00001000
00000010
00000100
00000001
00001000
00000000
,
00000001
00000010
00000100
00001000
00010000
00001000
00000100
00000010
,
00000001
00000100
00001000
00010000
00000100
00000010
00000001
00000000
,
00001000
00000010
00010000
00001000
00100000
00010000
00100000
00001000
,
00010000
00000010
00001000
00000100
00010000
00001000
01000000
00000000
,
01100000
00010000
00011000
00001000
,
00000100
00000000
00000010
00000000
00000001
00000000
00002000
00000000
00000000
00000000
00003001
00001000
00000100
00000000
00001000
00000000
,
00000001
00000010
00000100
00010000
00001000
00010000
01000000
00100000
,
10000000
01000000
00010000
01000000
10000000
00010000
10000000
00000000
,
00010000
00100000
01000000
10000000
00010000
01000000
00100000
10000000
,
01000000
00010000
00001000
00010000
00100000
00010000
00001000
00000000
,
00010000
00001000
00000010
00001000
00010000
00001000
00000100
00001000
,
00010000
00100000
00010000
00001000
00010000
01000000
00010000
00000000
,
00002000
00000000
00100000
00000000
00000010
00000000
00013000
00001000
,
00100000
00010000
10000000
01000000
00000000
02200000
00000000
03300000
,
00010000
10000000
00010000
00000000
01000000
00100000
01000000
00000000
00100000
10000000
00100000
00000000
10000000
00010000
10000000
00000000
,
01000000
00100000
00001000
00010000
00000100
00001000
00000100
00000010
,
00000001
00000100
00000001
00000000
00000010
00000100
00000010
00000000
00000001
00000010
00000001
00000000
00001000
00000100
00001000
00000000
,
00000001
00000010
00001000
00010000
01000000
10000000
00010000
01000000
,
00100000
01000000
00100000
00000000
10000000
01000000
10000000
00000000
00010000
01000000
00010000
00000000
01000000
00100000
01000000
00000000
,
00100000
01000000
00100000
00010000
00001000
00000100
00000010
00010000
,
00001000
00010000
00001000
00000000
00100000
00010000
00100000
00000000
00010000
10000000
00010000
00000000
01000000
00100000
01000000
00000000
,
00010000
00000000
10000000
00000000
01000000
00000000
00100000
00000000
00001000
00010000
00001000
00010000
00000010
00001000
00000010
00001000
,
00000010
00001000
00000100
00000010
00000001
00000100
00001000
00010000
,
00001000
00000000
00000010
00000000
00000001
00000000
00001000
00000000
00000001
00000100
00000001
00000100
00000001
00000000
00000010
00000000
,
00000001
00000010
00000100
00001000
00000100
00010000
00001000
00100000
,
00010000
10000000
00010000
10000000
00010000
00000000
01000000
00000000
00100000
00000000
10000000
00000000
01000000
00000000
00100000
00000000
,
00010000
10000000
01000000
00100000
00001000
00010000
00100000
10000000
,
00010000
01000000
00010000
01000000
00100000
00000000
10000000
00000000
01000000
00100000
01000000
00100000
00001000
00000000
00010000
00000000
,
00000100
00001000
00000010
00000100
00000001
00000010
00000100
00000010
,
00000001
00000100
00000010
00000000
00001000
00000100
00010000
00000000
00001000
00010000
00001000
00010000
00001000
00000000
00000000
00000000
,
00011000
00010010
00011000
00010100
,
00011000
01001000
00011000
00101000
,
00011000
00010100
00001100
00011000
,
01001000
00000000
00000000
01010000
00000000
00000000
01100000
00000000
00000000
00010000
10000000
01000000
,
00200000
01300000
00002000
00013000
,
00010100
01001000
00010010
00101000
,
10010000
01000000
00011000
00000010
,
00001001
00000000
00000000
00000000
00000001
00000000
00001000
00000000
00000010
00000000
00000100
00000001
00000100
00000000
00000000
00000000
,
00000010
00001000
00000100
00010000
00001000
00100000
00010000
10000000
,
00010000
00000000
00100000
01000000
00100000
00000000
01000000
10000000
01000000
00000000
10000000
00000000
00100000
00000000
01000000
00000000
,
00010000
01000000
00100000
00010000
00001000
00000100
00000010
00001000
,
00010000
00000000
00001000
00010000
00001000
00000000
00100000
01000000
00100000
00000000
10000000
00000000
00010000
00000000
00100000
00000000
,
02200000
00000000
03300000
00002000
,
00023000
00032000
00003020
00000230
,
00000302
00000000
00000000
00001003
,
00000010
00000000
00010000
00000000
00001000
00000000
00021000
00000000
00000000
00000000
00031000
00000000
00100000
00010000
00100000
00010000
,
10000000
00000000
00100000
00000000
01000000
00000000
01020000
00000000
00000000
00000000
10030000
00000000
01000000
00100000
01000000
00100000
,
00001000
00000000
00010000
00000000
00000100
00001000
00000100
00001000
00000001
00000000
00000100
00000000
00000010
00001000
00000001
00001000
,
00000002
00000000
00000000
00000000
,
00000000
00000000
00000000
00000000
00000000
00000003
00000000
00001001
00000000
00000000
00000000
00000000
00000000
00000000
00000000
00000000
;
