#TITLE:Oh My Jam;
#ARTIST:Hommarju;
#BANNER:Oh My Jam.png;
#BACKGROUND:Oh My Jam-bg.png;
#CDTITLE:./CDTitles/RB Reflesia.png;
#MUSIC:Oh My Jam.ogg;
#SAMPLESTART:73.412;
#SAMPLELENGTH:15;
#BPMS:0=170;
#BGSTAGE:4;

//--------------- dance-single - Fred-104 ----------------
#NOTES:
     dance-single:
     Fred-104:
     Beginner:
     3:
     :
0000
0000
0000
0000
,
0000
0000
0000
0000
,
0000
0000
0000
0000
,
0000
0000
0000
0000
,
0000
0000
0000
0000
,
1000
0000
0000
0000
,
0000
0000
0000
0000
,
0001
0000
0000
0000
,
0000
0000
0000
0000
,
1000
0000
0000
0000
,
0001
0000
0000
0000
,
1000
0000
0000
0000
,
0010
0000
0000
0000
,
1000
0000
0001
0000
,
1000
0000
0001
0000
,
2000
0000
0000
3000
,
1001
0000
0000
0000
,
0001
0000
0000
0000
,
0100
0000
0000
0000
,
0001
0000
0000
0000
,
0010
0000
0000
0000
,
0001
0000
0000
0000
,
1000
0000
0000
0000
,
0001
0000
0000
0000
,
1000
0000
0000
0000
,
0010
0000
0000
0000
,
1000
0000
0001
0000
,
1000
0000
0000
0000
,
0001
0000
0100
0000
,
0001
0000
0000
0000
,
0010
0000
0000
0000
,
0002
0000
0000
0003
,
2000
0000
0000
3000
,
2002
0000
0000
0000
,
0000
0000
0000
3003
,
0001
0000
1000
0000
,
0001
0000
1000
0000
,
1001
0000
0000
0000
,
0001
0000
1000
0000
,
0010
0000
0000
0000
,
1000
0000
0100
0000
,
1000
0000
0000
0000
,
0001
0000
0100
0000
,
0010
0000
0000
0000
,
0100
0000
0001
0000
,
1000
0000
0000
0000
,
0100
0000
0000
0000
,
0010
0000
0000
0000
,
0001
0000
0000
0000
,
1000
0000
0000
0000
,
0001
0000
0000
0000
,
1000
0000
0001
0000
,
1001
0000
0000
0000
,
0001
0000
0000
0000
,
0100
0000
0000
0000
,
0001
0000
0000
0000
,
1000
0000
0000
0000
,
0001
0000
0000
0000
,
1000
0000
0000
0000
,
0010
0000
0000
0000
,
1000
0000
0000
0000
,
0001
0000
0000
0000
,
1000
0000
0000
0000
,
0001
0000
0000
0000
,
0100
0000
0000
0000
,
0001
0000
0000
0000
,
1000
0000
0000
0000
,
0001
0000
1000
0000
,
1001
0000
0000
0000
,
0001
0000
0001
0000
,
0100
0000
0000
0000
,
0001
0000
1000
0000
,
1000
0000
0000
0000
,
0010
0000
1000
0000
,
1000
0000
0001
0000
,
0001
0000
1000
0000
,
0001
0000
0001
0000
,
2002
0000
0000
0000
,
0000
0000
3003
0000
;

//--------------- dance-single - Fred-104 ----------------
#NOTES:
     dance-single:
     Fred-104:
     Easy:
     6:
     :
0000
0000
0000
0000
,
0000
0000
0000
0000
,
0000
0000
0000
0000
,
0000
0000
0000
0000
,
0000
0000
0000
0000
,
1000
0000
0010
0000
,
1000
0000
0001
0001
,
0001
0000
0100
0000
,
0001
0000
0010
0010
,
0001
0000
0001
0000
,
0100
0000
0100
0000
,
0010
0000
0010
0000
,
1000
0000
1000
0000
,
0001
0001
0001
0000
,
1000
1000
1000
0000
,
0010
0010
0010
0000
,
0100
0100
0100
0100
,
1001
0000
1000
0000
,
0010
0000
1000
0000
,
0100
0000
1000
0000
,
0001
0000
0010
0001
,
0100
0000
0001
0000
,
0010
0000
0001
1000
,
0100
0000
1000
0000
,
0010
0000
1000
0001
,
1000
1000
0000
0010
,
0000
0001
0000
0010
,
1000
0100
0000
0010
,
0000
0100
0000
1000
,
0001
0001
0001
0000
,
0100
0100
0100
0000
,
0010
0010
0010
0000
,
1000
1000
1000
1000
,
2002
0000
0000
0000
,
0000
0000
0000
3003
,
0001
0001
1000
1000
,
0001
0001
1000
1000
,
1001
0000
0001
0000
,
0100
0000
0010
1000
,
0100
0000
1000
0000
,
0010
0000
1000
0100
,
0010
0000
0001
0000
,
0100
0000
1000
0010
,
0001
0000
1000
0000
,
0001
0000
1000
1000
,
1000
0000
0100
0000
,
0010
0000
0001
0000
,
0010
0000
0100
0000
,
1000
0000
0001
0000
,
0100
0100
0100
0000
,
0010
0010
0010
0000
,
1000
1000
1000
0000
,
0001
0001
0001
0001
,
0001
0000
0100
0000
,
0001
0000
0010
0100
,
0010
0000
0001
0000
,
1000
0000
0010
1000
,
0100
0000
1000
0000
,
0001
0000
0100
0001
,
0010
0000
0001
0000
,
1000
0000
0001
1000
,
0001
0001
0010
0010
,
0001
0100
0001
0000
,
0010
0010
0100
0100
,
1000
0001
1000
0000
,
0001
0001
0100
0100
,
1000
1000
0001
0001
,
0010
0010
1000
1000
,
0001
0001
1000
1000
,
0001
0100
0110
0000
,
1000
0100
0110
0000
,
0100
0010
1001
0000
,
0010
0100
1001
0000
,
0001
0001
0001
0000
,
1000
1000
1000
0000
,
0001
0010
0100
1000
,
0001
0100
0010
1000
,
2002
0000
0000
0000
,
0000
0000
3003
0000
;

//--------------- dance-single - Fred-104 ----------------
#NOTES:
     dance-single:
     Fred-104:
     Medium:
     11:
     :
0000
0000
0000
0000
,
0000
0000
0000
0000
,
0000
0000
0000
0000
,
0000
0000
0000
0000
,
0000
0000
0000
0000
,
1000
0000
0100
0000
1000
0000
0000
1000
0000
0000
0010
0000
0100
0000
0000
0001
,
0000
0000
0100
0000
0001
0000
0000
0001
0000
0000
0010
0000
0100
0000
0000
0000
,
0010
0000
0001
0000
0010
0000
0000
0010
0000
0000
0001
0000
1000
0000
0000
0001
,
0000
0000
0100
0000
0001
0000
0000
0001
0000
0000
1000
0000
0001
0000
0000
0000
,
1100
1100
1100
1100
,
0101
0101
0101
0101
,
1010
1010
1010
1010
,
0011
0011
0011
0011
,
1000
0100
1000
0000
0010
1000
0010
0000
,
0100
0001
0100
0000
0001
0010
0001
0000
,
1000
0010
1000
0010
0100
0001
0100
0001
,
0100
0100
0100
1001
,
0001
0000
0000
0000
0010
0000
0000
0001
0000
0000
1000
0000
0100
0000
0000
0000
,
1000
0000
0000
0000
0010
0000
0000
0100
0000
0000
0001
0000
0010
0000
0000
0000
,
0100
0000
0000
0000
0010
0000
0000
0001
0000
0000
0100
0000
0010
0000
0000
0000
,
1000
0000
0000
0000
0010
0000
0000
0100
0000
0000
0001
0000
1000
0000
0010
0000
,
1000
0000
0000
0000
0100
0000
0000
0010
0000
0000
0001
0000
0100
0000
0000
0000
,
0001
0000
0000
0000
1000
0000
0000
0001
0000
0000
0010
0000
0100
0000
0100
0000
,
1000
0000
0000
0000
0001
0000
0000
1000
0000
0000
0010
0000
0100
0000
0000
0000
,
0001
0000
0000
0000
0010
0000
0000
0001
0000
0000
1000
0000
0100
0000
0100
0000
,
1000
0000
0000
0000
1010
0000
0000
1000
0000
0000
0001
0000
0100
0000
0000
0000
,
0010
0000
0000
0000
0110
0000
0000
0001
0000
0000
1000
0000
0010
0000
0000
0000
,
0100
0000
0000
0000
0101
0000
0000
0010
0000
0000
1000
0000
0100
0000
0000
0000
,
0010
0000
0000
0000
0011
0000
0000
0001
0000
0000
1000
0000
0001
0000
0000
0000
,
1000
0100
1000
0000
0001
0100
0001
0000
,
1000
0010
1000
0000
0001
0010
0001
0000
,
1000
0100
1000
0100
0010
0001
0010
0001
,
0100
0000
0100
0000
0001
1000
0001
0000
,
2002
0000
0000
0000
,
0000
0000
0000
3003
,
1000
0100
1000
0000
0001
0010
0001
0000
,
1000
0010
0100
0001
0010
0001
0100
0000
,
0001
0010
1000
0000
0010
0000
0001
0000
,
1000
0010
0001
0000
0010
0000
1000
0000
,
0001
0100
1000
0000
0100
0000
0001
0000
,
1000
0100
0001
0000
0100
0000
1000
0000
,
0001
1000
1010
0000
0001
0000
0100
0000
,
0010
1000
1100
0000
0010
0000
0001
0000
,
0100
0001
0011
0000
0100
0000
0010
0000
,
0100
0001
1001
0000
0010
1000
0001
0000
,
0101
0101
1001
1001
,
1100
1100
0110
0110
,
0011
0011
0110
0110
,
1010
1010
1001
1001
,
0001
0100
0001
0000
1000
0010
1000
0000
,
0001
0010
0001
0000
1000
0100
1000
0000
,
0001
0100
0001
0100
0010
1000
0010
1000
,
0010
0010
0010
1001
,
0001
0000
0000
0000
0010
0000
0000
0001
0000
0000
1000
0000
0001
0000
0000
0000
,
0100
0000
0000
0000
0010
0000
0000
0100
0000
0000
0001
0000
1000
0000
1000
0000
,
0100
0000
0000
0000
1000
0000
0000
0010
0000
0000
0100
0000
0010
0000
0000
0000
,
1000
0000
0000
0000
0100
0000
0000
0010
0000
0000
0001
0000
0100
0000
0100
0000
,
0010
0000
0000
0000
0100
0000
0000
0001
0000
0000
0010
0000
0001
0000
0000
0000
,
0100
0000
0000
0000
0001
0000
0000
0010
0000
0000
0100
0000
1000
0000
1000
0000
,
0010
0000
0000
0000
0100
0000
0000
0010
0000
0000
1000
0000
0100
0000
0000
0000
,
1000
0000
0000
0000
0001
0000
0000
0100
0000
0000
0010
0000
1000
0000
1000
0000
,
0001
0000
0101
0000
0001
1000
0100
0000
,
0010
0000
0011
0000
0001
0100
0010
0000
,
0100
0000
0101
0000
0010
1000
0001
0000
,
1000
0000
1001
0000
0001
1000
0010
0000
,
1000
0100
1000
0000
1000
0010
1000
0000
,
0001
0100
0001
0000
0001
0010
0001
0000
,
0100
0010
0100
0000
0100
0001
0100
0000
,
0002
1000
1003
1001
,
0001
0000
0010
0000
0001
0000
0000
0100
0000
0000
0001
0000
1000
0000
0000
0100
,
0000
0000
0010
0000
0001
0000
0000
0100
0000
0000
0001
0000
1000
0000
0000
0000
,
0001
0000
0100
0000
0001
0000
0000
0010
0000
0000
0001
0000
1000
0000
0000
0010
,
0000
0000
0100
0000
0001
0000
0000
0010
0000
0000
0001
0000
1000
0000
0001
0000
,
1000
0100
1000
0000
0010
0100
0010
0000
,
0100
0001
0100
0000
0001
0010
0001
0000
,
1000
0010
1000
0010
0100
0001
0100
0001
,
0010
0100
1000
0010
0100
0001
1000
0000
,
2002
0000
0000
0000
,
0000
0000
3003
0000
;

//--------------- dance-single - Fred-104 ----------------
#NOTES:
     dance-single:
     Fred-104:
     Hard:
     15:
     :
0000
0000
0000
0000
,
0000
0000
0000
0000
,
0000
0000
0000
0000
,
0000
0000
0000
0000
,
0000
0000
0000
0000
,
0001
0000
0010
0000
0001
0000
0000
0101
0000
0000
1000
0000
0100
0000
0000
1010
,
0000
0000
1000
0001
1000
0000
0000
1100
0000
0000
0010
0000
0001
0010
0000
0010
,
0100
0000
0010
0000
0001
0000
0000
0011
0000
0000
0100
0000
1000
0000
0000
1001
,
0000
0000
0010
0000
0001
0000
0000
0011
0000
0000
0100
0000
1000
0100
1000
0000
,
1010
1100
1010
1100
,
0011
0000
0000
0000
0101
0000
0000
0000
0001
0000
1000
0010
1000
0000
0001
0010
,
0001
0011
1010
0011
,
0001
0100
1000
0000
0001
0010
1000
0000
,
0001
0100
0001
0100
0010
1000
0010
1000
,
0100
0010
0001
0100
0010
1000
0010
0100
,
0001
0100
0001
0000
1000
0010
1000
0000
0001
0010
0001
0000
1000
0100
1000
0000
,
0100
0000
0100
0000
0100
0010
1001
0000
,
0002
0000
0103
0000
0001
0000
0010
0100
0000
0100
1000
0000
0010
0000
0000
0000
,
1000
0000
0001
0000
1000
0000
0010
0100
0000
0100
0001
0000
1000
0000
0100
0000
,
0010
0000
0001
0000
1000
0000
0001
1000
0000
1000
0010
0000
0100
0000
0000
0000
,
0001
0000
1000
0000
0100
0000
0010
0001
0000
0001
0100
0000
0001
0000
1000
0000
,
1200
0000
0000
0000
1300
0000
0001
0010
0000
0100
0010
0000
0001
0000
0000
0000
,
0100
0000
0001
0000
0010
0000
0001
0100
0000
0100
0010
0000
0100
0000
0001
0000
,
1000
0000
0100
0000
0010
0000
0001
0100
0000
0001
0010
0000
0001
0000
1000
0000
,
0001
0000
0100
0000
0001
0000
1000
0010
0000
0100
0001
1000
0100
0010
0100
0010
,
0200
0000
1300
0000
1100
0000
0000
0001
0000
0000
0100
0000
0110
0000
0000
0000
,
0010
0000
1000
0000
1001
0000
0000
1000
0000
0000
0100
0000
0110
0000
0010
0000
,
0001
0000
1000
0000
1010
0000
0000
0100
0000
0000
0001
0000
0101
0000
0000
0000
,
0001
0000
0010
0000
0011
0000
0001
0100
0000
0000
0001
0010
0001
1000
0001
0000
,
1000
0001
0010
0100
0010
0001
0100
0010
,
1000
0010
1000
0100
1000
0001
0010
0100
,
1000
0010
1000
0000
0001
0100
0001
0000
1000
0100
1000
0000
0001
0010
0001
0000
,
1000
0001
1000
0000
0010
0100
0010
0000
1000
0001
1000
0001
1000
0000
0000
0000
,
2002
0000
0000
0000
,
0000
0000
0000
3003
,
1000
0010
1000
0000
0001
0010
0001
0000
1000
0100
1000
0000
0001
0100
0001
0000
,
1000
0010
0100
0000
0001
0100
0010
0000
1000
0001
1000
0001
1000
0000
0000
0000
,
0001
0000
0010
0000
0100
0001
0000
0001
0100
0000
0010
0000
0001
0000
0000
0000
,
0001
0000
0100
0000
0010
0001
0000
0001
0010
0000
0100
0000
0001
0000
0000
0000
,
1000
0000
0010
0000
0100
1000
0000
1000
0100
0000
0010
0000
1000
0000
0000
0000
,
1000
0000
0100
0000
0010
1000
0000
1000
0010
0000
0100
0000
1000
0000
0000
0000
,
0001
0000
0010
0000
0100
1000
0000
0100
1000
0000
0010
0000
0100
0001
0000
0100
,
0001
0000
1000
0000
0010
0100
0000
0001
1000
0000
0100
0000
0010
0001
0000
0010
,
0001
0000
1000
0000
0001
0100
0000
0010
1000
0000
0100
0000
1000
0001
0000
0010
,
0001
0000
0100
0000
0001
0010
0000
0100
1000
0000
0001
1000
0001
1000
0001
0000
,
1001
1100
1001
0101
,
0110
0000
0000
0000
1010
0000
0000
0000
1000
0000
0001
0010
0100
0000
1000
0010
,
0100
0101
1100
0101
,
0011
0000
0000
0000
1010
0000
0000
0000
0001
0000
1000
0001
0010
0000
0001
1000
,
0100
0010
0100
0010
0001
1000
0001
1000
,
0010
0100
0001
0010
0100
1000
0100
0010
,
0001
0100
0001
0000
1000
0010
1000
0000
0001
0010
0001
0010
0100
1000
0100
1000
,
0100
0000
0100
0000
0100
0010
1001
0000
,
1000
0100
1000
0000
0001
0000
0100
0010
0000
0010
1000
0000
0001
1000
0010
0000
,
1000
0000
0001
0100
0001
0000
0010
0100
0000
0100
1000
0000
0001
0000
0100
0000
,
0001
0000
0010
0001
0010
0000
0100
1000
0000
1000
0001
0000
0100
0000
0010
1000
,
0010
0000
1000
0100
1000
0000
0001
0010
0000
0100
0010
0000
0001
0000
0001
0000
,
1000
0000
0001
1000
0100
0000
1000
0010
0000
0100
0001
0000
1000
0000
0100
0010
,
0100
0000
1000
0001
0010
0000
0100
0010
0000
0001
0100
0000
0010
1000
0010
0000
,
0100
0000
0001
1000
0010
0000
0100
0001
0000
0100
0010
0000
1000
0000
0010
1000
,
0001
0000
0100
0001
0010
0000
0100
1000
0000
0100
0010
0001
1000
0001
1000
0001
,
1000
0000
0100
0000
1100
0000
0000
0001
0000
0000
0100
0000
0110
0000
0000
0000
,
0010
0000
1000
0000
1001
0000
0000
0010
0000
0000
0001
0000
0101
0000
0100
0000
,
0010
0000
1000
0000
1010
0000
0000
0100
0000
0000
1000
0000
1100
0000
0000
0000
,
0100
0000
0010
0000
0011
0000
0000
1000
0000
0000
0001
0000
0100
0010
0100
0000
,
0001
0000
0010
0000
0110
0000
0000
1000
0000
0010
0100
0000
0001
0000
0000
0000
,
1000
0000
0100
0000
1100
0000
0000
0001
0000
0100
0010
0000
1000
0000
0100
0000
,
1000
0010
1000
0100
0010
0001
1000
0010
,
1000
0100
1000
0000
0001
0010
0001
0000
1000
0010
1000
0010
0100
0001
0100
0001
,
0100
0000
0010
0000
0110
0000
0000
0010
0000
0000
1000
0000
1001
0000
0000
0001
,
0010
0000
0100
0000
1100
0000
0000
1000
0000
0000
0010
0000
0110
0000
0000
0000
,
0001
0000
0100
0000
0101
0000
0000
0100
0000
0000
0010
0000
1010
0000
0000
1000
,
0100
0000
0010
0000
0011
0000
0000
1000
0000
0000
0001
1000
0001
1000
0001
0000
,
1000
0100
1000
0001
0100
0010
1000
0001
,
0010
0100
0010
0001
0100
0010
1000
0100
,
1000
0010
1000
0000
0001
0100
0001
0000
1000
0100
1000
0000
0001
0010
0001
0000
,
1000
0001
1000
0000
0100
0010
0100
0000
1000
0001
1000
0001
1000
0000
0000
0000
,
2002
0000
0000
0000
,
0000
0000
3003
0000
;

//--------------- dance-single - Fred-104† ----------------
#NOTES:
     dance-single:
     Fred-104†:
     Challenge:
     18:
     :
0000
0000
0000
0000
,
0000
0000
0000
0000
,
0000
0000
0000
0000
,
0000
0000
0000
0000
,
0000
0000
0000
0000
,
1000
0000
0100
0000
1100
0000
0000
1100
0000
0000
1000
0000
0101
0000
0000
0101
,
0000
0000
1000
0000
0110
0000
0000
0110
0000
0000
0001
0000
1000
0001
0000
0001
,
0100
0000
0001
0000
0011
0000
0000
0011
0000
0000
1000
0000
1010
0000
0000
1010
,
0000
0000
0001
0000
0110
0000
0000
0110
0000
0000
1000
0001
0100
0010
1000
0001
,
1000
1000
1000
1000
,
0001
0000
0000
0000
0001
0000
0000
0000
0001
0000
0010
0100
1000
0000
0010
0100
,
0001
0001
0001
0001
,
1000
0000
0000
0000
1000
0000
0000
0000
1000
0000
0100
0010
0001
0000
0100
0010
,
1000
0010
1000
0000
1000
0100
1000
0000
0001
0100
0001
0000
0001
0010
0001
0000
,
0100
0010
0100
0000
0100
0001
0100
0000
0010
1000
0010
0000
0010
0100
0010
0000
,
1000
0001
1000
0001
0010
0100
0010
0100
0010
0001
1000
0010
0100
0001
0100
0010
,
0200
0000
0000
0000
0000
0300
1001
0000
,
0001
0000
1000
0000
0010
1000
0001
1000
0100
0010
0001
0010
0100
1000
0001
0100
,
0001
1000
0100
1000
0001
0100
0001
1000
0100
0010
0001
1000
0010
0100
0010
1000
,
0001
0000
1000
0000
0100
0010
0001
1000
0010
1000
0001
0010
0100
0010
0001
1000
,
0010
0100
0001
0100
0010
1000
0001
0010
0100
1000
0100
0010
0001
1000
0010
0100
,
0001
0000
1000
0000
0100
0010
0001
1000
0010
0100
0001
1000
0100
1000
0001
0100
,
0001
1000
0100
0010
0001
0010
0100
1000
0001
0100
0001
1000
0001
0010
0100
0010
,
0100
0000
1000
0000
0001
1000
0010
0100
0001
1000
0100
0010
0100
1000
0001
1000
,
0010
0100
0010
1000
0001
0010
0100
1000
0010
0100
0001
0010
0100
0010
0001
1000
,
0010
0000
1000
0000
0001
0010
0100
1000
0001
1000
0010
0100
0001
1000
0100
0010
,
0001
1000
0010
1000
0001
1000
0100
1000
0001
0100
0010
1000
0100
0010
0001
1000
,
0010
0000
1000
0000
0001
0010
0100
0010
0001
1000
0010
1000
0001
0010
0100
1000
,
0001
1000
0010
0100
0001
1000
0100
0010
0001
1000
0010
0100
0010
1000
0100
0010
,
0001
1000
0010
0000
1000
0001
0010
0000
0100
1000
0001
0000
0100
0001
1000
0000
,
0100
0010
0001
0000
0100
0010
1000
0000
0010
0100
0001
0000
0010
0100
1000
0000
,
0001
1000
0010
1000
0001
0010
0100
1000
0010
0100
0001
1000
0100
0010
0001
1000
,
0010
0100
0001
0100
0010
1000
0100
0010
0100
1000
0010
0100
0001
0000
0000
0000
,
2002
0000
0000
0000
,
0000
0000
0000
3003
,
1000
0100
0010
0001
0010
0100
1000
0001
0100
0010
1000
0010
0100
0001
1000
0100
,
0010
0100
1000
0001
0100
0001
1000
0100
0010
0001
0100
0010
1000
0000
0000
0000
,
0001
0000
0010
0000
0100
1000
0000
0100
1000
0000
0001
0000
0100
0001
0000
0100
,
0001
0000
1000
0000
0100
0010
0000
0100
0010
0000
0001
0000
1000
0000
0000
0000
,
0001
0000
0100
0000
0010
1000
0000
0010
1000
0000
0001
0000
0010
0100
0000
0010
,
0100
0000
1000
0000
0001
0100
0000
0010
1000
0000
0001
0000
1000
0001
1000
0001
,
1000
0000
0010
0000
0100
0001
0000
1000
0001
0000
0010
0000
0100
1000
0000
0001
,
0100
0000
0010
0000
1000
0100
0000
0010
0001
0000
1000
0000
0010
0100
0010
0100
,
0001
0000
1000
0000
0001
0010
0000
0100
0010
0000
0001
0000
1000
0010
0000
0100
,
0001
0000
1000
0000
0100
0010
0000
0100
1000
0000
0001
0100
0010
1000
0100
0010
,
0001
0001
0001
0001
,
1000
0000
0000
0000
1000
0000
0000
0000
1000
0100
0010
0001
0100
0010
1000
0001
,
1000
1000
0001
0001
,
0100
0000
0000
0000
0100
0000
0000
0000
0010
1000
0010
0100
0001
1000
0100
0010
,
0001
0010
0001
0000
0001
0100
0001
0000
1000
0010
1000
0000
1000
0100
1000
0000
,
0010
0100
0010
0000
0010
1000
0010
0000
0100
0010
0100
0000
0100
0001
0100
0000
,
0001
1000
0100
0010
0100
1000
0001
0100
0010
1000
0010
0100
0001
1000
0100
0010
,
0200
0000
0000
0000
0000
0300
1001
0000
,
1000
0100
1000
0100
1000
0000
0001
0100
0001
1000
0100
0010
0001
1000
0010
1000
,
0001
0010
0100
0010
0001
1000
0010
1000
0001
0100
0010
1000
0100
0010
0001
1000
,
0010
0000
0100
0001
0100
0000
0001
1000
0100
1000
0010
0100
0001
0010
0001
1000
,
0001
0100
0001
1000
0100
0010
0100
1000
0001
0100
0001
0010
0100
1000
0010
1000
,
0001
0000
0010
0100
0010
0000
0001
0100
0010
1000
0001
0010
0100
1000
0001
1000
,
0010
1000
0001
0010
0001
1000
0010
1000
0100
0010
0001
1000
0001
0100
0010
1000
,
0010
0000
1000
0100
1000
0000
0001
1000
0100
1000
0001
0100
0001
0010
0100
1000
,
0001
0100
0001
1000
0001
0010
0100
1000
0010
0100
0001
1000
0100
0010
0001
1000
,
0010
0000
1000
0000
0001
0010
0100
0010
0001
1000
0010
0100
0010
1000
0100
0010
,
0001
1000
0010
0100
0001
0010
0100
1000
0001
0100
0001
0010
0100
1000
0001
0100
,
0010
0000
1000
0000
0001
1000
0100
1000
0010
0100
0001
1000
0010
1000
0100
0010
,
0001
1000
0010
1000
0001
0010
0100
1000
0001
0100
0010
1000
0100
0010
0100
1000
,
0001
0100
0010
0000
1000
0001
0010
0000
0100
1000
0001
0000
0100
0001
1000
0000
,
0100
0010
0001
0000
0100
0010
1000
0000
0010
0100
0001
0000
0010
0100
1000
0000
,
0001
1000
0010
1000
0001
0010
0100
1000
0010
0100
0001
1000
0100
0010
0100
1000
,
0001
0100
0010
1000
0010
0100
0001
1000
0100
0010
0001
0100
0010
1000
0010
1000
,
0010
0000
1000
0000
0001
0010
0000
0100
1000
0000
0001
0000
0100
0001
0000
1000
,
0100
0000
0010
0000
0100
1000
0000
0001
0100
0000
0010
0000
1000
0001
1000
0001
,
1000
0000
0001
0000
0010
0100
0000
0010
0001
0000
1000
0000
0001
0100
0000
0010
,
1000
0000
0001
0000
1000
0100
0000
0010
0001
0000
1000
0010
0100
0001
0010
0001
,
1000
0000
0001
1000
0010
0000
1000
0001
0010
0000
0100
1000
0001
0100
0001
1000
,
0100
0000
0010
0100
1000
0000
0001
0100
0010
0000
1000
0001
0010
0100
1000
0001
,
0100
0001
1000
0100
0010
0001
0100
0001
0010
0100
1000
0001
0010
0001
0100
0010
,
1000
0100
1000
0010
0100
0001
0010
0001
1000
0100
0010
0001
1000
0010
0100
0001
,
0200
0000
0000
0000
,
0000
0000
0300
0000
;

//--------------- dance-double - Fred-104 ----------------
#NOTES:
     dance-double:
     Fred-104:
     Easy:
     6:
     :
00000000
00000000
00000000
00000000
,
00000000
00000000
00000000
00000000
,
00000000
00000000
00000000
00000000
,
00000000
00000000
00000000
00000000
,
00000000
00000000
00000000
00000000
,
00001000
00000000
00010000
00000000
,
00001000
00000000
00010000
00000010
,
00010000
00000000
00001000
00000000
,
00000100
00000000
00000001
00001000
,
00000001
00000000
00000010
00000000
,
00001000
00000000
00010000
00000000
,
01000000
00000000
00100000
00000000
,
00010000
00000000
00010000
00000000
,
10000000
10000000
10000000
00000000
,
01000000
01000000
01000000
00000000
,
00100000
00100000
00100000
00000000
,
00001000
00001000
00001000
00001000
,
00011000
00000000
00010000
00000000
,
00001000
00000000
00010000
00000000
,
00000100
00000000
00001000
00000000
,
00000001
00000000
00000100
00000001
,
00000100
00000000
00000001
00000000
,
00000010
00000000
00000100
00000010
,
00000100
00000000
00000010
00000000
,
00000001
00000000
00001000
00000001
,
00001000
00001000
00000000
00010000
,
00000000
00100000
00000000
10000000
,
00010000
10000000
00000000
01000000
,
00000000
00010000
00000000
01000000
,
10000000
10000000
10000000
00000000
,
00100000
00100000
00100000
00000000
,
00010000
00010000
00010000
00000000
,
00001000
00001000
00001000
00001000
,
00022000
00000000
00000000
00000000
,
00000000
00000000
00000000
00033000
,
00010000
00010000
00001000
00001000
,
00010000
00010000
00001000
00001000
,
00011000
00000000
00001000
00000000
,
00000100
00000000
00000010
00001000
,
00000001
00000000
00000100
00000000
,
00000001
00000000
00000100
00000001
,
00000010
00000000
00000100
00000000
,
00000010
00000000
00000001
00000100
,
00001000
00000000
00010000
00000000
,
00100000
00000000
10000000
00010000
,
10000000
00000000
01000000
00000000
,
00100000
00000000
00010000
00000000
,
00100000
00000000
00001000
00000000
,
00010000
00000000
00001000
00000000
,
00010000
00010000
00010000
00000000
,
00001000
00001000
00001000
00000000
,
00000100
00000100
00000100
00000000
,
00000001
00000001
00000001
00000001
,
00000001
00000000
00001000
00000000
,
00000001
00000000
00000100
00000010
,
00000100
00000000
00000001
00000000
,
00000010
00000000
00000100
00001000
,
00000100
00000000
00010000
00000000
,
00001000
00000000
00100000
00010000
,
00100000
00000000
01000000
00000000
,
10000000
00000000
00010000
10000000
,
00100000
00100000
10000000
10000000
,
01000000
01000000
00010000
00000000
,
00001000
00001000
00000010
00000010
,
00000001
00001000
00000001
00000000
,
00000100
00000100
00001000
00001000
,
00010000
00010000
00100000
00100000
,
10000000
10000000
01000000
01000000
,
00010000
00010000
00001000
00001000
,
00010000
00001000
00011000
00000000
,
00000100
00000010
00000110
00000000
,
00000001
00001000
00001001
00000000
,
00000010
00000100
00000110
00000000
,
00000001
00000100
00001000
00000000
,
00010000
00100000
01000000
00000000
,
00010000
10000000
00010000
10000000
,
01000000
00100000
00001000
00010000
,
00022000
00000000
00000000
00000000
,
00000000
00000000
00033000
00000000
;

//--------------- dance-double - Fred-104 ----------------
#NOTES:
     dance-double:
     Fred-104:
     Medium:
     11:
     :
00000000
00000000
00000000
00000000
,
00000000
00000000
00000000
00000000
,
00000000
00000000
00000000
00000000
,
00000000
00000000
00000000
00000000
,
00000000
00000000
00000000
00000000
,
00000001
00000000
00000100
00000000
00000010
00000000
00000000
00000100
00000000
00000000
00000001
00000000
00000010
00000000
00000000
00001000
,
00000000
00000000
00010000
00000000
01000000
00000000
00000000
00100000
00000000
00000000
00010000
00000000
01000000
00000000
00000000
00000000
,
00100000
00000000
10000000
00000000
00010000
00000000
00000000
10000000
00000000
00000000
01000000
00000000
00100000
00000000
00000000
00001000
,
00000000
00000000
00010000
00000000
00000100
00000000
00000000
00001000
00000000
00000000
00000100
00000000
00000010
00000000
00000000
00000000
,
00000011
00000001
00000100
00000010
,
00001010
00000100
00010000
00001000
,
00011000
01000000
00100000
01000000
,
10010000
00100000
00010000
10000000
,
00100000
10000000
00100000
00000000
01000000
00010000
00100000
00000000
,
00001000
00100000
00001000
00000000
00010000
00000100
00001000
00000000
,
00000010
00000100
00000001
00000100
00000001
00000010
00001000
00010000
,
00100000
01000000
00010000
10010000
,
00010000
00000000
00000000
00000000
10000000
00000000
00000000
00100000
00000000
00000000
01000000
00000000
00100000
00000000
00000000
00000000
,
10000000
00000000
00000000
00000000
00010000
00000000
00000000
01000000
00000000
00000000
10000000
00000000
01000000
00000000
00000000
00000000
,
00010000
00000000
00000000
00000000
01000000
00000000
00000000
00100000
00000000
00000000
00010000
00000000
00100000
00000000
00000000
00000000
,
10000000
00000000
00000000
00000000
01000000
00000000
00000000
00100000
00000000
00000000
00001000
00000000
00010000
00000000
00000100
00000000
,
00000010
00000000
00000000
00000000
00000001
00000000
00000000
00001000
00000000
00000000
00000100
00000000
00000010
00000000
00000000
00000000
,
00000100
00000000
00000000
00000000
00001000
00000000
00000000
00000001
00000000
00000000
00000010
00000000
00000001
00000000
00000100
00000000
,
00000010
00000000
00000000
00000000
00001000
00000000
00000000
00000001
00000000
00000000
00000100
00000000
00001000
00000000
00000000
00000000
,
00010000
00000000
00000000
00000000
00100000
00000000
00000000
01000000
00000000
00000000
10000000
00000000
01000000
00000000
00100000
00000000
,
01000000
00010000
10000000
01000000
00100000
00010000
01000000
00000000
,
00100000
00010000
00001000
00100000
00010000
00001000
00000100
00000000
,
00010000
00001000
00000100
00000010
00001000
00000100
00000010
00000000
,
00000001
00000100
00000001
00001000
00000010
00000100
00000010
00000000
,
00001000
00000001
00000010
00001000
,
00010000
01000000
00100000
00010000
,
10000000
00100000
10000000
00000000
00010000
01000000
00010000
00000000
,
00100000
00001000
00010000
00001000
00000100
00000001
00001000
00000000
,
00002002
00000000
00000000
00000000
,
00000000
00000000
00000000
00003003
,
00000001
00000100
00000001
00000000
00000100
00001000
00000100
00000000
,
00001000
00010000
00001000
00010000
00100000
10000000
00100000
00000000
,
10000000
00000000
01000000
00000000
00100000
00000000
00000000
00010000
00000000
00000000
00100000
00000000
00100000
00000000
00000000
00001000
,
00000000
00000000
00010000
00000000
00000100
00000000
00000000
00001000
00000000
00000000
00000001
00000000
00000001
00000000
00000000
00000000
,
00000100
00000000
00000001
00000000
00000010
00000000
00000000
00000001
00000000
00000000
00001000
00000000
00000100
00000000
00000000
00000010
,
00000000
00000000
00000001
00000000
00000100
00000000
00000000
00001000
00000000
00000000
00010000
00000000
00100000
00000000
00000000
00000000
,
10000000
00000000
01000000
00000000
10000000
00000000
00000000
00100000
00000000
00000000
00010000
00000000
00100000
00000000
00000000
01000000
,
00000000
00000000
00010000
00000000
10000000
00000000
00000000
01000000
00000000
00000000
00100000
00000000
00001000
00000000
00000000
00000000
,
00010000
00000000
00000100
00000000
00001000
00000000
00000000
00000010
00000000
00000000
00001000
00000000
00000100
00000000
00000000
00000010
,
00000000
00000000
00000001
00000000
00001000
00000000
00000000
00000001
00000000
00000000
00000100
00000000
00000010
00000000
00000000
00000000
,
00000011
00001000
00000100
00010000
,
00011000
00100000
00010000
10000000
,
11000000
00100000
00001000
00010000
,
00010010
00001000
00010000
00000100
,
00010000
00001000
00010000
00000000
00000010
00001000
00000010
00000000
,
00000100
00000001
00000010
00000000
00000001
00000100
00000010
00000000
,
00001000
00000100
00010000
00001000
00100000
00010000
10000000
00100000
,
01000000
01000000
01000000
10010000
,
00010000
00000000
01000000
00000000
00010000
00000000
00000000
00100000
00000000
00000000
01000000
00000000
01000000
00000000
00000000
00000000
,
10000000
00000000
00100000
00000000
01000000
00000000
00000000
00010000
00000000
00000000
00100000
00000000
00001000
00000000
00010000
00000000
,
00001000
00000000
00000100
00000000
00000001
00000000
00000000
00000010
00000000
00000000
00000001
00000000
00001000
00000000
00000000
00000000
,
00000001
00000000
00000100
00000000
00000010
00000000
00000000
00001000
00000000
00000000
00000100
00000000
00010000
00000000
00010000
00000000
,
00001000
00000000
00010000
00000000
00100000
00000000
00000000
10000000
00000000
00000000
00010000
00000000
10000000
00000000
00000000
00000000
,
01000000
00000000
00100000
00000000
00010000
00000000
00000000
01000000
00000000
00000000
00001000
00000000
00010000
00000000
00010000
00000000
,
00001000
00000000
00000010
00000000
00000100
00000000
00000000
00001000
00000000
00000000
00000001
00000000
00001000
00000000
00000000
00000000
,
00000001
00000000
00000010
00000000
00000100
00000000
00000000
00010000
00000000
00000000
00001000
00000000
00000100
00000000
00000001
00000000
,
00001000
00000100
00000010
00000000
00000001
00000000
00000101
00000000
,
00000001
00000010
00001000
00000000
00010000
00000000
00011000
00000000
,
00001000
00010000
01000000
00000000
00100000
00000000
00110000
00000000
,
00010000
10000000
00100000
00000000
01000000
00000000
10010000
00000000
,
00010000
01000000
10000000
00000000
10000000
01000000
00010000
00000000
,
00001000
00000010
00000001
00000000
00000001
00000010
00001000
00000000
,
00010000
00001000
00010000
00100000
00010000
00001000
00000010
00001000
,
00020000
00001000
00031000
00011000
,
00010000
00000000
00000100
00000000
00001000
00000000
00000000
00000100
00000000
00000000
00000010
00000000
00000100
00000000
00000000
00000001
,
00000000
00000000
00000100
00000000
00001000
00000000
00000000
00000001
00000000
00000000
00000100
00000000
00000010
00000000
00000000
00000000
,
00001000
00000000
00000001
00000000
00000100
00000000
00000000
00001000
00000000
00000000
00010000
00000000
00100000
00000000
00000000
01000000
,
00000000
00000000
00010000
00000000
10000000
00000000
00000000
00010000
00000000
00000000
01000000
00000000
00100000
00000000
10000000
00000000
,
01000000
00100000
00010000
00000000
01000000
00001000
00010000
00000000
,
00000010
00001000
00000100
00000000
00010000
00001000
00100000
00000000
,
00010000
00100000
01000000
00100000
00010000
00001000
00000010
00000100
,
00000010
00001000
00010000
00001000
00010000
00001000
00010000
00000000
,
00022000
00000000
00000000
00000000
,
00000000
00000000
00033000
00000000
;

//--------------- dance-double - Fred-104 ----------------
#NOTES:
     dance-double:
     Fred-104:
     Hard:
     15:
     :
00000000
00000000
00000000
00000000
,
00000000
00000000
00000000
00000000
,
00000000
00000000
00000000
00000000
,
00000000
00000000
00000000
00000000
,
00000000
00000000
00000000
00000000
,
00001000
00000000
00010000
00000000
00001000
00000000
00000000
00010000
00000000
00000000
00100000
00000000
01000000
00000000
00000000
00100000
,
00000000
00000000
00010000
00001000
00000010
00000000
00000000
00000100
00000000
00000000
00000010
00000000
00001000
00010000
00000000
00010000
,
00001000
00000000
00010000
00000000
01000000
00000000
00000000
00100000
00000000
00000000
01000000
00000000
00010000
00000000
00000000
00001000
,
00000000
00000000
00000100
00000000
00000010
00000000
00000000
00000100
00000000
00000000
00001000
00000000
00010000
00001000
00010000
00000000
,
00011000
00010010
00011000
00010100
,
00011000
01001000
00011000
00101000
,
00011000
00001100
00011000
01010000
,
00011000
00001010
00011000
00110000
,
00001000
00010000
00001000
00010000
00000010
00001000
00000010
00001000
,
00000001
00000100
00000001
00000100
00000010
00001000
00000010
00001000
,
00000100
00000010
00000100
00000000
00000010
00000001
00000010
00000000
00000001
00000100
00000001
00000000
00001000
00000010
00001000
00000000
,
00000100
00000000
00000100
00000000
00010000
00001000
00011000
00000000
,
00001000
00000000
00010000
00000000
00100000
00000000
00000000
01000000
00000000
00010000
10000000
00000000
01000000
00000000
00000000
00000000
,
00100000
00000000
00010000
00000000
10000000
00000000
00000000
00010000
00000000
01000000
00100000
00000000
01000000
00000000
00010000
00000000
,
00001000
00000000
00010000
00000000
00100000
00000000
00000000
00001000
00000000
00010000
00000010
00000000
00001000
00000000
00000000
00000000
,
00000001
00000000
00000010
00000000
00000100
00000000
00000000
00000001
00000000
00000100
00000010
00000000
00000001
00000000
00000100
00000000
,
00000010
00000000
00001000
00000000
00000001
00000000
00000000
00000010
00000000
00000100
00010000
00000000
00001000
00000000
00000000
00000000
,
00000100
00000000
00000001
00000000
00001000
00000000
00000000
00000001
00000000
00000010
00000100
00000000
00001000
00000000
00000100
00000000
,
00010000
00000000
00001000
00000000
00010000
00000000
00000000
00100000
00000000
01000000
10000000
00000000
01000000
00000000
00000000
00000000
,
00010000
00000000
10000000
00000000
01000000
00000000
00000000
00010000
00000000
10000000
00100000
10000000
00100000
00010000
10000000
00000000
,
00010000
01000000
00100000
00010000
00001000
01000000
00001000
00000100
,
00000010
00010000
00001000
00000010
00000100
00010000
00001000
00000010
,
00000100
00010000
00100000
01000000
00001000
01000000
00010000
00000100
,
00000010
00000100
00001000
00010000
00001000
00100000
00001000
00000000
,
00010000
00100000
10000000
00010000
00100000
00001000
00000010
00001000
,
00010000
00001000
00000100
00000010
00001000
00000100
00001000
00000001
,
00000010
00000001
00000010
00000000
00000100
00001000
00000100
00000000
00010000
00001000
00010000
00000000
00001000
00100000
00001000
00000000
,
00100000
00010000
00100000
00000000
00010000
10000000
00010000
00000000
01000000
00000000
00100000
00000000
01000000
00000000
00000000
00000000
,
20020000
00000000
00000000
00000000
,
00000000
00000000
00000000
30030000
,
10000000
00100000
10000000
00000000
00010000
01000000
00010000
00000000
00100000
00001000
00100000
00000000
00001000
00010000
00001000
00000000
,
00010000
00000100
00010000
00000000
00000010
00001000
00000010
00000000
00000100
00000000
00000001
00000000
00001000
00000000
00000000
00000000
,
00000001
00000000
00000010
00000000
00001000
00000001
00000000
00000001
00000100
00000000
00001000
00000000
00000001
00000000
00000000
00000000
,
00001000
00000000
00000100
00000000
00000001
00001000
00000000
00001000
00000010
00000000
00000001
00000000
00001000
00000000
00000000
00000000
,
00000001
00000000
00000010
00000000
00000100
00010000
00000000
00010000
00001000
00000000
00100000
00000000
01000000
00000000
00000000
00000000
,
10000000
00000000
00010000
00000000
01000000
00100000
00000000
00100000
10000000
00000000
01000000
00000000
10000000
00000000
00000000
00000000
,
00010000
00000000
00100000
00000000
01000000
10000000
00000000
10000000
00100000
00000000
01000000
00000000
00010000
00100000
00000000
00100000
,
01000000
00000000
00001000
00000000
00010000
00000100
00000000
00000100
00001000
00000000
00000001
00000000
00000100
00000010
00000000
00000010
,
00001000
00000000
00000001
00000000
00000010
00000100
00000000
00000100
00000010
00000000
00000001
00000000
00000100
00001000
00000000
00001000
,
00010000
00000000
00100000
00000000
01000000
00010000
00000000
00010000
10000000
00000000
00010000
10000000
00010000
10000000
00010000
00000000
,
10010000
11000000
01010000
00011000
,
00001010
00000011
00000101
00001100
,
00011000
01001000
00011000
00010010
,
00011000
00101000
00011000
00010100
,
00010000
00001000
00010000
00001000
00000010
00000001
00000010
00000001
,
00000100
00001000
00000100
00001000
00010000
00100000
00010000
00100000
,
10000000
00010000
10000000
00000000
01000000
10000000
01000000
00000000
00100000
00010000
00100000
00000000
00010000
01000000
00001000
00000000
,
00010000
00000000
00010000
00000000
00001000
00010000
00011000
00000000
,
00010000
00001000
00010000
00000000
00000100
00000000
00001000
00000010
00000000
00000100
00000010
00000000
00001000
00000100
00001000
00000000
,
00000001
00000000
00000010
00000001
00000010
00000000
00000001
00000100
00000000
00000010
00001000
00000000
00000001
00000000
00000100
00000000
,
00000010
00000000
00000100
00001000
00010000
00000000
00001000
00100000
00000000
00001000
00010000
00000000
00001000
00000000
01000000
00010000
,
01000000
00000000
00010000
00100000
00010000
00000000
00100000
01000000
00000000
01000000
10000000
00000000
00010000
00000000
00010000
00000000
,
01000000
00000000
00100000
10000000
01000000
00000000
00100000
00001000
00000000
00010000
00100000
00000000
01000000
00000000
00100000
00000000
,
00010000
00000000
00001000
00010000
00001000
00000000
00000100
00000010
00000000
00001000
00000001
00000000
00000010
00000100
00000010
00000000
,
00000001
00000000
00001000
00000001
00000010
00000000
00000100
00001000
00000000
00000001
00000100
00000000
00000010
00000000
00001000
00000001
,
00000010
00000000
00000001
00000100
00001000
00000000
00010000
00001000
00000000
00010000
00100000
01000000
00010000
10000000
00010000
00000000
,
10000000
01000000
00100000
00010000
10000000
00100000
00010000
00001000
,
00100000
00010000
00001000
00000100
00010000
00001000
00000100
00000010
,
00000001
00000010
00001000
00000001
00000010
00001000
00000001
00000100
,
00001000
00000000
00000010
00000000
00010000
00000000
00001000
00000000
00100000
00000000
00010000
00000000
00100000
00001000
00010000
00000000
,
00001000
00010000
00100000
01000000
00010000
00100000
01000000
00010000
,
00001000
01000000
00100000
00010000
00001000
00000100
00000010
00001000
,
00000001
00001000
00000100
00000000
00010000
00001000
00010000
00000000
00001000
00100000
00001000
00000000
00100000
00010000
00100000
00000000
,
01000000
10000000
01000000
00000000
00100000
00010000
00100000
00000000
00010000
10000000
00010000
00000000
01000000
00100000
01000000
00000000
,
00010000
00000000
00100000
00000000
01100000
00000000
00000000
10000000
00000000
00000000
00100000
00000000
01100000
00000000
00000000
00001000
,
00000000
00000000
00010000
00000000
00011000
00000000
00000000
00000100
00000000
00000000
00000010
00000000
00000011
00000000
00000001
00000000
,
00001000
00000000
00000001
00000000
00000101
00000000
00000000
00000010
00000000
00000000
00001000
00000000
00001100
00000000
00000000
00000100
,
00000000
00000000
00010000
00000000
00011000
00000000
00000000
01000000
00000000
00000000
00010000
10000000
00010000
10000000
00010000
00000000
,
00100000
01000000
10000000
00100000
01000000
00010000
00100000
00001000
,
00010000
00000010
00001000
00000010
00000100
00000001
00001000
00000001
,
00000100
00000001
00000010
00000000
00000100
00001000
00000010
00000000
00001000
00000100
00010000
00000000
00001000
00100000
00010000
00000000
,
01000000
00010000
00100000
00000000
01000000
10000000
00010000
00000000
01000000
00000000
00100000
00000000
00010000
00000000
00001000
00000000
,
00022000
00000000
00000000
00000000
,
00000000
00000000
00033000
00000000
;

//--------------- dance-double - Fred-104† ----------------
#NOTES:
     dance-double:
     Fred-104†:
     Challenge:
     18:
     :
00000000
00000000
00000000
00000000
,
00000000
00000000
00000000
00000000
,
00000000
00000000
00000000
00000000
,
00000000
00000000
00000000
00000000
,
00000000
00000000
00000000
00000000
,
10000000
00000000
01000000
00000000
00100000
00000000
00000000
00101000
00000000
00000000
00001000
00000000
00010000
00000000
00000000
00001010
,
00000000
00000000
00010000
00000000
00001000
00000000
00000000
00110000
00000000
00000000
00001000
00000000
00010000
00000100
00000000
00000100
,
00000010
00000000
00000001
00000000
00001000
00000000
00000000
00000101
00000000
00000000
00010000
00000000
00001000
00000000
00000000
00110000
,
00000000
00000000
00001000
00000000
01000000
00000000
00000000
00110000
00000000
00000000
01000000
00010000
10000000
00010000
01000000
00010000
,
10000000
10000000
01000000
01000000
,
00100000
00000000
00000000
00000000
00100000
00000000
00000000
00000000
00001000
00000000
00010000
00000010
00010000
00000000
00000010
00001000
,
00000010
00000010
00000100
00000100
,
00000001
00000000
00000000
00000000
00000001
00000000
00000000
00000000
00001000
00000000
00000100
00000010
00000100
00000000
00001000
00000001
,
00000100
00000001
00000100
00000001
00001000
00000010
00001000
00000010
00010000
00001000
00010000
00001000
00100000
00010000
00100000
00010000
,
10000000
01000000
10000000
01000000
10000000
00010000
10000000
00010000
01000000
00001000
01000000
00001000
00010000
00000100
00010000
00000100
,
00001000
00000001
00001000
00000001
00000010
00000100
00000010
00000100
00010000
00001000
00010000
00001000
01000000
00010000
01000000
00001000
,
00020000
00000000
00000000
00030000
,
00010000
00000000
00001000
00000000
00010000
00000100
00010000
00000100
00001000
00000001
00001000
00000001
00000010
00000100
00000010
00000100
,
00001000
00000100
00001000
00000100
00000010
00000001
00000010
00000001
00001000
00000010
00001000
00000010
00010000
00001000
00010000
00000000
,
00001000
00000000
01000000
00000000
00010000
10000000
00010000
10000000
01000000
00100000
01000000
00100000
00001000
00010000
00001000
00010000
,
00000010
00001000
00000010
00001000
00000010
00010000
00000010
00010000
00001000
00100000
00001000
00100000
00001000
00010000
00001000
00000000
,
00010000
00000000
00100000
00000000
10000000
00010000
10000000
00010000
00100000
01000000
00100000
01000000
10000000
00010000
10000000
00010000
,
00100000
00001000
00100000
00001000
00010000
00000010
00010000
00000010
00001000
00000001
00001000
00000001
00000010
00000100
00001000
00000000
,
00000001
00000000
00000100
00000000
00000010
00001000
00000010
00001000
00000001
00000010
00000001
00000010
00000100
00001000
00000100
00001000
,
00000100
00010000
00000100
00010000
00001000
01000000
00001000
01000000
00010000
10000000
00010000
01000000
00010000
10000000
01000000
00100000
,
00010000
00000000
10000000
00000000
00010000
00100000
00010000
00100000
00001000
00100000
00001000
00100000
00001000
00010000
00001000
00010000
,
00000010
00010000
00000010
00010000
00000010
00001000
00000010
00001000
00000010
00000100
00000001
00001000
00000100
00001000
00000001
00000000
,
00000010
00000000
00000100
00000000
00010000
00001000
00010000
00001000
01000000
00001000
01000000
00001000
00010000
00001000
00010000
00001000
,
00100000
00001000
00100000
00001000
00100000
00010000
00100000
00010000
00100000
01000000
10000000
00010000
01000000
00100000
10000000
00000000
,
00010000
10000000
01000000
00000000
00100000
00001000
00010000
00000000
00000100
00001000
00000001
00000000
00000100
00000010
00001000
00000000
,
00000001
00000010
00000100
00000000
00010000
00001000
00100000
00000000
00010000
10000000
00100000
00000000
01000000
00010000
10000000
00000000
,
01000000
00100000
01000000
00100000
00001000
00010000
00001000
00010000
00000010
00000100
00000010
00000100
00000001
00001000
00000001
00001000
,
00000001
00000100
00000010
00001000
00000100
00010000
00001000
00100000
00010000
01000000
00100000
10000000
00010000
00000000
00000000
00000000
,
20020000
00000000
00000000
00000000
,
00000000
00000000
00000000
30030000
,
10000000
01000000
10000000
00100000
01000000
00010000
00100000
00001000
00010000
00000100
00001000
00000010
00000100
00000001
00000010
00000001
,
00000100
00000010
00001000
00000100
00010000
00001000
00100000
00010000
01000000
00100000
10000000
01000000
10000000
00000000
00000000
00000000
,
00010000
00000000
00100000
00000000
01000000
10000000
00000000
01000000
10000000
00000000
00010000
00000000
01000000
00100000
00000000
01000000
,
00100000
00000000
00010000
00000000
00001000
00000100
00000000
00001000
00000100
00000000
00000010
00000000
00001000
00000000
00000000
00000000
,
00000001
00000000
00000010
00000000
00000100
00001000
00000000
00000100
00001000
00000000
00000001
00000000
00000100
00001000
00000000
00000100
,
00001000
00000000
00010000
00000000
00100000
01000000
00000000
00010000
00100000
00000000
01000000
00000000
00100000
00010000
00100000
00010000
,
10000000
00000000
00100000
00000000
01000000
00010000
00000000
10000000
01000000
00000000
00100000
00000000
00001000
00010000
00000000
00000010
,
00001000
00000000
00000100
00000000
00000010
00000100
00000000
00010000
00001000
00000000
00010000
00000000
00000100
00000010
00000100
00000010
,
00000001
00000000
00001000
00000000
00000010
00000100
00000000
00001000
00010000
00000000
00001000
00000000
01000000
00010000
00000000
00100000
,
00001000
00000000
00010000
00000000
00001000
01000000
00000000
00010000
10000000
00000000
01000000
00100000
00010000
00100000
00001000
00000000
,
00010000
00010000
00001000
00001000
,
00000100
00000000
00000000
00000000
00000100
00000000
00000000
00000000
00000001
00000000
00001000
00000100
00001000
00000000
00000001
00000100
,
00000001
00000001
00000010
00000010
,
00001000
00000000
00000000
00000000
00001000
00000000
00000000
00000000
00010000
00000000
00001000
01000000
00001000
00000000
00100000
00010000
,
10000000
00100000
10000000
00100000
01000000
00010000
01000000
00010000
10000000
01000000
10000000
01000000
00100000
00010000
00100000
00010000
,
00100000
00001000
00100000
00001000
00010000
00000010
00010000
00000010
00000100
00000001
00000100
00000001
00001000
00000100
00001000
00000100
,
00000010
00000001
00001000
00000010
00001000
00000001
00000010
00000100
00001000
00000100
00010000
00001000
00100000
00010000
00100000
01000000
,
20000000
00000000
00000000
30000000
,
10000000
00100000
10000000
00000000
00010000
01000000
00010000
10000000
01000000
00100000
00010000
00100000
00001000
00010000
00001000
00010000
,
00000100
00001000
00000100
00000010
00000001
00001000
00000010
00001000
00000001
00000010
00000100
00001000
00000001
00000100
00000010
00000000
,
00001000
00000001
00001000
00000000
00000001
00000010
00000100
00001000
00000100
00010000
00001000
00100000
00010000
00100000
01000000
10000000
,
00010000
01000000
00010000
10000000
01000000
10000000
00010000
01000000
00001000
00010000
00001000
00010000
00000010
00010000
00001000
00000000
,
00100000
00010000
00100000
00000000
00001000
00010000
00001000
01000000
00010000
10000000
00010000
00100000
00001000
00010000
00000100
00010000
,
00001000
00010000
00000100
00001000
00000001
00001000
00000010
00000100
00000001
00001000
00000100
00000010
00000001
00001000
00000010
00000000
,
00010000
00001000
00010000
00000000
00001000
00100000
00010000
00100000
01000000
10000000
00010000
01000000
00010000
10000000
01000000
00100000
,
01000000
10000000
00010000
01000000
00001000
00010000
00000100
00001000
00000010
00000100
00000001
00000010
00000100
00001000
00000001
00001000
,
00000010
00000000
00000100
00000000
00000001
00000100
00000001
00001000
00000001
00000010
00000100
00001000
00000100
00010000
00001000
00010000
,
00001000
01000000
00010000
01000000
00010000
10000000
01000000
00100000
00010000
01000000
00100000
01000000
00010000
10000000
01000000
00100000
,
01000000
00000000
10000000
00000000
00010000
01000000
00100000
10000000
00010000
00100000
00001000
00010000
00000100
00001000
00000001
00000100
,
00000010
00001000
00000001
00000010
00000100
00001000
00000100
00010000
00001000
00100000
00010000
10000000
00100000
01000000
00010000
00000000
,
00100000
00001000
00010000
00000000
00000100
00001000
00000010
00000000
00000100
00000001
00000010
00000000
00000100
00001000
00000001
00000000
,
00001000
00000010
00010000
00000000
00001000
00100000
00010000
00000000
00100000
01000000
10000000
00000000
00010000
01000000
00100000
00000000
,
10000000
00010000
00100000
00010000
10000000
00100000
01000000
00010000
00100000
00001000
00010000
00000010
00001000
00000001
00000010
00000100
,
00001000
00000001
00000100
00000010
00001000
00000100
00010000
00001000
00100000
00010000
10000000
00100000
01000000
00010000
01000000
00010000
,
01000000
00000000
00010000
00000000
10000000
01000000
00000000
00100000
00001000
00000000
00010000
00000000
00000010
00001000
00000000
00000100
,
00000010
00000000
00000100
00000000
00001000
00000001
00000000
00000100
00001000
00000000
00010000
00000000
00001000
00010000
00001000
00010000
,
00001000
00000000
01000000
00000000
00010000
00100000
00000000
01000000
10000000
00000000
00010000
00000000
01000000
00010000
00000000
00100000
,
01000000
00000000
00100000
00000000
00001000
00010000
00000000
00001000
00000100
00000000
00000001
00001000
00000001
00001000
00000100
00000010
,
00000001
00001000
00000001
00001000
00000010
00000100
00000010
00000100
00000001
00001000
00000001
00001000
00000010
00010000
00000010
00010000
,
00001000
00100000
00001000
00100000
00010000
10000000
00010000
10000000
01000000
00100000
01000000
00100000
00010000
10000000
00010000
10000000
,
00100000
01000000
00010000
10000000
01000000
00100000
00010000
00100000
00001000
00010000
00000100
00001000
00000001
00000100
00000010
00001000
,
00000001
00000010
00000001
00000100
00000010
00001000
00000100
00010000
00001000
00100000
00010000
01000000
00100000
10000000
01000000
00100000
,
00020000
00000000
00000000
00000000
,
00000000
00000000
00030000
00000000
;
