#VERSION:0.83;
#TITLE:踊るフィーバーロボ;
#ARTIST:ダニエル&eimy と よしくん;
#TITLETRANSLIT:Odoru Fever Robo;
#ARTISTTRANSLIT:Daniel & eimy to Yoshi-kun;
#GENRE:FEVER ROBO;
#BANNER:Odoru Fever Robo.png;
#BACKGROUND:Odoru Fever Robo-bg.png;
#CDTITLE:./CDTitles/pnm 14 FEVER!.png;
#MUSIC:Odoru Fever Robo.ogg;
#SAMPLESTART:51.746;
#SAMPLELENGTH:15;
#DISPLAYBPM:160;
#BPMS:0=160,15=162.5,16=160.016,180=161,182=160.016;
#TIMESIGNATURES:0=4=4,168=6=4,174=4=4,254=6=4,260=4=4;
#BGSTAGE:2;

//--------------- dance-single - Fred-104 ----------------
#NOTEDATA:;
#STEPSTYPE:dance-single;
#DESCRIPTION:Fred-104;
#DIFFICULTY:Beginner;
#METER:3;
#CREDIT:Fred-104;
#NOTES:
0000
0000
0000
0000
,
0000
0000
0000
0000
,
0000
0000
0000
0000
,
0000
0000
0000
0000
,
1000
0000
0000
0000
,
0001
0000
0000
0000
,
2000
0000
3000
0000
,
0002
0000
0003
0000
,
0020
0000
0030
0000
,
0002
0000
0003
0000
,
1000
0000
0000
0000
,
0001
0000
0000
0000
,
1000
0000
0000
0000
,
0010
0000
0000
0000
,
0100
0000
0000
0000
,
0001
0000
0000
0000
,
1000
0000
1000
0000
,
0001
0000
0001
0000
,
2000
0000
3000
0000
,
0001
0000
0100
0000
,
0002
0000
0003
0000
,
0010
0000
0001
0000
,
0020
0000
0030
0000
,
0100
0000
0010
0000
,
0200
0000
0000
0300
,
0020
0030
0200
0300
,
1000
0000
0001
0000
,
1000
0000
0010
0000
,
1000
0000
0001
0000
,
2000
0000
3000
0000
,
0001
0000
0000
0000
,
1000
0000
0000
0000
,
0020
0000
0030
0000
,
1001
0000
0000
0000
,
0000
0000
0100
0100
,
0100
0000
0100
0000
,
0100
0000
0010
0000
,
1000
0000
0001
0000
,
1000
0000
0001
0000
,
0100
0000
0100
0000
,
0100
0000
0010
0000
,
1000
0000
0001
0000
,
1000
0000
0001
0000
,
1000
0000
2002
0000
,
0000
0000
0000
3003
,
0000
0000
0002
0000
,
0003
0000
2000
0000
,
3000
0000
0020
0000
,
0030
0000
0200
0000
,
0300
0000
0001
0000
,
1000
0000
0001
0000
,
1000
0000
0010
0000
,
1000
0000
0100
0000
,
0010
0000
0200
0000
,
0000
0300
1001
0000
,
0000
0000
0000
0000
,
0100
0100
0100
0000
,
0100
0000
0010
0000
,
0100
0000
0001
0000
,
1000
0000
0010
0000
,
1000
0000
0100
0000
,
0100
0000
0100
0000
,
0100
0000
1000
0000
,
0001
0000
0010
0000
,
0100
0000
1000
0001
,
1001
0000
0000
0000
,
0110
0000
0000
0000
,
2002
0000
0000
0000
,
0000
0000
0000
0000
,
3003
0000
0000
0000
;

//--------------- dance-single - Fred-104 ----------------
#NOTEDATA:;
#STEPSTYPE:dance-single;
#DESCRIPTION:Fred-104;
#DIFFICULTY:Easy;
#METER:7;
#CREDIT:Fred-104;
#NOTES:
0000
0000
0000
0000
,
0000
0000
0000
0000
,
0000
0000
0000
0000
,
0000
0000
0000
0000
,
0001
0100
0020
0030
,
0100
0001
1000
0001
,
1000
0010
1000
0100
,
0010
0100
2000
3000
,
0001
0100
0001
0100
,
0010
1000
0002
0003
,
1001
0000
1000
0010
,
0100
0100
0001
0001
,
1001
0000
0001
0010
,
0001
0001
1000
1000
,
1001
0000
1000
0001
,
0100
0100
0010
0010
,
2000
3100
0020
0130
,
1000
0000
0000
0001
0000
0000
1000
0000
,
1001
0000
0001
1000
,
0001
0100
0001
0010
,
0110
0000
0100
1000
,
0010
0100
0010
1000
,
1001
0000
0001
0010
,
0001
1000
0001
0100
,
0110
0000
0010
1000
,
0001
1000
0002
0003
,
1001
0000
0001
0010
,
0001
0100
0010
1000
,
0100
0000
0000
1000
0000
0000
0001
0000
,
0100
0000
0010
0100
,
0001
0010
0001
0000
,
1000
0100
1000
0000
,
0001
1000
0001
0100
,
0001
0000
0000
0010
0000
0000
0100
0000
,
0000
1000
0000
0000
0001
0000
1000
0000
,
1001
0000
0110
0000
,
1001
0000
0002
2003
,
3001
0100
0010
0100
,
0001
1000
0100
0000
,
1001
0000
0110
0000
,
1001
0000
0001
1000
,
0001
0000
0010
0000
,
1000
0000
0100
0000
,
0001
0000
1000
0000
0001
0000
0000
0010
,
0000
0100
1000
1001
,
0000
0000
0002
0000
,
0013
0000
0200
0000
,
1300
0000
0020
0000
,
1030
0000
0100
0010
,
0001
0010
0001
0000
,
0100
0010
0100
0000
,
0001
1000
0002
0003
,
0020
0030
0200
0300
,
2000
3000
2002
0000
,
0000
0000
3003
0000
1000
0000
0000
0010
,
0000
0000
0100
0000
0000
0001
0000
0000
,
1000
0100
1001
0000
,
0110
0000
1001
0000
,
0001
1000
0001
0000
,
0100
0010
0100
0001
,
1000
0000
1001
0000
,
0110
0000
1001
0000
,
0001
1000
0001
0000
,
0010
0000
1000
0000
,
0100
0000
0001
1000
,
0001
0000
0000
0010
0000
0000
0100
0000
,
1000
0000
0000
0010
0000
0000
0100
0000
,
2002
0000
0000
0000
,
0000
0000
0000
0000
,
3003
0000
0000
0000
;

//--------------- dance-single - Fred-104 ----------------
#NOTEDATA:;
#STEPSTYPE:dance-single;
#DESCRIPTION:Fred-104;
#DIFFICULTY:Medium;
#METER:11;
#CREDIT:Fred-104;
#NOTES:
0000
0000
0000
0000
,
0000
0000
0000
0000
,
0000
0000
0000
0000
,
0000
0000
0000
0000
,
0001
0000
0100
0010
0100
0000
0001
0000
,
2000
3200
0302
0023
,
1030
0001
1000
0010
1000
0001
0010
0000
,
0100
1000
0001
0100
0010
1000
0010
0000
,
0100
0001
1000
0001
0010
0001
1000
0000
,
0001
0010
0100
1000
0001
1000
0001
1000
,
0002
0000
1003
0010
,
2000
3200
0302
0203
,
2300
0000
3001
1000
,
0002
0203
2300
3200
,
0302
0000
0103
0010
,
0200
0302
2003
3200
,
0320
0000
0030
0001
0020
0000
0030
0100
,
0010
0001
1000
1001
0000
0001
0100
0000
,
0110
0000
0001
0010
0100
1000
0001
1000
,
0010
0000
0100
0000
0001
1000
0001
0000
,
0010
0000
0100
0010
0001
1000
0010
0100
,
0010
0000
1000
0000
0100
0010
0100
1000
,
0001
0000
0100
0001
1000
0001
0010
0100
,
0010
0000
0001
0000
1000
0001
0100
0000
,
0010
1000
0010
0100
0010
1000
0001
0000
,
0010
0100
1000
0001
0100
0010
0100
0010
,
0220
0000
0330
0000
1000
0100
0010
0001
,
2000
3200
0302
0203
,
0310
0000
0001
1000
0000
0001
0010
0100
,
0010
0001
1000
0000
0001
1000
0010
0000
,
1000
0100
0001
0000
0001
0100
1000
0000
,
0001
0010
0100
1000
0002
0000
2003
0000
,
3001
0000
0010
0000
0001
1000
0010
0100
,
0001
0001
0000
1000
1000
0000
0100
0100
,
0000
0010
0010
0000
0002
0003
2000
3000
,
1100
0000
0101
0000
,
1010
0011
0002
2003
,
3001
0100
0010
0100
,
0001
0000
1000
0000
0100
0010
0001
0000
,
0011
0000
1010
0000
,
0101
0000
0000
0000
0000
0000
1000
0000
0100
0000
1000
0000
,
0001
0000
0010
0000
0100
0000
0010
0000
0001
0000
1000
0000
,
0010
0000
0100
0000
0001
0000
1000
0000
0100
0000
0010
0000
,
0011
0000
1001
0000
0001
0010
0000
1000
,
0010
0000
0001
0010
1000
0010
0001
0000
,
2002
3003
0002
0010
,
0010
0010
0013
0000
2000
0000
0010
0000
,
0010
0010
3010
0000
0002
0000
0100
0000
,
0100
0100
0103
0000
2000
0000
0100
0000
,
0100
0100
3100
0000
0001
1000
0001
0010
,
0001
1000
0001
0000
1000
0100
1000
0001
,
0100
0010
1000
0000
0001
0010
0100
1000
,
0001
0100
0010
1000
0001
0100
0010
0100
,
0001
1000
0100
0010
0002
0000
0000
0000
,
0000
0000
0003
0000
1000
0100
0000
0001
,
0100
0000
1000
0010
0000
0001
0010
1000
,
0002
0000
2003
3000
1010
0000
0000
0000
,
0011
0000
1100
0101
,
0200
0000
0320
0030
1001
0000
0001
1000
,
0100
1000
0001
0100
0001
1000
0100
0010
,
0001
1000
0001
0000
0011
0000
0000
0000
,
1010
0000
1100
0000
,
0101
0000
0001
0000
1000
0000
0001
0000
0010
0000
0100
0000
,
1000
0000
0010
0000
0100
0000
0001
0000
0100
0000
0010
0000
,
0100
0000
0001
0000
0010
0000
0110
0000
0000
1001
0000
0000
,
1000
0100
0000
0001
0100
0000
1000
0001
,
1000
0100
0010
0001
0100
0010
1000
0001
,
0022
0000
0000
0033
,
2002
0000
0000
0000
,
3003
0000
0000
0000
;

//--------------- dance-single - Fred-104 ----------------
#NOTEDATA:;
#STEPSTYPE:dance-single;
#DESCRIPTION:Fred-104;
#DIFFICULTY:Hard;
#METER:14;
#CREDIT:Fred-104;
#NOTES:
0000
0000
0000
0000
,
0000
0000
0000
0000
,
0000
0000
0000
0000
,
0000
0000
0000
0000
,
1000
0000
0000
0000
0010
0100
0010
0100
0010
0000
1000
0000
0100
0000
0010
0000
,
0002
0203
2300
3020
,
0031
0000
0010
0000
0001
0000
1000
0000
0010
0000
0100
0010
0100
0000
0010
0000
,
1000
0000
0100
0000
0010
0000
0001
0000
0010
0000
0100
0010
0100
0000
0010
0000
,
0001
0000
0100
0000
0001
0000
0010
0000
0001
0000
1000
0010
1000
0000
0010
0000
,
1000
0000
0100
0000
0010
0000
0001
0000
0100
0010
0100
0010
0100
0010
0100
0010
,
0100
0220
0000
0000
0330
1000
0001
1000
,
1020
0230
0302
2003
,
3001
2002
0000
0000
3003
0001
1000
0100
,
0020
0032
2003
3020
,
0130
0202
0000
0000
0303
0001
1000
0010
,
2000
3020
0032
2003
,
3200
0000
0301
1000
0020
0000
0130
0010
,
1000
0000
0100
0000
0010
0000
0110
0000
0000
0000
0100
0000
1000
0000
0001
1000
,
0001
0000
1000
0000
0010
0000
0100
0000
0010
0000
1000
0100
0010
0000
0001
1000
,
0010
1000
0001
0010
0100
1000
0100
0010
,
0001
0000
1000
0001
0010
0000
0100
0010
0001
0000
1000
0000
0010
0000
0100
0000
,
0001
0000
1000
0000
0100
0000
0010
0000
0001
0000
1000
0001
0010
0000
0001
1000
,
0100
0000
1000
0000
0010
0000
1000
0000
0100
0000
1000
0100
0010
0000
0001
0010
,
0100
0010
0001
1000
0010
0100
0010
1000
,
0001
0000
0100
0010
0100
0000
0001
0010
0100
0000
0010
0000
0001
0000
1000
0000
,
0001
0000
0010
0000
1000
0000
0010
0000
0001
0000
1000
0000
0001
1000
0001
1000
,
0001
0000
0100
0010
1000
0010
0001
0010
,
0200
0320
2030
3002
,
1003
0100
0001
1000
0010
0001
1000
0001
,
0100
0000
0010
0100
0010
0000
1000
0010
1000
0000
0001
0100
0001
0000
1000
0000
,
0001
0100
1000
0100
0001
0100
1000
0100
,
0001
0100
0010
1000
0002
0000
2003
0000
,
3001
0010
0001
0000
1000
0010
1000
0000
0001
0100
0001
0100
0010
0000
1000
0000
,
0001
0010
0100
0000
0000
0000
1000
0010
0100
0000
0000
0000
0001
0100
0010
0000
,
0000
0000
1000
0100
0010
0000
0001
0000
0200
0000
0000
0000
0320
0000
0000
0030
,
1100
1100
0000
0000
0101
0101
0000
0000
,
1000
1010
0001
0011
0200
0000
0320
0000
,
1030
0001
0010
0100
0010
0001
1000
0010
,
0100
0001
0100
1000
0100
0010
1000
0000
,
1010
1001
0000
0000
0011
1001
0000
0000
,
0110
0000
0000
1001
0000
0000
0000
0000
0000
0000
0000
0000
1000
0000
0000
0000
0010
0000
0000
0000
0100
0000
0000
0000
,
0001
0000
0010
0000
0011
0000
0100
0000
1000
0000
1100
0000
,
0001
0000
0100
0000
0110
0000
1000
0000
0100
0000
0110
0000
,
1001
0000
0000
0000
0110
0000
0000
0000
1000
0010
1000
0000
0000
0000
0001
0100
,
0001
0000
0000
0000
1000
0001
1000
0000
0010
0100
0010
0100
0010
0000
0000
0000
,
2000
0000
0000
0000
3002
0000
0000
0000
1003
0000
0001
0100
0001
0000
1000
0100
,
1000
0000
0100
0000
0010
0001
0010
0000
0001
0000
1000
0010
1000
0000
0001
0010
,
0001
0000
0010
0000
0100
1000
0100
0000
1000
0000
0001
0100
0001
0000
1000
0010
,
1000
0000
0100
0000
0010
0001
0010
0000
0001
0000
1000
0100
1000
0000
0001
0010
,
0001
0000
0100
0000
0010
1000
0010
0000
1000
0000
0100
0010
0100
0000
1000
0000
,
0001
0000
0100
0000
0002
0000
2003
0000
3100
0000
0010
0001
0010
0000
0100
0000
,
0010
0000
0001
0000
2000
0000
3020
0000
1030
0000
0001
0100
0001
0000
1000
0010
,
1000
0000
0001
0010
0001
0000
0100
0000
0010
0000
1000
0010
1000
0000
0001
0100
,
0001
0000
0010
0000
0100
1000
0100
1000
0200
0000
0000
0000
0000
0000
0000
0000
,
0000
0000
0000
0000
0300
0000
0000
0000
1000
0100
0010
0000
0000
0000
0001
0100
,
0010
0000
0000
0000
1000
0010
0100
0000
0000
0000
0001
0010
0100
0000
1000
0000
,
0002
0000
2003
0000
3001
0101
0000
0000
,
1000
1010
0000
0000
0001
0011
1000
1100
,
2000
0000
3002
0000
2003
0000
3001
0010
,
0100
1000
0010
0100
0001
1000
0100
1000
,
0001
1000
0010
1000
1100
1001
0000
0000
,
0101
1001
0000
0000
0110
1001
0000
0000
,
0001
0000
0100
0000
0010
0000
1000
0000
0010
0000
1010
0000
,
0001
0000
0010
0000
0011
0000
1000
0000
0100
0000
1100
0000
,
0001
0000
0100
0000
0101
0000
0110
0000
0000
1001
0000
0000
,
1000
0010
0100
0000
0000
0000
0001
0010
0100
0000
0000
0000
1000
0001
1000
0000
,
0001
0010
0001
1000
0100
0000
1000
0001
0010
0001
0100
0000
0010
1000
0001
0010
,
0002
0000
0000
0000
,
2000
0000
0000
0000
,
3003
0000
0000
0000
;

//--------------- dance-double - Fred-104 ----------------
#NOTEDATA:;
#STEPSTYPE:dance-double;
#DESCRIPTION:Fred-104;
#DIFFICULTY:Easy;
#METER:7;
#CREDIT:Fred-104;
#NOTES:
00000000
00000000
00000000
00000000
,
00000000
00000000
00000000
00000000
,
00000000
00000000
00000000
00000000
,
00000000
00000000
00000000
00000000
,
00010000
00001000
00020000
00030000
,
00001000
00010000
00100000
01000000
,
00010000
10000000
01000000
00010000
,
00001000
00010000
00002000
00003000
,
00010000
00001000
00000100
00000001
,
00001000
00000100
00000020
00000030
,
00000011
00000000
00000001
00000100
,
00000010
00010000
00001000
00010000
,
00011000
00000000
00001000
00010000
,
01000000
00100000
00010000
10000000
,
10010000
00000000
10000000
01000000
,
00010000
00001000
00010000
00001000
,
00000200
00000301
00002000
00003100
,
00000010
00000000
00000000
00000001
00000000
00000000
00001000
00000000
,
00001010
00000000
00000001
00000100
,
00001000
00010000
01000000
10000000
,
10010000
00000000
10000000
00100000
,
00010000
00001000
00010000
00100000
,
01100000
00000000
10000000
00010000
,
10000000
01000000
00100000
00001000
,
00011000
00000000
00001000
00010000
,
00000010
00010000
00002000
00003000
,
00011000
00000000
00010000
00001000
,
00000100
00000001
00000010
00000100
,
00001000
00000000
00000000
00000001
00000000
00000000
00000100
00000000
,
00000010
00000000
00000100
00001000
,
00010000
01000000
10000000
00000000
,
01000000
00100000
00001000
00000000
,
00010000
00001000
00010000
00000010
,
00010000
00000000
00000000
00001000
00000000
00000000
00010000
00000000
,
00000000
00000010
00000000
00000000
00010000
00000000
00001000
00000000
,
00011000
00000000
00000110
00000000
,
00001001
00000000
00000002
00002003
,
00003001
00000100
00001000
00010000
,
00001000
00000100
00000010
00000000
,
00001001
00000000
00000110
00000000
,
00011000
00000000
00001000
00010000
,
00001000
00000000
00010000
00000000
,
00100000
00000000
10000000
00000000
,
01000000
00000000
00010000
00000000
00001000
00000000
00000000
00001000
,
00000000
00001000
00010000
00011000
,
00000000
00000000
00020000
00000000
,
00031000
00000000
00020000
00000000
,
00030010
00000000
00020000
00000000
,
00031000
00000000
00010000
00001000
,
00000010
00000001
00000010
00000000
,
00000100
00001000
00000100
00000000
,
00010000
00001000
00020000
00030000
,
00200000
00300000
02000000
03000000
,
00020000
00030000
20020000
00000000
,
00000000
00000000
30030000
00000000
10000000
00000000
00000000
01000000
,
00000000
00000000
00010000
00000000
00000000
00001000
00000000
00000000
,
00010000
00001000
00011000
00000000
,
01100000
00000000
10010000
00000000
,
10000000
00100000
00010000
00000000
,
00001000
00000010
00000100
00001000
,
00000001
00000000
00001001
00000000
,
00000110
00000000
00011000
00000000
,
00001000
00010000
00001000
00000000
,
00010000
00000000
01000000
00000000
,
10000000
00000000
00100000
00010000
,
00001000
00000000
00000000
00010000
00000000
00000000
00000010
00000000
,
00001000
00000000
00000000
00000100
00000000
00000000
00000010
00000000
,
00002002
00000000
00000000
00000000
,
00000000
00000000
00000000
00000000
,
00003003
00000000
00000000
00000000
;

//--------------- dance-double - Fred-104 ----------------
#NOTEDATA:;
#STEPSTYPE:dance-double;
#DESCRIPTION:Fred-104;
#DIFFICULTY:Medium;
#METER:11;
#CREDIT:Fred-104;
#NOTES:
00000000
00000000
00000000
00000000
,
00000000
00000000
00000000
00000000
,
00000000
00000000
00000000
00000000
,
00000000
00000000
00000000
00000000
,
10000000
00000000
00010000
01000000
00010000
00000000
00100000
00000000
,
00002000
00023000
00032000
00003020
,
00000031
00000010
00000100
00010000
00001000
00010000
00100000
00000000
,
01000000
00010000
10000000
01000000
00100000
00001000
00010000
00000000
,
00001000
01000000
00010000
01000000
00001000
00010000
00000100
00000000
,
00001000
00000100
00000010
00000001
00000100
00001000
00010000
00001000
,
00020000
00000000
00031000
00010000
,
00200000
20300000
32000000
03020000
,
00032000
00000000
00013000
00001000
,
00000020
00000032
00000203
00002300
,
00023000
00000000
00031000
00010000
,
00200000
02300000
03020000
20030000
,
32000000
00000000
03100000
00010000
00200000
00000000
00301000
00010000
,
00000100
00010000
00001000
00011000
00000000
00001000
01000000
00000000
,
10010000
00000000
10000000
01000000
00010000
01000000
10000000
01000000
,
00200000
00302000
00023000
00030020
,
00001030
00000000
00000100
00000010
00000100
00001000
00000001
00000100
,
00002000
00000000
00023000
00000000
00031000
00010000
01000000
10000000
,
02000000
00000000
03100000
00010000
00100000
00001000
00010000
00100000
,
02000000
03020000
20030000
32000000
,
03100000
00010000
00100000
00001000
00010000
00001000
00010000
00000000
,
00001000
00000100
00000010
00001000
00000001
00000010
00000100
00010000
,
00022000
00000000
00033000
00000000
00001000
00010000
00100000
10000000
,
00020000
20030000
32000000
03020000
,
00032000
00000000
00013000
00001000
00000000
00001000
00010000
00000010
,
00001000
00000010
00000100
00000000
00000001
00000010
00000100
00000000
,
00001000
00000001
00000100
00001000
00010000
00001000
00010000
00000000
,
00100000
01000000
00010000
10000000
02000000
00000000
03200000
00000000
,
00301000
00000000
00010000
00000000
00001000
00010000
00100000
01000000
,
00010000
00010000
00000000
10000000
10000000
00000000
01000000
01000000
,
00000000
00100000
00100000
00000000
00002000
00003000
00020000
00030000
,
00011000
00000000
00010010
00000000
,
00101000
00011000
00002000
00023000
,
00031000
00010000
00100000
10000000
,
01000000
00000000
00100000
00000000
00001000
00010000
00001000
00000000
,
00011000
00000000
01001000
00000000
,
00010100
00000000
00000000
00000000
00000000
00000000
00010000
00000000
00001000
00000000
00000100
00000000
,
00000001
00000000
00001000
00000000
00000100
00000000
00000010
00000000
00000001
00000000
00000100
00000000
,
00001000
00000000
00010000
00000000
01000000
00000000
10000000
00000000
00010000
00000000
01000000
00000000
,
01100000
00000000
10010000
00000000
10000000
00100000
00000000
00010000
,
00001000
00000000
00000100
00000001
00001000
00000100
00000010
00000000
,
00002002
00003003
00000001
00000100
,
00001000
00010000
00100000
10000000
,
01000000
00010000
00001000
00000010
,
00000001
00000100
00001000
00010000
,
00001000
00000000
00011000
00000000
00001000
00010000
01000000
00100000
,
00010000
10000000
00100000
00000000
10000000
01000000
00010000
00001000
,
00010000
00001000
00000100
00000000
00000010
00001000
00000001
00000010
,
00000100
00000010
00000001
00001000
00000010
00000100
00001000
00010000
,
00100000
01000000
00010000
10000000
02000000
00000000
00000000
00000000
,
00000000
00000000
03000000
00000000
10000000
00100000
00000000
00010000
,
00001000
00000000
00000010
00000001
00000010
00000100
00010000
00000000
,
00002000
00003000
00020000
00030000
00010100
00000000
00000000
00000000
,
01001000
00000000
00010010
00101000
,
00002000
00000000
00023000
00000000
00030010
00000000
00001000
00000100
,
00000010
00000000
00000001
00000100
00001000
00000000
00010000
01000000
,
10000000
01000000
00100000
00000000
00110000
00000000
00000000
00000000
,
00011000
00000000
00001010
00000000
,
00000001
00000000
00001000
00000000
00000001
00000000
00000100
00000000
00001000
00000000
00010000
00000000
,
00100000
00000000
10000000
00000000
01000000
00000000
00010000
00000000
00001000
00000000
00000010
00000000
,
00000001
00000000
00000100
00000000
00001000
00000000
00010000
00000000
00000000
00011000
00000000
00000000
,
00010000
00001000
00000010
00000001
00000010
00000100
00001000
00000100
,
00010000
00001000
00010000
00100000
10000000
00010000
00100000
01000000
,
20000000
00000000
00000000
00000000
,
00020000
00000000
00000000
00000000
,
30030000
00000000
00000000
00000000
;

//--------------- dance-double - Fred-104 ----------------
#NOTEDATA:;
#STEPSTYPE:dance-double;
#DESCRIPTION:Fred-104;
#DIFFICULTY:Hard;
#METER:14;
#CREDIT:Fred-104;
#NOTES:
00000000
00000000
00000000
00000000
,
00000000
00000000
00000000
00000000
,
00000000
00000000
00000000
00000000
,
00000000
00000000
00000000
00000000
,
00001000
00000000
00000000
00000000
00010000
00001000
00010000
00000000
00001000
00000000
00010000
00000000
00100000
00000000
10000000
00000000
,
02000000
03200000
00302000
00023000
,
00031000
00000000
00010000
00000000
00001000
00000000
00000010
00000000
00000001
00000000
00000010
00000100
00000010
00000000
00000001
00000000
,
00001000
00000000
00000010
00000000
00000100
00000000
00001000
00000000
00010000
00000000
00001000
00010000
00001000
00000000
00100000
00000000
,
01000000
00000000
00100000
00000000
00010000
00000000
10000000
00000000
01000000
00000000
00100000
00010000
00100000
00000000
00001000
00000000
,
00010000
00000000
00001000
00000000
00000010
00000000
00000001
00000000
00000010
00000100
00000010
00000100
00000010
00000100
00000010
00000100
,
00000010
00000220
00000000
00000000
00000330
00000010
00000001
00001000
,
00000020
00000230
00002300
00023000
,
00031000
00022000
00000000
00000000
00033000
00001000
00010000
01000000
,
20000000
30200000
00320000
00032000
,
00013000
00022000
00000000
00000000
00033000
00010000
00001000
00000100
,
00000020
00002030
00003002
00000023
,
00000230
00000000
00010300
00001000
00020000
00000000
00031000
01000000
,
00001000
00000000
00010000
00000000
00000100
00000000
00001100
00000000
00000000
00000000
00001000
00000000
00000001
00000000
00000100
00000010
,
00000100
00000000
00000001
00000000
00001000
00000000
00000100
00000000
00010000
00000000
00000100
00001000
00000100
00000000
00010000
00001000
,
00010000
00000010
00000100
00001000
00010000
00100000
01000000
00010000
,
10000000
00000000
01000000
00100000
00010000
00000000
00100000
00001000
00010000
00000000
00001000
00000000
00000100
00000000
00000001
00000000
,
00000100
00000000
00000010
00000000
00001000
00000000
00000001
00000000
00000010
00000000
00000100
00001000
00000010
00000000
00010000
00001000
,
00010000
00000000
00100000
00000000
01000000
00000000
00010000
00000000
00100000
00000000
00001000
00010000
00001000
00000000
01000000
00100000
,
01000000
00100000
00010000
00001000
00000100
00000010
00010000
00001000
,
00000010
00000000
00000001
00001000
00000001
00000000
00000010
00000100
00001000
00000000
00000010
00000000
00000100
00000000
00001000
00000000
,
00010000
00000000
00100000
00000000
01000000
00000000
00010000
00000000
10000000
00000000
01000000
00000000
00100000
00010000
00100000
00010000
,
00100000
00000000
00001000
00010000
00100000
01000000
00010000
01000000
,
00200000
00320000
00032000
00003200
,
00000320
00000000
00001030
00000001
00000010
00000100
00010000
00001000
,
00010000
00000000
00001000
00100000
00010000
00000000
10000000
01000000
00100000
00000000
00001000
00010000
00001000
00000000
00100000
00000000
,
00001000
00010000
00100000
00010000
00001000
00010000
00100000
00010000
,
00001000
00010000
00000010
00001000
00000002
00000000
00000023
00000000
,
00000130
00000010
00000100
00000000
00000010
00000001
00000010
00000000
00000001
00000100
00000010
00001000
00000001
00000000
00000010
00000000
,
00000001
00001000
00000001
00000000
00000000
00000000
00010000
00000010
00010000
00000000
00000000
00000000
00001000
01000000
00001000
00000000
,
00000000
00000000
10000000
00010000
10000000
00000000
00000000
00000000
01100000
00000000
00000000
00000000
10010000
00000000
00000000
00000000
,
10000000
10010000
00000000
00000000
00100000
00101000
00000000
00000000
,
00001000
00011000
00010000
00011000
00002000
00000000
00023000
00000000
,
00030010
00010000
00001000
00000100
00000010
00001000
00000100
00000010
,
00000001
00000100
00001000
00010000
01000000
10000000
00010000
00000000
,
00100000
00101000
00000000
00000000
00001000
00011000
00000000
00000000
,
00010000
00000000
00000000
00010010
00000000
00000000
00000000
00000000
00000000
00000000
00000000
00000000
00001000
00000000
00000000
00000000
00000100
00000000
00000000
00000000
00000010
00000000
00000000
00000000
,
00000001
00000000
00000010
00000000
00001000
00000000
00010000
00000000
01000000
00000000
10000000
00000000
,
00010000
00000000
10000000
00000000
00100000
00000000
00010000
00000000
00001000
00000000
00000100
00000000
,
00000001
00000000
00000000
00000000
00000110
00000000
00000000
00000000
00000010
00010000
00000010
00000000
00000000
00000000
00010000
00001000
,
00010000
00000000
00000000
00000000
00001000
01000000
00001000
00000000
00010000
00001000
00010000
00001000
00010000
00000000
00000000
00000000
,
00002000
00000000
00000000
00000000
00023000
00000000
00000000
00000000
00031000
00000000
00100000
00010000
00100000
00000000
00010000
10000000
,
00010000
00000000
00100000
00000000
01000000
00000000
01000000
00000000
10000000
00000000
00100000
01000000
00100000
00000000
10000000
00010000
,
10000000
00000000
01000000
00000000
00100000
00000000
00100000
00000000
00001000
00000000
00010000
00000010
00010000
00000000
00000010
00001000
,
00000010
00000000
00000100
00000000
00000001
00000000
00000001
00000000
00001000
00000000
00000001
00000100
00000001
00000000
00001000
00000100
,
00001000
00000000
00000100
00000000
00010000
00001000
00010000
00000000
00001000
00000000
01000000
00010000
01000000
00000000
00100000
00000000
,
10000000
00000000
01000000
00000000
00020000
00000000
00032000
00000000
00013000
00000000
00000100
00000010
00000100
00000000
00000010
00000000
,
00000001
00000000
00001000
00000000
00000020
00000000
00020030
00000000
00031000
00000000
01000000
00010000
01000000
00000000
00001000
00010000
,
00001000
00000000
00100000
00010000
00100000
00000000
00001000
00000000
00010000
00000000
00000100
00001000
00000100
00000000
00000010
00000001
,
00000010
00000000
00000100
00000000
00010000
00001000
00010000
00001000
00020000
00000000
00000000
00000000
00000000
00000000
00000000
00000000
,
00000000
00000000
00000000
00000000
00030000
00000000
00000000
00000000
00001000
00100000
00010000
00000000
00000000
00000000
10000000
00100000
,
01000000
00000000
00000000
00000000
00001000
00010000
00000010
00000000
00000000
00000000
00000100
00000001
00001000
00000000
00000000
00000000
,
00000200
00000000
00000320
00000000
00000031
00001001
00000000
00000000
,
00001000
00001100
00000000
00000000
00000100
00010100
00010000
00011000
,
00002000
00000000
02003000
00000000
03002000
00000000
00013000
00100000
,
10000000
00010000
00100000
01000000
10000000
00010000
00100000
01000000
,
00100000
00000000
00001000
00010000
00001000
00000000
00000000
00000000
00010000
00000000
00010010
00000000
00000000
00000000
00000000
00000000
,
00001000
01001000
00000000
00000000
00010000
00011000
00000000
00000000
,
00010000
00000000
00001000
00000000
00000010
00000000
00000001
00000000
00000100
00000000
00001000
00000000
,
00010000
00000000
00100000
00000000
10000000
00000000
01000000
00000000
00010000
00000000
00001000
00000000
,
00000010
00000000
00000001
00000000
00000010
00000000
00000110
00000000
00000000
00011000
00000000
00000000
,
00001000
00100000
00010000
00000000
00000000
00000000
10000000
00100000
01000000
00000000
00000000
00000000
00001000
00010000
00000100
00000000
,
00001000
00000001
00001000
00000010
00000100
00000000
00000001
00000010
00000100
00001000
00000100
00000000
00010000
00001000
00010000
00001000
,
00020000
00000000
00000000
00000000
,
00002000
00000000
00000000
00000000
,
00033000
00000000
00000000
00000000
;
