#VERSION:0.83;
#TITLE:Odin;
#ARTIST:Noizenecio;
#GENRE:GABBER;
#CREDIT:Banner & jacket graphic source from Age of Mythology\: Retold;
#BANNER:Odin.png;
#BACKGROUND:Odin-bg.png;
#CDTITLE:./CDTitles/bm IIDX 21 SPADA.png;
#MUSIC:Odin.ogg;
#SAMPLESTART:71.58;
#SAMPLELENGTH:15;
#BPMS:0=180,108=172,112=166,116=160,152=166,168=172,176=180;
#BGSTAGE:14;

//--------------- dance-single - Fred-104 ----------------
#NOTEDATA:;
#STEPSTYPE:dance-single;
#DESCRIPTION:Fred-104;
#DIFFICULTY:Beginner;
#METER:3;
#CREDIT:Fred-104;
#NOTES:
0000
0000
0000
0000
,
0000
0000
0000
0000
,
0000
0000
0000
0000
,
0000
0000
0000
0000
,
0000
0000
0000
0000
,
0000
0000
0000
0000
,
1000
0000
0000
0000
,
0001
0000
0000
0000
,
2002
0000
0000
0000
,
3003
0000
0000
0000
,
1000
0000
1000
0000
,
1000
0000
1000
0000
,
0001
0000
0001
0000
,
0001
0000
0001
0000
,
1000
0000
1000
0000
,
1000
0000
1000
0000
,
0001
0000
0001
0000
,
0002
0000
0003
0000
,
0001
0000
0001
0000
,
1000
0000
1000
0000
,
0001
0000
0001
0000
,
1000
0000
1000
0000
,
0001
0000
0000
0000
,
0100
0000
0000
0000
,
0010
0000
0000
0000
,
1000
0000
0000
0000
,
0001
0000
0000
0000
,
0000
0000
0000
0000
,
0000
0000
0000
0000
,
0000
0000
0000
0000
,
1001
0000
0000
0000
,
0000
0000
0000
0000
,
0000
0000
0000
0000
,
0000
0000
0000
0000
,
0001
0000
0000
0000
,
0000
0000
0000
0000
,
0000
0000
0000
0000
,
0000
0000
0000
0000
,
1000
0000
0000
0000
,
0001
0000
0000
0000
,
1000
0000
0000
0000
,
0001
0000
0000
0000
,
1000
0000
0000
0000
,
1000
0000
0000
0000
,
0002
0000
0000
0000
,
0003
0000
0000
0000
,
2000
0000
0000
0000
,
0000
0000
0000
3000
,
0002
0000
0000
0000
,
0000
0000
0000
0003
,
2000
0000
0000
0000
,
0000
0000
0000
3000
,
1001
0000
0000
0000
,
0000
0000
0000
0000
,
0001
0000
0000
0000
,
0001
0000
1000
0000
,
0001
0000
0000
0000
,
1000
0000
0001
0000
,
1000
0000
0000
0000
,
0100
0000
0100
0000
,
0100
0000
0000
0000
,
0010
0000
0010
0000
,
0010
0000
0000
0000
,
0001
0000
1000
0000
,
0001
0000
0000
0000
,
1000
0000
0001
0000
,
1000
0000
0000
0000
,
0000
0000
0000
0000
,
0002
0000
0000
0000
,
0000
0000
0003
0000
,
1000
0000
1000
0000
,
1000
0000
1000
0000
,
0001
0000
0001
0000
,
0001
0000
0001
0000
,
1000
0000
1000
0000
,
1000
0000
1000
0000
,
0001
0000
0001
0000
,
0001
0000
0001
0000
,
1000
0000
1000
0000
,
0001
0000
0001
0000
,
0100
0000
0100
0000
,
0010
0000
0010
0000
,
0100
0000
0000
0100
,
0000
0000
0100
0000
,
0110
0000
0000
0000
,
0000
0000
0000
0000
,
0001
0000
0001
0000
,
1000
0000
2000
3000
,
0001
0000
0001
0000
,
1000
0000
0001
0000
,
0010
0000
0010
0000
,
0100
0000
0100
0000
,
1000
0000
1000
0000
,
0002
0000
0000
0000
,
0000
0000
0000
0003
,
2002
0000
0000
3003
0000
0000
0000
0000
;

//--------------- dance-single - Fred-104 ----------------
#NOTEDATA:;
#STEPSTYPE:dance-single;
#DESCRIPTION:Fred-104;
#DIFFICULTY:Easy;
#METER:7;
#CREDIT:Fred-104;
#NOTES:
0000
0000
0000
0000
,
0000
0000
0000
0000
,
0000
0000
0000
0000
,
0000
0000
0000
0000
,
0000
0000
0000
0000
,
0000
0000
0000
0000
,
0001
0000
0010
0000
,
0100
0100
1000
0000
,
2002
0000
0000
0000
,
3003
0000
0000
0000
,
2000
3000
0200
0300
,
2000
3000
0200
0300
,
0002
0003
0200
0300
,
2000
3000
0001
1000
,
0002
0003
0200
0300
,
2000
3000
0200
0300
,
0002
0003
2000
3000
,
0002
0000
2003
0000
3002
0003
1001
0000
,
1000
1000
0100
1000
,
0010
0010
0100
0001
,
0010
0010
0100
0010
,
0001
0001
1000
0001
,
1000
0000
0000
1000
0000
0000
1000
0000
,
0001
0000
0001
1000
,
0001
0000
0000
0100
0000
0000
0010
0000
,
0200
0000
0310
0110
,
0001
0010
0001
0010
,
1000
0010
1000
0010
,
0001
1000
0001
1000
,
0001
0100
0010
1000
,
2002
0000
0000
0000
,
3003
0000
0002
0003
,
0000
0000
0000
0000
,
0000
0000
0000
0000
,
2000
0000
0000
0000
,
3000
0000
0000
0000
,
0002
0000
0000
0000
,
0000
0000
0000
0003
,
1000
1000
0100
0000
,
0020
0030
0001
0000
1000
0000
0001
0000
,
0100
0010
0100
0000
,
0002
1003
0001
1000
,
0100
0000
0010
0000
,
0001
0001
1000
1000
,
2002
0000
0000
0000
,
3003
0000
0000
0000
,
1001
0000
0001
0000
0001
0000
0000
0010
,
0000
0010
0000
0010
0100
0000
0100
0000
,
0000
0000
1000
0000
1000
0000
0000
0001
,
0000
0001
0000
0001
0100
0000
0100
0000
,
0000
0000
0010
0000
0100
0000
0000
0100
,
0000
0100
0000
0100
0010
0000
0100
0000
,
0110
0000
0000
0010
0000
0000
0010
0000
,
0000
0200
0000
0300
,
1001
0001
1000
0100
,
1000
1000
0002
0003
,
0100
0100
0010
0100
,
0001
1000
0200
0310
,
0010
0001
1000
0001
,
0100
0010
0200
0301
,
0001
0010
0100
1000
,
0001
1000
1001
0000
,
1000
1001
0001
1000
,
0100
0100
0010
0002
,
1003
0010
0100
0100
,
0010
1000
0001
0020
,
0130
0000
0000
0100
0000
0000
0100
0000
,
1000
0000
0001
0000
,
2002
0000
0000
0000
,
0000
0000
0000
3003
,
0001
0001
0010
0010
,
0100
0100
1000
1000
,
0001
0001
0100
0100
,
0010
0000
0010
0000
1000
1000
0000
1000
,
0001
0001
0100
0100
,
1000
1000
0100
0100
,
0001
0001
1000
1000
,
0100
0000
0010
0000
0001
0001
0000
1000
,
0001
0001
0100
0100
,
0010
0010
1000
1000
,
0100
0010
0001
1000
,
0010
0100
0001
1000
,
0100
1000
0100
0001
,
0100
1000
0001
0100
,
0110
0000
0000
0000
,
0000
0000
0000
0000
0000
0000
0002
0003
,
1000
1000
0001
0000
,
0100
0010
0110
0000
,
0001
1000
0001
0000
,
0100
0110
1001
0000
,
0001
0010
0001
0001
,
1000
0010
0100
0000
,
0001
0010
0001
0000
1000
0000
0001
0000
,
0200
0000
0000
0000
,
0000
0000
0000
0300
,
2002
0000
0000
3003
0000
0000
0000
0000
;

//--------------- dance-single - Fred-104 ----------------
#NOTEDATA:;
#STEPSTYPE:dance-single;
#DESCRIPTION:Fred-104;
#DIFFICULTY:Medium;
#METER:11;
#CREDIT:Fred-104;
#NOTES:
0000
0000
0000
0000
,
0000
0000
0000
0000
,
0000
0000
0000
0000
,
0000
0000
0000
0000
,
0000
0000
0000
0000
,
0000
0000
0000
0000
,
0001
0001
0010
0010
,
0100
1000
1000
0100
,
2002
0000
0000
3003
,
0001
0100
0001
0000
1000
0100
1000
0000
,
1100
1100
1001
1001
,
0101
0000
0101
0000
1001
0000
0001
1000
,
0001
0011
0011
1001
,
1010
0000
1010
0000
1001
0000
0001
0001
,
0011
1001
1010
1001
,
0101
0000
1001
0000
1100
0000
0001
2000
,
3001
1001
0110
1001
,
0001
0010
0100
1000
0001
0000
0110
0000
,
1000
0100
1000
0000
0100
0001
0100
0000
,
1000
0001
1000
0000
0100
0100
0000
0010
,
0010
0001
0000
1000
0001
0000
0100
0001
,
0000
1000
0010
0100
0110
0000
1001
0000
,
0001
0000
0000
0010
0000
0000
0001
0000
0000
0001
0000
0000
0101
0000
0000
0000
,
1000
0000
1000
0000
0000
1001
0000
0000
0001
0000
1000
0000
0010
0000
0100
0000
,
0001
0000
1000
0100
0000
0001
0100
0000
,
1000
0002
0103
1001
,
0001
0100
0001
0000
0010
1000
0010
0000
,
0001
0010
0001
0000
0100
1000
0100
0000
,
0001
0010
0100
0000
1000
0010
0100
0000
,
0001
1000
0100
0010
0001
1000
0010
0100
,
0202
0000
0000
0000
,
0303
0000
2000
3000
,
0000
0000
0000
0000
,
0000
0000
0000
0000
,
0002
0000
0000
0000
,
0003
0000
0000
0000
,
2000
0000
0000
0000
,
0000
0000
0000
3000
,
0001
0100
0010
0000
1000
0001
0010
0000
,
0200
1300
0001
0000
0100
0010
0100
0000
,
0001
1000
0100
0001
0100
0000
1000
0100
,
0010
0010
0001
0000
1000
0001
0100
0000
,
0001
1000
0100
0010
0001
1000
0010
0000
,
0100
0001
1000
0100
0001
0100
1000
0010
,
0200
0000
0000
0000
,
0020
0000
0000
0330
,
1001
0000
0002
0000
0023
0000
0130
0002
,
0000
0203
0000
1300
0002
0000
2003
0000
,
3000
0000
0200
0000
0320
0000
0031
0200
,
0000
0320
0000
0031
0020
0000
2030
0000
,
3000
0000
0001
1000
0200
0000
0310
0200
,
0000
0302
0000
0103
0020
0000
0032
0003
,
1001
0000
0000
0100
0000
0100
0100
0000
,
0000
0100
0100
0000
0110
0000
1001
0000
,
0101
0000
1001
0000
1100
0000
0001
0100
,
0000
0110
0000
0010
1000
0000
1001
0000
,
1100
0000
0110
0000
0011
0000
1000
0010
,
0000
0101
0000
1000
0100
0000
0010
0010
,
0001
0000
1000
0010
1000
0000
0001
0010
,
0000
0110
0000
1000
0001
0000
0100
0100
,
0001
0000
1000
0100
0010
0100
1000
0001
,
0100
0010
0100
0010
0100
0100
0000
0010
,
0100
0010
0110
0000
1001
0000
1000
0100
,
0000
0011
0000
1000
0001
0100
0010
0000
,
1010
0000
0101
0000
1100
0000
0001
0100
,
0000
1010
0000
0001
0010
0100
1000
0001
,
1000
0010
0001
0100
,
1000
0001
0100
0010
0100
0000
0001
0000
,
2002
0000
0000
0000
,
0000
0000
0000
3003
,
1000
0100
0001
0000
0001
0100
1000
0000
,
0001
0100
1000
0000
1000
0100
0001
0000
,
1000
0010
0001
0000
0001
0010
1000
0000
,
0001
0010
1000
0000
1000
0010
0001
0001
,
1000
0100
0010
0000
0001
0100
0010
0000
,
1000
0010
0100
0000
0001
0010
0100
0000
,
1000
0001
0100
0000
0001
1000
0100
0000
,
0010
0001
1000
0000
0001
0001
0000
1000
,
0001
0100
0001
0000
0010
0100
1000
0000
,
0010
0100
0001
0000
1000
0001
0010
0000
,
0100
0010
0001
0000
0100
0001
0010
0000
,
0001
1000
0010
0000
1000
0010
0100
0000
,
0010
1000
0001
0000
1000
0100
0010
0000
,
0001
0100
0010
0100
0001
0000
0110
0000
,
1001
0000
0000
0000
,
0000
0000
0000
0000
0000
0000
2000
3000
,
0001
1000
0010
0000
0110
0000
1010
0000
,
0001
0000
1000
0000
0100
0000
0000
0000
0011
0000
0000
0011
0000
0000
0000
0000
,
0101
1001
1100
0110
,
0011
0000
0000
1001
0000
0000
1000
0001
1000
0001
0000
0000
,
0110
0000
1001
0000
0001
0010
0100
1000
,
0001
0100
0010
0100
0001
0000
1000
0000
,
0001
1000
0100
0000
0011
0000
0001
1000
,
0020
0000
0000
0000
,
0000
0000
0000
0030
,
0220
0000
0000
0330
0000
0000
0000
0000
;

//--------------- dance-single - Fred-104 ----------------
#NOTEDATA:;
#STEPSTYPE:dance-single;
#DESCRIPTION:Fred-104;
#DIFFICULTY:Hard;
#METER:15;
#CREDIT:Fred-104;
#NOTES:
0000
0000
0000
0000
,
0000
0000
0000
0000
,
0000
0000
0000
0000
,
0000
0000
0000
0000
,
0000
0000
0000
0000
,
0000
0000
0000
0000
,
0001
0010
0100
1000
,
0010
1000
0100
0010
,
0022
0000
0000
0033
,
0001
0000
1000
0100
1000
0000
0001
0000
0100
0000
0010
1000
0002
0000
0003
0000
,
1000
0010
1000
0100
1000
0010
1000
0100
,
0010
0001
0100
0001
0010
0001
1000
0002
,
0103
0010
1000
0010
0100
0010
1000
0001
,
0010
0100
1000
0001
0100
0010
1000
1000
,
0001
0010
0100
0001
0100
1000
0001
0100
,
1000
0100
0010
1000
0100
0010
0001
2000
,
3001
0100
0010
0001
0010
1000
0001
0010
,
0100
0001
0100
1000
0001
0000
0110
0000
,
1001
0001
0100
0010
1010
1000
0001
0010
,
0110
0100
1000
0001
0101
0101
0000
1100
,
1100
0100
0010
0011
0001
1000
1010
0010
,
0100
0000
0101
0000
0001
0000
1000
0000
1001
0000
0001
0000
1000
0100
1000
0000
,
1100
0000
0000
1010
0000
0000
0101
0000
0000
0011
0000
0000
1001
0000
0001
0000
,
0100
0000
0101
0000
0000
1001
0000
0000
1100
0000
0100
0000
0010
0000
0001
0000
,
1001
0000
1100
1001
0000
0101
1001
0000
,
0001
0000
0000
0000
0200
0000
0000
0300
0110
0000
0000
0000
1001
0000
0000
0000
,
1000
0100
1000
0100
0001
0100
0001
0100
,
1000
0010
1000
0010
0001
0010
0001
0010
,
1000
0100
0010
0001
0100
0010
1000
0001
,
0010
0000
0100
0000
0002
0000
2003
0000
3020
0000
0230
0000
2300
0000
3002
0003
,
2002
0000
0000
0000
,
3003
0000
0002
0003
,
0000
0000
0000
0000
,
0000
0000
0000
0000
0000
0000
0000
0000
0000
0000
0000
0000
0000
0000
1000
0100
,
0020
0000
0000
0000
,
0030
0000
0000
0000
,
0002
0000
0000
0000
,
0000
0000
0000
0003
,
1000
0100
0010
1000
0001
0100
0010
0001
,
2000
3001
0100
1000
0100
0001
1000
0000
,
0001
0100
0010
0100
1000
0000
0100
0001
,
1001
1000
0200
0000
0310
0001
0010
0001
,
1000
0001
0100
1000
0001
0010
1000
0001
,
0011
0010
0100
1000
0001
0100
1000
0100
,
0002
0000
0000
0000
,
2000
0000
0000
3003
,
1001
0000
2000
0000
3200
0000
0302
0203
,
0000
0320
0000
0230
2300
0000
3002
0000
,
0103
0000
2000
0000
3200
0000
0320
0230
,
0000
0302
0000
2003
3200
0000
0320
0000
,
0031
1000
0020
0032
2003
3100
0020
2030
,
0000
3002
0000
0023
0230
1300
0002
0103
,
0110
0000
0000
0010
0000
0010
0010
0000
,
0000
0100
0100
0000
0110
0000
2002
3003
,
1000
0100
0001
0100
0010
1000
0010
0002
,
0100
2003
0010
3001
0010
0100
1100
0000
,
0001
0100
1000
0100
0010
0001
0010
2000
,
0100
3002
0010
1003
0001
1000
1001
0001
,
1000
0100
0010
1000
0010
0100
0001
0200
,
1000
0320
0001
0130
1000
0001
0101
0000
,
1000
0001
0100
1000
0100
0010
0001
0010
,
0100
0001
1000
0100
0110
0110
0000
0011
,
0011
0011
0011
0001
1000
0001
0100
1000
,
0100
0000
0001
0010
0100
0000
1000
0010
0100
0000
0001
0000
1001
0000
0000
0000
,
1000
0001
0100
1000
0100
0010
0100
0001
,
1000
0000
0001
0010
0100
0000
1000
0010
0100
0000
0001
0000
0101
0000
1001
0000
,
1001
1000
0001
0010
0100
1000
0010
0100
,
0001
0000
1000
0000
0100
0000
0001
0000
0100
0000
0000
0000
0010
0001
0010
0001
,
2000
0000
0000
0000
,
0000
0000
0000
0000
3000
0000
1001
1001
,
1000
0000
0100
0010
0002
0000
0013
0000
0001
0000
1000
0010
0200
0000
0310
0000
,
1000
0000
0001
0010
0002
0000
0013
0000
0100
0000
1000
0001
0200
0000
0301
0000
,
1000
0000
0001
0010
0200
0000
1300
0000
0001
0000
0100
0010
2000
0000
3001
0000
,
1000
0000
0100
0010
0002
0000
1003
0000
0010
0000
0100
0000
0110
0000
0110
0000
,
1001
0000
0001
0010
0200
0000
1300
0000
0001
0000
0100
0010
2000
0000
3001
0000
,
0010
0000
0100
0010
0002
0000
1003
0000
0100
0000
1000
0001
0200
0000
0310
0000
,
1000
0000
0001
0010
0200
0000
1300
0000
0001
0000
1000
0010
0200
0000
0302
0000
,
0103
0000
0010
1000
0002
0000
0013
0000
0110
0000
0110
0000
0000
0000
1100
0000
,
1100
0000
0001
1000
0200
0000
0310
0000
0001
0000
1000
0010
0200
0000
0310
0000
,
1000
0000
0001
0010
0200
0000
0310
0000
0001
0000
1000
0010
0200
0000
0301
0000
,
0100
0000
0010
1000
0002
0000
0013
0000
0100
0000
0010
0001
0200
0000
0301
0000
,
1000
0000
0100
0010
0002
0000
2003
0000
3002
0000
0100
0000
2003
0000
0010
0000
,
3001
0000
1000
0100
2000
0000
3001
0000
0100
0000
0010
1000
0020
0000
0130
0000
,
0001
0000
1000
0100
0020
0000
0031
0000
0011
0000
0000
0000
1100
0000
0000
0000
,
1001
0000
0000
0000
,
0000
0000
0000
0000
0000
0000
0002
0003
,
1000
1000
1001
0000
0101
0000
1010
1000
,
0001
0000
0010
0000
0110
0000
0000
0000
1100
0000
0000
0101
0000
0000
0000
0000
,
1100
0100
0010
0001
0100
0010
0002
0013
,
1000
0000
0000
0100
0000
0000
1100
0000
0000
0000
0000
0000
1000
0000
0010
0000
0100
0000
0001
0000
0010
0000
0100
0000
,
1000
0000
1010
1000
0001
1000
0100
0020
,
1030
0001
0100
0010
1000
0010
0001
1000
,
1001
1000
1010
0000
0110
0000
0101
1000
,
2200
0000
0000
0000
,
0000
0000
0000
3300
,
2002
0003
0000
0002
0003
0000
3001
0000
0000
0000
0000
0000
0000
0000
0000
0000
;

//--------------- dance-double - Fred-104 ----------------
#NOTEDATA:;
#STEPSTYPE:dance-double;
#DESCRIPTION:Fred-104;
#DIFFICULTY:Easy;
#METER:7;
#CREDIT:Fred-104;
#NOTES:
00000000
00000000
00000000
00000000
,
00000000
00000000
00000000
00000000
,
00000000
00000000
00000000
00000000
,
00000000
00000000
00000000
00000000
,
00000000
00000000
00000000
00000000
,
00000000
00000000
00000000
00000000
,
00001000
00000000
00010000
00000000
,
01000000
10000000
00010000
00000000
,
20020000
00000000
00000000
00000000
,
30030000
00000000
00000000
00000000
,
20000000
30000000
02000000
03000000
,
00200000
00300000
00020000
00030000
,
00200000
00300000
00002000
00003000
,
00020000
00030000
00001000
00010000
,
00002000
00003000
00020000
00030000
,
00000020
00000030
00020000
00030000
,
00002000
00003000
00020000
00030000
,
00002000
00000000
00023000
00000000
00032000
00003000
00011000
00000000
,
00001000
00010000
01000000
10000000
,
00010000
00100000
01000000
00100000
,
00010000
10000000
00100000
00010000
,
00001000
00010000
00001000
00010000
,
00001000
00000000
00000000
00001000
00000000
00000000
00001000
00000000
,
00010000
00000000
00010000
00000010
,
00001000
00000000
00000000
00000100
00000000
00000000
00000010
00000000
,
00000002
00000000
00000103
00000110
,
00001000
00000100
00001000
00000001
,
00000100
00001000
00010000
00100000
,
00010000
00001000
00010000
01000000
,
10000000
00010000
01000000
00100000
,
20020000
00000000
00000000
00000000
,
30030000
00000000
20000000
30000000
,
00000000
00000000
00000000
00000000
,
00000000
00000000
00000000
00000000
,
00002000
00000000
00000000
00000000
,
00003000
00000000
00000000
00000000
,
00020000
00000000
00000000
00000000
,
00000000
00000000
00000000
00030000
,
00001000
00010000
00001000
00000000
,
02000000
03000000
00010000
00000000
10000000
00000000
01000000
00000000
,
00100000
01000000
00010000
00000000
,
00002000
00013000
00001000
00000010
,
00000001
00000000
00000100
00000000
,
00001000
00010000
01000000
10000000
,
20020000
00000000
00000000
00000000
,
30030000
00000000
00000000
00000000
,
10010000
00000000
10000000
00000000
10000000
00000000
00000000
00100000
,
00000000
00100000
00000000
00100000
00010000
00000000
00001000
00000000
,
00000000
00000000
00010000
00000000
00010000
00000000
00000000
00001000
,
00000000
00001000
00000000
00001000
00000010
00000000
00000001
00000000
,
00000000
00000000
00001000
00000000
00000001
00000000
00000000
00000100
,
00000000
00000100
00000000
00000100
00001000
00000000
00010000
00000000
,
00011000
00000000
00000000
00001000
00000000
00000000
00010000
00000000
,
00000000
00000020
00000000
00000030
,
00001001
00000001
00001000
00000010
,
00010000
00000010
00020000
00030000
,
00001000
00010000
00001000
00100000
,
00010000
10000000
02000000
03100000
,
01000000
10000000
00010000
01000000
,
00100000
00010000
00002000
00013000
,
00001000
00010000
00000100
00000010
,
00000001
00000100
00001100
00000000
,
00010000
00011000
00010000
00001000
,
01000000
00010000
00100000
02000000
,
13000000
00010000
01000000
00001000
,
00010000
00000100
00010000
00002000
,
00013000
00000000
00000000
00010000
00000000
00000000
00010000
00000000
,
00000100
00000000
00001000
00000000
,
00002002
00000000
00000000
00000000
,
00000000
00000000
00000000
00003003
,
00000001
00000001
00000100
00000100
,
00001000
00001000
00010000
00010000
,
01000000
01000000
00100000
00100000
,
00010000
00000000
00010000
00000000
10000000
10000000
00000000
10000000
,
01000000
01000000
00010000
00010000
,
00001000
00001000
00000100
00000100
,
00000001
00000001
00000010
00000010
,
00000100
00000000
00010000
00000000
00001000
00001000
00000000
00010000
,
00001000
00001000
00010000
00010000
,
00100000
00100000
10000000
10000000
,
00010000
00100000
01000000
10000000
,
00100000
00010000
00001000
00010000
,
00000010
00001000
00000010
00001000
,
00000001
00000010
00000100
00010000
,
00011000
00000000
00000000
00000000
,
00000000
00000000
00000000
00000000
00000000
00000000
00020000
00030000
,
00001000
00010000
00001000
00000000
,
01000000
00100000
01100000
00000000
,
10000000
01000000
00010000
00000000
,
00001000
00011000
00010100
00000000
,
00010000
00001000
00000010
00001000
,
00010000
00001000
00000100
00000000
,
00000001
00001000
00000001
00000000
00000100
00000000
00001000
00000000
,
00020000
00000000
00000000
00000000
,
00000000
00000000
00000000
00030000
,
00022000
00000000
00000000
00033000
00000000
00000000
00000000
00000000
;

//--------------- dance-double - Fred-104 ----------------
#NOTEDATA:;
#STEPSTYPE:dance-double;
#DESCRIPTION:Fred-104;
#DIFFICULTY:Medium;
#METER:11;
#CREDIT:Fred-104;
#NOTES:
00000000
00000000
00000000
00000000
,
00000000
00000000
00000000
00000000
,
00000000
00000000
00000000
00000000
,
00000000
00000000
00000000
00000000
,
00000000
00000000
00000000
00000000
,
00000000
00000000
00000000
00000000
,
00010000
00001000
00010000
00001000
,
00000100
00000010
00001000
00000001
,
00002002
00000000
00000000
00003003
,
00000001
00000010
00001000
00000000
00010000
00100000
10000000
00000000
,
11000000
11000000
01100000
01100000
,
00110000
00000000
00110000
00000000
00101000
00000000
00001000
00010000
,
00001000
00011000
00010010
00010010
,
00001010
00000000
00001001
00000000
00000011
00000000
00000001
00001000
,
00000001
00000101
00001001
00001100
,
00010100
00000000
00011000
00000000
00101000
00000000
00010000
10000000
,
00010000
10010000
01100000
10010000
,
10000000
00100000
00010000
00001000
00010000
00000000
00011000
00000000
,
00010000
00001000
00010000
00000000
00000010
00001000
00000010
00000000
,
00010000
00001000
00010000
00000000
00000100
00000100
00000000
00001000
,
00001000
00000001
00000000
00000100
00001000
00000000
00010000
00100000
,
00000000
01000000
00010000
00000000
01100000
00000000
10010000
00000000
,
10000000
00000000
00000000
01000000
00000000
00000000
00100000
00000000
00000000
00001000
00000000
00000000
00011000
00000000
00000000
00000000
,
00001000
00000000
00001000
00000000
00000000
00011000
00000000
00000000
00010000
00000000
00000100
00000000
00001000
00000000
00000001
00000000
,
00000100
00000000
00000000
00001000
00000000
00000000
00010000
00000000
,
00001000
00020000
00031000
00011000
,
00001000
00010000
00100000
00000000
01000000
00010000
00100000
00000000
,
01000000
10000000
00010000
00000000
10000000
01000000
00100000
00000000
,
01000000
00100000
00010000
00000000
00100000
00001000
00010000
00000000
,
00000100
00001000
00000001
00001000
00000010
00000100
00001000
00010000
,
00022000
00000000
00000000
00000000
,
00033000
00000000
00002000
00003000
,
00000000
00000000
00000000
00000000
,
00000000
00000000
00000000
00000000
,
02000000
00000000
00000000
00000000
,
03000000
00000000
00000000
00000000
,
00002000
00000000
00000000
00000000
,
00000000
00000000
00000000
00003000
,
00010000
00001000
00010000
00000000
00001000
01000000
00010000
00000000
,
00200000
01300000
10000000
00000000
00010000
10000000
00010000
00000000
,
01000000
00100000
00010000
00001000
00000100
00000000
00000010
00000000
,
00002000
00003100
00000010
00000011
,
00000001
00001000
00000010
00000000
00010000
00001000
00100000
00000000
,
00010000
00100000
01000000
10000000
00010000
01000000
00100000
00010000
,
00002000
00000000
00000000
00000000
,
00020000
00000000
00000000
00033000
,
00011000
00000000
00020000
00000000
00032000
00000000
00003100
00000020
,
00000000
00002030
00000000
00003100
00000020
00000000
00000032
00000000
,
00000003
00000000
00000200
00000000
00002300
00000000
00013000
00200000
,
00000000
00320000
00000000
00031000
00020000
00000000
02030000
00000000
,
03000000
00000000
10000000
01000000
00200000
00000000
00301000
00020000
,
00000000
00030020
00000000
00010030
00002000
00000000
00023000
00030000
,
00011000
00000000
00000000
00010000
00000000
00010000
00010000
00000000
,
00000000
00001000
00001000
00000000
00010000
00000000
00011000
00000000
,
00001000
00000000
00010000
00000000
00100000
00000000
01000000
00010000
,
00000000
10000000
00000000
01000000
00100000
00000000
00011000
00000000
,
00010000
00000000
00001000
00000000
00010000
00000000
00000010
00001000
,
00000000
00000100
00000000
00010000
00001000
00000000
00011000
00000000
,
00001000
00000000
00010000
00001000
00000010
00000000
00000100
00001000
,
00000000
00000001
00000000
00000100
00001000
00000000
00010000
00010000
,
00001000
00000000
00100000
00010000
00100000
01000000
00100000
01000000
,
10000000
00010000
10000000
00100000
00010000
00010000
00000000
00001000
,
00001000
00010000
00011000
00000000
00010010
00000000
00010000
00001000
,
00000000
00000100
00000000
00000001
00001000
00000100
00000010
00000000
,
00000011
00000000
00001001
00000000
00001100
00000000
00000001
00000100
,
00000000
00001000
00000000
00010000
00001000
01000000
00001000
00000000
,
00010000
00001000
00000010
00000100
,
00001000
00010000
00100000
00000000
01000000
10000000
00010000
00000000
,
02020000
00000000
00000000
00000000
,
00000000
00000000
00000000
03030000
,
10000000
01000000
00010000
00000000
00001000
00000010
00000001
00000000
,
00000001
00000100
00001000
00000000
00010000
00100000
10000000
00000000
,
10000000
00100000
00010000
00000000
00001000
00000100
00000001
00000000
,
00000001
00000010
00001000
00000000
00010000
01000000
10000000
00010000
,
10000000
01000000
00100000
00000000
00001000
00010000
00000100
00000000
,
00010000
00001000
01000000
00000000
00001000
00010000
00000100
00000000
,
00001000
00000100
00000010
00000000
00000001
00000100
00001000
00000000
,
00010000
00001000
00010000
00000000
00001000
00001000
00000000
00010000
,
00001000
01000000
00010000
00000000
00100000
01000000
10000000
00000000
,
00100000
00010000
00001000
00000000
00010000
01000000
00010000
00000000
,
00001000
00010000
00000010
00000000
00001000
00000100
00000010
00000000
,
00000001
00001000
00000010
00000000
00000100
00001000
00010000
00000000
,
00001000
01000000
00010000
00000000
01000000
00001000
00010000
00000000
,
00001000
00010000
00001000
00000100
00000001
00000000
00000011
00000000
,
00001001
00000000
00000000
00000000
,
00000000
00000000
00000000
00000002
,
00001003
00001000
00001000
00000000
00010100
00000000
00011000
00000000
,
00001000
00000000
00010000
00000000
00100000
00000000
00000000
00000000
01100000
00000000
00000000
01010000
00000000
00000000
00000000
00000000
,
11000000
01010000
00011000
00110000
,
00011000
00000000
00000000
00010010
00000000
00000000
00010000
00001000
00010000
00001000
00000000
00000000
,
00011000
00000000
00010100
00000000
00010000
00001000
00010000
00000100
,
00000010
00000001
00001000
00000010
00000100
00000000
00001001
00000000
,
00000001
00000100
00001000
00000000
00011000
00000000
00010000
00100000
,
20000000
00000000
00000000
00000000
,
00000000
00000000
00000000
30000000
,
20020000
00000000
00000000
30030000
00000000
00000000
00000000
00000000
;

//--------------- dance-double - Fred-104 ----------------
#NOTEDATA:;
#STEPSTYPE:dance-double;
#DESCRIPTION:Fred-104;
#DIFFICULTY:Hard;
#METER:15;
#CREDIT:Fred-104;
#NOTES:
00000000
00000000
00000000
00000000
,
00000000
00000000
00000000
00000000
,
00000000
00000000
00000000
00000000
,
00000000
00000000
00000000
00000000
,
00000000
00000000
00000000
00000000
,
00000000
00000000
00000000
00000000
,
00010000
00001000
00000010
00000001
,
00000100
00001000
00010000
00001000
,
00022000
00000000
00000000
00033000
,
00001000
00000000
00010000
00000000
00100000
00000000
10000000
00000000
01000000
00000000
00100000
00010000
00100000
00000000
00000000
00000000
,
00001000
00010000
00001000
00010000
00100000
00010000
00100000
00010000
,
00001000
00010000
00001000
00010000
00000010
00001000
00000100
00000020
,
00000031
00000100
00000001
00000100
00000010
00000001
00000010
00000001
,
00000010
00000100
00000010
00000100
00000001
00001000
00000100
00000100
,
00000010
00000001
00001000
00000010
00000100
00001000
00010000
01000000
,
00010000
00001000
00010000
00100000
01000000
00100000
10000000
00020000
,
00130000
01000000
10000000
00010000
01000000
00100000
00010000
00001000
,
00000100
00000001
00000010
00000100
00001000
00000000
00011000
00000000
,
00011000
00001000
00100000
00010000
10010000
10000000
00010000
01000000
,
01001000
00001000
00010000
00000100
00001100
00001001
00000000
00000001
,
00000101
00000100
00001000
00010000
00011000
00001000
01000000
00010000
,
10010000
00000000
10000000
00000000
01000000
00000000
00100000
00000000
00101000
00000000
00001000
00000000
00010000
00001000
00010000
00000000
,
00011000
00000000
00000000
00010010
00000000
00000000
00011000
00000000
00000000
00101000
00000000
00000000
00110000
00000000
00010000
00000000
,
10000000
00000000
10100000
00000000
00000000
00110000
00000000
00000000
00011000
00000000
00010000
00000000
00000100
00000000
00001000
00000000
,
00001001
00000000
00000001
00000100
00000000
00001000
00010000
00000000
,
00001000
00000000
00000000
00000000
00020000
00000000
00000000
00030000
01100000
00000000
00000000
00000000
10010000
00000000
00000000
00000000
,
10000000
01000000
10000000
01000000
00010000
00001000
00010000
00001000
,
00000010
00000001
00000010
00000001
00000100
00001000
00000100
00001000
,
00010000
00100000
10000000
00010000
00100000
01000000
10000000
00100000
,
00010000
00000000
00001000
00000000
00000200
00000000
00002300
00000000
00023000
00000000
00032000
00000000
00003020
00000000
00000032
00000003
,
00002002
00000000
00000000
00000000
,
00003003
00000000
00020000
00030000
,
00000000
00000000
00000000
00000000
,
00000000
00000000
00000000
00000000
00000000
00000000
00000000
00000000
00000000
00000000
00000000
00000000
00000000
00000000
00001000
01000000
,
00002000
00000000
00000000
00000000
,
00003000
00000000
00000000
00000000
,
00020000
00000000
00000000
00000000
,
00000000
00000000
00000000
00030000
,
00001000
00010000
00100000
01000000
10000000
01000000
00010000
10000000
,
02000000
03010000
01000000
00100000
00010000
00100000
00001000
00000000
,
00010000
00001000
00000010
00000100
00000010
00000001
00001000
00000010
,
00001010
00001000
00000002
00000000
00000013
00000100
00000010
00001000
,
00010000
00001000
00010000
00100000
01000000
00010000
10000000
01000000
,
01100000
00100000
00010000
10000000
00100000
00010000
00001000
00000100
,
00000002
00000000
00000000
00000000
,
00000020
00000000
00000000
00000033
,
00001001
00000000
00000002
00000000
00000203
00000000
00002300
00023000
,
00000000
00230000
00000000
02300000
03020000
00000000
20030000
00000000
,
31000000
00000000
00020000
00000000
02030000
00000000
23000000
30200000
,
00000000
00320000
00000000
00032000
00003020
00000000
00000230
00000000
,
00001300
00000000
00000002
00000203
00002300
00013000
00002000
00003020
,
00000000
00002030
00000000
00023000
02030000
00000000
03200000
00310000
,
10010000
00000000
00000000
00001000
00000000
00001000
00001000
00000000
,
00000000
00010000
00010000
00000000
01100000
00000000
10010000
00000000
,
00010000
10000000
00100000
01000000
00100000
00010000
00001000
00000100
,
00000001
00000100
00001000
00010000
00001000
00000010
00000011
00000000
,
00001000
00000010
00000100
00001000
00010000
00100000
00010000
00001000
,
00010000
01000000
10000000
01000000
00100000
00001000
00011000
00010000
,
00001000
00010000
00100000
01000000
10000000
01000000
00010000
00100000
,
01000000
00010000
00001000
00000010
00000100
00001000
00001010
00000000
,
00000001
00001000
00000010
00000100
00001000
00010000
00100000
01000000
,
10000000
01000000
00010000
10000000
11000000
01100000
00000000
00101000
,
00011000
00011000
00011000
00010000
00001000
00000100
00000001
00002000
,
00000100
00003002
00000010
00001003
00001001
00000000
00010100
00000000
,
00001000
00010000
01000000
00100000
00010000
10000000
01000000
20000000
,
00100000
30020000
01000000
00130000
01100000
01000000
11000000
10000000
,
00010000
10000000
00010000
00100000
01000000
00100000
00001000
00000010
,
00000001
00000000
00000010
00000000
00000100
00000000
00010000
00000000
00001000
00000000
00000000
00000000
00010000
00001000
00010000
00001000
,
00020000
00000000
00000000
00000000
,
00000000
00000000
00000000
00000000
00030000
00000000
00011000
00011000
,
00001000
00000000
00010000
00000000
00100000
10000000
00100000
00000000
10000000
00000000
01000000
00000000
00100000
00001000
00010000
00000000
,
00001000
00000000
00010000
00000000
00000010
00001000
00000010
00000000
00001000
00000000
00000001
00000000
00000010
00000100
00001000
00000000
,
00000100
00000000
00010000
00000000
00001000
01000000
00001000
00000000
00010000
00000000
00000100
00000000
00001000
00000001
00000100
00000000
,
00000010
00000000
00000100
00000000
00001000
00010000
00001000
00000000
01000000
00000000
00010000
00000000
10010000
00000000
10010000
00000000
,
11000000
00000000
01000000
00000000
00100000
00010000
00100000
00000000
00001000
00000000
00010000
00000000
00000100
00001000
00000001
00000000
,
00000010
00000000
00000001
00000000
00001000
00000010
00001000
00000000
00010000
00000000
01000000
00000000
00100000
10000000
00010000
00000000
,
10000000
00000000
00010000
00000000
00100000
01000000
00100000
00000000
00001000
00000000
00010000
00000000
00000010
00001000
00000001
00000000
,
00000010
00000100
00001000
00000001
00000101
00001001
00000000
00001100
,
00010100
00000000
00010000
00000000
00001000
00000000
01000000
00010000
10000000
00000000
01000000
00000000
00100000
00000000
00001000
00010000
,
00001000
00000000
00010000
00000000
00000100
00000000
00001000
00000001
00000100
00000000
00000010
00000000
00001000
00000000
00000001
00000010
,
00000100
00000000
00001000
00000000
00000100
00000000
00010000
00001000
00010000
00000000
01000000
00100000
00020000
00000000
01030000
00000000
,
00100000
00010000
00002000
00013000
00002000
00010000
00203000
00010000
,
00301000
00000000
00010000
00000000
00001000
00000000
00000100
00000010
00000100
00000000
00000001
00000000
00001000
00000000
00000100
00000010
,
00000100
00000010
00001000
00010000
00011000
00000000
01100000
00000000
,
10010000
00000000
00000000
00000000
,
00000000
00000000
00000000
20000000
,
31000000
01000000
01100000
00000000
00011000
00000000
00010100
00000100
,
00001000
00000000
00000100
00000000
00000110
00000000
00000000
00000000
00000101
00000000
00000000
00001001
00000000
00000000
00000000
00000000
,
00001001
00000001
00000100
00001000
00010000
01000000
00100000
00010000
,
01000000
00000000
00000000
00001000
00000000
00000000
00011000
00000000
00000000
00000000
00000000
00000000
00010000
00000000
00000010
00000000
00001000
00000000
00000001
00000000
00000010
00000000
00000100
00000000
,
00001000
00000000
00000011
00000001
00001000
00000010
00000100
00002000
,
00013000
00100000
00010000
00001000
01000000
00010000
10000000
00010000
,
00110000
00100000
00101000
00000000
00010010
00000000
00001000
00000100
,
00000220
00000000
00000000
00000000
,
00000000
00000000
00000000
00000330
,
00002002
00000003
00000000
00000002
00000003
00000000
00003001
00000000
00000000
00000000
00000000
00000000
00000000
00000000
00000000
00000000
;
