#TITLE:Northern Wind;
#ARTIST:Nhato;
#BANNER:Northern Wind.png;
#BACKGROUND:Northern Wind-bg.png;
#CDTITLE:./CDTitles/jb clan.png;
#MUSIC:Northern Wind.ogg;
#SAMPLESTART:92.801;
#SAMPLELENGTH:15;
#BPMS:0=150;
#BGSTAGE:16;

//--------------- dance-single - Fred-104 ----------------
#NOTES:
     dance-single:
     Fred-104:
     Beginner:
     2:
     :
0000
0000
0000
0000
,
0000
0000
0000
0000
,
0000
0000
0000
0000
,
0000
0000
0000
0000
,
0000
0000
0000
0000
,
0000
0000
0000
0000
,
0000
0000
0000
0000
,
0000
0000
0000
0000
,
0000
0000
0000
0000
,
0000
0000
0000
0000
,
1000
0000
0000
0000
,
1000
0000
0000
0000
,
0001
0000
0000
0000
,
0001
0000
0000
0000
,
1000
0000
0000
0000
,
1000
0000
0000
0000
,
0002
0000
0000
0000
,
0000
0000
0000
0003
,
1000
0000
0000
0000
,
0001
0000
0000
0000
,
1000
0000
0000
0000
,
0100
0000
0000
0000
,
0010
0000
0000
0000
,
0010
0000
0000
0000
,
0001
0000
0000
0000
,
2000
0000
3000
0000
,
0001
0000
0000
0000
,
1000
0000
0000
0000
,
0001
0000
0000
0000
,
0010
0000
0000
0000
,
0100
0000
0000
0000
,
0010
0000
0000
0000
,
0100
0000
0000
0000
,
1000
0000
0000
0000
,
0002
0000
0000
0003
,
2000
0000
0000
3000
,
0002
0000
0000
0003
,
2000
0000
0000
3000
,
0001
0000
0001
0000
,
1000
0000
0010
0000
,
1000
0000
0000
0000
,
1001
0000
0000
0000
,
0002
0000
0000
0000
,
0000
0000
0000
0003
,
2000
0000
0000
0000
,
0000
0000
0000
3000
,
0002
0000
0000
0000
,
0000
0000
0000
0003
,
2000
0000
0000
0000
,
0000
0000
0000
3000
,
0001
0000
0000
0000
,
0010
0000
0000
0000
,
1000
0000
0000
0000
,
0100
0000
0000
0000
,
0001
0000
0000
0000
,
0001
0000
0000
0000
,
2000
0000
0000
0000
,
0000
0000
3000
0000
,
0001
0000
0000
0000
,
1000
0000
0000
0000
,
0001
0000
0000
0000
,
1000
0000
0000
0000
,
0100
0000
0000
0000
,
0010
0000
0000
0000
,
0100
0000
0000
0000
,
0010
0000
0000
0000
,
0001
0000
0000
0000
,
1000
0000
0000
0000
,
0001
0000
0000
0000
,
1000
0000
0000
0000
,
0010
0000
0000
0000
,
1000
0000
0000
0000
,
0002
0000
0000
0003
,
1000
1000
1000
1000
,
1001
0000
0000
0000
;

//--------------- dance-single - Fred-104 ----------------
#NOTES:
     dance-single:
     Fred-104:
     Easy:
     7:
     :
0000
0000
0000
0000
,
0000
0000
0000
0000
,
0000
0000
0000
0000
,
0000
0000
0000
0000
,
0000
0000
0000
0000
,
0000
0000
0000
0000
,
0000
0000
0000
0000
,
0000
0000
0000
0000
,
0000
0000
0000
0000
,
0000
0000
0000
0000
,
2000
0000
3100
0010
,
0002
0000
1003
0001
,
0200
0000
0310
1000
,
0002
0000
0013
0010
,
0100
0100
1000
1000
,
0001
0001
0100
0100
,
0010
0010
0100
0100
,
0001
1000
0001
1000
0001
1000
0001
0000
,
2000
0000
3200
0000
,
0310
0001
1000
0010
,
0200
0000
0302
0000
,
1003
0100
0001
0100
,
2000
0000
3002
0000
,
0103
0010
1000
0001
,
0020
0000
0230
0000
,
1300
0001
1000
0100
,
0020
0000
0230
0000
,
1300
0001
0010
1000
,
0020
0000
0032
0000
,
1003
0001
0100
0010
,
2000
0000
3200
0000
,
0310
0100
1000
0010
,
0200
0000
0302
0000
,
1003
0000
0000
0000
0100
0000
0000
0000
0010
0000
0000
0010
0000
0000
0010
0000
,
0002
0103
2000
3100
,
0001
0000
1000
0000
0100
0010
0100
0000
,
2000
3010
0002
0013
,
1000
0000
0001
0000
0010
0100
0010
0000
,
1001
0000
1000
0100
,
1000
0010
0001
0100
,
1000
0000
0000
0000
,
0001
1000
0100
0010
,
0002
0000
0000
2003
0000
0000
0000
0000
,
3002
0000
2003
0000
,
3200
0000
0000
0300
,
0010
0000
0010
0000
0001
1000
0001
0000
,
0200
0010
0310
0000
,
0200
0001
0301
0000
,
0020
0000
0000
0230
0000
0000
1300
0000
,
0002
0000
2003
0000
,
3001
0000
0001
0000
,
0010
0000
0010
0000
,
1000
0000
1000
0000
,
0100
0000
0100
0000
,
0001
0001
1000
1000
,
0010
0010
0100
0100
,
0001
0001
1000
1000
,
0001
1000
0001
1000
0001
0000
0000
0000
,
2000
0000
3100
0010
,
0002
0000
1003
0001
,
0200
0000
0310
1000
,
0200
0000
0000
0000
0310
0000
0001
1000
,
0002
0000
0103
0100
,
1000
1000
0100
0100
,
0002
0000
0013
0100
,
1000
0000
0000
0000
0001
0000
0000
0000
1000
0000
0000
1000
0000
0000
1000
0000
,
0020
0000
0130
0010
,
2000
0000
3100
0010
,
0002
0000
1003
0010
,
0002
0000
0013
1000
,
0001
0010
0100
0100
,
1000
0001
0100
0001
,
1000
0001
1000
0000
0001
1000
0001
0000
,
1000
0000
0001
0000
0100
0010
0100
0000
,
0110
0000
0000
0000
;

//--------------- dance-single - Fred-104 ----------------
#NOTES:
     dance-single:
     Fred-104:
     Medium:
     10:
     :
0000
0000
0000
0000
,
0000
0000
0000
0000
,
0000
0000
0000
0000
,
0000
0000
0000
0000
,
0000
0000
0000
0000
,
0000
0000
0000
0000
,
0000
0000
0000
0000
,
0000
0000
0000
0000
,
0000
0000
0000
0000
,
0000
0000
0000
0000
,
2000
0000
0000
0000
3100
0010
0001
1000
,
0020
0000
0000
0000
0130
0001
1000
0001
,
0020
0000
0000
0000
0130
0010
0001
1000
,
0020
0000
0000
0000
0130
0010
0200
0000
,
0301
0100
0001
0000
1000
0100
1000
0000
,
0001
0010
0100
0000
1000
0010
0100
0000
,
0001
1000
0001
1000
0001
1000
0001
1000
,
0001
1000
0001
1000
0001
1000
0001
1000
0001
1000
0001
1000
0001
0000
0000
0000
,
1000
0000
0000
0100
0000
0000
0010
0000
0001
0000
0000
1000
0000
0000
0001
0000
,
0000
0100
0000
0000
0010
0000
0000
1000
0000
0000
0001
0000
0010
0000
0100
0000
,
1000
0000
0000
0010
0000
0000
0100
0000
0010
0000
0000
1000
0000
0000
0100
0000
,
0000
0010
0000
0000
0001
0000
0000
1000
0000
0000
0010
0000
0100
0000
0001
0000
,
0010
0100
1000
1000
0010
0100
0001
1000
,
0000
0100
0000
0000
0010
0000
0000
0001
0000
0000
0001
0000
1000
0000
0001
0000
,
0100
0000
0000
0010
0000
0000
1000
0000
0100
0000
0000
0010
0000
0000
0001
0000
,
1000
0001
0100
0001
1000
0100
0020
0000
,
0031
0000
0000
1000
0000
0000
0001
0000
0100
0000
0000
0010
0000
0000
1000
0000
,
0000
0001
0000
0000
0010
0000
0000
0100
0000
0000
1000
0000
0010
0000
1000
0000
,
0100
0000
0000
0010
0000
0000
0001
0000
1000
0000
0000
0001
0000
0000
0100
0000
,
0010
1000
0010
0100
0001
1000
0100
0000
,
0010
0000
0000
0001
0000
0000
0010
0000
0100
0000
0000
1000
0000
0000
0001
0000
,
0100
0010
0100
0001
0010
0001
1000
0001
,
0010
0000
0000
0100
0000
0000
1000
0000
0010
0000
0000
0100
0000
0000
0001
0000
,
1000
0000
0100
0000
0010
0000
0000
0000
0011
0000
0000
1000
0000
0000
0001
0000
,
1000
0000
0000
1000
0000
0000
1000
0000
0100
0000
0000
0100
0000
0000
0100
0000
,
0010
0001
1000
0000
0010
1000
0001
0000
,
0010
0000
0000
0010
0000
0000
0010
0000
0001
0000
0000
0001
0000
0000
0001
0000
,
0100
0010
1000
0000
0001
0010
0100
1000
,
0001
0000
0000
0000
1000
0100
0010
0010
,
0001
0000
1000
0000
0010
0000
1000
0000
0001
0000
0001
0000
1000
0100
1000
0000
,
0000
0000
0000
0000
,
0001
0000
1000
0000
0001
0000
1000
0000
0100
0000
0010
0000
0100
0010
0100
0010
,
0002
0000
0000
2003
0000
0000
0000
0000
,
3020
0000
0230
0000
,
0302
1000
1000
1003
,
0100
0000
0010
0001
1000
0010
0100
0000
,
0002
0000
1000
0000
1003
0000
0100
0010
,
0200
0000
0010
0000
0310
0000
0001
1000
,
0020
0000
0000
2030
0000
3001
1000
0100
,
0020
0000
0031
0000
2000
0000
3001
1000
,
0001
0001
0001
0001
,
0100
0100
0100
0100
,
1000
1000
1000
1000
,
0010
0010
0010
0010
,
0001
0010
0001
0000
0010
0100
0010
0000
,
0100
1000
0100
0000
1000
0001
1000
0000
,
0010
0100
0010
0100
0010
0100
0010
0100
,
0010
0100
0010
0100
0010
0100
0010
0100
0010
0000
0000
0000
0000
0000
0000
0000
,
2000
0000
3100
0000
0010
0001
1000
0001
,
0200
0000
0310
0000
0100
0001
1000
0100
,
0020
0000
0130
0000
1000
0001
0100
0010
,
2000
0000
3100
0000
0001
0100
1000
0001
,
0200
0000
0310
0000
0100
0001
1000
0001
,
0020
0100
0130
1000
0000
0001
0100
0010
,
2000
0000
3100
0000
0010
0100
1000
0000
,
0001
0000
0100
0000
0001
0000
1000
0000
0001
0000
0000
1001
0000
0000
1000
0000
,
0100
1000
0100
0000
0010
0001
1000
0010
,
0000
1000
0100
0000
0010
0001
1000
0010
,
0000
0100
1000
0000
0001
0010
0100
0001
,
0000
0010
0100
0000
1000
0001
1000
0000
,
0001
0010
0100
0000
1000
0001
0100
0001
,
1000
0100
1000
0001
0000
0001
0100
0001
,
1000
0001
1000
0000
0001
1000
0001
0000
1000
0001
1000
0001
1000
0001
1000
0001
,
1000
0001
0101
0000
0001
1000
0100
0010
,
0011
0000
0000
0000
;

//--------------- dance-single - Fred-104 ----------------
#NOTES:
     dance-single:
     Fred-104:
     Hard:
     15:
     :
0000
0000
0000
0000
,
0000
0000
0000
0000
,
0000
0000
0000
0000
,
0000
0000
0000
0000
,
0000
0000
0000
0000
,
0000
0000
0000
0000
,
0000
0000
0000
0000
,
0000
0000
0000
0000
,
0000
0000
0000
0000
,
0000
0000
0000
0000
,
0002
0000
1000
0000
1003
0010
1000
0001
,
0020
0000
0100
0000
0130
1000
0001
0010
,
0200
0000
1000
0000
1300
0001
0100
0010
,
2000
0000
0001
0000
3001
0010
0200
0000
,
1300
0010
1000
0010
0001
1000
0001
1000
,
0100
0010
0100
0001
1000
0100
0010
0001
,
1000
0001
1000
0001
1000
0001
1000
0001
1000
0001
1000
0001
1000
0001
1000
0001
,
1000
0001
1000
0001
1000
0001
1000
0001
1000
0001
1000
0001
1000
0000
0000
0000
,
1001
0000
1000
0100
0000
0100
1000
0000
0001
0000
0100
0001
0000
0001
0100
0000
,
0010
1000
0000
1000
0001
0000
0010
0100
0000
0100
1000
0000
0001
0000
0100
0000
,
0010
0000
1000
0001
0000
0001
1000
0000
0100
0000
1000
0001
0000
0001
0100
0000
,
0010
1000
0000
1000
0001
0000
0100
0001
0000
1000
0001
0000
0100
0010
2000
0000
,
3001
0000
0010
0100
0000
1000
0001
0000
0100
0000
0010
1000
0000
0001
0010
0000
,
0100
1000
0000
0100
1000
0000
0001
0100
0000
0010
0100
0000
0001
1000
0001
0000
,
0010
0000
0100
1000
0000
0001
1000
0000
0010
0000
0100
0001
0000
1000
0100
0000
,
0010
0000
0000
0000
0000
0000
0001
0000
1000
0000
0001
0000
1000
0000
0000
0000
0000
0000
0001
0000
0000
0100
0000
0000
0001
0000
0000
0000
0000
0000
1000
0000
0000
0000
0000
0000
0100
0000
0000
0010
0000
0000
0100
0000
0000
0000
0000
0000
,
0010
0001
0000
1000
0000
0001
0100
0000
0010
0000
1000
0001
0000
0010
0100
0000
,
1000
0001
0000
0100
0001
0000
1000
0001
0000
0100
0001
0000
1000
0100
0010
0000
,
0001
1000
0000
0010
0000
1000
0001
0000
0010
0100
0000
1000
0000
0001
0100
0000
,
0010
1000
0010
1000
0001
0000
1000
0001
0010
0100
0000
0010
0000
0001
1000
0000
,
0001
0100
0000
0010
0000
0100
0001
0000
1000
0000
0100
0010
0000
0001
1000
0000
,
0001
0100
0001
0100
0001
0000
1000
0100
1000
0100
1000
0000
0001
1000
0001
0000
,
0100
0001
0000
1000
0000
0001
0010
0000
0100
0000
1000
0001
0000
0100
0001
0000
,
1000
0100
1000
0100
0010
0001
0010
0000
0011
0000
0000
1010
0000
0000
0001
0100
,
0010
0000
0000
0010
0000
0000
1000
0000
0100
0000
0000
0100
0000
0000
0010
0000
,
0001
1000
0000
0010
0100
0000
0001
1000
0000
0010
0100
0000
0001
0000
1000
0000
,
0100
0000
0000
0100
0000
0000
0001
0000
0100
0000
0000
0100
0000
0000
1000
0000
,
0001
0010
0000
0100
1000
0000
0001
1000
0000
0010
0100
0000
0001
1000
0100
1000
,
0001
0000
0000
0000
1000
0001
0010
0100
,
1000
0000
0001
0000
0100
0000
1000
0000
0100
0000
0001
0000
1000
0100
0010
0000
,
0011
0000
0000
0000
,
1000
0001
1000
0001
1000
0001
1000
0001
0100
0010
0100
0010
0100
0010
0100
0010
,
2000
0000
3010
0020
0000
0130
0001
1000
,
0002
1000
0203
0010
,
0302
0000
1003
2000
0000
3020
0230
2300
,
0000
0000
0000
3200
0302
2003
3200
0320
,
0032
0000
0100
0000
1003
0100
0010
0001
,
2000
0000
0010
0000
3001
1000
0010
0100
,
0002
0000
0000
0000
0000
0000
0000
0000
0000
2003
0000
0000
0000
0000
0000
3001
0100
0001
0100
0000
0000
0010
0000
0000
,
1000
0000
0100
0000
0010
0000
0001
0000
1000
0000
0010
0000
0100
0001
0100
0001
,
0100
0100
0010
0010
,
1000
1000
0001
0001
,
1000
0100
0001
0000
1000
0010
0001
0000
,
1000
0010
0001
0000
1000
0100
0001
0000
,
1000
0010
1000
0010
1000
0010
1000
0010
1000
0010
1000
0010
1000
0010
1000
0010
,
1000
0001
1000
0001
1000
0001
1000
0001
1000
0001
1000
0001
1000
0001
1000
0001
,
1000
0100
1000
0100
1000
0100
1000
0100
1000
0100
1000
0100
1000
0100
1000
0100
,
0010
0001
0010
0001
0010
0001
0010
0001
1000
0000
0000
0000
0000
0000
0000
0000
,
1001
0000
1000
0100
1000
0000
0001
0100
0001
0000
1000
0010
2000
0000
3002
0000
,
0013
0000
0100
1000
0100
0000
0010
0001
0010
0000
0001
1000
0002
0000
0203
0000
,
0310
0000
1000
0001
1000
0000
0001
0010
0001
0000
1000
0010
1000
0001
0020
0000
,
0130
0000
1000
0001
1000
0000
0010
0100
0010
0000
1000
0001
1000
0000
0001
0000
,
0010
0000
0100
1000
0100
0000
1000
0001
2000
0000
0010
0000
3002
0000
0100
0000
,
1003
0000
0001
0010
0001
0000
1000
0010
1000
0000
0001
0100
0001
1000
0200
0000
,
0310
0000
0001
1000
0001
0000
0100
0010
0100
0000
0010
1000
0000
0001
1000
0000
,
0100
1000
0100
1000
0001
0100
0001
0100
0001
0000
1000
0001
0000
1000
0010
0100
,
0001
0000
1000
0100
0020
0000
0001
0130
0020
0000
1000
0130
0020
0000
0032
0000
,
1003
0000
0001
0010
0200
0000
1000
0310
0200
0000
0001
0310
0100
1000
0002
0000
,
1003
0000
0001
0010
0200
0000
1000
0310
0200
0000
0001
0310
0100
1000
0002
0000
,
1003
0000
0001
0100
0020
0000
1000
0130
0020
0000
0001
0130
0010
1000
0001
0010
,
0100
0000
1000
0001
0010
0000
0100
1000
0002
0000
0100
0000
2003
0000
0010
0000
,
3001
0001
1000
1000
0100
0100
0010
0010
,
0001
1000
0001
1000
0001
1000
0001
1000
0001
1000
0001
1000
0001
1000
0001
1000
,
0001
0000
1000
0100
1000
0000
0001
1000
0010
0100
0001
1000
0100
0010
0001
0000
,
1001
0000
0000
0000
;

//--------------- dance-double - Fred-104 ----------------
#NOTES:
     dance-double:
     Fred-104:
     Easy:
     7:
     :
00000000
00000000
00000000
00000000
,
00000000
00000000
00000000
00000000
,
00000000
00000000
00000000
00000000
,
00000000
00000000
00000000
00000000
,
00000000
00000000
00000000
00000000
,
00000000
00000000
00000000
00000000
,
00000000
00000000
00000000
00000000
,
00000000
00000000
00000000
00000000
,
00000000
00000000
00000000
00000000
,
00000000
00000000
00000000
00000000
,
00020000
00000000
00031000
00010000
,
00200000
00000000
01300000
00010000
,
20000000
00000000
31000000
00100000
,
00002000
00000000
00020000
00033000
,
00001000
00001000
00010000
00010000
,
01000000
01000000
10000000
10000000
,
00100000
00100000
00010000
00010000
,
00001000
00010000
00001000
00010000
00001000
00010000
00001000
00000000
,
00020000
00000000
00032000
00000000
,
00013000
00001000
00000100
00000001
,
00000020
00000000
00000230
00000000
,
00001300
00000001
00000010
00000100
,
00020000
00000000
00032000
00000000
,
00013000
00000010
00000100
00001000
,
00020000
00000000
00032000
00000000
,
00013000
00100000
01000000
00010000
,
20000000
00000000
32000000
00000000
,
03100000
00001000
00010000
00001000
,
00000200
00000000
00000302
00000000
,
00000013
00000100
00001000
00000100
,
00020000
00000000
00032000
00000000
,
01003000
00001000
00010000
00001000
,
00200000
00000000
00320000
00000000
,
10030000
00000000
00000000
00000000
01000000
00000000
00000000
00000000
00010000
00000000
00000000
00010000
00000000
00000000
00010000
00000000
,
00002000
00013000
02000000
03010000
,
00001000
00000000
00010000
00000000
00000100
00001000
00000100
00000000
,
00000020
00000031
00000200
00001300
,
00010000
00000000
00001000
00000000
01000000
00010000
01000000
00000000
,
01100000
00000000
10000000
01000000
,
00010000
00001000
00000100
00000001
,
00000010
00000000
00000000
00000000
,
00000100
00000100
00010000
00010000
,
00002000
00000000
00000000
00023000
00000000
00000000
00000000
00000000
,
00032000
00000000
00203000
00000000
,
00320000
00000000
00000000
00000000
,
10030000
00000000
10000000
00000000
01000000
00100000
00001000
00000000
,
00020000
00001000
00031000
00000000
,
00020000
00000010
00030010
00000000
,
00002000
00000000
00000000
00023000
00000000
00000000
00030100
00000000
,
00002000
00000000
00003002
00000000
,
00000013
00000000
00000100
00000000
,
00010000
00000000
00001000
00000000
,
01000000
00000000
00100000
00000000
,
10000000
00000000
01000000
00000000
,
00100000
00100000
00001000
00001000
,
00000010
00000010
00000001
00000001
,
00000100
00001000
00010000
01000000
,
10000000
00010000
10000000
00010000
10000000
00000000
00000000
00000000
,
00020000
00000000
10030000
01000000
,
00200000
00000000
00301000
00010000
,
00002000
00000000
01003000
00010000
,
00200000
00000000
00000000
00000000
00301000
00000000
00010000
00000100
,
00020000
00000000
00031000
00001000
,
00010000
00010000
00000010
00000010
,
00020000
00000000
00031000
00000100
,
00000010
00000000
00000000
00000000
00001000
00000000
00000000
00000000
00000001
00000000
00000000
00000001
00000000
00000000
00000001
00000000
,
00000020
00000000
00000130
00010000
,
00002000
00000000
00013000
00100000
,
20000000
00000000
31000000
00100000
,
00002000
00000000
00013000
00001000
,
00010000
00100000
01000000
00010000
,
10000000
01000000
00100000
00010000
,
00100000
00001000
00100000
00000000
00001000
00010000
00001000
00000000
,
00010000
00000000
00001000
00000000
00000100
00000000
00000001
00000010
,
00000110
00000000
00000000
00000000
;

//--------------- dance-double - Fred-104 ----------------
#NOTES:
     dance-double:
     Fred-104:
     Medium:
     10:
     :
00000000
00000000
00000000
00000000
,
00000000
00000000
00000000
00000000
,
00000000
00000000
00000000
00000000
,
00000000
00000000
00000000
00000000
,
00000000
00000000
00000000
00000000
,
00000000
00000000
00000000
00000000
,
00000000
00000000
00000000
00000000
,
00000000
00000000
00000000
00000000
,
00000000
00000000
00000000
00000000
,
00000000
00000000
00000000
00000000
,
00002000
00000000
00000000
00000000
00013000
00001000
01000000
00010000
,
20000000
00000000
00000000
00000000
31000000
00100000
00001000
00010000
,
00002000
00000000
00000000
00000000
00003100
00000010
00001000
00000001
,
00000020
00000000
00000000
00000000
00001030
00010000
00002000
00000000
,
00013000
01000000
10000000
00100000
,
00010000
00001000
00000100
00000001
,
00000010
00000100
00000010
00000100
00001000
00000100
00001000
00000100
,
00010000
00001000
00010000
00001000
00010000
00001000
00010000
00001000
00010000
00001000
00010000
00001000
00010000
00000000
00000000
00000000
,
00001000
00000000
00000000
00010000
00000000
00000000
00100000
00000000
01000000
00000000
00000000
00010000
00000000
00000000
10000000
00000000
,
00000000
01000000
00000000
00000000
00100000
00000000
00000000
00010000
00000000
00000000
00100000
00000000
00001000
00000000
00010000
00000000
,
00001000
00000000
00000000
00000100
00000000
00000000
00000001
00000000
00001000
00000000
00000000
00000100
00000000
00000000
00000010
00000000
,
00000000
00000001
00000000
00000000
00001000
00000000
00000000
00000010
00000000
00000000
00010000
00000000
00001000
00000000
00100000
00000000
,
00001000
00010000
00001000
00010000
00100000
01000000
00010000
00100000
,
00000000
01000000
00000000
00000000
00010000
00000000
00000000
00001000
00000000
00000000
00010000
00000000
00001000
00000000
00010000
00000000
,
00001000
00000000
00000000
01000000
00000000
00000000
00010000
00000000
01000000
00000000
00000000
00100000
00000000
00000000
10000000
00000000
,
01000000
00100000
00001000
00010000
00001000
00010000
00002000
00000000
,
00013000
00000000
00000000
00001000
00000000
00000000
00000010
00000000
00000100
00000000
00000000
00000010
00000000
00000000
00000001
00000000
,
00000000
00001000
00000000
00000000
00000010
00000000
00000000
00010000
00000000
00000000
00001000
00000000
00100000
00000000
00010000
00000000
,
01000000
00000000
00000000
00001000
00000000
00000000
00010000
00000000
00000010
00000000
00000000
00001000
00000000
00000000
00000100
00000000
,
00010000
00001000
00010000
00100000
01000000
10000000
01000000
00000000
,
00100000
00000000
00000000
10000000
00000000
00000000
01000000
00000000
00100000
00000000
00000000
00001000
00000000
00000000
00010000
00000000
,
00000100
00001000
00000100
00000010
00000001
00001000
00000010
00010000
,
00001000
00000000
00000000
00010000
00000000
00000000
00000100
00000000
00001000
00000000
00000000
00000100
00000000
00000000
00000010
00000000
,
00000001
00000000
00000100
00000000
00001000
00000000
00000000
00000000
00011000
00000000
00000000
00001000
00000000
00000000
00001000
00000000
,
00010000
00000000
00000000
00010000
00000000
00000000
00010000
00000000
00001000
00000000
00000000
00001000
00000000
00000000
00001000
00000000
,
00010000
00100000
10000000
00000000
00010000
00100000
10000000
00000000
,
00100000
00000000
00000000
00100000
00000000
00000000
00100000
00000000
00010000
00000000
00000000
00010000
00000000
00000000
00010000
00000000
,
10000000
01000000
00010000
00000000
00001000
00000100
00000001
00000010
,
00000100
00000000
00000000
00000000
00010000
00001000
00010000
00001000
,
00010000
00000000
00000100
00000000
00001000
00000000
00000100
00000000
00010000
00000000
00001000
00000000
01000000
00010000
10000000
00000000
,
00000000
00000000
00000000
00000000
,
00010000
00000000
10000000
00000000
00010000
00000000
10000000
00000000
01000000
00000000
00100000
00000000
01000000
00100000
01000000
00100000
,
00020000
00000000
00000000
20030000
00000000
00000000
00000000
00000000
,
32000000
00000000
03200000
00000000
,
00302000
00010000
00000010
00013000
,
00001000
00000000
00010000
00001000
00000100
00000001
00000010
00000000
,
00000200
00000000
00001000
00000000
00001300
00000000
00000010
00000100
,
00002000
00000000
00010000
00000000
00013000
00000000
00001000
01000000
,
00020000
00000000
00000000
20030000
00000000
31000000
00100000
00001000
,
00020000
00000000
00031000
00000000
00000020
00000000
00001030
00010000
,
00001000
00001000
00010000
00010000
,
01000000
01000000
10000000
10000000
,
00100000
00100000
00010000
00010000
,
00001000
00001000
00000100
00000100
,
00000001
00000010
00000100
00000000
00010000
00001000
00010000
00000000
,
00100000
01000000
00010000
00000000
00100000
01000000
10000000
00000000
,
00010000
01000000
00010000
01000000
00001000
00010000
00001000
00010000
,
00001000
00010000
00001000
00010000
00001000
00010000
00001000
00010000
00001000
00000000
00000000
00000000
00000000
00000000
00000000
00000000
,
00020000
00000000
00031000
00000000
00000010
00000001
00000010
00000100
,
00002000
00000000
00003010
00000000
00000100
00001000
00010000
00001000
,
02000000
00000000
03010000
00000000
10000000
01000000
00100000
00001000
,
00020000
00000000
00031000
00000000
00010000
01000000
00100000
00010000
,
02000000
00000000
03100000
00000000
01000000
00001000
00010000
00001000
,
00000020
00000001
00000031
00000010
00000000
00000100
00001000
00000100
,
00020000
00000000
00031000
00000000
01000000
00010000
00100000
00000000
,
00001000
00000000
00010000
00000000
00001000
00000000
01000000
00000000
00100000
00000000
00000000
10010000
00000000
00000000
10000000
00000000
,
01000000
00100000
00001000
00000000
00010000
00001000
00000100
00000001
,
00000000
00000010
00000100
00000000
00010000
00001000
00010000
00001000
,
00000000
00010000
00100000
00000000
01000000
00100000
00010000
00001000
,
00000000
00010000
01000000
00000000
00100000
01000000
00010000
00000000
,
00001000
00010000
00000100
00000000
00001000
00000100
00000010
00000001
,
00001000
00000010
00000100
00001000
00000000
00010000
00001000
00001000
,
00010000
00001000
00010000
00000000
00001000
00010000
00001000
00000000
00010000
00001000
00010000
00001000
00010000
00001000
00010000
00001000
,
00010000
00001000
01001000
00000000
10000000
01000000
00100000
00010000
,
10010000
00000000
00000000
00000000
;

//--------------- dance-double - Fred-104 ----------------
#NOTES:
     dance-double:
     Fred-104:
     Hard:
     15:
     :
00000000
00000000
00000000
00000000
,
00000000
00000000
00000000
00000000
,
00000000
00000000
00000000
00000000
,
00000000
00000000
00000000
00000000
,
00000000
00000000
00000000
00000000
,
00000000
00000000
00000000
00000000
,
00000000
00000000
00000000
00000000
,
00000000
00000000
00000000
00000000
,
00000000
00000000
00000000
00000000
,
00000000
00000000
00000000
00000000
,
00020000
00000000
00001000
00000000
00031000
00000100
00000001
00001000
,
00000200
00000000
00000010
00000000
00000310
00000001
00000100
00001000
,
00020000
00000000
00001000
00000000
00031000
00010000
00100000
01000000
,
00020000
00000000
10000000
00000000
10030000
01000000
00200000
00000000
,
00301000
00010000
00001000
00010000
00000010
00001000
00000010
00001000
,
00000001
00000010
00000100
00010000
00001000
01000000
00010000
10000000
,
01000000
00100000
01000000
00100000
01000000
00100000
01000000
00100000
01000000
00100000
01000000
00100000
01000000
00100000
01000000
00100000
,
01000000
00100000
01000000
00100000
01000000
00100000
01000000
00100000
01000000
00100000
01000000
00100000
01000000
00000000
00000000
00000000
,
10000000
00000000
00010000
01000000
00000000
00010000
01000000
00000000
00001000
00000000
00010000
00000100
00000000
00010000
00000100
00000000
,
00001000
00000001
00000000
00000010
00000100
00000000
00001000
00000100
00000000
00010000
00001000
00000000
01000000
00000000
00001000
00000000
,
00010000
00000000
00000100
00001000
00000000
00000100
00001000
00000000
00000001
00000000
00000100
00000010
00000000
00000100
00000010
00000000
,
00001000
00000001
00000000
00000010
00000100
00000000
00010000
00001000
00000000
00010000
00100000
00000000
01000000
00010000
20000000
00000000
,
30010000
00000000
10000000
01000000
00000000
00100000
00010000
00000000
00100000
00000000
00001000
00010000
00000000
00001000
01000000
00000000
,
00010000
10000000
00000000
01000000
00100000
00000000
00010000
00100000
00000000
00001000
00010000
00000000
00001000
00010000
00001000
00000000
,
00010000
00000000
00000010
00001000
00000000
00000010
00010000
00000000
00001000
00000000
00100000
00010000
00000000
10000000
00010000
00000000
,
01000000
00000000
00100000
10000000
00010000
00000000
00100000
01000000
00010000
00000000
00001000
00000000
00000010
00000100
00000010
00000000
,
00000001
00001000
00000000
00000010
00000000
00000100
00001000
00000000
00010000
00001000
00000000
01000000
00000000
00001000
00010000
00000000
,
00001000
00100000
00000000
00010000
10000000
00000000
00010000
01000000
00000000
00100000
10000000
00000000
01000000
00100000
00001000
00000000
,
00010000
00001000
00000000
00010000
00000000
00000100
00001000
00000000
00000100
00000010
00000000
00000100
00000000
00010000
00001000
00000000
,
00010000
00001000
00010000
00000010
00001000
00000000
00000001
00000010
00000000
00000100
00000010
00000000
00000001
00001000
00000001
00000000
,
00000100
00000010
00000000
00000100
00000000
00001000
00010000
00000000
00100000
01000000
00000000
00010000
00000000
10000000
01000000
00000000
,
00100000
00001000
00100000
00001000
00010000
00000000
00001000
00010000
00000010
00010000
00000010
00000000
00001000
00000000
00000100
00000000
,
00010000
00001000
00000000
01000000
00000000
00010000
00100000
00000000
01000000
00000000
10000000
00010000
00000000
01000000
00100000
00000000
,
10000000
01000000
10000000
01000000
00100000
00010000
00100000
00000000
00101000
00000000
00000000
00010010
00000000
00000000
00010000
00001000
,
00010000
00000000
00000000
00001000
00000000
00000000
00000100
00000000
00000001
00000000
00000000
00001000
00000000
00000000
00000100
00000000
,
00000010
00000001
00000000
00001000
00000001
00000000
00000010
00000100
00000000
00010000
00001000
00000000
01000000
00000000
00010000
00000000
,
00100000
00000000
00000000
01000000
00000000
00000000
10000000
00000000
00100000
00000000
00000000
00010000
00000000
00000000
00001000
00000000
,
00010000
00001000
00000000
00000100
00000001
00000000
00001000
00000100
00000000
00000010
00000001
00000000
00001000
00000001
00000100
00000001
,
00001000
00000000
00000000
00000000
00000001
00000010
00000100
00010000
,
00001000
00000000
00100000
00000000
01000000
00000000
10000000
00000000
00100000
00000000
01000000
00000000
00100000
00010000
00001000
00000000
,
00010000
00000000
00000000
00000000
,
00000010
00001000
00000010
00001000
00000010
00001000
00000010
00001000
00000001
00001000
00000001
00001000
00000001
00001000
00000001
00001000
,
00000002
00000000
00000103
00000200
00000000
00001300
00010000
00001000
,
00020000
00001000
00030020
00001000
,
00020030
00000000
00031000
00002000
00000000
00013000
00001000
00020000
,
00000000
00000000
00000000
00230000
02300000
03020000
00230000
02300000
,
23000000
00000000
00100000
00000000
30100000
10000000
01000000
00100000
,
00002000
00000000
00010000
00000000
00013000
00001000
00000100
00000001
,
00000020
00000000
00000000
00000000
00000000
00000000
00000000
00000000
00000000
00000230
00000000
00000000
00000000
00000000
00000000
00010300
00001000
00010000
00001000
00000000
00000000
01000000
00000000
00000000
,
00001000
00000000
00010000
00000000
00100000
00000000
01000000
00000000
00010000
00000000
10000000
00000000
01000000
10000000
01000000
10000000
,
01000000
01000000
00100000
00100000
,
00001000
00001000
00010000
00010000
,
00000100
00000010
00000001
00000100
,
00001000
00010000
00100000
10000000
,
01000000
10000000
01000000
00000000
00100000
00010000
00100000
00000000
00001000
00010000
00001000
00000000
00010000
00000100
00010000
00000000
,
00000100
00001000
00000100
00001000
00000100
00001000
00000100
00000000
00000010
00000001
00000010
00000001
00000010
00000001
00000010
00000000
,
00000001
00001000
00000001
00001000
00000001
00001000
00000001
00001000
00000001
00001000
00000001
00001000
00000001
00001000
00000001
00001000
,
00000010
00000100
00000010
00000100
00000010
00000100
00000010
00000100
00000001
00000000
00000000
00000000
00000000
00000000
00000000
00000000
,
00001001
00000000
00000001
00000100
00000001
00000000
00001000
00000100
00001000
00000000
00000100
00010000
00000200
00000000
00020300
00000000
,
00031000
00000000
01000000
00010000
01000000
00000000
00010000
10000000
00010000
00000000
10000000
01000000
20000000
00000000
30020000
00000000
,
00130000
00000000
00001000
00010000
00001000
00000000
00100000
00010000
00100000
00000000
00001000
00010000
00000010
00001000
00000020
00000000
,
00000130
00000000
00000001
00001000
00000001
00000000
00000010
00000100
00000010
00000000
00000001
00001000
00000001
00000000
00000100
00000000
,
00001000
00000000
00010000
00001000
00010000
00000000
00100000
01000000
00020000
00000000
20030000
00000000
32000000
00000000
03200000
00000000
,
00301000
00000000
00010000
00000010
00010000
00000000
00001000
00100000
00001000
00000000
00010000
00000100
00001000
00000100
00000020
00000000
,
00000031
00000000
00001000
00000010
00001000
00000000
00000010
00010000
00000010
00000000
00010000
00001000
00000000
00010000
00001000
00000000
,
00100000
00010000
00100000
00010000
10000000
00100000
01000000
00010000
10000000
00000000
00010000
00100000
00000000
01000000
00100000
00010000
,
10000000
00000000
01000000
10000000
00200000
00000000
01000000
00310000
00200000
00000000
01000000
10300000
00200000
00000000
20300000
00000000
,
31000000
00000000
00100000
00001000
00020000
00000000
00001000
00130000
00020000
00000000
00100000
00031000
00010000
00000010
00002000
00000000
,
00003001
00000000
00000100
00000001
00000020
00000000
00000100
00001030
00000020
00000000
00000100
00000031
00000010
00000100
00002000
00000000
,
00003100
00000000
00010000
00000100
00002000
00000000
00000100
00013000
00002000
00000000
00010000
00003010
00001000
00000010
00010000
00001000
,
00100000
00000000
00010000
10000000
01000000
00000000
00100000
01000000
20000000
00000000
00100000
00000000
30020000
00000000
01000000
00000000
,
10030000
00100000
01000000
00100000
00010000
00001000
00000100
00000001
,
00000010
00000100
00000010
00000100
00000010
00000100
00000010
00000100
00000010
00000100
00000010
00000100
00000010
00000100
00000010
00000100
,
00001000
00000000
00000001
00000100
00000001
00000000
00001000
00000100
00010000
00001000
00100000
00001000
00010000
00000010
00010000
00000000
,
00011000
00000000
00000000
00000000
;
