#TITLE:Northern Cross;
#ARTIST:BlackY;
#BANNER:Northern Cross.png;
#BACKGROUND:Northern Cross-bg.png;
#CDTITLE:./CDTitles/NOSTALGIA Op.3.png;
#MUSIC:Northern Cross.ogg;
#SAMPLESTART:82.055;
#SAMPLELENGTH:15;
#BPMS:0=155;
#BGSTAGE:27;

//--------------- dance-single - Fred-104 ----------------
#NOTES:
     dance-single:
     Fred-104:
     Beginner:
     5:
     :
0000
0000
0000
0000
,
0000
0000
0000
0000
,
0000
0000
0000
0000
,
0000
0000
0000
0000
,
0000
0000
0000
0000
,
0000
0000
0000
0000
,
1000
0000
0000
0000
,
0000
0000
0000
0000
,
0001
0000
0000
0000
,
2002
0000
0000
3003
,
1000
0000
0010
0000
,
1000
0000
0100
0000
,
0100
0000
1000
0000
,
0001
0000
1000
0000
,
1001
0000
0001
0000
,
0010
0000
0001
0000
,
1000
1000
0001
0001
,
2002
0000
0000
0000
,
0000
0000
0000
0000
0000
3003
0000
0000
,
1000
0000
0010
0000
,
0001
0000
0100
0000
,
1000
0000
0010
0000
,
0001
0000
0100
1000
,
0001
0000
0010
0000
,
1000
0000
0100
0000
,
0001
0000
0010
0000
,
0001
0001
1000
1000
,
1001
0000
0001
0000
,
0100
0000
0010
0000
,
0100
0000
0001
0000
,
1000
0000
0001
0000
,
1000
0000
0010
0000
,
1000
0000
0100
0100
,
0100
0000
0010
0000
,
0001
0001
0001
0001
,
1001
0000
0000
0000
,
0000
0110
0000
1001
,
0000
1000
0001
1000
,
0002
0000
2003
0000
,
3001
0000
0100
0000
,
0001
0000
0010
0000
,
0001
0001
0001
0001
,
1000
0100
0010
0001
,
1001
0000
0000
0000
,
0000
0000
0000
0000
,
0000
0000
0000
0000
,
0000
0000
0000
0000
,
2000
0000
0000
0000
,
3002
0000
0000
0000
,
1003
0000
0001
0000
,
0100
0100
0100
0100
,
0010
0000
0010
0000
0010
0000
0000
0220
,
0000
0000
0330
0000
,
1000
0000
0010
0000
,
1000
0000
0100
0010
,
0100
0000
1000
0000
,
0001
0000
0100
0001
,
0100
0000
0010
0000
,
0100
0000
0001
0000
,
1000
0000
0001
0000
,
1000
1000
1000
1000
,
1000
0000
0010
0000
,
1000
0000
0001
0010
,
0001
0000
1000
0000
,
0001
0000
1000
0010
,
0100
0000
0001
0000
,
1000
0000
0010
0000
,
1000
1000
1000
1000
,
0001
0001
1001
0000
,
1000
0000
0010
0000
,
1000
0000
0100
1000
,
1000
0000
0001
0000
,
0100
0000
0001
0001
,
0001
0000
0010
0000
,
0100
0000
1000
0000
,
0001
0001
0001
0001
,
2002
0000
0000
0000
,
0000
0000
0000
0000
,
3003
0000
0000
0000
0000
0000
0000
0000
0000
2002
0000
0000
0000
0000
0000
0000
,
0000
0000
0000
0000
,
0000
0000
0000
0000
,
3003
0000
0000
0000
;

//--------------- dance-single - Fred-104 ----------------
#NOTES:
     dance-single:
     Fred-104:
     Easy:
     9:
     :
0000
0000
0000
0000
,
0000
0000
0000
0000
,
0000
0000
0000
0000
,
0000
0000
0000
0000
,
0000
0000
0000
0000
,
0000
0000
0000
0000
,
1000
0000
0010
0000
,
1000
0000
0001
0001
,
1000
1000
0001
0001
,
2002
0000
0000
3003
,
1000
0100
1000
0001
,
0010
0000
0001
0001
0001
0000
1000
0000
,
0001
0100
1000
0100
,
0001
0000
1000
0010
,
1000
1000
1000
0000
0100
0000
1000
0000
,
0010
0100
0010
1000
,
0001
0000
0100
0000
0010
1000
0100
0010
,
0001
0000
0000
0001
0000
0000
1000
0000
0000
1000
0000
0000
0001
0000
0000
0001
,
0000
0000
1000
0000
0000
1001
0000
0000
,
2000
0000
3020
0000
,
1030
0100
0010
0001
,
0200
0000
0302
0000
,
0013
0001
1000
1001
,
0002
0000
0203
0000
,
0301
0100
1000
0100
,
0001
0010
0100
1000
,
0010
1000
0100
1000
,
1001
0000
0001
0100
,
0010
0000
1000
0010
,
0001
0000
0010
0100
,
0001
1000
0100
0010
,
0001
0000
1000
0000
0010
0000
0000
1000
,
0000
0100
1000
0001
,
1000
0000
0001
0000
,
1000
0100
0010
0001
,
1001
0000
0000
1001
0000
0000
0000
0110
,
0000
0110
0000
1001
,
0000
1000
0010
1000
,
0001
0001
1000
1000
,
1001
0000
0001
0000
,
0010
0001
1000
0100
,
1000
1000
0001
0001
,
0100
0010
0100
0001
,
2000
0000
0000
0000
,
3002
0000
0203
0000
,
0320
0000
0000
0000
,
2030
3002
0023
0130
,
1100
0000
0000
1000
0000
0000
0010
0000
,
0100
0010
1000
0001
,
0010
0000
0000
0001
0000
0000
1000
0000
,
0001
0000
0000
0000
0001
0000
0000
0000
1000
0000
0000
1000
0000
0000
0010
0000
,
0100
0000
0000
0000
0001
0000
0010
0000
0001
0000
0000
1000
0000
0000
2002
0000
,
0000
0000
3003
0000
,
1000
0000
0000
0010
0000
0000
1000
0000
0100
0000
0000
0000
1000
0000
0000
0000
,
0001
0100
0010
0100
,
0001
0000
0000
0010
0000
0000
0001
0000
0100
0000
0000
0000
0001
0000
0000
0000
,
0020
0000
0031
1000
,
0001
0000
0000
0001
0000
0000
0001
0000
1000
0000
0000
1000
0000
0000
1000
0000
,
0010
0000
0000
0000
0100
0000
0000
0000
0001
0000
0000
1000
0000
0000
0001
0000
,
0100
0000
0000
0010
0000
0000
0100
0000
0001
0000
0000
0000
1000
0000
0000
0000
,
0020
0000
0000
0000
0000
0000
0000
0000
1030
0000
0000
0100
0000
0000
0100
0000
,
0010
0000
0000
0001
0000
0000
1000
0000
0010
0000
0000
0000
0100
0000
0000
0000
,
0001
0000
0000
0000
0010
0000
0000
0000
0001
0000
0000
0100
0000
0000
0010
0000
,
0100
0000
0000
0001
0000
0000
0010
0000
0001
0000
0000
0000
0100
0000
0000
0000
,
0001
0000
0000
0000
1000
0000
0000
0000
0010
0000
0000
1000
0000
0000
0100
0000
,
1000
0000
0000
1000
0000
0000
0000
0000
0001
0000
0000
0001
0000
0000
0000
0000
,
0100
0000
0000
0100
0000
0000
0000
0000
0010
0000
0000
0010
0000
0000
0000
0000
,
1000
0010
1000
0100
,
1000
0000
0100
0000
1000
0000
0000
0000
0001
0000
0000
0001
0000
0000
1000
0000
,
0001
0000
0000
0001
0000
0000
0001
0000
0010
0000
0000
0000
0100
0000
0000
0000
,
1000
0000
0010
0000
0100
0010
0100
0000
,
0010
0000
0000
0010
0000
0000
0010
0000
1000
0000
0000
0000
0100
0000
0000
0000
,
1001
0000
0000
0000
0001
1000
0010
0100
,
0000
0000
0001
0000
0000
0010
0000
0000
0001
0000
0000
1000
0000
0000
0010
0000
,
0000
1000
0000
0000
0010
0000
0000
0100
0000
0000
0001
0000
1000
0000
0001
0000
,
0100
0001
0100
0010
1000
0100
1000
0010
,
1000
0000
0000
1100
0000
0000
0001
0000
0000
0011
0000
0000
1000
0000
0000
0001
,
0000
0000
0000
0000
0000
0000
1000
0000
0000
0000
0000
0000
0000
0000
0000
0001
0000
0000
0000
0000
0000
1000
0000
0000
0000
0000
0000
0001
0000
0000
0000
0000
0000
0000
0000
0000
1000
0000
0000
0000
0000
0000
0000
0000
1001
0000
0000
0000
,
0000
0000
0000
0000
0000
0000
0000
0000
0000
2002
0000
0000
0000
0000
0000
0000
,
0000
0000
0000
0000
,
0000
0000
0000
0000
,
3003
0000
0000
0000
;

//--------------- dance-single - Fred-104 ----------------
#NOTES:
     dance-single:
     Fred-104:
     Medium:
     13:
     :
0000
0000
0000
0000
,
0000
0000
0000
0000
,
0000
0000
0000
0000
,
0000
0000
0000
0000
,
0000
0000
0000
0000
,
0000
0000
0000
0000
,
1010
0000
0000
1000
0000
0000
0001
0000
0100
0000
0000
0000
0010
0000
0100
0000
,
0001
0010
0001
0000
0100
0000
0010
0000
1000
0100
1000
0000
0001
0000
0100
0000
,
0001
0000
0000
0010
0000
0000
0100
0000
0001
0000
0100
0000
1000
0000
0001
0000
,
1001
0000
0000
0100
0100
0100
0010
0000
,
1001
0000
0000
1000
0000
0000
0010
0000
0100
0000
0000
0000
0001
0000
1000
0000
,
0100
0001
0100
0020
0000
0031
1000
0010
,
0100
0000
0000
0001
0000
0000
0010
0000
0011
0000
0000
0000
0001
0000
1000
0000
,
0001
0000
0100
0000
0010
0000
1000
0000
0100
0000
0000
1000
0000
0010
0000
1000
,
0000
0001
1001
0000
0001
0010
0100
1000
,
0001
0100
0001
0010
0001
1000
0010
0000
,
1000
0100
0001
0100
1000
0010
0100
0000
,
0001
0000
0000
0011
0000
0000
1000
0000
0000
1100
0000
0000
0001
0000
0000
1000
,
0000
0000
0000
0010
0000
0000
0000
0000
0000
0000
0000
0000
1000
0000
0000
0000
0001
0000
0000
0000
1000
0000
0000
0000
0000
0000
0000
0000
0000
0000
2002
0000
0000
0000
0000
0000
0000
0000
0000
0000
0000
0000
3003
0000
0000
0000
0000
0000
,
0001
0000
0000
0021
0000
0000
0030
1000
0000
0000
1020
0000
0000
0031
0000
0000
,
1000
0000
0010
0000
0100
0000
0001
0000
0010
0000
0001
0000
0000
0100
0000
0000
,
0001
0000
0000
0201
0000
0000
0000
1300
0000
0000
1200
0000
0000
0301
0000
0000
,
1000
0000
0000
0001
0100
0000
0000
0010
0100
0000
0001
0000
1001
0000
0000
0000
,
1000
0000
0000
2100
0000
0000
0000
3001
0000
0000
0101
0000
0000
1001
0000
0000
,
0001
0000
0000
0010
0001
0000
0000
1000
0010
0000
0100
0000
0000
0010
0000
0000
,
1000
0000
0000
0100
0000
0000
1000
0000
0000
0000
0001
0000
0100
0000
0010
0000
,
1000
0000
0000
0010
0100
0000
0000
0010
1000
0000
0100
0000
0010
0000
0000
0000
,
0011
0000
0000
0001
0100
0000
0000
0100
0010
0000
1000
0000
0100
0000
0000
0000
,
1010
0000
0000
1000
0010
0000
0000
0010
0100
0000
0001
0000
1000
0000
0000
0000
,
0011
0000
0000
0001
1000
0000
0000
1000
0010
0000
0100
0000
0001
0000
1000
0000
,
1100
0101
1010
0011
,
1001
0000
0000
0001
0100
0000
0010
0000
0100
0000
0001
0000
1000
0000
0200
0000
,
0000
0000
1300
0000
0010
0100
0010
0000
0001
0000
0010
0000
0100
0000
0010
0000
,
1000
0100
0001
0100
1000
0000
0001
0100
,
0010
0010
0100
0100
0001
1000
1001
0000
,
1100
0000
0000
0110
0000
0000
0101
0000
0000
0000
0000
0000
0000
0000
1010
0000
,
0000
0011
0000
0000
1001
0000
0000
0000
0000
0000
0000
0000
0110
0000
1001
0000
,
0000
0000
0001
1000
0001
0000
0000
0000
0100
0000
0010
0000
1000
0000
0001
0000
,
2000
3200
0302
0023
,
1030
0100
0001
0100
1000
0100
0001
0100
,
1000
0010
0001
0010
1000
0010
0001
0010
,
1000
0100
0010
0001
0100
0010
0100
0001
,
0011
1010
1100
0101
,
1001
0000
0000
0002
0000
0000
0000
0000
,
0103
0001
0100
0010
0100
0010
1000
0010
1000
0100
1000
0001
,
1000
0000
0000
0010
0000
0000
0100
0000
0000
0000
0001
0000
0000
0000
0010
0000
,
0011
1010
0101
1100
,
0001
0000
0000
1000
0000
0000
0010
0000
0000
0000
1000
0000
0000
0000
0100
0000
,
0010
0000
0000
0001
0000
0000
0100
0000
0010
0000
0000
0001
0000
0000
0010
0000
,
0100
0000
0000
0001
0000
0000
1001
0000
0000
0000
0000
0000
0000
0000
1000
0010
,
1000
0000
0010
0100
0010
0000
0100
0000
0001
0000
0000
0010
0000
0000
0001
0000
,
1000
0000
0100
0010
0100
0000
1000
0000
0001
0000
0000
1000
0000
0000
2002
0000
,
0000
0000
3003
0110
,
1000
0000
0010
0100
0000
0001
1000
0000
0100
0000
0000
0001
0000
0000
0100
0000
,
1000
0000
0010
0100
0000
0010
1000
0000
0001
0000
0010
0000
0100
0000
0001
0000
,
0100
0000
1000
0010
0000
0100
0001
0000
0100
0000
0001
0010
0000
0001
1000
0000
,
0100
0000
0010
0000
0001
0000
1000
0000
0010
0000
0000
0001
0000
0000
0010
0000
,
0100
0000
0000
1000
0000
0000
0100
0000
0001
0000
0000
1000
0000
0000
0010
0000
,
0100
0000
0000
0000
0001
0000
0010
0100
0010
0000
0000
0001
0000
0000
1000
0000
,
0010
0000
0000
0100
0000
0000
1000
0000
0100
0000
0000
0000
0010
0000
1000
0000
,
0001
0000
1000
0100
1000
0000
0001
0000
0100
0000
0000
0010
0000
0000
0100
0000
,
0001
0000
0010
1000
0000
0010
0100
0000
1000
0000
0000
0001
0000
0000
1000
0000
,
0001
1000
0010
0001
0010
0100
0010
1000
,
0001
0000
1000
0100
0000
1000
0001
0000
1000
0000
0010
0100
0000
0010
1000
0000
,
0100
0000
0010
0000
0100
0000
1000
0000
0001
0000
0000
0100
0000
0000
0010
0000
,
1000
0000
0000
1100
0000
0000
0010
0000
0001
0000
0000
0101
0000
0000
0010
0000
,
1000
0000
0000
1010
0000
0000
0100
0000
0001
0000
0000
0011
0000
0000
0100
0000
,
1000
0010
0100
0001
1000
0100
0010
0001
,
1000
0001
1000
0001
1000
0001
1000
0001
1000
0000
0000
0001
0000
0000
1000
0000
,
1200
0000
0000
0320
0000
0000
0032
0000
1003
0000
0000
0000
0001
0000
0010
0000
,
0100
0010
1000
0010
0001
0100
0010
1000
,
0200
0000
0000
0320
0000
0000
2030
0000
3010
0000
0001
0000
0010
0000
0100
0000
,
1000
0000
0000
0000
0001
0000
0100
0000
0010
0000
0000
1000
0000
0010
0000
1000
,
0000
0000
0001
0000
0000
0010
0000
0000
0001
0000
0000
1000
0000
0000
0010
0000
,
0000
1000
0000
0000
0100
0000
0000
0010
0000
0000
0001
0000
1000
0100
1000
0000
,
0001
0100
0001
0000
0100
0010
0100
0000
0010
1000
0010
0000
1000
0001
1000
0000
,
0001
0000
0000
0101
0000
0000
1000
0000
0000
1010
0000
0000
0001
0000
0000
1001
,
0000
0000
0000
0000
0000
0000
1000
0000
0000
0000
0000
0000
0000
0000
0000
0100
0000
0000
0000
0000
0000
0010
0000
0000
0000
0000
0000
0001
0000
0000
0000
0000
0000
0000
0000
0000
0100
0000
0000
0000
0010
0000
0000
0000
0100
0000
0000
0000
,
0000
0000
0000
0000
0000
0000
0000
0000
0000
2002
0000
0000
0000
0000
0000
0000
,
0000
0000
0000
0000
,
0000
0000
0000
0000
,
3003
0000
0000
0000
;

//--------------- dance-single - Fred-104 ----------------
#NOTES:
     dance-single:
     Fred-104:
     Hard:
     17:
     :
0000
0000
0000
0000
,
0000
0000
0000
0000
,
0000
0000
0000
0000
,
0000
0000
0000
0000
,
0000
0000
0000
0000
,
0000
0000
0000
0000
,
1001
0000
0000
1000
0000
0000
0010
0000
0100
0000
0000
0000
0001
0100
0010
1000
,
0001
0100
0010
0100
0001
0010
0100
1000
0100
1000
0010
0100
0010
1000
0001
0010
,
0001
0000
0000
0100
0000
0000
1000
0000
0001
0000
0010
0000
1000
0000
0001
0000
,
1001
0000
0000
0000
0000
0000
1000
0000
0100
0000
0010
0001
1000
0001
0100
0000
,
0101
0000
0001
0010
0000
0001
0100
0000
0010
0000
1000
0000
0100
0010
0001
0000
,
1000
0000
0000
0000
0000
0000
0100
0000
0000
0000
0000
0000
1000
0000
0010
0000
0100
0000
0020
0000
0000
0000
0000
0000
0000
0000
0000
0000
0000
0000
1030
0000
0000
0000
0000
0000
0010
0000
0000
1000
0000
0000
0001
0000
0000
0000
0000
0000
,
0100
0000
0001
0010
0000
0001
1000
0000
1001
0000
0000
0000
1000
0100
0010
0001
,
1000
0010
1000
0100
1000
0001
0100
0010
1000
0010
0000
0001
0000
0010
0000
0100
,
0001
0000
1000
0001
2001
0000
3010
0000
1000
0000
0100
0000
0010
0000
0001
0100
,
0001
0010
0000
1000
0000
0010
0000
0100
0000
1000
0001
1000
0100
0010
0001
1000
,
0010
0000
1000
0000
0100
0000
1000
0000
0001
1000
0001
0010
0100
0010
0001
0100
,
0101
0000
0000
1010
0000
0000
0001
1000
0000
1100
0000
0000
0100
0010
0000
0011
,
0000
0000
0000
1010
0000
0000
0000
0000
0000
0010
0000
0000
0001
0000
0000
0000
0100
0000
0000
0000
0100
0000
0000
0000
0000
0000
0000
0000
0000
0000
2002
0000
0000
0000
0000
0000
0000
0000
0000
0000
0000
0000
3003
0000
0000
0000
0000
0000
,
1100
0000
0000
0110
0000
0000
0000
0101
0000
0000
0110
0000
0000
1010
0000
0000
,
1000
0100
0000
0100
0001
0100
0000
0100
1000
0000
0010
0000
0000
0100
0000
0000
,
0101
0000
0000
1010
0000
0000
0000
1100
0000
0000
0011
0000
0000
1001
0000
0000
,
0001
0100
0000
0100
1000
0001
0010
0100
0010
0001
1000
0000
1001
0000
0000
0000
,
1000
0000
0010
0100
0000
0000
0001
0010
0000
0000
0001
0000
1000
0010
1000
0000
,
0001
0010
0000
1000
0010
0001
0000
0100
1000
0000
0100
0000
0001
0010
0100
0000
,
2000
0000
0000
3020
0000
0000
0230
0000
0000
0301
0010
0001
1000
0010
0100
0001
,
0010
0100
1000
0010
0100
0001
0100
0010
1000
0000
1000
0000
0001
0000
0001
0000
,
1001
0000
1000
0100
0001
0000
0001
0100
1000
0000
0010
0000
0100
0000
0001
0000
,
1000
0000
0001
0010
1000
0000
1000
0010
0001
0000
0100
0000
0010
0000
1000
0000
,
0100
0000
1000
0010
0001
0000
0001
0010
1000
0000
0001
0000
0100
0000
0010
0000
,
1010
0011
0101
1100
,
1001
0000
0001
0010
0100
0000
1000
0000
0010
0000
1000
0000
0100
0000
1000
0000
,
0001
0000
0100
0001
0010
0100
1000
0010
0100
1000
0100
0010
1000
0100
0010
0001
,
1000
0001
0010
0001
0100
0010
0100
0001
1000
0000
0000
0000
0001
0000
1000
0000
,
0100
0000
0100
0000
0110
0000
0000
0001
1000
0000
0001
0100
0010
1000
0100
1000
,
1001
0000
0000
1100
0000
0000
0110
0000
0000
0000
0000
0000
0000
0000
0011
0000
,
0000
1010
0000
0000
0101
0000
0000
0000
0000
0000
0000
0000
1001
0000
0110
0000
,
0000
0000
1000
0100
0010
0000
0010
0001
0100
0000
0100
0010
1000
0000
0001
0000
,
1001
0000
0000
0001
0010
0000
0000
1000
0010
0000
0001
0000
1000
0001
1000
0001
,
1000
0000
0001
0100
1000
0100
0010
0100
0001
1000
0100
0010
0100
0001
0100
1000
,
0001
0010
0100
1000
0010
0100
0001
1000
0100
1000
0010
0100
0010
0001
0010
1000
,
0001
0000
1000
0000
0001
0100
1000
0100
0010
1000
0000
1000
0100
0010
0001
1000
,
0001
0000
0000
0100
1000
0000
0000
0100
0001
0000
1000
0100
0010
0100
1000
0001
,
0100
0000
0000
0000
0100
0000
0020
0000
0000
0000
0000
0000
0000
0000
1030
0010
,
1000
0100
0010
0001
0100
0001
0010
0001
1000
0001
0100
1000
,
0100
0000
0000
0001
0000
0000
2000
0000
0000
0000
3020
0000
0000
0000
0130
0000
,
0101
0000
1010
0000
0011
0000
1100
1000
,
1100
0000
0000
0100
0000
0000
0010
0000
0000
0000
0001
0000
0000
0000
1000
0000
,
0001
0000
0000
0010
0000
0000
1000
0000
0001
0000
0000
0100
0000
0000
1000
0000
,
0001
0000
0000
1000
0000
0000
2002
0000
0000
0000
0000
0000
3003
0000
1000
0100
,
0010
0001
0100
0010
0001
0010
0100
1000
0100
0010
1000
0100
0010
0001
1000
0100
,
0010
0100
0001
0100
1000
0001
0100
0010
1000
0000
0000
0101
0000
0000
2002
0000
,
0000
0000
0000
0000
0000
0000
3003
0000
1000
0001
0100
0001
1000
0001
0010
0000
,
0002
0000
0000
0203
0000
0000
0320
0000
1030
0000
0010
1000
0100
0000
1000
0010
,
0100
0010
1000
0100
0010
0001
0100
0000
0001
0000
0100
1000
0100
0000
0001
0000
,
2000
0000
0000
3020
0000
0000
0032
0000
0013
0000
0100
0010
0000
1000
0001
0010
,
0100
1000
0010
0100
1000
0100
0010
1000
0100
0010
0100
0001
0100
1000
0001
0000
,
2000
0000
0000
3200
0000
0000
0320
0000
2030
0000
0000
3020
0000
0000
0032
0000
,
2003
0000
0000
0000
3001
0000
1000
0001
0100
0000
0001
0010
0000
0010
1000
0000
,
0002
0000
0000
0203
0000
0000
0320
0000
2030
0000
3000
0000
1001
0000
1000
0001
,
0010
1000
0010
1000
0010
0100
1000
0001
0100
0010
1000
0100
0010
0001
0100
0000
,
0101
0000
0001
0010
0000
0001
1000
0000
0001
0000
1000
0100
1000
0001
0100
0010
,
1000
0100
0010
0001
0010
1000
0010
0001
1000
0000
0100
0010
0100
1000
0001
0000
,
1000
0000
0001
0010
0000
0001
0100
0000
0010
1000
0100
1000
0010
0100
0001
1000
,
0001
0010
0100
1000
0001
0010
0100
0001
0100
0010
0001
1000
0010
1000
0100
0000
,
1100
0000
0000
0110
0000
0000
0010
0001
1000
0001
0100
0001
0000
0010
0100
1000
,
0001
0000
0100
0010
0000
0000
1000
0100
1000
0001
0010
0100
1000
0000
0001
0000
,
0100
0000
0100
0000
0010
0000
0010
0000
0100
0010
0100
0010
1000
0001
1000
0001
,
1000
0000
0000
0100
0000
0000
0010
0000
0000
0001
0000
0000
1000
0000
0010
0000
0100
0000
0001
0000
0000
0000
0000
0000
0011
0000
0000
0000
0000
0000
0000
0000
0000
1010
0000
0000
0000
0000
0000
0000
0000
0000
0101
0000
0000
0000
0000
0000
,
2001
0000
0000
3020
0000
0000
2030
0000
3100
0000
0010
0001
1000
0100
0010
1000
,
0010
0001
0010
0100
1000
0010
1000
0010
0100
0001
0100
0010
0100
0000
0001
0000
,
0020
0000
0000
0032
0000
0000
2003
0000
3001
0000
0010
0001
1000
0001
0100
0010
,
1000
0001
0010
0100
1000
0001
1000
0100
0001
0100
0000
0010
0000
0001
0000
1000
,
0001
0000
0100
0000
0000
0010
0000
0000
0001
0000
0000
0010
0000
0000
1000
0000
,
0001
0010
0000
0100
1000
0000
0001
0100
0000
0010
1000
0100
1000
0001
0100
0010
,
1000
0001
0010
0001
0100
0001
0010
0100
1000
0001
0100
1000
0100
0010
1000
0100
,
0110
0000
0000
0011
0000
0000
0001
0100
0000
0110
0000
0000
1000
0100
0000
0110
,
0000
0000
0000
0000
0000
0000
0001
0000
0000
0010
0000
0000
0000
0000
0000
0011
0000
0000
0000
0000
0000
1001
0000
0000
0000
0000
0000
1010
0000
0000
0000
0000
0000
1000
0000
0000
0001
0000
0000
0000
0100
0000
0000
0000
0110
0000
0000
0000
,
0000
0000
0000
0000
0000
0000
0000
0000
0000
2002
0000
0000
0000
0000
0000
0000
,
0000
0000
0000
0000
,
0000
0000
0000
0000
,
3003
0000
0000
0000
;

//--------------- dance-double - Fred-104 ----------------
#NOTES:
     dance-double:
     Fred-104:
     Easy:
     9:
     :
00000000
00000000
00000000
00000000
,
00000000
00000000
00000000
00000000
,
00000000
00000000
00000000
00000000
,
00000000
00000000
00000000
00000000
,
00000000
00000000
00000000
00000000
,
00000000
00000000
00000000
00000000
,
00010000
00000000
00001000
00000000
,
00010000
00000000
00000100
00001000
,
00000001
00000010
00001000
00010000
,
00022000
00000000
00000000
00033000
,
00001000
00010000
01000000
00100000
,
00010000
00000000
10000000
10000000
10000000
00000000
00100000
00000000
,
01000000
00100000
10000000
00010000
,
10000000
00000000
01000000
00100000
,
00001000
00001000
00001000
00000000
00010000
00000000
00000010
00000000
,
00001000
00000100
00010000
00000100
,
00001000
00000000
00000010
00000000
00000100
00000001
00001000
00000001
,
00000010
00000000
00000000
00000010
00000000
00000000
00000001
00000000
00000000
00000001
00000000
00000000
00001000
00000000
00000000
00001000
,
00000000
00000000
00000010
00000000
00000000
00000110
00000000
00000000
,
00000200
00000000
00000302
00000000
,
00001003
00000001
00000010
00001000
,
00020000
00000000
00032000
00000000
,
00013000
00100000
01000000
01010000
,
00020000
00000000
20030000
00000000
,
30100000
01000000
00010000
01000000
,
00010000
00100000
00001000
00100000
,
00001000
00010000
00000100
00010000
,
00011000
00000000
00010000
00001000
,
00000010
00000000
00001000
00010000
,
00100000
00000000
00010000
00001000
,
00000100
00001000
00010000
01000000
,
00010000
00000000
00001000
00000000
00010000
00000000
00000000
00001000
,
00000000
00010000
00001000
00010000
,
00000010
00000000
00001000
00000000
,
00000010
00001000
00000001
00000100
,
00000110
00000000
00000000
00000110
00000000
00000000
00000000
00011000
,
00000000
00011000
00000000
01100000
,
00000000
10000000
00010000
10000000
,
00100000
00100000
01000000
01000000
,
01010000
00000000
00001000
00000000
,
00100000
00001000
00010000
00001000
,
00000010
00000100
00001000
00000100
,
00001000
00000001
00000100
00000010
,
00002000
00000000
00000000
00000000
,
00003200
00000000
00020300
00000000
,
00032000
00000000
00000000
00000000
,
00203000
00320000
20030000
30100000
,
01100000
00000000
00000000
10000000
00000000
00000000
00010000
00000000
,
10000000
01000000
00010000
00001000
,
00010000
00000000
00000000
00100000
00000000
00000000
10000000
00000000
,
00010000
00000000
00000000
00000000
01000000
00000000
00000000
00000000
00100000
00000000
00000000
00100000
00000000
00000000
01000000
00000000
,
00001000
00000000
00000000
00000000
00010000
00000000
00001000
00000000
00010000
00000000
00000000
00001000
00000000
00000000
00022000
00000000
,
00000000
00000000
00033000
00000000
,
00010000
00000000
00000000
00001000
00000000
00000000
00010000
00000000
00001000
00000000
00000000
00000000
01000000
00000000
00000000
00000000
,
00010000
00100000
00001000
00010000
,
00000010
00000000
00000000
00001000
00000000
00000000
00000100
00000000
00001000
00000000
00000000
00000000
00000010
00000000
00000000
00000000
,
00000200
00000000
00000310
00001000
,
00000001
00000000
00000000
00000100
00000000
00000000
00001000
00000000
00010000
00000000
00000000
00100000
00000000
00000000
01000000
00000000
,
00010000
00000000
00000000
00000000
10000000
00000000
00000000
00000000
00100000
00000000
00000000
01000000
00000000
00000000
00010000
00000000
,
00100000
00000000
00000000
00001000
00000000
00000000
00010000
00000000
00001000
00000000
00000000
00000000
01000000
00000000
00000000
00000000
,
00002000
00000000
00000000
00000000
00000000
00000000
00000000
00000000
00013000
00000000
00000000
00000100
00000000
00000000
00001000
00000000
,
00000010
00000000
00000000
00010000
00000000
00000000
00001000
00000000
00100000
00000000
00000000
00000000
00010000
00000000
00000000
00000000
,
01000000
00000000
00000000
00000000
00001000
00000000
00000000
00000000
00010000
00000000
00000000
00000010
00000000
00000000
00001000
00000000
,
00000100
00000000
00000000
00010000
00000000
00000000
00001000
00000000
00100000
00000000
00000000
00000000
00010000
00000000
00000000
00000000
,
01000000
00000000
00000000
00000000
00100000
00000000
00000000
00000000
01000000
00000000
00000000
00001000
00000000
00000000
00010000
00000000
,
00001000
00000000
00000000
00001000
00000000
00000000
00000000
00000000
00010000
00000000
00000000
00010000
00000000
00000000
00000000
00000000
,
00000010
00000000
00000000
00000010
00000000
00000000
00000000
00000000
00001000
00000000
00000000
00000001
00000000
00000000
00000000
00000000
,
00000100
00000001
00000100
00000000
00000010
00001000
00000100
00000000
,
00010000
00000000
00001000
00000000
00010000
00000000
00000000
00000000
00001000
00000000
00000000
00001000
00000000
00000000
00001000
00000000
,
00010000
00000000
00000000
00010000
00000000
00000000
00010000
00000000
00001000
00000000
00000000
00000000
00100000
00000000
00000000
00000000
,
00010000
00000000
10000000
00000000
01000000
00100000
01000000
00000000
,
10000000
00000000
00000000
00100000
00000000
00000000
01000000
00000000
00100000
00000000
00000000
00000000
01000000
00000000
00000000
00000000
,
01001000
00000000
00000000
00000000
00010000
00001000
00010000
00000010
,
00000000
00000000
00001000
00000000
00000000
00000100
00000000
00000000
00010000
00000000
00000000
00001000
00000000
00000000
01000000
00000000
,
00000000
01000000
00000000
00000000
00010000
00000000
00000000
00100000
00000000
00000000
00001000
00000000
00010000
00000000
00001000
00000000
,
00010000
00000010
00001000
00000100
00001000
00000001
00001000
00000100
,
00001000
00000000
00000000
00001100
00000000
00000000
00000001
00000000
00000000
00000011
00000000
00000000
00001000
00000000
00000000
00000100
,
00000000
00000000
00000000
00000000
00000000
00000000
00010000
00000000
00000000
00000000
00000000
00000000
00000000
00000000
00000000
00001000
00000000
00000000
00000000
00000000
00000000
00010000
00000000
00000000
00000000
00000000
00000000
00001000
00000000
00000000
00000000
00000000
00000000
00000000
00000000
00000000
01000000
00000000
00000000
00000000
00000000
00000000
00000000
00000000
10010000
00000000
00000000
00000000
,
00000000
00000000
00000000
00000000
00000000
00000000
00000000
00000000
00000000
20020000
00000000
00000000
00000000
00000000
00000000
00000000
,
00000000
00000000
00000000
00000000
,
00000000
00000000
00000000
00000000
,
30030000
00000000
00000000
00000000
;

//--------------- dance-double - Fred-104 ----------------
#NOTES:
     dance-double:
     Fred-104:
     Medium:
     13:
     :
00000000
00000000
00000000
00000000
,
00000000
00000000
00000000
00000000
,
00000000
00000000
00000000
00000000
,
00000000
00000000
00000000
00000000
,
00000000
00000000
00000000
00000000
,
00000000
00000000
00000000
00000000
,
11000000
00000000
00000000
00010000
00000000
00000000
10000000
00000000
00100000
00000000
00000000
00000000
01000000
00000000
00010000
00000000
,
00100000
00001000
00100000
00000000
00001000
00000000
00010000
00000000
00001000
00000010
00000100
00000000
00001000
00000000
00000001
00000000
,
00000100
00000000
00000000
00001000
00000000
00000000
00000100
00000000
00000001
00000000
00001000
00000000
00000100
00000000
00000010
00000000
,
00000011
00000000
00000000
00000001
00000100
00001000
00010000
00000000
,
00011000
00000000
00000000
00001000
00000000
00000000
00010000
00000000
00100000
00000000
00000000
00000000
01000000
00000000
00001000
00000000
,
00010000
00001000
00100000
00002000
00000000
00013000
00001000
00000010
,
00000100
00000000
00000000
00001000
00000000
00000000
00000001
00000000
00001001
00000000
00000000
00000000
00000001
00000000
00000100
00000000
,
00001000
00000000
00000100
00000000
00000001
00000000
00000010
00000000
00001000
00000000
00000000
00010000
00000000
01000000
00000000
00100000
,
00000000
00010000
10010000
00000000
10000000
00100000
01000000
00010000
,
00100000
01000000
00100000
00001000
00010000
00001000
01000000
00000000
,
00001000
00010000
00000100
00001000
00000001
00001000
00000100
00000000
,
00001000
00000000
00000000
00001010
00000000
00000000
00000001
00000000
00000000
00000011
00000000
00000000
00001000
00000000
00000000
00000010
,
00000000
00000000
00000000
00000100
00000000
00000000
00000000
00000000
00000000
00000000
00000000
00000000
00000001
00000000
00000000
00000000
00000010
00000000
00000000
00000000
00000100
00000000
00000000
00000000
00000000
00000000
00000000
00000000
00000000
00000000
00002200
00000000
00000000
00000000
00000000
00000000
00000000
00000000
00000000
00000000
00000000
00000000
00003300
00000000
00000000
00000000
00000000
00000000
,
00010000
00000000
00000000
00012000
00000000
00000000
00000000
01003000
00000000
00000000
00012000
00000000
00000000
00103000
00000000
00000000
,
00001000
00000000
00010000
00000000
00100000
00000000
00010000
00000000
00001000
00000000
00000010
00000000
00000000
00001000
00000000
00000000
,
00010000
00000000
00000000
00012000
00000000
00000000
00000000
00103000
00000000
00000000
00012000
00000000
00000000
01003000
00000000
00000000
,
00001000
00000000
00000000
00100000
00010000
00000000
00000000
10000000
00010000
00000000
01000000
00000000
01100000
00000000
00000000
00000000
,
10000000
00000000
00000000
12000000
00000000
00000000
00000000
03010000
00000000
00000000
02010000
00000000
00000000
13000000
00000000
00000000
,
00100000
00000000
00000000
00010000
00001000
00000000
00000000
00010000
00100000
00000000
10000000
00000000
00000000
00010000
00000000
00000000
,
01000000
00000000
00000000
00001000
00000000
00000000
00010000
00000000
00000000
00000000
00001000
00000000
00000010
00000000
00000100
00000000
,
00001000
00000000
00000000
00000001
00000010
00000000
00000000
00000100
00010000
00000000
00001000
00000000
00000100
00000000
00000000
00000000
,
00001001
00000000
00000000
00000001
00000100
00000000
00000000
00000010
00001000
00000000
00000100
00000000
00010000
00000000
00000000
00000000
,
00011000
00000000
00000000
00001000
00100000
00000000
00000000
00100000
00010000
00000000
10000000
00000000
00100000
00000000
00000000
00000000
,
01100000
00000000
00000000
01000000
00010000
00000000
00000000
00010000
01000000
00000000
00001000
00000000
00010000
00000000
00000000
00000000
,
01001000
00010010
00101000
00010100
,
00011000
00000000
00000000
00010000
00000100
00000000
00001000
00000000
00000100
00000000
00000010
00000000
00001000
00000000
00000020
00000000
,
00000000
00000000
00000031
00000000
00000010
00000100
00000010
00000000
00000100
00000000
00001000
00000000
00000001
00000000
00000100
00000000
,
00001000
00010000
00100000
01000000
00010000
00000000
10000000
00010000
,
01000000
00001000
00010000
00100000
00010000
00001000
00011000
00000000
,
00101000
00000000
00000000
00010010
00000000
00000000
00011000
00000000
00000000
00000000
00000000
00000000
00000000
00000000
01001000
00000000
,
00000000
00010100
00000000
00000000
00011000
00000000
00000000
00000000
00000000
00000000
00000000
00000000
00011000
00000000
00010100
00000000
,
00000000
00000000
00000100
00001000
00000100
00000000
00000000
00000000
00000010
00000000
00000001
00000000
00001000
00000000
00000001
00000000
,
00000020
00002030
00003200
00000302
,
00001003
00000001
00000100
00001000
00000100
00000001
00000100
00001000
,
00010000
01000000
00010000
00001000
00010000
01000000
00010000
00001000
,
00010000
00100000
00010000
00001000
00000010
00001000
00010000
00001000
,
00011000
01001000
00010100
00011000
,
00011000
00000000
00000000
00002000
00000000
00000000
00000000
00000000
,
00013000
00001000
00100000
00010000
00100000
00010000
10000000
01000000
10000000
00010000
10000000
00100000
,
01000000
00000000
00000000
00100000
00000000
00000000
10000000
00000000
00000000
00000000
01000000
00000000
00000000
00000000
00010000
00000000
,
00011000
00000000
00001010
00000000
00000011
00000000
00000001
00001000
,
00000001
00000000
00000000
00000100
00000000
00000000
00000010
00000000
00000000
00000000
00000001
00000000
00000000
00000000
00000010
00000000
,
00000100
00000000
00000000
00000001
00000000
00000000
00001000
00000000
00000010
00000000
00000000
00010000
00000000
00000000
00001000
00000000
,
00100000
00000000
00000000
00001000
00000000
00000000
00011000
00000000
00000000
00000000
00000000
00000000
00000000
00000000
00001000
00010000
,
00001000
00000000
01000000
00100000
01000000
00000000
00001000
00000000
00010000
00000000
00000000
00000100
00000000
00000000
00001000
00000000
,
00000100
00000000
00000010
00000100
00000010
00000000
00000001
00000000
00000100
00000000
00000000
00000010
00000000
00000000
00002020
00000000
,
00000000
00000000
00003030
00001001
,
00000001
00000000
00000100
00000001
00000000
00000010
00000001
00000000
00001000
00000000
00000000
00000010
00000000
00000000
00000100
00000000
,
00000001
00000000
00000010
00000100
00000000
00000010
00000001
00000000
00000100
00000000
00001000
00000000
00010000
00000000
01000000
00000000
,
00100000
00000000
00010000
10000000
00000000
00100000
10000000
00000000
01000000
00000000
00100000
01000000
00000000
10000000
00100000
00000000
,
01000000
00000000
00010000
00000000
00100000
00000000
00001000
00000000
00010000
00000000
00000000
00000010
00000000
00000000
00001000
00000000
,
00000100
00000000
00000000
00010000
00000000
00000000
00001000
00000000
00010000
00000000
00000000
00000100
00000000
00000000
00001000
00000000
,
00000100
00000000
00000000
00000000
00000010
00000000
00000001
00001000
00000001
00000000
00000000
00000100
00000000
00000000
00000010
00000000
,
00001000
00000000
00000000
00000001
00000000
00000000
00000010
00000000
00001000
00000000
00000000
00000000
00010000
00000000
00100000
00000000
,
01000000
00000000
00010000
10000000
00010000
00000000
01000000
00000000
00100000
00000000
00000000
10000000
00000000
00000000
00010000
00000000
,
01000000
00000000
00100000
10000000
00000000
00100000
01000000
00000000
00010000
00000000
00100000
00000000
01000000
00000000
00100000
00000000
,
00010000
00000000
10000000
00010000
00000000
01000000
00010000
00000000
00100000
00000000
01000000
00000000
00100000
00000000
00001000
00000000
,
00010000
00000000
00000100
00001000
00000000
00000100
00010000
00000000
00001000
00000000
00100000
00010000
00000000
01000000
00001000
00000000
,
00010000
00000000
00000100
00000000
00001000
00000000
00000010
00000000
00000100
00000000
00000000
00000001
00000000
00000000
00001000
00000000
,
00000001
00000000
00000000
00000101
00000000
00000000
00000010
00000000
00001000
00000000
00000000
00001100
00000000
00000000
00010000
00000000
,
00001000
00000000
00000000
01001000
00000000
00000000
00100000
00000000
00010000
00000000
01000000
00000000
00100000
00000000
10000000
00000000
,
00010000
00100000
10000000
00100000
00010000
01000000
10000000
01000000
,
00001000
00010000
00001000
00010000
00001000
00010000
00001000
00000000
00011000
00000000
00000000
00010000
00000000
00000000
00001000
00000000
,
00010000
00000000
00000000
00001000
00000000
00000000
00000100
00000000
00000001
00000000
00001000
00000000
00000100
00000000
00000010
00000000
,
00000001
00000100
00001000
00010000
01000000
00100000
00010000
01000000
,
00001000
00000000
00000000
00010000
00000000
00000000
00001000
00000000
00000010
00000000
00000100
00000000
00001000
00000000
00000010
00000000
,
00010000
00000000
00000000
00000000
00001000
00000000
00010000
00000000
00001000
00000000
00000000
00100000
00000000
00010000
00000000
10000000
,
01000000
00000000
10000000
00000000
00000000
00100000
00000000
00000000
00010000
00000000
00000000
00001000
00000000
00000000
00000100
00000000
,
00000000
00000001
00000000
00000000
00000010
00000000
00000000
00001000
00000000
00000000
00010000
00000000
01000000
00000000
10000000
00000000
,
00010000
01000000
00010000
00000000
10000000
00100000
10000000
00000000
01000000
00100000
01000000
00000000
00100000
00010000
00100000
00000000
,
00001000
00000000
00000000
00011000
00000000
00000000
00010000
00000000
00000000
00010010
00000000
00000000
00000010
00000000
00000000
00001010
,
00000000
00000000
00000000
00000000
00000000
00000000
00001000
00000000
00000000
00000000
00000000
00000000
00000000
00000000
00000000
00000100
00000000
00000000
00000000
00000000
00000000
00000010
00000000
00000000
00000000
00000000
00000000
00000001
00000000
00000000
00000000
00000000
00000000
00000000
00000000
00000000
00001000
00000000
00000000
00000000
00000001
00000000
00000000
00000000
00001000
00000000
00000000
00000000
,
00000000
00000000
00000000
00000000
00000000
00000000
00000000
00000000
00000000
00002002
00000000
00000000
00000000
00000000
00000000
00000000
,
00000000
00000000
00000000
00000000
,
00000000
00000000
00000000
00000000
,
00003003
00000000
00000000
00000000
;

//--------------- dance-double - Fred-104 ----------------
#NOTES:
     dance-double:
     Fred-104:
     Hard:
     17:
     :
00000000
00000000
00000000
00000000
,
00000000
00000000
00000000
00000000
,
00000000
00000000
00000000
00000000
,
00000000
00000000
00000000
00000000
,
00000000
00000000
00000000
00000000
,
00000000
00000000
00000000
00000000
,
00000101
00000000
00000000
00000001
00000000
00000000
00001000
00000000
00000010
00000000
00000000
00000000
00001000
00000010
00001000
00000001
,
00000010
00000001
00001000
00000000
00000010
00010000
00001000
00000000
01000000
00010000
00100000
00000000
00001000
00010000
00001000
00000000
,
00010000
00001000
00000010
00000100
00001000
00010000
00100000
01000000
,
00010000
00000000
00000000
00000000
00000000
00000000
10000000
00000000
00100000
00000000
01000000
00010000
10000000
00010000
01000000
00000000
,
01010000
00000000
00000000
00010000
10000000
00000000
00100000
00000000
10000000
00000000
01000000
00000000
00010000
00001000
00010000
00000000
,
00001000
00000000
00000000
00000010
00000000
00000000
00000001
00001000
00000001
00000200
00000000
00000000
00000000
00000000
00000000
00000301
00000000
00000000
00000010
00000000
00000000
00000001
00000000
00000000
,
00000100
00000000
00000010
00000100
00000000
00001000
00010000
00000000
00011000
00000000
00000000
00000000
00010000
00100000
01000000
00010000
,
10000000
00010000
10000000
00100000
10000000
01000000
00100000
00010000
01000000
00001000
00000000
00010000
00000000
00000100
00000000
00001000
,
00000001
00000000
00000100
00000010
00000210
00000000
00000301
00000000
00001000
00000000
00000100
00000000
00010000
00000000
00000010
00001000
,
00000100
00010000
00000000
00001000
00000000
00010000
00000000
01000000
00000000
00100000
00010000
10000000
00010000
00000000
01000000
00000000
,
00100000
00000000
10000000
00000000
01000000
00000000
10000000
00000000
00100000
10000000
01000000
00100000
00010000
00100000
00001000
00000000
,
00011000
00000000
00000000
00010010
00000000
00000000
00000010
00001000
00000000
00001100
00000000
00000000
00000100
00000010
00000000
00000011
,
00000000
00000000
00000000
00001001
00000000
00000000
00000000
00000000
00000000
00000001
00000000
00000000
00000100
00000000
00000000
00000000
00001000
00000000
00000000
00000000
00010000
00000000
00000000
00000000
00000000
00000000
00000000
00000000
00000000
00000000
02200000
00000000
00000000
00000000
00000000
00000000
00000000
00000000
00000000
00000000
00000000
00000000
03300000
00000000
00000000
00000000
00000000
00000000
,
10000000
00000000
00000000
01000000
00000000
00000000
00000000
00010000
00000000
00000000
00001000
00000000
00000000
00010000
00000000
00000000
,
00010000
00001000
00000000
00001000
00010000
00000100
00000000
00000100
00001000
00000000
00000001
00000000
00000000
00000100
00000000
00000000
,
00000010
00000000
00000000
00001000
00000000
00000000
00000000
00000010
00000000
00000000
00010000
00000000
00000000
00001000
00000000
00000000
,
00001000
00010000
00000000
00010000
00001000
00100000
00010000
10000000
00100000
01000000
00010000
00000000
01010000
00000000
00000000
00000000
,
01001000
00000000
00000000
00010000
00000000
00000000
00000000
00101000
00000000
00000000
00010000
00000000
00000000
00000100
00000000
00000000
,
00010000
00001000
00000000
00000100
00000001
00001000
00000000
00000100
00000010
00000000
00000001
00000000
00001000
00000010
00000100
00000000
,
00000002
00000000
00000000
00000203
00000000
00000000
00000302
00000000
00000000
00000013
00000001
00001000
00000010
00000100
00000001
00000100
,
00000010
00001000
00000100
00010000
00001000
00100000
00010000
10000000
00010000
00000000
00010000
00000000
00100000
00000000
00100000
00000000
,
00101000
00000000
00001000
00010000
00001000
00000000
00010000
00000010
00010000
00000000
00000100
00000000
00001000
00000000
00000001
00000000
,
00000100
00000000
00000001
00000010
00000001
00000000
00001000
00000010
00001000
00000000
00000001
00000000
00000100
00000000
00001000
00000000
,
00010000
00000000
00001000
00010000
00001000
00000000
00100000
00010000
00100000
00000000
00001000
00000000
00010000
00000000
00001000
00000000
,
01001000
00010010
00101000
00010100
,
00011000
00000000
00010000
00001000
00010000
00000000
00001000
00000000
00000010
00000000
00000100
00000000
00001000
00000000
00010000
00000000
,
00100000
00000000
01000000
00000000
00001000
00010000
00001000
00010000
00000010
00001000
00000010
00001000
00000100
00000010
00000100
00000010
,
00000001
00000010
00000001
00000100
00000010
00001000
00000100
00010000
00001000
00000000
00000000
00000000
00010000
00000000
00001000
00000000
,
00010000
00000000
00010000
00000000
00011000
00000000
00000000
00001000
01000000
00000000
00010000
00100000
00010000
10000000
00100000
10000000
,
01000000
00000000
00000000
11000000
00000000
00000000
01010000
00000000
00000000
00000000
00000000
00000000
00000000
00000000
00101000
00000000
,
00000000
00011000
00000000
00000000
00010010
00000000
00000000
00000000
00000000
00000000
00000000
00000000
00001010
00000000
00001001
00000000
,
00000000
00000000
00000001
00000100
00000010
00000000
00000010
00001000
00000100
00000000
00000100
00000010
00000001
00000000
00001000
00000000
,
00001010
00000000
00000000
00000010
00010000
00000000
00000000
00010000
00001000
00000000
00100000
00000000
00010000
01000000
00001000
00010000
,
00000100
00000000
00001000
00000010
00001000
00000100
00001000
00000001
00000100
00000001
00000010
00000100
00001000
00000100
00010000
00001000
,
00100000
00010000
00100000
01000000
10000000
00010000
01000000
00100000
10000000
00010000
01000000
00001000
00010000
00000100
00001000
00000010
,
00010000
00000000
00001000
00000000
00010000
00001000
00010000
00001000
00010000
00001000
00000000
00000010
00000100
00001000
00000001
00000000
,
00001001
00000000
00000000
00000001
00000100
00000000
00000000
00001000
00010000
00000000
00100000
01000000
00010000
10000000
00010000
10000000
,
00100000
00000000
00000000
00000000
01000000
00000000
00002000
00000000
00000000
00000000
00000000
00000000
00000000
00000000
00013000
00001000
,
00010000
00001000
00000010
00000001
00000010
00001000
00010000
01000000
10000000
01000000
00010000
00001000
,
00010000
00000000
00000000
00001000
00000000
00000000
00020000
00000000
00000000
00000000
00030020
00000000
00000000
00000000
00001030
00000000
,
00001010
00000000
00000101
00000000
00001100
00000000
00000100
00000010
,
00000011
00000000
00000000
00000001
00000000
00000000
00001000
00000000
00000000
00000000
00000001
00000000
00000000
00000000
00000010
00000000
,
00000001
00000000
00000000
00000100
00000000
00000000
00001000
00000000
00010000
00000000
00000000
01000000
00000000
00000000
10000000
00000000
,
00100000
00000000
00000000
01000000
00000000
00000000
20020000
00000000
00000000
00000000
00000000
00000000
30030000
00000000
10000000
01000000
,
00100000
00010000
00100000
00001000
00010000
00000100
00001000
00000100
00000010
00000001
00001000
00000010
00000100
00000010
00000001
00000010
,
00001000
00000001
00000100
00001000
00010000
00100000
01000000
00010000
10000000
00000000
00000000
11000000
00000000
00000000
02200000
00000000
,
00000000
00000000
00000000
00000000
03300000
00000000
00000000
00000000
10000000
01000000
00100000
00010000
01000000
00001000
00010000
00000000
,
00002000
00000000
00000000
00003020
00000000
00000000
00000032
00000000
00001003
00000000
00000001
00000000
00000010
00000000
00000001
00001000
,
00000001
00000010
00000100
00000010
00000001
00001000
00000010
00000000
00010000
00000000
00001000
00010000
01000000
00000000
00100000
00000000
,
00020000
00000000
00000000
20030000
00000000
00000000
30200000
00000000
10300000
00000000
01000000
00100000
00000000
00001000
00010000
00001000
,
00100000
00001000
00010000
00001000
00000010
00000100
00001000
00000001
00000100
00000010
00001000
00000001
00000010
00000100
00001000
00000000
,
00000002
00000000
00000000
00000203
00000000
00000000
00002300
00000000
00023000
00000000
00000000
02030000
00000000
00000000
23000000
00000000
,
30010000
00000000
00000000
00000000
10000000
00000000
00100000
10000000
02000000
00000000
00000000
03200000
00000000
00000000
00302000
00000000
,
00023000
00000000
00000000
00230000
00000000
00000000
20300000
00000000
32000000
00000000
03000000
00000000
01100000
00000000
00010000
10000000
,
00100000
10000000
00010000
01000000
00010000
00100000
00001000
00010000
00000010
00001000
00000010
00000100
00000001
00001000
00000100
00000000
,
00000110
00000000
00000010
00000001
00000000
00001000
00000001
00000000
00000100
00000000
00000010
00001000
00000100
00001000
00000010
00001000
,
00000001
00000010
00000100
00000010
00000001
00001000
00000010
00000000
00010000
00001000
00010000
01000000
00100000
00000000
00010000
00000000
,
01010000
00000000
00010000
00100000
00000000
00001000
00010000
00000000
00001000
00010000
00001000
00010000
00000100
00001000
00000100
00000010
,
00000100
00010000
00001000
00100000
00010000
01000000
00010000
00100000
00001000
00010000
00000010
00001000
00000100
00010000
00001000
00000000
,
00011000
00000000
00000000
00101000
00000000
00000000
00100000
00010000
10000000
01000000
00100000
00010000
00000000
10000000
01000000
00100000
,
00010000
00000000
01000000
00100000
00000000
00000000
01000000
00001000
00010000
00001000
00100000
00001000
00010000
00000000
00001000
00000000
,
00010000
00000000
00010000
00000000
00001000
00000000
00001000
00000000
00010000
00001000
00010000
00000010
00010000
00001000
00010000
00000100
,
00001000
00000000
00000000
00000010
00000000
00000000
00000100
00000000
00000000
00000001
00000000
00000000
00001000
00000000
00000100
00000000
00000010
00000000
00000001
00000000
00000000
00000000
00000000
00000000
00000101
00000000
00000000
00000000
00000000
00000000
00000000
00000000
00000000
00001010
00000000
00000000
00000000
00000000
00000000
00000000
00000000
00000000
00000011
00000000
00000000
00000000
00000000
00000000
,
00002100
00000000
00000000
00003002
00000000
00000000
00000203
00000000
00000310
00000000
00001000
00000001
00000100
00000010
00001000
00000010
,
00000100
00000001
00001000
00000100
00010000
00001000
00100000
00001000
00010000
00000010
00001000
00000100
00010000
00001000
01000000
00000000
,
00020000
00000000
00000000
00230000
00000000
00000000
00302000
00000000
00013000
00000000
00000010
00001000
00000100
00010000
00000010
00001000
,
00000010
00010000
00001000
00100000
00010000
01000000
00001000
00010000
00001000
00000010
00000000
00000100
00000000
00001000
00000000
00000001
,
00000100
00000010
00001000
00000001
00000010
00000100
00000010
00001000
,
00010000
00000000
00100000
00000000
01000000
00000000
00010000
00000000
10000000
00000000
00100000
01000000
00010000
10000000
01000000
10000000
,
00100000
01000000
00010000
00100000
00001000
00010000
00000100
00001000
00000010
00000100
00000001
00001000
00000100
00000010
00000001
00001000
,
00000001
00000000
00000000
00000101
00000000
00000000
00000001
00001000
00000000
00001100
00000000
00000000
00000100
00010000
00000000
00011000
,
00000000
00000000
00000000
00000000
00000000
00000000
00000010
00000000
00000000
00010000
00000000
00000000
00000000
00000000
00000000
00011000
00000000
00000000
00000000
00000000
00000000
00101000
00000000
00000000
00000000
00000000
00000000
10010000
00000000
00000000
00000000
00000000
00000000
10000000
00000000
00000000
00100000
00000000
00000000
00000000
01000000
00000000
00000000
00000000
01010000
00000000
00000000
00000000
,
00000000
00000000
00000000
00000000
00000000
00000000
00000000
00000000
00000000
00022000
00000000
00000000
00000000
00000000
00000000
00000000
,
00000000
00000000
00000000
00000000
,
00000000
00000000
00000000
00000000
,
00033000
00000000
00000000
00000000
;
