#TITLE:No.13;
#ARTIST:TAKA respect for J.S.B.;
#GENRE:PROGRESSIVE BAROQUE;
#BANNER:No.13.png;
#BACKGROUND:No.13-bg.png;
#CDTITLE:./CDTitles/bm IIDX 10th style.png;
#MUSIC:No.13.ogg;
#SAMPLESTART:53.037;
#SAMPLELENGTH:15;
#DISPLAYBPM:172;
#BPMS:0=172.1,4=172;
#BGSTAGE:23;

//--------------- dance-single - Fred-104 ----------------
#NOTES:
     dance-single:
     Fred-104:
     Beginner:
     6:
     :
0000
0000
0000
0000
,
0000
0000
0000
0000
,
0000
0000
0000
0000
,
0000
0000
0000
0000
,
0000
0000
0000
0000
,
0000
0000
0000
0000
,
1000
0100
0000
0010
,
0000
0001
0000
0100
,
0010
0100
0000
0001
,
0000
0000
1000
0000
0000
0000
0000
0001
,
0000
1000
0010
0000
,
0100
0010
0000
0010
,
0010
0100
0000
0001
,
1000
0000
0001
0000
1000
0000
0000
1000
,
0000
0000
0001
0000
0100
0000
0000
0010
,
0000
0000
0100
0000
0001
0000
0000
1000
,
0000
0000
0000
0001
0000
0000
0000
1000
,
0000
0001
0000
0001
0000
1000
0000
2002
,
0000
0000
0000
3003
,
0001
0001
0000
0100
,
0000
0010
0000
1000
,
1000
0000
0001
0000
,
1000
0000
0001
0000
,
0100
0000
0100
0000
,
0001
0000
0010
0000
,
0010
0000
0001
0000
,
1000
0000
0000
0001
,
0001
0000
0100
0000
,
0010
0000
0000
0010
,
1000
0000
0001
0000
,
1000
0000
0010
0000
,
0100
0000
0001
0000
,
1000
0000
0001
0000
,
2000
3000
0002
0003
,
2002
0000
0000
3003
,
1000
0010
0000
0010
,
0100
0010
0000
0100
,
0100
0001
0100
0000
,
0001
0000
1000
0000
,
0010
0000
1000
0100
,
0100
0000
1000
0000
,
0001
0000
0100
0010
,
0100
0000
0000
0001
,
1000
0000
0010
0000
,
0100
0000
0001
1000
,
0001
0000
1000
0000
,
2002
0000
0000
3003
,
1000
1000
0000
0001
,
0000
1000
0001
1000
,
0010
0100
0010
0010
,
0020
0000
0000
0030
,
0100
0100
0100
0100
,
0002
0000
0000
0003
,
1000
1000
1000
1000
,
1000
0000
0001
0000
,
0100
0000
0010
0000
,
0100
0000
0001
0001
,
1000
0000
0001
1000
,
1000
0000
0001
0000
,
1001
0000
0000
0000
,
2000
0000
0000
0000
,
3000
0000
0001
0010
,
0200
0000
0000
0000
,
0300
0000
1000
0010
,
0100
0001
0000
1000
,
0000
0001
0100
0010
,
1000
0100
0000
0010
,
0000
0001
1000
0001
,
1000
0000
0010
0000
,
0001
0000
0100
1000
,
0001
0000
1000
0000
,
0001
1000
0001
1000
,
0002
0003
0020
0030
,
0200
0300
2000
3000
,
0001
0010
0100
1000
,
2002
0000
0000
3003
,
0001
0001
0100
0100
,
0010
0100
0010
1000
,
0001
1000
1000
0100
,
0010
0001
1000
0010
,
0200
0300
0002
0003
,
1000
0100
1000
0100
,
0001
0100
0001
0100
,
0010
1000
2002
0000
,
0000
0000
0000
0000
0000
3003
0000
0000
;

//--------------- dance-single - Fred-104 ----------------
#NOTES:
     dance-single:
     Fred-104:
     Easy:
     9:
     :
0000
0000
0000
0000
,
0000
0000
0000
0000
,
0000
0000
0000
0000
,
0000
0000
0000
0000
,
0000
0000
0000
0000
,
0000
0000
0000
0000
,
0001
0100
0010
0100
,
0100
0001
0100
0010
,
1000
0100
0010
0001
,
1000
0000
0001
0000
0100
0100
0000
0110
,
0000
0010
1000
0001
,
0100
0100
0010
0000
,
1000
1000
0100
0100
,
0001
0000
0001
0000
0010
0000
0000
0110
,
0000
0000
1000
0000
0001
0000
0000
0101
,
0000
0000
0100
0000
0010
0000
0000
1010
,
0000
0000
0000
1001
0000
0000
0000
0101
,
0000
0100
0000
0010
0000
0100
0000
2002
,
0000
0000
0000
3003
,
0001
0100
0010
1000
,
0100
0100
0010
0001
,
1000
0010
0200
0300
,
0001
1000
0010
0100
,
0100
0010
1000
0100
,
0010
0001
1000
0010
,
0100
0001
1000
0000
,
0002
0000
0000
0000
0000
0003
1001
0000
,
0001
0010
1000
0001
,
2000
0000
0000
0000
0000
3000
1100
0000
,
1000
0000
0100
0000
0000
0001
0000
0100
,
2000
3010
0100
0100
,
0002
0013
0100
0100
,
1000
0010
1000
0000
0001
0100
0001
0000
,
2000
3200
0320
0031
,
2002
0000
0000
3003
,
0001
0000
0100
0000
0010
1000
0001
0000
,
1000
0000
0100
0000
0010
0100
0010
0000
,
0001
1000
2002
3003
,
0001
0100
0001
0000
0100
0000
0100
0000
,
1000
0001
1000
0001
,
1000
0100
1000
0000
0100
0000
0100
0000
,
0001
1000
0001
1000
,
0001
0010
0001
0000
1000
0000
0001
0000
,
0100
0010
0100
0000
0001
0000
0001
0000
,
1000
0010
1000
0000
0001
0100
0001
0000
,
1000
0010
0100
0001
,
2002
0000
0000
3003
,
0001
0001
0100
0100
,
0010
0010
1000
1000
,
0100
0100
0010
0010
,
1001
0000
0100
0000
,
0011
0001
1000
0010
,
0110
0000
0100
0000
,
0101
0001
1000
0100
,
1000
0000
0010
0000
0100
0010
0100
0000
,
0001
0000
1000
0000
0010
1000
0001
0000
,
0100
0000
0100
0000
0001
0010
0001
0000
,
1000
0000
0010
0000
0100
0001
0100
0000
,
0001
0010
0001
0000
1000
0001
1000
0000
,
2002
0000
0000
3003
,
0001
0001
0100
0100
,
0010
0000
0010
0000
1000
0100
1000
0000
,
1000
1000
0010
0010
,
0100
0000
0100
0000
0001
0100
0100
0000
,
0010
1000
0100
0010
,
0001
0000
1000
0000
0001
0010
0001
0000
,
0001
0100
0010
1000
,
0001
0000
0100
0000
0010
0100
0100
0000
,
0001
0000
0100
0000
,
0010
1000
0001
1001
,
1000
0100
0010
0001
,
1000
0100
1000
0000
0001
0100
0001
0000
,
2000
3200
0320
0032
,
2003
3200
0320
0032
,
1003
0100
0010
0000
0001
0100
0010
0000
,
2002
0000
0000
3003
,
2000
3002
0203
0320
,
1030
0000
0100
1000
0100
0000
0010
0001
,
0010
0001
1000
1000
,
0001
0000
0100
0000
0010
0100
0010
0000
,
2000
0000
3010
0100
,
0001
0010
0001
0010
,
1000
0100
1000
0100
,
0001
1000
0001
0000
2002
0000
0000
0000
,
0000
0000
0000
0000
0000
3003
0000
0000
;

//--------------- dance-single - Fred-104 ----------------
#NOTES:
     dance-single:
     Fred-104:
     Medium:
     13:
     :
0000
0000
0000
0000
,
0000
0000
0000
0000
,
0000
0000
0000
0000
,
0000
0000
0000
0000
,
0000
0000
0000
0000
,
0000
0000
0000
0000
,
0001
0010
0100
0010
0100
1000
0001
0100
,
0010
0100
0001
0100
1000
0100
0001
1000
,
0010
0100
0001
0010
0001
1000
0010
0001
,
1000
0100
0001
0010
0100
1000
0000
0101
,
0000
0010
1000
0100
1000
0001
0100
0010
,
0100
0001
0010
0100
0010
0001
1000
0010
,
0100
1000
0100
0001
1000
0010
0001
0010
,
0100
0001
0010
0001
1000
0100
0010
1001
,
0000
0010
0100
0001
0010
0001
0100
1100
,
0000
1000
0010
0100
0010
1000
0001
0110
,
0000
0001
0010
1100
0000
1000
0010
0101
,
0000
0010
0100
1001
0000
1000
0001
0200
,
0000
0000
0000
0000
0000
0300
0110
0000
,
0001
0100
0001
0010
0100
1000
0010
0100
,
0001
1000
0010
0000
1000
0100
0010
0000
,
0001
0000
0100
0000
0010
0000
0100
0000
0001
0000
0000
1000
0000
0000
0001
0000
,
1000
0010
0100
0010
1000
0100
0010
0000
,
0001
0010
1000
0000
0010
0001
0100
0000
,
0001
0100
0010
0000
1000
0001
0100
0000
,
0001
0000
0010
0000
1000
0000
0000
0000
0010
0000
0000
0001
0000
0000
1000
0000
,
0002
0100
1003
1001
,
0011
1000
1010
0001
,
2000
0010
3001
1001
,
0110
0000
1001
0000
0000
0010
0000
0010
,
0100
0010
1000
0100
0010
0100
0001
0100
,
1000
0001
0010
1000
0001
0100
0010
0100
,
0001
0010
0100
1000
0001
1000
0001
0000
,
2000
3020
0230
0301
,
2002
0000
0000
3003
,
2000
0000
3001
0010
1000
0010
0001
0100
,
0010
0100
1000
0100
0010
1000
0010
0001
,
1000
0000
0000
0000
0001
0000
0000
0000
0100
0000
0000
0100
0000
0000
0100
0000
,
0010
1000
0001
1000
0100
0010
0001
0100
,
0010
0100
0001
0010
1000
0010
0001
1000
,
0100
1000
0010
0100
0001
0100
1000
0100
,
0010
1000
0100
0001
0100
1000
0010
0100
,
0002
0100
1003
1001
,
0001
0010
0100
1000
0010
0100
0001
1000
,
0100
0010
0001
0100
0010
1000
0001
0100
,
0010
0100
0001
1000
0100
0010
0001
0000
,
2002
0000
0000
3003
,
0001
0000
0000
0001
0100
0000
0000
0100
1000
0000
0000
1000
0100
0000
0000
0100
,
0010
0000
0000
0010
1000
0000
0000
1000
0100
0000
0000
0100
0001
0000
0100
0000
,
0010
0000
0000
0010
1000
0000
0000
1000
0100
0000
0000
0100
1000
0000
0000
1000
,
0001
0100
0010
1000
0100
0010
0001
1000
,
0002
0100
1003
1010
,
0100
0001
1000
0100
0010
0001
0100
0010
,
0200
0001
1300
1001
,
0100
1000
0100
0001
0100
0010
0100
0001
,
0100
0010
0100
1000
0100
0010
0100
1000
,
0100
0001
0010
1000
0010
0001
0100
0001
,
1000
0100
0010
0100
1000
0010
0001
1000
,
0100
0001
0010
0001
0100
0010
1000
0100
,
0001
0100
1000
0010
0100
0001
0100
0010
,
2000
0000
0001
0000
0100
0000
0010
0010
,
0020
0000
3030
0000
0001
0010
0100
1000
,
0002
0000
1000
0000
0010
0000
0100
0100
,
0200
0000
0303
0000
1000
0001
0100
0001
,
0010
0000
0000
0010
0100
0000
0000
0100
1000
0000
0000
1000
0010
0000
0000
0100
,
0001
0000
0000
0001
1000
0000
0000
0010
0100
0000
0001
0000
0100
0000
0010
0000
,
1000
0000
0000
1000
0100
0000
0000
0100
0001
0000
0000
0001
0100
0000
0000
0100
,
1000
0000
0000
1000
0001
0000
0000
0001
0100
0000
0010
0000
1000
0000
0001
0000
,
1000
0100
1000
0100
1000
0010
1000
0010
,
0001
0010
0001
0010
0100
0001
1001
0000
,
0010
0100
1000
0010
0100
0001
0100
0010
,
1000
0100
0010
0001
1000
0100
0001
0100
,
2000
3000
0000
0000
0200
0000
0300
0000
0020
0000
0000
0030
0002
0000
0000
0000
,
2003
3000
0000
0000
0200
0000
0300
0000
0020
0000
0000
0030
0002
0000
0000
0000
,
1003
0100
0010
0001
1000
0010
0100
0001
,
0100
0010
0100
0010
0100
0010
0100
0010
0100
0000
0010
0000
0110
0000
0000
0000
,
0001
0100
0010
0100
0001
0010
1000
0001
,
0100
0010
0100
1000
0010
1000
0001
0100
,
0001
1000
0100
0010
0100
1000
0010
0100
,
0001
0010
0001
0100
0001
1000
0100
0010
,
0001
1000
0010
0100
0010
1000
0100
0010
,
0100
1000
0001
0100
0010
0100
0001
0010
,
0100
1000
0010
0100
0001
0010
0100
1000
,
0001
1000
0100
0010
2002
0000
0000
0000
,
0000
0000
0000
0000
0000
3003
0000
0000
;

//--------------- dance-single - Fred-104 ----------------
#NOTES:
     dance-single:
     Fred-104:
     Hard:
     17:
     :
0000
0000
0000
0000
,
0000
0000
0000
0000
,
0000
0000
0000
0000
,
0000
0000
0000
0000
,
0000
0000
0000
0000
,
0000
0000
0000
0000
,
1000
0000
1000
0100
1000
0000
1000
0000
0001
0000
0001
0100
0001
0000
0001
0000
,
0100
0000
0100
0010
0100
0000
0100
0000
0001
0000
0001
1000
0001
0000
0001
0000
,
1000
0000
0100
0010
0100
0000
0010
0000
0001
0000
0100
0010
0100
0000
0010
0000
,
1000
0000
0001
1000
0100
0000
1000
0000
0001
0000
1001
0000
0000
0000
1100
0000
,
0000
1100
1001
0000
0001
0100
0010
1000
,
0001
0000
0010
0100
1000
0000
0010
0000
0100
0000
0001
1000
0100
0000
0010
0000
,
0001
0100
0001
0100
0010
0100
0010
0000
1000
0100
1000
0100
0010
0100
0010
0000
,
0001
0100
0010
0100
0001
0100
0010
0100
0001
0000
1000
0000
0001
0000
1001
0000
,
0000
0010
0100
0000
0001
0100
0010
1000
0001
0000
0010
0000
0010
0000
0011
0000
,
0000
0100
0010
0000
1000
0001
0100
0001
1000
0100
0010
0001
0100
0010
0100
0000
,
0000
0001
0100
0000
0010
0000
1010
0000
0000
1000
0100
0000
0010
0000
0011
0000
,
0000
0001
1000
0010
0100
0010
1000
0100
0010
0001
1000
0001
0100
0000
0220
0000
,
0000
0000
0000
0330
,
1000
0000
0100
0000
0010
0001
0000
1000
0001
0000
0100
0000
1000
0000
0100
0000
,
0001
0100
0001
0000
0100
0010
0000
1000
0010
0000
1000
0000
0100
0010
0000
0010
,
0001
0000
1000
0010
0000
0100
0001
0000
0200
0000
0000
0320
0000
0000
0230
0000
,
0301
0000
0010
0000
0100
1000
0000
0010
0100
0000
0100
0000
0001
0000
0010
0000
,
0001
0010
0100
0000
1000
0010
0000
0010
1000
0000
0001
0000
0100
0000
0010
0000
,
0100
0001
1000
0000
0001
0010
0000
0100
0010
0000
0001
0000
0001
0100
0000
0100
,
0010
0000
1000
0100
0000
0100
0010
0000
0001
0000
0010
0001
0000
1000
0001
0100
,
0002
0010
1003
1001
,
0001
0000
0000
0000
0000
0000
0000
0000
0100
0000
0000
0000
0000
0000
0000
0000
0010
0000
0000
0000
0000
0000
0000
0000
0100
0000
0000
0000
0000
0000
0000
0000
1000
0000
0000
0000
0000
0000
0000
0000
0100
0000
0000
0000
0000
0000
0000
0000
0020
0030
0000
0000
0000
0000
0000
0000
0020
0030
0000
0000
1000
0000
0000
0000
,
0001
0000
0000
0000
0100
0000
0000
0000
0001
0000
0000
0000
0000
0000
0000
0000
0200
0300
0000
0000
0000
0000
0000
0000
0200
0300
0000
0000
1000
0000
0000
0000
0001
0000
0000
0000
0100
0000
0000
0000
0001
0000
0000
0000
0100
0000
0000
0000
0010
0000
0000
0000
0000
0000
0000
0000
1000
0000
0000
0000
0001
0000
0000
0000
,
1000
0100
0001
0100
0000
1100
0000
0101
,
1000
0100
0010
0001
1000
0000
0010
0000
0100
0001
0100
0000
0001
0000
0001
0000
,
0100
0010
0100
0001
0100
0000
0001
0000
0100
0000
0010
0000
1000
0000
0001
0000
,
1000
0010
0100
0000
0001
0100
0010
0000
1000
0100
0010
0001
0010
0000
0100
1000
,
0002
0203
2300
3001
,
2001
0000
0000
0000
3010
0100
0000
0100
0000
0000
0001
0000
1000
0000
0001
0000
,
0201
0000
0000
0000
0310
0100
0000
0001
0100
0000
0100
0000
0010
0000
1000
0000
,
0100
0000
0010
0000
0001
0100
0000
0100
1000
0000
0100
0000
0010
1000
0000
1000
,
0001
0000
0010
0100
0000
0100
1000
0000
0001
0000
1000
0100
0000
0010
0001
0010
,
0100
1000
0100
1000
0100
0000
1000
0000
0001
0000
0100
0010
0100
0000
0001
0000
,
2000
0100
3002
0100
2003
0010
3002
0010
,
1003
0001
0100
0001
0100
0000
0010
0000
0100
0000
0001
0010
0100
0000
1000
0000
,
0002
0100
2003
0100
3002
0010
2003
0010
,
3001
0100
0010
1000
0010
0000
0100
0000
0001
0000
0001
0000
1001
0000
0000
0000
,
1000
0000
0000
0000
0100
0000
0000
0000
0010
0000
0000
0000
0001
0000
0000
0000
1000
0000
0000
0000
0000
0000
0000
0000
0020
0030
0000
0000
0000
0000
0000
0000
0020
0030
0000
0000
0000
0000
0000
0000
0001
0000
0000
0000
0100
0000
0000
0000
0001
0000
0000
0000
0000
0000
0000
0000
1000
0000
0000
0000
0000
0000
0000
0000
,
0001
0100
0001
0000
1000
0100
1000
0000
0001
0100
0010
1000
0010
0100
0001
1000
,
0001
0000
0100
0010
0100
0000
0001
0000
1000
0000
0010
0100
0010
0000
1000
0000
,
2002
0000
0000
3003
,
1000
0000
0010
0100
0010
0000
1000
0000
0001
0000
0010
0100
0010
0000
0001
0000
,
1000
0000
0100
0010
0100
0000
1000
0000
0001
0000
0100
0010
0100
0000
0001
0000
,
1000
0000
0010
0001
0010
0000
0100
0000
0001
0000
0010
1000
0010
0000
0100
0000
,
1000
0000
0001
1000
0001
0000
1000
0100
0010
0000
0100
0000
0001
0100
1000
0000
,
1010
0011
1100
0101
,
1000
0010
0100
0001
1000
0000
0001
0010
0100
0000
0010
0001
1000
0001
0100
0010
,
1000
0000
0010
1000
0100
0000
0010
0001
0100
0000
0010
1000
0001
0000
0000
0000
,
1000
0100
0001
0100
1000
0100
0010
0001
,
0101
0000
0001
0000
1100
0000
1000
0000
0001
0000
0100
0010
0000
0010
0100
0000
,
0001
0000
0000
0000
0000
0000
0000
0000
0100
0000
0000
0000
0000
0000
0000
0000
0110
0000
0000
0000
0000
0000
0000
0000
0000
0000
0000
0000
0000
0000
0000
0000
1000
0000
0000
0000
0010
0000
0000
0000
1000
0000
0000
0000
0000
0000
0000
0000
0020
0030
0000
0000
0000
0000
0000
0000
0020
0030
0000
0000
0000
0000
0000
0000
,
0001
0100
0120
0000
2030
3200
0302
0203
,
1300
0000
0020
0000
0230
0000
0302
0000
1003
0100
0000
0010
0100
0000
0010
0000
,
0001
0000
0100
0001
0100
0000
0001
0010
0100
0000
1000
0100
1000
0000
0001
0000
,
1000
0100
0010
0001
1000
0000
0001
0100
0001
0000
0100
0010
1000
0001
0010
0000
,
0100
1000
0001
0000
0100
0010
1000
0000
1010
0000
0010
0000
0110
0000
0100
0000
,
0101
0000
0001
1000
0001
0000
0100
0010
1000
0000
0001
0010
0100
1000
0001
0000
,
1000
0100
0001
0000
0100
1000
0010
0000
0110
0000
0100
0000
0101
0000
0001
0000
,
1001
0000
1000
0010
0100
0000
0001
0100
0001
0000
0100
0000
0010
0000
0100
0000
,
0001
0100
0010
0000
1000
0000
0010
0100
0002
0000
0023
0000
0230
0000
2300
0000
,
3001
0000
0100
0010
0100
0000
0001
0100
0010
1000
0100
0010
0001
0000
1000
0010
,
0100
0001
0100
0010
1000
0001
0010
0000
0002
0000
2003
0000
3020
0000
0230
0000
,
0301
0001
1000
0100
0010
1000
0010
0001
,
1000
0010
0100
1000
0100
0001
1001
0000
,
1000
1000
1000
1000
0001
0001
0001
0001
,
0100
0000
0100
0000
0010
0000
0010
0000
1000
0100
0010
0001
1000
0100
0010
0001
,
2000
3000
0000
0000
0200
0000
0300
0000
0002
0000
0000
0003
0020
0000
0000
0000
,
2030
3000
0000
0000
0200
0000
0300
0000
0002
0000
0000
0003
0020
0000
0000
0000
,
1030
0100
0010
0001
1000
0010
0100
0001
,
1000
0100
1000
0100
0010
0001
0010
0001
1000
0010
0100
0001
1000
0000
0000
0000
,
0001
0000
0010
0000
0100
1000
0100
0000
1000
0010
0100
0010
1000
0000
1000
0000
,
0001
0000
0000
0000
0000
0000
0000
0000
0010
0000
0000
0000
0000
0000
0000
0000
0200
0300
0000
0000
0000
0000
0000
0000
0200
0300
0000
0000
0000
0000
0000
0000
0001
0000
0000
0000
0000
0000
0000
0000
1000
0000
0000
0000
0100
0000
0000
0000
1000
0000
0000
0000
0000
0000
0000
0000
0010
0000
0000
0000
0000
0000
0000
0000
,
0100
0001
0100
0010
0100
0001
0100
0010
1000
0100
0010
0001
0010
0100
1000
0001
,
0200
0000
0000
0300
0000
0000
0000
0000
0000
0000
0000
0000
0000
0000
0000
0000
0000
0000
0000
0000
0000
0000
0000
0000
0200
0000
0000
0300
0000
0000
0000
0000
0000
0000
0000
0000
0000
0000
0000
0000
0000
0000
0000
0000
0000
0000
0000
0000
1000
0000
0000
0000
0000
0000
0000
0000
0000
0000
0000
0000
0001
0000
0000
0000
0000
0000
0000
0000
0000
0000
0000
0000
1000
0000
0000
0000
0000
0000
0000
0000
0000
0000
0000
0000
0001
0000
0000
0000
0000
0000
0000
0000
0000
0000
0000
0000
0010
0000
0000
0000
0000
0000
0000
0000
0000
0000
0000
0000
0000
0000
0000
0000
0100
0000
0000
0000
0000
0000
0000
0000
0000
0000
0000
0000
0000
0000
0000
0000
1000
0000
0000
0000
0000
0000
0000
0000
0000
0000
0000
0000
0000
0000
0000
0000
0010
0000
0000
0000
0000
0000
0000
0000
0000
0000
0000
0000
0000
0000
0000
0000
0100
0000
0000
0000
0000
0000
0000
0000
0000
0000
0000
0000
0000
0000
0000
0000
0001
0000
0000
0000
0000
0000
0000
0000
0000
0000
0000
0000
0000
0000
0000
0000
,
1000
0100
1000
0100
0010
0001
0010
0000
0002
0000
0103
0000
2000
0000
3100
0000
,
0001
0010
0100
1000
0001
0100
0010
1000
,
0001
0010
0001
0100
0001
0010
0100
1000
0010
0100
0001
0100
0010
1000
0010
0100
,
0001
0010
0100
1000
2002
0000
0000
0000
,
0000
0000
0000
0000
0000
3003
0000
0000
;

//--------------- dance-double - Fred-104 ----------------
#NOTES:
     dance-double:
     Fred-104:
     Easy:
     10:
     :
00000000
00000000
00000000
00000000
,
00000000
00000000
00000000
00000000
,
00000000
00000000
00000000
00000000
,
00000000
00000000
00000000
00000000
,
00000000
00000000
00000000
00000000
,
00000000
00000000
00000000
00000000
,
00010000
00001000
00000000
00000100
00000000
00000001
00000000
00000010
,
00000000
00000100
00000000
00001000
00000000
00000010
00000100
00000001
,
00000100
00000010
00000000
00001000
00000000
00000100
00000000
00001000
,
00000000
00000010
00000000
00010000
00001000
00100000
00000000
00011000
,
00000000
00100000
10000000
00000000
00010000
00100000
00010000
00000000
,
10000000
00100000
10000000
00000000
01000000
10000000
01000000
00000000
,
00010000
01000000
00010000
00000000
00001000
00010000
00001000
00000000
,
00000010
00001000
00000010
00000000
00000001
00000010
00000001
00000100
,
00000000
00001000
00000100
00000000
00000001
00000010
00000100
00001000
,
00000000
00000010
00001000
00000000
00000001
00000100
00000010
00001000
,
00000000
00000100
00010000
00001000
00000000
00010000
00001000
00100000
,
00000000
01000000
00000000
10000000
00000000
00100000
00000000
02200000
,
00000000
00000000
00000000
03300000
,
00010000
00000000
10000000
00000000
01000000
00100000
01000000
00000000
,
00100000
00000000
00001000
00000000
00010000
00001000
00010000
00000000
,
00000100
00000000
00000000
00000000
00010000
00000000
00000000
00000000
00001000
00000000
00000000
00010000
00000000
00000000
00010000
00000000
,
00001000
00000000
00100000
00000000
00010000
10000000
00010000
00000000
,
01000000
00000000
00100000
00000000
10000000
01000000
00100000
00000000
,
00001000
00000000
00010000
00000000
00000010
00001000
00000100
00000000
,
00001000
00000000
00000000
00000000
00000001
00000000
00000000
00000000
00000100
00000000
00000000
00001000
00000000
00000000
00010000
00000000
,
02000000
00000000
03000000
01100000
,
10000000
01000000
00100000
00001000
,
00020000
00000000
00030000
00011000
,
00001000
00000000
00000100
00000000
00000000
00000010
00000000
00000010
,
00000001
00000100
00000010
00000000
00001000
00000000
00000100
00000000
,
00010000
00001000
00010000
00000000
00100000
00000000
10000000
00000000
,
00010000
10000000
00010000
00000000
10000000
00000000
01000000
00000000
,
00100000
00001000
00010000
00000100
,
00002200
00000000
00000000
00003300
,
00000001
00000000
00000100
00000000
00000010
00001000
00000100
00000000
,
00010000
00000000
00001000
00000000
00100000
00010000
10000000
00000000
,
00010000
00000000
00000000
00000000
01000000
00000000
00000000
00000000
00100000
00000000
00000000
00100000
00000000
00000000
10000000
00000000
,
00010000
00000000
10000000
00000000
01000000
10000000
00100000
00000000
,
01010000
00110000
10100000
11000000
,
00010000
00000000
00001000
00000000
00000010
00000100
00001000
00000000
,
00000011
00001100
00000101
00001010
,
00002002
00000000
00003003
00000110
,
00000001
00000010
00000001
00000000
00001000
00000010
00001000
00000000
,
00000001
00000100
00000001
00000000
00001000
00000100
00001000
00000000
,
00000001
00000100
00000010
00000000
00010000
00000000
00001000
00000000
,
00022000
00000000
00033000
00011000
,
01000000
10000000
00100000
00010000
,
00100000
10000000
01000000
00000000
00100000
00010000
01000000
00000000
,
00010000
00001000
00000100
00000010
,
00000002
00000000
00002003
00000000
,
00003010
00000001
00000100
00000000
00000001
00000010
00000100
00000000
,
00002000
00000000
00003002
00000103
,
00000001
00000010
00001000
00000000
00010000
00100000
10000000
00000000
,
00100000
01000000
00000000
00010000
00000000
10000000
00000000
01000000
,
00100000
00000000
01000000
00000000
00100000
00000000
00000000
00000000
10000000
00000000
00000000
01000000
00000000
00000000
00100000
00000000
,
00001000
00010000
00001000
00000000
00000010
00000100
00000001
00000000
,
00000100
00000010
00001000
00000000
00000010
00000100
00000001
00000100
,
00000000
00000010
00001000
00000100
00000010
00000000
00000001
00000000
,
00000100
00000010
00010000
00001000
,
01000000
10010000
00110000
11000000
,
01100000
00000000
00000000
00000000
10000000
00100000
01000000
00000000
,
01000000
01010000
00011000
00001010
,
00000101
00000000
00000000
00000000
00000001
00000010
00000100
00000000
,
00000010
00001000
00000100
00000001
,
00000010
00000001
00000100
00000000
00000010
00001000
00000100
00000000
,
00010000
00001000
00010000
00100000
,
10000000
00010000
01000000
00000000
00100000
10000000
01000000
00000000
,
00100000
01000000
10000000
00100000
,
00010000
00001000
00000010
00001001
,
00000100
00001000
00000010
00000000
00000100
00000001
00000010
00000000
,
00000001
00000100
00001000
00000000
00010000
01000000
10000000
00000000
,
00020000
00230000
02300000
23000000
,
30200000
02300000
03020000
20030000
,
32000000
03020000
00032000
00003020
,
00000031
00000100
00000001
00000000
00001000
00000100
00000100
00000000
,
00000010
00000001
00001000
00000000
00000010
00001000
00000100
00000000
,
00010000
00000000
00001000
00000000
00100000
00010000
01000000
00000000
,
00010000
10000000
01000000
00000000
00100000
00010000
01000000
00000000
,
00001000
00000000
01000000
00000000
00100000
00010000
00001000
00000000
,
00000100
00000001
00000010
00000000
00000001
00001000
00000010
00000000
,
00000100
00000000
00000001
00000000
00000010
00001000
00010000
00000000
,
01000000
00100000
00010000
00000000
10000000
01000000
00010000
00000000
,
00001000
00010000
01000000
00000000
20020000
00000000
00000000
00000000
,
00000000
00000000
00000000
00000000
00000000
30030000
00000000
00000000
;

//--------------- dance-double - Fred-104 ----------------
#NOTES:
     dance-double:
     Fred-104:
     Medium:
     13:
     :
00000000
00000000
00000000
00000000
,
00000000
00000000
00000000
00000000
,
00000000
00000000
00000000
00000000
,
00000000
00000000
00000000
00000000
,
00000000
00000000
00000000
00000000
,
00000000
00000000
00000000
00000000
,
00000001
00001000
00000010
00000100
00000001
00001000
00000100
00000000
,
00000010
00000001
00000100
00000010
00001000
00000010
00000001
00000000
,
00000010
00000100
00001000
00010000
01000000
10000000
00100000
00000000
,
01000000
00010000
10000000
01000000
00100000
01000000
00000000
10010000
,
00000000
00100000
01000000
10000000
01000000
00010000
00100000
00001000
,
00010000
00000010
00000001
00000100
00000010
00000100
00000001
00000100
,
00001000
00000100
00000010
00000100
00000001
00000010
00000100
00001000
,
00010000
00001000
00000010
00000100
00000010
00001000
00000000
00000101
,
00000000
00000010
00001000
00010000
01000000
10000000
00000000
01010000
,
00000000
00100000
10000000
01000000
00100000
00010000
00000000
00011000
,
00000000
00000010
00000100
00001000
00000000
00000010
00000100
00000001
,
00000000
00001000
00000010
00000100
00000000
00000001
00000100
00002000
,
00000000
00000000
00000000
00000000
00000000
00003000
00011000
00000000
,
00001000
00010000
00100000
10000000
00010000
01000000
10000000
01000000
,
00100000
10000000
00100000
00010000
00001000
00010000
01000000
00000000
,
00001000
00000000
00010000
00000000
00000100
00000000
00001000
00000000
00000100
00000000
00000000
00000010
00000000
00000000
00000100
00000000
,
00000001
00000010
00000100
00000010
00001000
00000010
00000001
00001000
,
00000001
00000100
00000010
00000100
00001000
00010000
01000000
00000000
,
10000000
00100000
01000000
00100000
10000000
01000000
00100000
00001000
,
00010000
00000000
00001000
00000000
00000100
00000000
00000010
00000000
00001000
00000000
00000000
00010000
00000000
00000000
00100000
00000000
,
02000000
10000000
03010000
10010000
,
11000000
00100000
00011000
00000100
,
00002000
00000010
00003001
00001001
,
00000110
00000000
00001001
00000000
00000000
00000010
00000000
00010000
,
00001000
00100000
00010000
00100000
10000000
00100000
01000000
00000000
,
00010000
10000000
01000000
00010000
00001000
00000100
00000001
00000000
,
00001000
00000100
00000001
00000100
00000010
00001000
00000001
00000010
,
00000200
00002300
00023000
01030000
,
02200000
00000000
00000000
03300000
,
00200000
00000000
10300000
01000000
00100000
00010000
10000000
00100000
,
01000000
00000000
00001000
00010000
00000100
00000010
00000001
00001000
,
00000010
00000000
00000000
00000000
00000001
00000000
00000100
00000000
00001000
00000000
00000000
00001000
00000000
00000000
00001000
00000000
,
00010000
00001000
00000100
00000001
00001000
00000100
00000010
00000000
,
00000001
00000010
00000000
00000000
00000100
00001000
00000000
00000000
00000010
00001000
00000000
00000000
00000001
00000100
00000000
00000000
,
00000010
00000100
00001000
00010000
00100000
10000000
00010000
00000000
,
01000000
00010000
00000000
00000000
10000000
01000000
00000000
00000000
00100000
00010000
00000000
00000000
10000000
00100000
00000000
00000000
,
02000000
10000000
03100000
10010000
,
00100000
00010000
01000000
00010000
10000000
01000000
00100000
00000000
,
01000000
10000000
00100000
00010000
00001000
00000010
00000001
00000000
,
00000010
00000100
00001000
00000001
00000100
00000010
00001000
00000000
,
00022000
00000000
00033000
10010000
,
10000000
00000000
00000000
10000000
00100000
00000000
00000000
00100000
01000000
00000000
00000000
01000000
00010000
00000000
00000000
00010000
,
01000000
00000000
00000000
01000000
00001000
00000000
00000000
00001000
00010000
00000000
00000000
00010000
00000100
00000000
00000000
00000100
,
00001000
00000000
00000000
00001000
00000010
00000000
00000000
00000010
00000100
00000000
00000000
00000100
00000001
00000000
00000000
00000001
,
00001000
00000010
00000001
00000010
00001000
00010000
00001000
00000100
,
00002000
00010000
01003000
01100000
,
10000000
00100000
00010000
00001000
00010000
01000000
00010000
00001000
,
00000020
00000001
00001030
00001001
,
00000001
00000100
00001000
00000100
00000001
00000100
00001000
00010000
,
01000000
10000000
01000000
00100000
01000000
00010000
01000000
10000000
,
00100000
00010000
00100000
01000000
00100000
10000000
00100000
00010000
,
00001000
00000010
00000001
00000010
00000100
00000010
00001000
00000010
,
00000001
00000100
00000010
00001000
00000100
00010000
00001000
00100000
,
00010000
01000000
00100000
10000000
01000000
00010000
00001000
00000010
,
00000001
00000000
00001000
00000000
00000010
00000000
00000100
00000001
,
00000020
00000000
00000000
00000000
00000031
00000100
00000010
00001000
,
00000001
00000000
00000010
00000000
00000100
00000000
00000010
00000001
,
00000200
00000000
00000000
00000000
00001300
00010000
01000000
10000000
,
00100000
00000000
01000000
00010000
10000000
01000000
00100000
01000000
,
10000000
00000000
00100000
00000000
10000000
01000000
10000000
00100000
,
01000000
00000000
10000000
01000000
00010000
00001000
00000100
00000001
,
00000010
00000000
00000100
00000000
00001000
00000010
00000100
00000001
,
00001010
00001100
00000101
00000011
,
00001001
00001100
00000110
00000101
,
00000010
00000100
00001000
00000010
00000100
00000001
00000100
00000010
,
00000001
00000010
00001000
00010000
01000000
10000000
01000000
00100000
,
20000000
30000000
00000000
00000000
02000000
00000000
03000000
00000000
00200000
00000000
00000000
00300000
00020000
00000000
00000000
00000000
,
00032000
00003000
00000000
00000000
00000200
00000000
00000300
00000000
00000020
00000000
00000000
00000030
00000002
00000000
00000000
00000000
,
00001003
00000100
00000001
00001000
00000100
00000010
00010000
00001000
,
00000100
00000010
00000100
00000010
00000100
00000010
00000100
00000010
00000100
00000000
00000010
00000000
00001001
00000000
00000000
00000000
,
00000001
00000100
00000010
00000100
00000001
00000010
00001000
00000000
,
00010000
00100000
01000000
00010000
00100000
01000000
10000000
00000000
,
00100000
10000000
01000000
00100000
00001000
00010000
01000000
00000000
,
10000000
00100000
00010000
00001000
00010000
00001000
00000100
00000000
,
00000001
00001000
00000010
00000100
00000010
00001000
00000100
00000010
,
00000001
00000100
00001000
00010000
00100000
10000000
01000000
00000000
,
00010000
00001000
00000100
00001000
00100000
00010000
01000000
00001000
,
00010000
00000010
00000100
00001000
00022000
00000000
00000000
00000000
,
00000000
00000000
00000000
00000000
00000000
00033000
00000000
00000000
;

//--------------- dance-double - Fred-104 ----------------
#NOTES:
     dance-double:
     Fred-104:
     Hard:
     17:
     :
00000000
00000000
00000000
00000000
,
00000000
00000000
00000000
00000000
,
00000000
00000000
00000000
00000000
,
00000000
00000000
00000000
00000000
,
00000000
00000000
00000000
00000000
,
00000000
00000000
00000000
00000000
,
00000001
00000000
00000010
00000001
00000010
00000000
00000100
00000000
00010000
00000000
00001000
00010000
00001000
00000000
00100000
00000000
,
01000000
00000000
10000000
00010000
10000000
00000000
01000000
00000000
00100000
00000000
00001000
00010000
00001000
00000000
00000100
00000000
,
00000010
00000000
00000001
00000100
00000001
00000000
00000100
00000000
00000010
00000000
00001000
00000100
00001000
00000000
00000100
00000000
,
00010000
00000000
00001000
00100000
00010000
00000000
10000000
00000000
01000000
00000000
11000000
00000000
00000000
00000000
10010000
00000000
,
00000000
01010000
01000000
00000000
00001000
00010000
00000100
00001000
,
00000100
00001000
00000100
00000000
00000010
00000000
00000001
00000000
00000100
00000010
00000100
00000000
00000001
00000000
00001000
00000000
,
00000001
00000100
00000001
00000000
00001000
00000100
00001000
00000000
00000010
00001000
00000010
00001000
00000100
00010000
00001000
00000000
,
00100000
00010000
00100000
00010000
01000000
00100000
01000000
00000000
00010000
00000000
10000000
00000000
00010000
00000000
10010000
00000000
,
00000000
10000000
01000000
00000000
00100000
00000000
00001000
00000000
00000010
00000000
00000001
00000000
00001000
00000000
00001001
00000000
,
00000000
00000010
00000100
00000000
00000001
00000100
00000010
00000000
00001000
00000100
00010000
00001000
00010000
00000010
00001000
00000000
,
00000000
00000010
00000100
00000000
00000001
00000000
00001001
00000000
00000000
00000010
00010000
00000000
00001000
00000000
00101000
00000000
,
00000000
00010000
01000000
00010000
01000000
00100000
01000000
00100000
10000000
01000000
00100000
00001000
00010000
00000000
00022000
00000000
,
00000000
00000000
00000000
00033000
,
00001000
00000000
00000100
00000000
00000010
00000100
00000000
00000100
00000010
00000000
00000001
00000000
00001000
00000000
00000001
00000000
,
00000100
00000010
00000100
00000000
00000001
00000010
00000000
00000010
00000001
00000000
00001000
00000000
00000001
00000010
00000000
00000100
,
00010000
00000000
00001000
00010000
00000000
00001000
00100000
00000000
00020000
00000000
00000000
02030000
00000000
00000000
03200000
00000000
,
10300000
00000000
01000000
00000000
00100000
01000000
00000000
00100000
01000000
00000000
00100000
00000000
00001000
00000000
00010000
00000000
,
00100000
01000000
00100000
00000000
01000000
10000000
00000000
01000000
10000000
00000000
00010000
00000000
01000000
00000000
00001000
00000000
,
00010000
00001000
00010000
00000000
00000100
00001000
00000000
00000010
00000100
00000000
00000001
00000000
00001000
00000100
00000000
00000100
,
00000010
00000000
00000001
00000010
00000000
00000100
00000010
00000000
00000001
00000000
00000100
00000010
00000000
00001000
00000001
00000010
,
00000200
00001000
00000310
00000110
,
00000001
00000010
00001000
00010000
00100000
10000000
00010000
01000000
,
00200000
10000000
01300000
01100000
,
00010000
00100000
10000000
00100000
00000000
01100000
00000000
00011000
,
00010000
00000100
00001000
00000100
00000010
00000000
00000001
00000000
00001000
00000010
00000100
00000000
00000001
00000000
00000100
00000000
,
00000010
00001000
00000001
00000010
00000100
00000000
00010000
00000000
00001000
00000000
00000100
00000000
00000001
00000000
00001000
00000000
,
00000001
00000100
00000010
00000000
00001000
00000010
00000100
00000000
00000001
00000010
00000100
00001000
00000001
00000000
00000100
00000010
,
00000200
00000302
00002003
00003100
,
00021000
00000000
00000000
00000000
00031000
00010000
00000000
00010000
00000000
00000000
00100000
00000000
10000000
00000000
00010000
00000000
,
01000000
00000000
00100000
00000000
10000000
01000000
00000000
01000000
00100000
00000000
10000000
00000000
00100000
00000000
00010000
00000000
,
00001000
00000000
00100000
00000000
00001000
00010000
00000000
00000100
00001000
00000000
00000100
00000000
00000010
00000001
00000000
00000010
,
00001000
00000000
00000010
00000100
00000000
00000001
00001000
00000000
00000002
00000000
00000000
00000023
00000000
00000000
00000230
00000000
,
00010300
00001000
00010000
00001000
00010000
00000000
00100000
00000000
01000000
00000000
00100000
01000000
00100000
00000000
01000000
00000000
,
20000000
32000000
03200000
00302000
00023000
00030200
00000320
00000032
,
00001003
00000010
00001000
00000010
00001000
00000000
00000001
00000000
00000100
00000000
00000010
00000100
00000010
00000000
00001000
00000000
,
00000002
00000203
00000320
00020030
00032000
02003000
03200000
20300000
,
30010000
00100000
01000000
10000000
00010000
00000000
01000000
00000000
00001000
00000000
00001000
00000000
00011000
00000000
00000000
00000000
,
00010000
00000100
00001000
00000100
00000010
00000000
00000001
00000000
00001000
00000000
00000010
00000100
00000010
00000000
00001000
00000000
,
00000001
00000100
00000010
00000000
00001000
00000010
00000100
00000000
00000001
00000010
00000100
00001000
00000100
00010000
00001000
00000000
,
00100000
00000000
00010000
01000000
00100000
00000000
10000000
00000000
01000000
00000000
00100000
00001000
00010000
00000000
00001000
00000000
,
00022000
00000000
00000000
00033000
,
00001000
00000000
00100000
01000000
00100000
00000000
00001000
00000000
00010000
00000000
00000010
00000100
00000010
00000000
00010000
00000000
,
00001000
00000000
01000000
00100000
01000000
00000000
00001000
00000000
00010000
00000000
00000100
00000010
00000100
00000000
00010000
00000000
,
00001000
00000000
01000000
00010000
01000000
00000000
00001000
00000000
00010000
00000000
00000100
00001000
00000100
00000000
00010000
00000000
,
00001000
00000000
00010000
00000100
00001000
00000000
00000100
00000010
00000001
00000000
00001000
00000000
00000001
00000010
00001000
00000000
,
00000011
00001010
00011000
00110000
,
10000000
00100000
01000000
00010000
10000000
00000000
00010000
00100000
01000000
00000000
00100000
00001000
00010000
00000100
00001000
00000000
,
00011000
00010010
00011000
01001000
,
00010000
00001000
00000100
00000001
00001000
00000010
00000001
00000010
,
00010000
00000000
00001000
00000000
00100000
00000000
10000000
00000000
00100000
00000000
01000000
00010000
00000000
10000000
01000000
00000000
,
00100000
00000000
00001000
00000000
00010000
00000000
00100000
00000000
10000000
01000000
10000000
01000000
00100000
00000000
00001000
00000000
,
00010000
00000100
00000020
00000000
00000230
00002300
00003002
00000203
,
00000310
00000000
00002000
00000000
00003200
00000000
00000320
00000000
00000031
00000100
00000000
00000100
00000010
00000000
00000100
00000000
,
00000001
00000000
00000100
00000010
00001000
00000000
00000100
00010000
00001000
00000000
00010000
00000000
00100000
00000000
10000000
00000000
,
00010000
01000000
00100000
01000000
00010000
00000000
10000000
01000000
00100000
00000000
00001000
00010000
00000100
00001000
00000100
00000000
,
00000010
00000001
00001000
00000000
00000001
00000100
00000010
00000000
00000110
00000000
00000100
00000000
00000101
00000000
00000001
00000000
,
00001000
00000100
00000010
00000100
00001000
00000000
00000001
00000100
00000010
00000000
00010000
00001000
01000000
00010000
01000000
00000000
,
00100000
10000000
00010000
00000000
10000000
01000000
00100000
00000000
01100000
00000000
01000000
00000000
11000000
00000000
10000000
00000000
,
00010000
00000000
01000000
00100000
01000000
00000000
00010000
00000000
10000000
00000000
01000000
00100000
00001000
00000000
00010000
00000000
,
00000100
00010000
00001000
00000010
00000002
00000203
00000320
00002030
,
00003001
00000000
00001000
00000001
00001000
00000000
00000001
00000100
00000010
00000100
00000010
00001000
00000010
00000000
00010000
00001000
,
00010000
00001000
00100000
00000000
00010000
10000000
00100000
00000000
02000000
00000000
03200000
00000000
20300000
00000000
32000000
00000000
,
13000000
01000000
10000000
01000000
00010000
00001000
00000100
00000001
,
00001000
00000001
00000010
00000100
00010000
00001000
00011000
00000000
,
00010000
00010000
00010000
00010000
00001000
00001000
00001000
00001000
,
00010000
00000000
00010000
00000000
00001000
00000000
00001000
00000000
00010000
00001000
00100000
00010000
01000000
00100000
10000000
00010000
,
20000000
30000000
00000000
00000000
02000000
00000000
03000000
00000000
00200000
00000000
00000000
00300000
00002000
00000000
00000000
00000000
,
00023000
00030000
00000000
00000000
00000200
00000000
00000300
00000000
00000020
00000000
00000000
00000030
00000002
00000000
00000000
00000000
,
00001003
00000010
00000100
00000001
00000010
00000100
00010000
00001000
,
00100000
00010000
01000000
00100000
10000000
00100000
01000000
00010000
10000000
01000000
00100000
00001000
00010000
00000000
00000000
00000000
,
00001000
00000000
00000100
00000000
00000010
00000001
00000010
00000000
00000001
00000100
00000010
00000100
00000001
00000000
00001000
00000000
,
00000001
00000000
00000100
00000000
00001000
00000000
00010000
00000000
00001000
00000000
00010000
00001000
00010000
00000000
01000000
00000000
,
00100000
01000000
00100000
01000000
00100000
10000000
00100000
10000000
00010000
01000000
00010000
01000000
00001000
00010000
00001000
00010000
,
00000100
00000000
00000000
00000000
00000000
00000000
00001000
00000000
00000000
00000000
00000000
00000000
00000001
00000000
00000000
00000100
00000000
00000000
00000001
00000000
00000000
00001000
00000000
00000000
00000001
00000000
00000000
00000000
00000010
00000000
00000000
00000000
00001000
00000000
00000000
00000000
00010000
00000000
00000000
00000000
01000000
00000000
00000000
00000000
10000000
00000000
00000000
00000000
,
00010000
01000000
00010000
01000000
00100000
01000000
00100000
00000000
20000000
00000000
31000000
00000000
00020000
00000000
01030000
00000000
,
10000000
00100000
01000000
00100000
10000000
01000000
00100000
00001000
,
00010000
00001000
00010000
00001000
00010000
00000100
00001000
00000100
00000010
00000100
00000010
00000100
00000010
00000001
00001000
00000001
,
00001000
00000001
00000100
00001000
00022000
00000000
00000000
00000000
,
00000000
00000000
00000000
00000000
00000000
00033000
00000000
00000000
;
