#TITLE:虹色;
#ARTIST:DJ YOSHITAKA feat.G.S.C license;
#TITLETRANSLIT:Nijiiro;
#GENRE:LOVELY TRANS POP;
#BANNER:Nijiiro.png;
#BACKGROUND:Nijiiro-bg.png;
#CDTITLE:./CDTitles/pnm 13 CARNIVAL.png;
#MUSIC:Nijiiro.ogg;
#SAMPLESTART:59.64;
#SAMPLELENGTH:15;
#BPMS:0=160;
#BGSTAGE:6;

//--------------- dance-single - Fred-104 ----------------
#NOTES:
     dance-single:
     Fred-104:
     Beginner:
     4:
     :
0000
0000
0000
0000
,
0000
0000
0000
0000
,
0000
0000
0000
0000
,
0000
0000
0000
0000
,
0000
0000
0000
0000
,
0002
0000
0000
0003
,
2000
0000
0000
3000
,
0001
0000
1000
0000
,
0001
0000
1000
0000
,
2002
0000
0000
3003
,
1000
0000
0000
0000
,
1000
0000
0000
0000
,
1000
0000
0000
0000
,
0001
0001
0001
0000
,
1000
0000
0000
0000
,
1000
0000
0000
0000
,
1000
0000
1000
0000
,
0001
0001
0001
0000
,
0100
0000
0000
0000
,
1001
0000
0000
0000
,
0100
0000
0100
0000
,
0010
0000
0010
0000
,
2002
0000
0000
3003
,
1000
0000
0000
0000
,
0001
0000
0000
0000
,
1000
0000
0010
0000
,
0100
0000
0100
0000
,
0001
0000
0000
0000
,
0001
0000
0000
0000
,
0001
0000
0100
0000
,
0010
0000
1000
0000
,
1000
0000
0001
0000
,
1000
0000
0100
0000
,
0100
0000
0001
0000
,
0100
0000
0010
0010
,
0010
0000
0100
0000
,
0100
0000
0010
0000
,
2000
0000
3000
0000
,
0002
0000
0003
0000
,
2002
0000
3003
0000
,
1000
0000
1000
0000
,
1000
0000
0001
0000
,
0010
0000
0010
0000
,
0002
0000
0003
0000
,
1000
0000
0100
0000
,
1000
0000
0100
0000
,
0010
0000
0001
0000
,
1000
0000
1000
0000
,
0001
0000
0001
0000
,
0100
0000
0100
0000
,
0010
0000
0010
0000
,
1000
0000
1000
0000
,
0001
0000
0001
0000
,
0100
0000
0100
0000
,
1000
0000
1000
0000
,
1001
0000
0000
0000
,
0001
0000
0000
0000
,
0001
0000
0000
0000
,
0001
0000
0000
0000
,
1000
1000
1000
0000
,
0001
0000
0000
0000
,
0001
0000
0000
0000
,
0001
0000
0001
0000
,
1000
1000
1000
0000
,
0100
0000
0000
0000
,
1001
0000
0000
0000
,
0100
0000
0100
0000
,
0010
0000
0010
0000
,
2002
0000
0000
0000
,
3003
0000
0000
0000
;

//--------------- dance-single - Fred-104 ----------------
#NOTES:
     dance-single:
     Fred-104:
     Easy:
     6:
     :
0000
0000
0000
0000
,
0000
0000
0000
0000
,
0000
0000
0000
0000
,
0000
0000
0000
0000
,
0000
0000
0000
0000
,
0001
0000
1000
1000
,
0010
0000
0100
0001
,
1000
0000
0001
0000
,
1000
0100
0010
0001
,
2002
0000
0000
3003
,
1000
0000
0001
0000
,
1000
0000
0010
0010
,
1000
0000
0010
0000
,
0001
0001
0100
0000
,
1000
0000
0001
0000
,
1000
0000
0001
0001
,
1000
0000
1000
0000
,
0001
0100
0001
1000
,
1001
0000
0001
1000
,
1001
0000
0100
0010
,
0110
0000
0110
0000
,
1000
1000
0001
0001
,
2002
0000
0000
3003
,
1000
0000
0001
0000
,
1000
0000
0010
0000
,
0100
0100
0100
0000
,
0010
0010
0010
0100
,
0001
0000
1000
0000
,
0001
0000
0100
0000
,
0001
0001
0200
0300
,
0010
0010
1000
1000
,
0001
0000
1000
0000
,
1000
0000
0100
0100
,
0010
0000
0001
0000
,
0100
0000
0010
0100
,
0010
0000
0100
0100
,
0001
0000
1000
0000
,
2000
3000
0020
0030
,
0002
0003
0200
0300
,
1000
0000
0000
0001
0000
0000
1000
0000
1001
0000
0000
0000
0000
0000
0000
0000
,
0010
0000
0010
0010
,
1000
0000
0001
0100
,
0010
0000
0010
1000
,
0001
0001
1000
1000
,
0010
0000
0001
0010
,
1000
0000
0100
0100
,
0010
0000
0001
0001
,
1000
1000
0100
1000
,
0002
0003
0020
0030
,
0200
0300
2000
3010
,
0200
0300
0002
0003
,
1000
0100
0010
0001
,
2000
3000
0020
0030
,
0200
0300
0002
0103
,
0002
0003
2000
3000
,
1000
0000
0000
0001
0000
0000
1001
0000
0000
0000
0000
0000
0000
0000
0000
0000
,
0001
0000
1000
0000
,
0001
0000
0010
0010
,
0001
0000
0010
0000
,
1000
1000
0100
0000
,
0001
0000
1000
0000
,
0001
0000
1000
1000
,
0001
0000
0001
0000
,
1000
0100
1000
0001
,
1001
0000
1000
0001
,
1001
0000
0100
0010
,
0110
0000
0110
0000
,
0001
0001
1000
1000
,
2002
0000
0000
0000
,
3003
0000
0000
0000
;

//--------------- dance-single - Fred-104 ----------------
#NOTES:
     dance-single:
     Fred-104:
     Medium:
     10:
     :
0000
0000
0000
0000
,
0000
0000
0000
0000
,
0000
0000
0000
0000
,
0000
0000
0000
0000
,
0000
0000
0000
0000
,
0001
0000
0001
0000
0100
0010
0100
0000
,
0001
0000
1000
0000
0010
1000
0010
0000
,
0100
0000
0001
1000
,
0001
0100
0001
0000
1000
0010
0100
0001
,
2002
0000
0000
3003
,
1000
0000
0000
0000
1000
0000
0000
0000
0001
0000
0000
0100
0000
0000
0001
0000
,
1000
0000
0000
0000
1000
0000
0000
0000
0001
0000
0000
0010
0000
0000
0001
0000
,
1000
0000
0000
0000
1000
0000
0000
0000
0001
0000
0000
0100
0000
0000
0100
0000
,
0001
0000
0000
0100
0000
0000
0100
0000
1000
0000
0000
0100
0000
0000
0100
0000
,
0001
0000
0000
0000
0001
0000
0000
0000
1000
0000
0000
0010
0000
0000
1000
0000
,
0001
0000
0000
0000
0001
0000
0000
0000
1000
0000
0000
0100
0000
0000
1000
0000
,
0001
0000
0000
0010
0000
0000
0010
0000
0100
0000
0000
1000
0000
0000
1000
0000
,
0001
0100
0001
0100
0000
0000
0000
0000
,
0011
0000
0001
0000
1000
0010
0100
0000
,
1100
0000
1000
0000
0001
0100
0010
0000
,
1000
0000
0000
1000
0000
0000
0010
0000
0100
0000
0000
0001
0000
0000
0001
0000
,
1000
0000
0000
1000
0000
0000
0001
0000
0100
0000
0010
0000
0100
0000
0001
0000
,
2002
0000
0000
3003
,
0100
0000
0000
0000
0100
0000
0000
0000
0100
0000
0000
0001
0000
0000
0100
0000
,
0010
0000
0000
0000
0010
0000
0000
0000
0010
0000
0000
1000
0000
0000
0100
0000
,
0010
0000
0000
0010
0000
0000
0010
0000
0100
0000
0000
0000
0000
0000
0000
0000
,
0001
0001
1000
1000
,
0010
0000
0000
0000
0010
0000
0000
0000
0010
0000
0000
1000
0000
0000
0010
0000
,
0100
0000
0000
0000
0100
0000
0000
0000
0100
0000
0000
0001
0000
0000
0010
0000
,
0100
0000
0000
0010
0000
0000
0010
0000
0100
0000
0000
0000
0010
0000
0000
0000
,
0001
0001
1000
1000
,
0220
0000
0000
0000
0330
0000
0000
0000
1000
0000
0000
1000
0000
0000
0001
0000
,
1000
0000
0000
0000
0100
0010
0100
0010
,
0100
1000
0001
0100
,
0100
0000
0100
0000
0001
1000
0010
0000
,
0020
0030
0100
0010
,
1000
0010
0100
0001
,
0010
0000
0000
0010
0000
0000
0010
0000
0100
0000
0000
0100
0000
0000
0100
0000
,
1000
0000
0000
1000
0000
0000
1000
0000
0001
0000
0000
0001
0000
0000
0001
0000
,
1000
0000
0000
0001
0000
0000
0100
0000
0110
0000
0000
0000
0000
0000
0000
0000
,
0001
0001
1000
1000
,
0001
1000
0001
0001
,
0100
0100
0100
0010
,
1000
0100
0010
0000
0001
0100
0010
0000
,
1000
1000
1000
0001
,
1000
1000
1000
0100
,
0010
0001
1000
0100
,
0010
0001
0100
0000
0010
1000
0100
0000
,
1000
0000
0000
1000
0000
0000
1000
0000
0001
0000
0000
0001
0000
0000
0001
0000
,
0100
0000
0000
0100
0000
0000
0010
0000
0100
0000
0000
0000
0001
0000
0000
0000
,
1000
0000
0000
1000
0000
0000
1000
0000
0001
0000
0000
0001
0000
0000
0001
0000
,
1000
0010
0100
0001
,
1000
0000
0000
1000
0000
0000
0100
0000
0010
0000
0000
0010
0000
0000
0001
0000
,
0100
0000
0000
0100
0000
0000
0010
0000
1000
0000
0000
1000
0000
0000
0001
0000
,
0100
0000
0000
0100
0000
0000
0010
0000
1000
0000
0000
1000
0000
0000
0001
0000
,
1000
0000
0000
0001
0000
0000
1001
0000
0000
0000
0000
0000
0000
0000
0000
0000
,
0001
0000
0000
0000
0001
0000
0000
0000
1000
0000
0000
0100
0000
0000
1000
0000
,
0001
0000
0000
0000
0001
0000
0000
0000
1000
0000
0000
0010
0000
0000
1000
0000
,
0001
0000
0000
0000
0001
0000
0000
0000
1000
0000
0000
0100
0000
0000
0100
0000
,
1000
0000
0000
0100
0000
0000
0100
0000
0001
0000
0000
0100
0000
0000
0100
0000
,
1000
0000
0000
0000
1000
0000
0000
0000
0001
0000
0000
0010
0000
0000
0001
0000
,
1000
0000
0000
0000
1000
0000
0000
0000
0001
0000
0000
0100
0000
0000
0001
0000
,
1000
0000
0000
0010
0000
0000
0010
0000
0100
0000
0000
0001
0000
0000
0001
0000
,
1000
0100
1000
0100
0000
0000
0000
0000
,
1010
0000
1000
0000
0001
0010
0100
0000
,
0101
0000
0001
0000
1000
0100
0010
0000
,
0001
0000
0000
0001
0000
0000
0010
0000
0100
0000
0000
1000
0000
0000
1000
0000
,
0001
0000
0000
0001
0000
0000
1000
0000
0100
0000
0010
0000
0100
0000
1000
0000
,
2002
0000
0000
0000
,
3003
0000
0000
0000
;

//--------------- dance-single - Fred-104 ----------------
#NOTES:
     dance-single:
     Fred-104:
     Hard:
     14:
     :
0000
0000
0000
0000
,
0000
0000
0000
0000
,
0000
0000
0000
0000
,
0000
0000
0000
0000
,
0000
0000
0000
0000
,
1000
0000
0000
1000
0000
0000
1000
0000
0010
0000
0100
0000
0001
0000
1000
0000
,
0100
0000
0000
0100
0000
0000
0100
0000
1000
0000
0001
0000
0100
0010
0100
0010
,
0100
0000
0000
0000
0001
0000
1000
0010
1000
0000
0001
0010
0000
0100
1000
0000
,
0001
0000
0100
0010
0000
0100
0010
0000
1000
0000
0100
0000
0010
0000
0001
0000
,
2002
0000
0000
3003
,
1000
0000
0001
0000
0010
0000
0000
0000
0100
0000
1000
0100
0000
1000
0100
0000
,
1000
0000
0100
0000
0010
0000
0000
0000
0001
0000
0010
0100
0000
0010
0001
0000
,
1000
0000
0010
0000
0100
0000
0000
0000
0001
0000
0100
0010
0000
1000
0001
0000
,
1000
0100
0000
0010
0100
0000
1000
0000
0001
0100
0000
0100
0010
0000
1000
0000
,
0001
0000
0100
0000
0010
0000
0000
0000
1000
0000
0100
0010
0000
0001
1000
0000
,
0010
0000
0100
0000
0001
0000
0000
0000
1000
0000
0001
0010
0000
0001
0010
0000
,
0100
0000
1000
0010
0000
0010
0100
0000
0001
1000
0000
0001
0100
0000
0010
0000
,
1000
0000
0100
0000
0010
0000
0002
0000
0000
0000
0000
0000
1003
0010
1000
0010
,
0100
0000
0000
0001
0000
0100
0010
0000
1000
0100
0001
0000
0100
0000
0010
0000
,
0001
0000
0000
1000
0000
0001
0010
0000
0001
0100
0001
0100
0010
1000
0010
1000
,
0001
0000
0000
0011
0000
0000
0100
0000
1000
0010
0000
1010
0000
0000
0100
0000
,
0001
0010
0000
0010
0100
0000
0010
0001
1000
0000
0100
0000
0010
0000
0001
1000
,
0002
0000
0000
0003
,
0001
0000
1000
0000
0010
0000
0000
0000
1000
0000
0000
0010
1000
0000
0010
0000
,
0100
0000
0001
0000
1000
0000
0000
0000
0001
0000
0000
0100
0010
0000
0100
0000
,
0001
0000
0000
1000
0100
0000
0010
0000
0001
0000
0000
0000
1000
0000
0010
0000
,
1000
0100
0000
0100
0010
0000
0010
0000
0001
0100
0000
0100
0010
0000
0010
0000
,
1000
0000
0001
0000
0100
0000
0000
0000
0010
0000
0000
0010
1000
0000
0001
0000
,
0100
0000
0010
0000
1000
0000
0000
0000
0100
0000
0000
0100
0010
0000
0001
0000
,
1000
0000
0000
1000
0001
0000
0100
0000
0010
0000
0000
0000
0100
0000
0010
0000
,
0100
0000
0001
0000
1000
0000
0100
0000
1000
0010
0100
0001
1000
0001
0010
0100
,
1000
0000
0000
0000
1000
0000
0010
0000
0100
0000
0001
0100
0000
0010
0100
0000
,
0002
0000
1003
0100
0100
0001
1000
0100
,
0010
0000
0001
0010
0000
0010
0100
0000
1000
0000
0010
0100
0000
0100
0001
0000
,
2000
0000
0000
0000
3010
0000
0100
0010
0100
0000
0001
0000
1000
0000
0100
0000
,
0020
0000
0031
0101
0100
0010
1000
0001
,
0100
0001
0000
1000
0001
0000
0100
0000
0020
0000
0000
0000
1030
0000
1000
0000
,
0001
0100
0000
0001
0100
0000
0010
0000
1000
0100
0000
1000
0100
0000
0010
0000
,
0001
0010
0000
0100
1000
0000
0001
0000
1000
0010
0000
0100
0001
0000
1000
0000
,
1010
0000
0000
0101
0000
0000
1100
0000
1001
0000
0000
0000
0000
0000
0000
0000
,
1000
0000
0010
0100
0000
0001
0100
0000
1000
0000
0100
0000
0001
0000
1000
0000
,
0001
0000
0010
0100
0000
1000
0010
0000
0001
0000
0010
0000
1000
0000
0001
0000
,
1000
0000
0100
0010
0000
0001
0010
0000
0001
0000
0100
0000
0010
0000
1000
0000
,
0001
0000
0010
0010
1000
0001
0100
0100
,
1000
0000
0010
0100
0000
0010
1000
0000
0001
0000
0100
0000
0010
0000
0100
0000
,
0001
0000
1000
0010
0000
0100
0001
0000
1000
0000
0100
0000
0010
0000
0001
0000
,
0101
0000
0000
0000
0100
0000
0010
0000
1000
0000
0010
0100
0000
0010
1000
0000
,
0001
0000
0010
0000
0100
0000
1000
0000
0001
0100
0010
1000
0001
0010
0100
1000
,
0001
0000
0000
0101
0000
0000
0010
0000
1000
0000
0000
1100
0000
0000
0010
0000
,
0001
0000
0000
1001
0000
0000
0100
0000
0010
0000
0000
0000
0110
0000
0000
0000
,
1000
0000
0000
1010
0000
0000
0100
0000
0001
0000
0000
0011
0000
0000
0100
0000
,
1000
0100
0001
0200
0000
1000
1300
0000
,
1000
0000
0010
1000
0000
0100
0010
0000
0001
0000
0100
0001
0000
0100
0010
0000
,
1000
0000
0001
0010
0000
0100
1000
0000
0001
0000
0100
0010
0000
1000
0010
0000
,
0100
0000
0001
1000
0000
0100
1000
0000
0001
0000
1000
0100
0000
0001
0100
0000
,
1100
0000
0000
0101
0000
0000
1001
0000
0000
0000
0000
0000
0000
0000
0000
0000
,
0001
0000
1000
0000
0010
0000
0000
0000
0100
0000
0001
0100
0000
0001
0100
0000
,
0001
0000
0100
0000
0010
0000
0000
0000
0001
0000
0010
0100
0000
0001
0100
0000
,
1000
0000
0001
0000
0010
0000
0000
0000
1000
0000
0010
0001
0000
1000
0001
0000
,
1000
0100
0000
0010
0001
0000
1000
0000
0001
0100
0000
0010
0100
0000
0001
0000
,
1000
0000
0001
0000
0010
0000
0000
0000
0100
0000
1000
0100
0000
0010
1000
0000
,
0010
0000
0100
0000
1000
0000
0000
0000
0001
0000
1000
0010
0000
1000
0010
0000
,
0100
0000
0001
0010
0000
0100
0010
0000
0001
1000
0000
0001
0100
0000
0010
0000
,
1000
0000
0100
0000
0010
0000
0002
0000
0000
0000
0000
0000
1003
0010
0100
0001
,
1000
0000
0000
0001
0000
0100
1000
0000
0100
0010
0100
0000
0010
0000
1000
0000
,
0001
0000
0000
0010
0000
0001
1000
0000
0001
0100
0001
0100
0010
1000
0010
1000
,
0001
0000
0000
0011
0000
0000
0100
0000
1000
0100
0000
0110
0000
0000
0001
0000
,
1000
0010
0000
0010
0100
0000
0010
1000
0001
0000
0010
0000
0100
0000
1000
0001
,
2000
0000
0000
0000
,
3000
0000
0000
0000
;

//--------------- dance-single - Fred-104† ----------------
#NOTES:
     dance-single:
     Fred-104†:
     Challenge:
     16:
     :
0000
0000
0000
0000
,
0000
0000
0000
0000
,
0000
0000
0000
0000
,
0000
0000
0000
0000
,
0000
0000
0000
0000
,
0001
0010
0000
0010
0100
1000
0000
1000
0001
0100
0000
0100
0010
1000
0000
1000
,
0001
0100
0000
0100
0010
1000
0000
1000
0100
0010
0000
0010
0001
1000
0010
1000
,
0001
0010
0001
0010
0100
1000
0001
0000
1000
0010
1000
0010
0100
0001
1000
0000
,
0001
1000
0001
1000
0100
0010
0100
0010
0001
1000
0010
0100
0001
1000
0100
0010
,
0002
0000
0000
0003
,
1000
0000
0010
0000
0100
0000
0000
0000
0001
0000
1000
0100
0000
0001
0100
0000
,
1000
0000
0010
0000
0100
0000
0000
0000
0001
0000
1000
0010
0000
0001
0010
0000
,
0100
0000
0010
0000
1000
0000
0000
0000
0001
0000
0010
0100
0000
1000
0001
0000
,
1000
0000
0001
0010
0000
0100
1000
0000
0001
0000
0100
0010
0000
1000
0001
0000
,
1000
0000
0100
0000
0010
0000
0000
0000
1000
0000
0010
0001
0000
0010
0100
0000
,
1000
0000
0001
0000
0100
0000
0000
0000
1000
0000
0100
0010
0000
1000
0010
0000
,
0100
0000
0001
1000
0000
0100
0010
0000
0001
0010
0000
1000
0010
0000
0100
0000
,
1000
0000
0001
0000
0100
0000
1000
0000
0100
0000
0010
0000
0100
0001
0100
0001
,
1000
0100
0000
0100
0010
0001
0000
0001
1000
0010
0000
0010
0100
0001
0000
0001
,
0010
0100
0000
0100
1000
0010
0000
0010
0100
0001
0000
0001
0010
0100
1000
0001
,
1000
0000
0100
0001
0000
0100
1000
0000
0001
0100
0000
1000
0100
0000
0001
0000
,
1000
0010
0100
0001
1000
0100
0010
0001
0010
0100
1000
0001
0100
0010
1000
0001
,
2000
0000
0000
0000
0000
0000
0000
0000
0000
0000
0000
0000
3000
0000
0000
0000
0000
0000
1000
0001
1000
0001
1000
0001
,
1000
0000
0100
0000
0010
0000
0000
0000
0001
1000
0000
1000
0010
0000
0100
0000
,
0001
0000
1000
0000
0100
0000
0000
0000
0010
0100
0000
0100
1000
0000
0001
0000
,
1000
0100
0000
0100
0010
0000
0001
0000
1000
0000
0010
0000
0100
0000
0001
0000
,
1000
0100
0000
0010
0001
0000
1000
0010
0100
0001
0000
1000
0001
0010
0100
0000
,
1000
0000
0001
0000
0100
0000
0000
0000
0010
1000
0000
0010
0100
0000
0001
0000
,
1000
0000
0100
0000
0001
0000
0000
0000
0100
0010
0000
0001
1000
0000
0001
0000
,
0010
0100
0000
1000
0010
0000
0100
0000
0001
0000
1000
0000
0100
0000
0000
0000
,
1000
0001
1000
0001
0010
0100
0010
0100
1000
0001
0100
0010
1000
0010
0100
0001
,
1000
0000
0000
0000
0001
0000
0010
0100
1000
0000
0001
0100
0000
0010
1000
0000
,
0001
0000
0000
0000
1000
0000
0001
0010
0001
0000
0100
0000
1000
0000
0100
0000
,
0001
0010
0000
0100
1000
0000
0001
0000
0100
0010
0000
1000
0010
0000
0100
0000
,
0001
0000
0000
0000
1000
0000
0100
0010
0001
0000
1000
0001
0100
0000
0010
0000
,
1000
0000
0000
0000
0001
0000
0010
0100
1000
0000
0001
1000
0010
0000
0100
0000
,
0001
1000
0000
0100
1000
0000
0010
0000
0100
0000
0001
1000
0100
0000
0010
0000
,
0001
0010
0000
0100
0010
0000
0001
1000
0010
1000
0000
0001
0010
0000
0100
1000
,
0001
0100
0010
0000
1000
0100
0010
0000
0001
1000
0010
0000
1000
0001
0010
0100
,
1000
0000
0000
0001
0000
0000
0100
0000
0110
0000
0000
0000
0000
0000
0000
0000
,
0001
0000
0010
1000
0000
0010
0001
0000
0010
0000
0100
0000
1000
0000
0001
0000
,
1000
0000
0100
0001
0000
0100
0010
0000
0001
0000
1000
0000
0010
0000
1000
0000
,
0001
0000
0010
0100
0000
0010
1000
0000
0010
0000
0001
0010
0100
0000
1000
0000
,
0001
0000
0100
0001
1000
0000
0100
0010
0001
0000
1000
0010
0100
0010
1000
0000
,
0001
0000
0010
0100
0000
1000
0010
0000
0100
0000
0001
1000
0100
0000
0010
0000
,
0100
0000
1000
0001
0000
0100
0010
0000
1000
0001
0010
0100
1000
0000
0010
0000
,
0100
0000
0000
0000
0001
1000
0100
1000
0001
0000
1000
0100
0000
0010
0001
0000
,
1000
0100
1000
0100
0010
0001
0010
0001
1000
0010
0100
0001
1000
0001
0010
0100
,
1000
0000
0001
0010
0000
0100
1000
0000
0001
0000
0100
0010
0000
1000
0010
0000
,
0100
0000
0001
1000
0000
0100
0010
0000
0001
1000
0010
0100
0001
0000
0000
0000
,
1000
0000
0100
0010
0000
0001
0010
0000
0100
0000
1000
0010
0000
0100
0001
0000
,
1000
0100
0010
0000
0001
0010
0100
0000
1000
0001
0100
0001
1000
0000
0000
0000
,
0001
0000
0010
0100
0000
0100
1000
0001
0100
0000
0010
1000
0000
1000
0100
0010
,
0001
0000
0100
0001
0000
0001
0010
0100
0010
0000
0001
1000
0000
1000
0010
1000
,
0001
0000
0010
0100
0000
0100
1000
0010
0100
0000
0001
1000
0000
1000
0100
0010
,
0001
0000
0000
1010
0000
0000
0101
0000
0000
0000
0000
0000
0000
0000
0000
0000
,
1000
0000
0100
0000
0001
0000
0000
0000
0100
0000
0010
0001
0000
1000
0001
0000
,
0100
0000
0010
0000
0001
0000
0000
0000
0010
0000
0100
0001
0000
1000
0001
0000
,
1000
0000
0100
0000
0010
0000
0000
0000
1000
0000
0010
0001
0000
0010
0100
0000
,
1000
0100
0000
0001
0100
0000
0010
0000
0001
0100
0000
1000
0100
0000
0010
0000
,
1000
0000
0001
0010
0100
0000
1000
0000
0001
0100
0001
0100
0000
0010
1000
0000
,
0001
0000
1000
0100
0010
0000
0001
0000
1000
0010
1000
0010
0000
0100
0001
0000
,
1000
0100
0010
0001
0000
0100
0010
0000
1000
0010
0100
0010
1000
0001
0010
0000
,
0100
1000
0010
0100
0001
0000
1000
0000
0100
0000
0010
0000
0001
1000
0010
1000
,
0001
0010
0000
0010
0100
1000
0000
1000
0010
0100
0000
0100
0001
1000
0000
1000
,
0100
0001
0000
0001
1000
0010
0000
0010
0001
1000
0000
1000
0100
0010
0001
0100
,
0010
1000
0010
1000
0001
0010
0001
0010
0100
1000
0100
1000
0001
0100
0001
0100
,
0010
1000
0001
0010
0100
0010
0001
1000
0010
0100
0010
1000
0001
0010
0100
1000
,
0002
0000
0000
0000
,
0003
0000
0000
0000
;

//--------------- dance-double - Fred-104 ----------------
#NOTES:
     dance-double:
     Fred-104:
     Easy:
     7:
     :
00000000
00000000
00000000
00000000
,
00000000
00000000
00000000
00000000
,
00000000
00000000
00000000
00000000
,
00000000
00000000
00000000
00000000
,
00000000
00000000
00000000
00000000
,
00010000
00000000
00001000
00010000
,
00001000
00000000
00010000
00100000
,
10000000
00000000
01000000
00000000
,
00010000
00001000
00000100
00000001
,
00002002
00000000
00000000
00003003
,
00000001
00000000
00000100
00000100
,
00000001
00000000
00000100
00000100
,
00000100
00000000
00001000
00001000
,
00001000
00010000
00010000
01000000
,
00100000
00000000
00010000
10000000
,
10000000
00000000
00100000
00100000
,
01000000
01000000
00001000
00010000
,
00002000
00000000
00023000
00000000
,
00130000
00000000
00010000
00001000
,
00000010
00000000
00001000
00010000
,
00001000
00000000
00010000
00000000
,
00100000
00100000
01000000
00010000
,
20020000
00000000
00000000
30030000
,
10000000
00000000
01000000
00100000
,
00001000
00000000
00010000
00000100
,
00001000
00000010
00001000
00000000
,
00001000
00001000
00000001
00001000
,
00000001
00000000
00001000
00000100
,
00000001
00000000
00000100
00000010
,
00000200
00000000
00010300
00001000
,
00010000
00010000
00001000
00001000
,
00011000
00000000
00100000
00010000
,
10000000
00000000
00100000
10000000
,
01000000
00000000
00010000
00000000
,
00001000
00000000
00000100
00000010
,
00000110
00000000
00001000
00000000
,
00000001
00000000
00001000
00000000
,
00000010
00000010
00001000
00001000
,
00000001
00000001
00000100
00001000
,
00010000
00000000
00000000
00001000
00000000
00000000
00010000
00000000
00011000
00000000
00000000
00000000
00000000
00000000
00000000
00000000
,
00001000
00000000
00010000
01000000
,
00010000
00000000
00001000
00010000
,
00100000
00000000
00010000
00001000
,
00010000
00001000
00010000
00001000
,
00000010
00000000
00001000
00010000
,
00001000
00000000
00010000
00001000
,
00000100
00000000
00000010
00000100
,
00000001
00001000
00000001
00001000
,
00000200
00000300
00000020
00000030
,
00000002
00000003
00000200
00001300
,
00020000
00030000
00200000
00300000
,
02000000
03000000
00020000
10030000
,
02000000
03000000
00200000
00300000
,
00002000
00003000
00020000
00030000
,
00000020
00000030
00020000
00030000
,
00010000
00000000
00000000
00001000
00000000
00000000
00011000
00000000
00000000
00000000
00000000
00000000
00000000
00000000
00000000
00000000
,
00001000
00000000
00010000
01000000
,
10000000
00000000
01000000
01000000
,
01000000
00000000
00010000
00010000
,
00010000
00001000
00001000
00000100
,
00000010
00000000
00001000
00001000
,
00000001
00000000
00000010
00000010
,
00000100
00000100
00010000
00001000
,
00020000
00000000
00032000
00000000
,
00003010
00000000
00001000
00010000
,
00100000
00000000
00010000
00001000
,
00010000
00000000
00001000
00000000
,
00000010
00000100
00000010
00000001
,
00002002
00000000
00000000
00000000
,
00003003
00000000
00000000
00000000
;

//--------------- dance-double - Fred-104 ----------------
#NOTES:
     dance-double:
     Fred-104:
     Medium:
     10:
     :
00000000
00000000
00000000
00000000
,
00000000
00000000
00000000
00000000
,
00000000
00000000
00000000
00000000
,
00000000
00000000
00000000
00000000
,
00000000
00000000
00000000
00000000
,
00001000
00000000
00010000
00000000
00100000
01000000
00100000
00000000
,
10000000
00000000
01000000
00000000
00100000
00001000
00010000
00000000
,
00002000
00003000
00000020
00000030
,
00001000
00000000
00010000
00000000
00001000
00010000
00001000
00010000
,
00022000
00000000
00000000
00033000
,
00010000
00000000
00000000
00000000
00010000
00000000
00000000
00000000
00001000
00000000
00000000
00001000
00000000
00000000
00001000
00000000
,
00010000
00000000
00000000
00000000
00001000
00000000
00000000
00000000
00001000
00000000
00000000
00010000
00000000
00000000
00010000
00000000
,
00100000
00000000
00000000
00000000
10000000
00000000
00000000
00000000
00010000
00000000
00000000
01000000
00000000
00000000
01000000
00000000
,
00100000
00000000
00000000
01000000
00000000
00000000
01000000
00000000
00001000
00000000
00000000
00010000
00000000
00000000
00010000
00000000
,
00001000
00000000
00000000
00000000
00001000
00000000
00000000
00000000
00010000
00000000
00000000
00001000
00000000
00000000
00010000
00000000
,
00000010
00000000
00000000
00000000
00010000
00000000
00000000
00000000
00000010
00000000
00000000
00010000
00000000
00000000
00001000
00000000
,
00010000
00000000
00000000
00001000
00000000
00000000
00000100
00000000
00000001
00000000
00000000
00000100
00000000
00000000
00000010
00000000
,
00001000
00000010
00000100
00000002
00000000
00000000
00000003
00000000
,
00000001
00000000
00000000
00000100
00000000
00000000
00001000
00000000
00010000
00000000
01000000
00000000
10000000
00000000
00000000
00000000
,
10000000
00000000
00000000
01000000
00000000
00000000
00010000
00000000
00001000
00000000
00000100
00000000
00000001
00000000
00000000
00000000
,
00000100
00000000
00000000
00000100
00000000
00000000
00000010
00000000
00001000
00000000
00000000
00001000
00000000
00000000
00000001
00000000
,
00000100
00000000
00000000
00000100
00000000
00000000
00000001
00000000
00001000
00000000
00000100
00000000
00010000
00000000
00001000
00000000
,
00022000
00000000
00000000
00033000
,
00001000
00000000
00000000
00000000
00010000
00000000
00000000
00000000
00001000
00000000
00000000
00010000
00000000
00000000
00000010
00000000
,
00001000
00000000
00000000
00000000
00000010
00000000
00000000
00000000
00010000
00000000
00000000
00001000
00000000
00000000
00100000
00000000
,
00001000
00000000
00000000
00001000
00000000
00000000
00010000
00000000
00002000
00000000
00000000
00000000
00000000
00000000
00000000
00000000
,
00023000
00001000
00100000
00031000
,
00010000
00000000
00000000
00000000
00010000
00000000
00000000
00000000
00001000
00000000
00000000
00010000
00000000
00000000
00000100
00000000
,
00010000
00000000
00000000
00000000
00001000
00000000
00000000
00000000
00010000
00000000
00000000
01000000
00000000
00000000
00100000
00000000
,
00010000
00000000
00000000
10000000
00000000
00000000
00100000
00000000
00010000
00000000
00000000
00000000
00001000
00000000
00000000
00000000
,
00000010
00000000
00000100
00000000
00001000
00000001
00001000
00000100
,
00000220
00000000
00000000
00000000
00000330
00000000
00000000
00000000
00000001
00000000
00000000
00001000
00000000
00000000
00000100
00000000
,
00000010
00000000
00000100
00000000
00010000
00001000
00010000
00000000
,
00001000
00000000
00000000
00010000
00000000
00000000
00100000
00000000
01000000
00000000
00000000
00010000
00000000
00000000
10000000
00000000
,
01000000
00000000
00010000
00000000
00001000
00010000
00001000
00000000
,
00011000
00000000
00010000
00000000
00001000
00000100
00000001
00000000
,
00001000
00000000
00000000
00000100
00000000
00000000
00000010
00000000
00000001
00000000
00000000
00000000
00001000
00000000
00000000
00000000
,
00000001
00000000
00000000
00000001
00000000
00000000
00000010
00000000
00000001
00000000
00000000
00000100
00000000
00000000
00000100
00000000
,
00001000
00000000
00000000
00001000
00000000
00000000
00010000
00000000
01000000
00000000
00000000
10000000
00000000
00000000
00100000
00000000
,
01000000
00000000
00000000
00010000
00000000
00000000
10000000
00000000
10010000
00000000
00000000
00000000
00000000
00000000
00000000
00000000
,
01100000
00000000
00001000
00000000
00010000
00010000
00010000
00000000
,
00001100
00000000
00010000
00000000
00001000
00000100
00000001
00000000
,
00001000
00000000
00000100
00000000
00000010
00000001
00000010
00000001
,
00000200
00002300
00023000
00031000
,
00011000
00000000
00001000
00000000
00010000
00100000
10000000
00000000
,
10010000
00000000
00010000
00000000
10000000
00010000
01000000
00000000
,
01100000
10000000
01000000
00010000
,
00001000
00000000
00000000
00010000
00000000
00000000
00010000
00000000
00001000
00000000
00010000
00000000
00001000
00000000
00000000
00000000
,
00010000
00000000
00000000
00000100
00000000
00000000
00000100
00000000
00001000
00000000
00000000
00000100
00000000
00000000
00000100
00000000
,
00010000
00000000
00000000
00000100
00000000
00000000
00000100
00000000
00001000
00000000
00000000
00000000
00000010
00000000
00000000
00000000
,
00000100
00000000
00000000
00000001
00000000
00000000
00000001
00000000
00000100
00000000
00000000
00000001
00000000
00000000
00000001
00000000
,
00000010
00000100
00010000
00001000
,
00100000
00000000
00000000
00010000
00000000
00000000
00010000
00000000
00100000
00000000
00000000
00001000
00000000
00000000
00001000
00000000
,
00100000
00000000
00000000
00010000
00000000
00000000
00010000
00000000
10000000
00000000
00000000
00100000
00000000
00000000
00100000
00000000
,
10000000
00000000
00000000
01000000
00000000
00000000
00010000
00000000
00001000
00000000
00000000
00001000
00000000
00000000
00000100
00000000
,
00000001
00000000
00000000
00001000
00000000
00000000
00001001
00000000
00000000
00000000
00000000
00000000
00000000
00000000
00000000
00000000
,
00000001
00000000
00000000
00000000
00000100
00000000
00000000
00000000
00001000
00000000
00000000
00010000
00000000
00000000
00010000
00000000
,
00001000
00000000
00000000
00000000
00010000
00000000
00000000
00000000
00010000
00000000
00000000
00001000
00000000
00000000
00001000
00000000
,
00000010
00000000
00000000
00000000
00000001
00000000
00000000
00000000
00001000
00000000
00000000
00000100
00000000
00000000
00000100
00000000
,
00000010
00000000
00000000
00000100
00000000
00000000
00000100
00000000
00010000
00000000
00000000
00001000
00000000
00000000
00001000
00000000
,
00010000
00000000
00000000
00000000
00010000
00000000
00000000
00000000
00001000
00000000
00000000
00010000
00000000
00000000
00001000
00000000
,
00100000
00000000
00000000
00000000
00001000
00000000
00000000
00000000
00100000
00000000
00000000
00001000
00000000
00000000
00010000
00000000
,
00001000
00000000
00000000
00010000
00000000
00000000
01000000
00000000
10000000
00000000
00000000
01000000
00000000
00000000
00100000
00000000
,
00001000
00010000
00100000
20000000
00000000
00000000
30000000
00000000
,
10000000
00000000
00000000
01000000
00000000
00000000
00010000
00000000
00001000
00000000
00000100
00000000
00000001
00000000
00000000
00000000
,
00000001
00000000
00000000
00000100
00000000
00000000
00001000
00000000
00010000
00000000
01000000
00000000
10000000
00000000
00000000
00000000
,
01000000
00000000
00000000
01000000
00000000
00000000
00100000
00000000
00010000
00000000
00000000
00010000
00000000
00000000
10000000
00000000
,
01000000
00000000
00000000
01000000
00000000
00000000
00100000
00000000
00001000
00000000
00010000
00000000
00000010
00000000
00010000
00000000
,
00022000
00000000
00000000
00000000
,
00033000
00000000
00000000
00000000
;

//--------------- dance-double - Fred-104 ----------------
#NOTES:
     dance-double:
     Fred-104:
     Hard:
     14:
     :
00000000
00000000
00000000
00000000
,
00000000
00000000
00000000
00000000
,
00000000
00000000
00000000
00000000
,
00000000
00000000
00000000
00000000
,
00000000
00000000
00000000
00000000
,
00010000
00000000
00000000
00001000
00000000
00000000
00100000
00000000
01000000
00000000
00100000
00000000
00010000
00000000
10000000
00000000
,
01000000
00000000
00000000
01000000
00000000
00000000
00100000
00000000
00010000
00000000
10000000
00000000
00100000
00000000
01000000
00000000
,
00001000
00000000
00000000
00000000
00010000
00000000
00000010
00000000
00001000
00000000
00000100
00000010
00000000
00000001
00000010
00000000
,
00000100
00000000
00001000
00000010
00000000
00000100
00000001
00000000
00000100
00000000
00001000
00000000
00010000
00000000
01000000
00000000
,
22000000
00000000
00000000
33000000
,
00010000
00000000
10000000
00000000
00100000
00000000
00000000
00000000
01000000
00000000
00100000
10000000
00000000
00100000
10000000
00000000
,
00010000
00000000
00100000
00000000
01000000
00000000
00000000
00000000
00100000
00000000
00001000
00010000
00000000
00010000
00001000
00000000
,
00010000
00000000
00000100
00000000
00000010
00000000
00000000
00000000
00000001
00000000
00001000
00000001
00000000
00000100
00000001
00000000
,
00001000
00000000
00000000
00000100
00000000
00000000
00000001
00000000
00000001
00000000
00000000
00000100
00000000
00000000
00001000
00000000
,
00000001
00000000
00000100
00000000
00000010
00000000
00000000
00000000
00001000
00000000
00000001
00000100
00000000
00000010
00000100
00000000
,
00001000
00000000
00010000
00000000
00001000
00000000
00000000
00000000
00010000
00000000
00001000
00010000
00000000
00000010
00010000
00000000
,
00001000
00000000
00000000
00101000
00000000
00000000
00010000
00000000
01000000
00100000
00000000
01100000
00000000
00000000
00100000
00000000
,
10000000
00000000
01000000
00000000
00100000
00000000
00002000
00000000
00000000
00000000
00000000
00000000
00013000
00001000
00010000
00001000
,
00010000
00000000
00000000
00000100
00000000
00000100
00001000
00000000
00000001
00000100
00000001
00000000
00001000
00000000
00000100
00000000
,
00000010
00000000
00000000
00000001
00000000
00001000
00000010
00000000
00000100
00000001
00001000
00000100
00001000
00000000
00000100
00000000
,
00010000
00000000
00000000
00011000
00000000
00000000
00100000
00000000
00001000
00010000
00000000
00011000
00000000
00000000
00000010
00000000
,
00001000
00000100
00000000
00000100
00000010
00000000
00000001
00001000
00000010
00000000
00010000
00000000
00001000
00000000
00010000
00000100
,
00002000
00000000
00000000
00003000
,
00000001
00000000
00000100
00000000
00001000
00000000
00000000
00000000
00010000
00000000
00000000
00001000
00000000
00000000
00000100
00000000
,
00000001
00000000
00000010
00000000
00000100
00000000
00000000
00000000
00010000
00000000
00000000
00001000
00000000
00000000
00100000
00000000
,
00010000
00000000
00000000
10000000
00000000
00000000
00100000
00000000
01000000
00000000
00000000
00000000
00100000
00000000
10000000
00000000
,
00010000
01000000
00000000
01000000
00100000
00000000
10000000
00000000
01000000
00100000
00000000
00100000
00001000
00000000
00010000
00000000
,
00001000
00000000
00000100
00000000
00000010
00000000
00000000
00000000
00001000
00000000
00000000
00000001
00000000
00000000
00000100
00000000
,
00000010
00000000
00010000
00000000
00001000
00000000
00000000
00000000
00010000
00000000
00000000
00001000
00000000
00000000
00000100
00000000
,
00010000
00000000
00000000
01000000
00000000
00000000
00100000
00000000
10000000
00000000
00000000
00000000
00010000
00000000
01000000
00000000
,
00100000
00000000
10000000
00000000
01000000
00000000
00100000
00000000
00001000
00010000
00001000
00010000
00000100
00001000
00000100
00001000
,
00000001
00000000
00000000
00000000
00001000
00000000
00000001
00000010
00000100
00000000
00001000
00000100
00000000
00000100
00000001
00000000
,
00001000
00000000
00000100
00000010
00000001
00000100
00000010
00000001
,
00000010
00000000
00000000
00001000
00000000
00000000
00000001
00000000
00000010
00000000
00000000
00001000
00000000
00000000
00010000
00000000
,
00100000
00000000
00000000
00000000
10000000
00000000
10000000
00010000
10000000
00000000
01000000
00000000
00100000
00000000
00010000
00000000
,
10000000
00000000
00100000
01100000
01000000
00010000
00100000
00001000
,
00010000
00000000
00000010
00001000
00000000
00000010
00000100
00000000
00000001
00000000
00000000
00000000
00001000
00000000
00001000
00000000
,
00000001
00000010
00000000
00000100
00000010
00000000
00001000
00000000
00000100
00010000
00000000
00001000
00010000
00000000
00100000
00000000
,
01000000
00010000
00000000
10000000
01000000
00000000
00100000
00000000
00001000
00010000
00000000
00000010
00010000
00000000
00001000
00000000
,
00011000
00000000
00000000
00101000
00000000
00000000
00010010
00000000
00011000
00000000
00000000
00000000
00000000
00000000
00000000
00000000
,
00010000
00000000
00001000
00010000
00000000
00010000
00001000
00000000
00010000
00000000
00001000
00000000
00000100
00000000
00000001
00000000
,
00001000
00000000
00000100
00000010
00000000
00000010
00000100
00000000
00001000
00000000
00000001
00000000
00000010
00000000
00001000
00000000
,
00000010
00000000
00000001
00000100
00000000
00000100
00000001
00000000
00000100
00000000
00000010
00000000
00001000
00000000
00000100
00000000
,
00020000
00000000
00000010
00000000
00100000
00000000
00030010
00010000
,
00001000
00000000
00100000
00010000
00000000
00010000
10000000
00000000
00100000
00000000
01000000
00000000
00010000
00000000
10000000
00000000
,
01000000
00000000
00100000
01000000
00000000
01000000
10000000
00000000
00010000
00000000
01000000
00000000
00100000
00000000
00010000
00000000
,
00001000
00000000
00000000
00000000
00010000
00000000
00000100
00000000
00001000
00000000
00000000
00000010
00000000
00000000
00000100
00000000
,
00000001
00000000
00001000
00000000
00000100
00000000
00001000
00000000
00000001
00000100
00000001
00000100
00000010
00001000
00000001
00001000
,
00000100
00000000
00000000
00000110
00000000
00000000
00000001
00000000
00000100
00000000
00000000
00000110
00000000
00000000
00001000
00000000
,
00000100
00000000
00000000
00011000
00000000
00000000
00100000
00000000
01000000
00000000
00000000
00000000
10010000
00000000
00000000
00000000
,
00010000
00000000
00000000
01010000
00000000
00000000
00100000
00000000
10000000
00000000
00000000
11000000
00000000
00000000
00100000
00000000
,
01000000
00010000
00001000
00000100
00000000
00000001
00001001
00000000
,
00000001
00000000
00000100
00000010
00000000
00001000
00000010
00000000
00000100
00000000
00000001
00000010
00000000
00000100
00010000
00000000
,
00001000
00000000
00010000
00000010
00000000
00001000
00000010
00000000
00010000
00000000
00001000
00010000
00000000
00001000
00100000
00000000
,
00010000
00000000
01000000
00010000
00000000
00100000
01000000
00000000
10000000
00000000
00010000
01000000
00000000
00100000
01000000
00000000
,
01010000
00000000
00000000
01001000
00000000
00000000
00011000
00000000
00000000
00000000
00000000
00000000
00000000
00000000
00000000
00000000
,
00010000
00000000
00001000
00000000
00000010
00000000
00000000
00000000
00000100
00000000
00000010
00000001
00000000
00000010
00000001
00000000
,
00001000
00000000
00000010
00000000
00000100
00000000
00000000
00000000
00000001
00000000
00000100
00001000
00000000
00010000
00001000
00000000
,
00010000
00000000
01000000
00000000
00100000
00000000
00000000
00000000
00010000
00000000
00010000
10000000
00000000
01000000
10000000
00000000
,
00010000
00000000
00000000
01000000
00000000
00000000
10000000
00000000
10000000
00000000
00000000
01000000
00000000
00000000
00010000
00000000
,
00100000
00000000
01000000
00000000
00100000
00000000
00000000
00000000
00010000
00000000
10000000
01000000
00000000
00100000
00010000
00000000
,
01000000
00000000
00001000
00000000
00010000
00000000
00000000
00000000
00001000
00000000
00100000
00010000
00000000
01000000
00001000
00000000
,
00010000
00000000
00000000
00010010
00000000
00000000
00001000
00000000
00000100
00000010
00000000
00000110
00000000
00000000
00000010
00000000
,
00000001
00000000
00000100
00000000
00001000
00000000
00020000
00000000
00000000
00000000
00000000
00000000
00031000
00010000
00001000
00010000
,
00001000
00000000
00000000
01000000
00000000
01000000
00010000
00000000
10000000
01000000
10000000
00000000
00010000
00000000
01000000
00000000
,
00100000
00000000
00000000
10000000
00000000
00010000
00100000
00000000
01000000
10000000
01000000
10000000
01000000
00000000
00100000
00000000
,
00001000
00000000
00000000
00011000
00000000
00000000
00000010
00000000
00010000
00001000
00000000
00011000
00000000
00000000
00100000
00000000
,
00010000
01000000
00000000
01000000
00100000
00000000
10000000
00010000
00100000
00000000
01000000
00000000
00100000
00000000
00001000
00010000
,
00002000
00000000
00000000
00000000
,
00003000
00000000
00000000
00000000
;

//--------------- dance-double - Fred-104† ----------------
#NOTES:
     dance-double:
     Fred-104†:
     Challenge:
     16:
     :
00000000
00000000
00000000
00000000
,
00000000
00000000
00000000
00000000
,
00000000
00000000
00000000
00000000
,
00000000
00000000
00000000
00000000
,
00000000
00000000
00000000
00000000
,
00010000
00001000
00000000
00001000
00000010
00000001
00000000
00000001
00001000
00000010
00000000
00000010
00000100
00000001
00000000
00000001
,
00000010
00000100
00000000
00000100
00010000
00001000
00000000
00001000
00010000
01000000
00000000
01000000
00100000
00010000
10000000
00010000
,
10000000
01000000
10000000
00000000
00010000
01000000
00010000
00000000
00100000
00001000
00100000
00000000
00001000
00010000
00001000
00000000
,
00010000
00000010
00010000
00000010
00001000
00000010
00001000
00000010
00000100
00000001
00000100
00000001
00001000
00000100
00000010
00000001
,
00002000
00000000
00000000
00003000
,
00000001
00000000
00000100
00000000
00001000
00000000
00000000
00000000
00010000
00000000
01000000
10000000
00000000
01000000
10000000
00000000
,
01000000
00000000
00100000
00000000
00001000
00000000
00000000
00000000
00010000
00000000
00001000
00000010
00000000
00001000
00000010
00000000
,
00000001
00000000
00001000
00000000
00000010
00000000
00000000
00000000
00000100
00000000
00001000
00010000
00000000
00001000
00010000
00000000
,
00100000
00000000
01000000
00100000
00000000
10000000
00010000
00000000
10000000
01000000
00000000
00010000
00001000
00000000
00010000
00000000
,
00001000
00000000
01000000
00000000
00100000
00000000
00000000
00000000
00010000
00000000
00001000
00000100
00000000
00000010
00001000
00000000
,
00000001
00000000
00000010
00000000
00000100
00000000
00000000
00000000
00001000
00000000
00000001
00000010
00000000
00000100
00010000
00000000
,
00001000
00000000
00010000
00100000
00000000
10000000
00010000
00000000
00100000
01000000
00000000
00100000
00001000
00000000
00010000
00000000
,
00001000
00000000
00000100
00000000
00000001
00000000
00001000
00000000
00000100
00000000
00000010
00000000
00000001
00001000
00000010
00001000
,
00000001
00000010
00000000
00000010
00000100
00010000
00000000
00010000
00001000
00100000
00000000
00100000
00010000
10000000
00000000
10000000
,
01000000
00010000
00000000
00010000
00001000
00000010
00000000
00000010
00000001
00000100
00000000
00000100
00001000
00010000
00001000
00010000
,
00001000
00000000
00010000
00100000
00000000
10000000
00010000
00000000
01000000
00100000
00000000
00010000
00001000
00000000
00000100
00000000
,
00000001
00001000
00000001
00001000
00000010
00010000
00000010
00010000
00001000
00100000
00001000
00100000
00010000
10000000
00010000
01000000
,
00002000
00000000
00000000
00000000
00000000
00000000
00000000
00000000
00000000
00000000
00000000
00000000
00003000
00000000
00000000
00000000
00000000
00000000
00010000
00001000
00010000
00001000
00010000
00001000
,
00010000
00000000
00001000
00000000
00000010
00000000
00000000
00000000
00000001
00000010
00000000
00000100
00010000
00000000
00001000
00000000
,
00000100
00000000
00000010
00000000
00001000
00000000
00000000
00000000
00000001
00000100
00000000
00000010
00000100
00000000
00001000
00000000
,
00010000
00100000
00000000
10000000
01000000
00000000
00100000
00000000
00001000
00000000
00010000
00000000
00001000
00000000
00000000
00000000
,
00010000
00001000
00000000
00000100
00000001
00000000
00001000
00000000
00000100
00000010
00000000
00000001
00001000
00000010
00010000
00000000
,
00001000
00000000
00010000
00000000
00100000
00000000
00000000
00000000
10000000
00010000
00000000
00100000
01000000
00000000
00010000
00000000
,
00001000
00000000
00000010
00000000
00000100
00000000
00000000
00000000
00010000
00001000
00000000
00010000
00100000
00000000
01000000
00000000
,
00010000
10000000
00000000
01000000
00010000
00000000
00001000
00000000
00000100
00000000
00000001
00000000
00000010
00000000
00000000
00000000
,
00000100
00001000
00000100
00000000
00010000
00001000
00010000
00000000
00000100
00010000
00001000
00010000
00100000
01000000
00100000
10000000
,
00010000
00000000
00000000
00000000
10000000
01000000
00100000
00010000
00100000
00000000
00000000
00001000
00000000
00000000
00000010
00000000
,
00000001
00000000
00000000
00000000
00000010
00000100
00001000
00000100
00010000
00000000
00001000
00010000
00100000
00000000
01000000
00000000
,
00010000
00000000
00000000
10000000
00000000
00000000
00100000
00000000
00001000
00000000
00000000
00000010
00000000
00000000
00010000
00000000
,
00001000
00000000
00000000
00000000
00010000
00000000
00001000
00000010
00000001
00000000
00000010
00000100
00001000
00000000
00000100
00000000
,
00010000
00000000
00000000
00000000
00001000
00010000
00100000
01000000
00100000
00000000
10000000
00100000
10000000
00000000
01000000
00000000
,
00100000
00001000
00000000
00001000
00010000
00000000
00001000
00000000
00000100
00000000
00000010
00000100
00001000
00000000
00010000
00000000
,
00001000
00010000
00000000
00100000
01000000
00000000
00010000
10000000
01000000
10000000
00000000
00010000
10000000
00000000
01000000
00100000
,
00001000
00010000
00001000
00000000
00010000
00000100
00001000
00000000
00000001
00000100
00000010
00000000
00001000
00000100
00000010
00000001
,
00000100
00000000
00000000
00001000
00000000
00000000
00010000
00000000
00011000
00000000
00000000
00000000
00000000
00000000
00000000
00000000
,
00011000
00000000
00010000
00100000
00000000
01000000
00100000
00000000
10000000
00000000
00100000
00000000
00010000
00000000
00001000
00000000
,
00010000
00000000
00001000
00000010
00000000
00000001
00000010
00000000
00000100
00000000
00000010
00000000
00001000
00000000
00010000
00000000
,
00001000
00000000
00010000
00100000
00000000
01000000
00100000
00000000
00010000
00000000
00001000
00010000
00100000
00000000
10000000
00000000
,
00010000
00000000
00100000
01000000
00100000
00000000
00001000
00000000
00010000
00000000
00001000
00000100
00000010
00001000
00000001
00000000
,
00000010
00000000
00000100
00001000
00000000
00000010
00010000
00000000
00001000
00000000
00100000
00001000
00010000
00000000
01000000
00000000
,
00100000
00000000
00010000
10000000
00000000
00100000
00010000
00000000
00001000
00000000
00000100
00000010
00001000
00000000
00000001
00000000
,
00000010
00000000
00000000
00000000
00000100
00001000
00000010
00001000
00000100
00000000
00000010
00000001
00000000
00000100
00001000
00000000
,
00010000
00001000
00010000
00001000
01000000
00100000
01000000
00100000
10000000
01000000
10000000
01000000
00100000
00001000
00010000
00001000
,
00000010
00000000
00000001
00000010
00000000
00000100
00010000
00000000
00001000
00000000
00100000
00001000
00000000
00100000
00010000
00000000
,
00100000
00000000
01000000
10000000
00000000
00100000
00010000
00000000
00001000
00000000
00000100
00000000
00000001
00000000
00000000
00000000
,
00001000
00000000
00000100
00000010
00000000
00000001
00001000
00000000
00000010
00000000
00000100
00001000
00000000
00010000
00100000
00000000
,
01000000
00000000
00010000
10000000
01000000
00000000
00100000
00000000
00001000
00010000
00001000
00010000
00001000
00000000
00000000
00000000
,
00010000
00001000
00010000
00001000
00000000
00000010
00000100
00000000
00001000
00000100
00001000
00000100
00000000
00000010
00000001
00000000
,
00001000
00000010
00001000
00000010
00000000
00010000
00001000
00000000
00100000
00010000
00100000
00010000
00000000
00100000
01000000
00000000
,
10000000
00100000
10000000
00100000
00000000
01000000
00001000
00000000
00010000
00000100
00010000
00000100
00000000
00000010
00000001
00000000
,
00000100
00000000
00000000
00001000
00000000
00000000
00011000
00000000
00000000
00000000
00000000
00000000
00000000
00000000
00000000
00000000
,
00001000
00000000
01000000
00010000
01000000
00000000
00000000
00000000
00010000
00000000
10000000
01000000
00000000
00100000
00001000
00000000
,
00010000
00000000
00000100
00000010
00000100
00000000
00000000
00000000
00001000
00000000
00000001
00000010
00000000
00000100
00000010
00000000
,
00000001
00000000
00001000
00000100
00001000
00000000
00000000
00000000
00000010
00000000
00010000
00001000
00000000
00010000
00100000
00000000
,
01000000
00010000
00000000
10000000
01000000
00000000
00100000
00000000
00001000
00010000
00000000
00001000
01000000
00000000
00001000
00000000
,
00010000
00000000
00000100
00000010
00000100
00000000
00000000
00000000
00001000
00000100
00001000
00000100
00000000
00000010
00000001
00000000
,
00001000
00000000
00000010
00010000
00000010
00000000
00000000
00000000
00010000
00001000
00010000
00001000
00000000
00100000
00010000
00000000
,
10000000
00100000
10000000
00100000
00000000
01000000
00010000
00000000
10000000
01000000
00000000
00100000
00001000
00000000
00010000
00001000
,
00000100
00000000
00000001
00000000
00001000
00000000
00000100
00000000
00000010
00000001
00001000
00000010
00000100
00000010
00001000
00000001
,
00000010
00000100
00000000
00000100
00010000
00001000
00000000
00001000
00100000
00001000
00000000
00001000
00010000
00100000
00000000
00100000
,
01000000
00010000
00000000
00010000
10000000
01000000
00000000
01000000
00010000
00001000
00000000
00001000
00000010
00000001
00000010
00000001
,
00001000
00000010
00001000
00000010
00010000
00001000
00010000
00001000
01000000
00010000
01000000
00010000
10000000
01000000
10000000
01000000
,
00100000
00010000
00100000
00001000
00010000
00000100
00001000
00000010
00000100
00000001
00000010
00000100
00001000
00000100
00010000
00001000
,
02000000
00000000
00000000
00000000
,
03000000
00000000
00000000
00000000
;
