#VERSION:0.83;
#TITLE:Nightmare before oversleep;
#ARTIST:猫叉Master;
#ARTISTTRANSLIT:Nekomata Master;
#GENRE:SORROW STEP;
#BANNER:Nightmare before oversleep.png;
#BACKGROUND:Nightmare before oversleep-bg.png;
#CDTITLE:./CDTitles/bm IIDX 23 copula.png;
#MUSIC:Nightmare before oversleep.ogg;
#SAMPLESTART:78.61;
#SAMPLELENGTH:15;
#BPMS:0=190;
#TIMESIGNATURES:0=4=4,180=3=4,249=4=4;
#BGSTAGE:25;

//--------------- dance-single - Fred-104 ----------------
#NOTEDATA:;
#STEPSTYPE:dance-single;
#DESCRIPTION:Fred-104;
#DIFFICULTY:Beginner;
#METER:3;
#CREDIT:Fred-104;
#NOTES:
0000
0000
0000
0000
,
0000
0000
0000
0000
,
0000
0000
0000
0000
,
0000
0000
0000
0000
,
0000
0000
0000
0000
,
0000
0000
0000
0000
,
1000
0000
0000
0000
,
0000
0000
0000
0000
,
0001
0000
0000
0000
,
0000
0000
0000
0000
,
1000
0000
0000
0000
,
0000
0000
0000
0000
,
0001
0000
0000
0000
,
0001
0000
0000
0000
,
0010
0000
0000
0000
,
0100
0000
0000
0000
,
1000
0000
0000
0000
,
0001
0000
0000
0000
,
1000
0000
0000
0000
,
0002
0000
0000
0000
,
0003
0000
0000
0000
,
1000
0000
0000
0000
,
0001
0000
1000
0000
,
0010
0000
0000
0000
,
1000
0000
0001
0000
,
0010
0000
0010
0000
,
0100
0000
0100
0000
,
1000
0000
0000
1000
,
0000
0000
1000
0000
,
0001
0000
0000
0001
,
0000
0000
0001
0000
,
0100
0000
0000
0100
,
0000
0000
0100
0000
,
0010
0000
0000
0010
,
0000
0000
0010
0000
,
1000
0000
0000
1000
,
0000
0000
1000
0000
,
0001
0000
0000
1000
,
0000
0000
0001
0000
,
1000
0000
0000
0010
,
0000
0000
1000
0000
,
0100
0000
0000
0010
,
0000
0000
0001
0000
,
1000
0000
0000
0001
,
0000
0000
1000
0000
,
0001
0000
0000
1000
,
0000
0000
0001
0000
,
0000
0100
0000
0000
,
0010
0000
0000
0100
,
0000
0000
0100
0000
,
0000
0010
0000
0000
,
0100
0000
0000
0001
,
0000
0000
1000
0000
,
0000
0001
0000
0000
,
1000
0000
0000
0100
,
0000
0000
1000
0000
,
0000
0001
0000
0000
,
1000
0000
0000
0002
,
0000
0000
0003
0000
,
0000
2000
0000
0000
,
3000
0000
0000
1001
,
0000
0000
0000
0000
,
0000
1000
0000
0000
,
0000
0001
0000
0010
,
0000
0100
0000
0000
,
0000
1000
0000
0001
,
0000
1000
0000
0000
,
0000
0100
0000
0000
,
0000
0001
0000
0010
,
0000
1000
0000
0000
,
0000
0001
0000
1000
,
0000
0010
0000
0000
,
0000
0100
0000
0000
,
0000
0001
0000
0000
,
0000
0010
0000
0000
,
0000
1000
0000
0100
,
0000
0001
0000
1000
,
0000
0001
0000
0001
,
0000
1000
0000
1000
,
0000
0001
0000
0001
,
0000
0100
0000
0100
,
0000
0001
0000
0001
,
0000
1000
0000
1000
,
0000
0001
0000
0010
,
0000
0001
0001
0001
,
0001
0000
0000
0000
,
0000
2002
0000
0000
,
0000
0000
0000
0000
,
0000
0000
0000
0000
,
3003
2002
0000
0000
,
0000
0000
0000
0000
,
0000
0000
0000
0000
,
0000
0000
0000
0000
,
0000
0000
0000
3003
;

//--------------- dance-single - Fred-104 ----------------
#NOTEDATA:;
#STEPSTYPE:dance-single;
#DESCRIPTION:Fred-104;
#DIFFICULTY:Easy;
#METER:9;
#CREDIT:Fred-104;
#NOTES:
0000
0000
0000
0000
,
0000
0000
0000
0000
,
0000
0000
0000
0000
,
0000
0000
0000
0000
,
0000
0000
0000
0000
,
0000
0000
0000
0000
,
1000
0000
0001
0000
,
1000
0000
0001
0000
,
0100
0000
0010
0000
,
1000
0000
0001
0010
,
0100
0000
1000
0001
,
1000
0010
0100
0001
,
2000
0000
3002
0000
,
1003
0100
1000
0100
,
0001
0100
0001
0100
,
1000
0010
1000
0010
,
0001
0010
1000
0001
,
1000
0100
0010
0001
,
0100
0010
1000
0100
,
0020
0000
0000
0000
,
0002
0000
0000
0033
,
1001
0000
0000
0001
0000
0000
0100
0000
,
0010
1000
0100
0010
,
0001
0000
0000
1000
0000
0000
0001
0000
,
0100
0010
0100
0001
,
1000
0000
0000
0100
0000
0000
0010
0000
,
0100
1000
0001
0100
,
0110
0000
0000
0010
0000
0000
0100
0000
,
0000
0010
0000
0000
0100
0000
0001
0000
,
1000
0000
0000
0100
0000
0000
0010
0000
,
0000
0100
0000
0000
1000
0001
1000
0000
,
0001
0000
0000
0100
0000
0000
0010
0000
,
0000
1000
0000
0000
0001
0010
0001
0000
,
0010
0000
0000
0100
0000
0000
1000
0000
,
0000
0010
0000
0000
0100
0001
0100
0000
,
0001
0000
0000
1000
0000
0000
0001
0000
,
0100
0010
0000
0100
0010
0000
1001
0000
,
1000
0000
0100
1000
0000
0100
1000
0000
,
0001
0100
0010
1000
,
0001
0000
0010
0100
0000
0010
0100
0000
,
0010
0001
0100
0010
,
1000
0000
0001
1000
0000
0010
1000
0000
,
0001
0000
1000
0000
0100
0010
0100
0000
,
0011
0000
0000
1000
0000
0000
0001
0000
,
0000
0100
0000
0000
0010
0000
1000
0000
,
0001
0000
0000
0010
0000
0000
0100
0000
,
0000
1000
0000
0000
0010
0000
0000
0100
,
0000
0101
1001
0110
,
1001
1000
0001
0100
,
0010
1000
0010
0000
0110
0000
0110
0000
,
1001
0000
1000
0000
0000
0100
0000
0000
,
0001
0000
0000
0010
0000
0000
1000
0000
,
0000
0100
0000
0000
0110
0000
0011
0000
,
1010
0101
0001
1000
,
0001
0000
0100
0010
0100
0000
0001
0000
,
1000
0100
0010
0001
,
1000
0001
0100
0010
,
1000
0001
1000
1100
,
0000
0110
0000
0000
0011
0000
0000
1001
,
0000
0000
1010
0000
0000
0101
0000
0000
,
1000
0001
2002
0000
,
0000
0000
0000
0000
,
3003
0000
1000
0000
0001
0000
1000
0100
,
1000
0100
0100
0010
,
0001
0000
1000
0000
0001
0000
0100
0010
,
0100
0000
0010
0000
1000
0000
0100
0010
,
0100
0000
0110
0000
0000
0001
0000
0000
,
0001
0000
0110
0000
0000
1000
0000
0000
,
1000
0000
0001
0000
0100
0000
0010
1000
,
0010
0000
1000
0000
0001
0000
1000
0010
,
1000
0010
0010
0100
,
0001
0000
1000
0000
0001
0000
0010
0100
,
0010
0000
0100
0000
1000
0000
0010
0100
,
0010
0000
0110
0000
0000
0001
0000
0000
,
0001
0000
0110
0000
0000
1000
0000
0000
,
1000
0000
0001
0000
0010
0000
0100
1000
,
0100
1000
0001
0100
,
0010
1000
0001
0010
,
0100
1000
0001
0100
,
0010
0100
0001
1000
,
0100
0000
1000
0010
1000
0000
0001
0010
,
0001
0000
0100
0000
0010
0000
1000
0001
,
1000
0000
0001
0000
0010
0000
0100
1000
,
0100
0000
1000
0000
0001
0000
0100
0010
,
0100
0000
0001
1000
0001
1000
0001
1000
,
0001
1000
0000
0000
0000
0000
0000
0000
,
0000
2002
0000
0000
,
0000
0000
0000
0000
,
0000
0000
0000
0000
,
3003
2002
0000
0000
,
0000
0000
0000
0000
,
0000
0000
0000
0000
,
0000
0000
0000
0000
,
0000
0000
0000
3003
;

//--------------- dance-single - Fred-104 ----------------
#NOTEDATA:;
#STEPSTYPE:dance-single;
#DESCRIPTION:Fred-104;
#DIFFICULTY:Medium;
#METER:13;
#CREDIT:Fred-104;
#NOTES:
0000
0000
0000
0000
,
0000
0000
0000
0000
,
0000
0000
0000
0000
,
0000
0000
0000
0000
,
0000
0000
0000
0000
,
0000
0000
0000
0000
,
0001
0000
0010
0000
,
0100
0000
1000
0000
,
0001
0000
0100
0000
,
1000
0000
0010
0001
,
1000
0000
0010
0001
,
0100
1000
0001
0100
,
0020
0000
2030
0000
,
3001
0010
0100
1000
,
0001
0100
0010
1000
,
0100
0010
0001
1000
,
0001
0100
0010
0100
,
0001
1000
0001
0000
0100
0010
0100
0000
,
0010
1000
0100
0010
0001
1000
0010
0100
,
0002
0000
0000
0000
,
2000
0000
0000
3003
,
1100
0000
0010
0001
0000
1000
0001
0000
,
0100
0001
0000
1000
0001
0010
0100
0000
,
1010
0000
0001
1000
0000
0010
0100
0000
,
0010
1000
0000
0100
0010
0100
1000
0000
,
0101
0000
1000
0100
0000
0010
0001
0000
,
1000
0001
0000
0100
0010
1000
0001
0000
,
0011
0000
0100
1000
0000
0001
0100
0000
,
0010
1000
0000
0010
0100
0010
1000
0001
,
0010
0000
0100
1000
0000
0001
0100
0000
,
0010
1000
0000
0010
0100
0010
1000
0100
,
0010
0000
0001
1000
0000
0100
1000
0000
,
0010
0100
0000
0010
1000
0100
0010
0001
,
1000
0000
0001
0100
0000
0010
1000
0000
,
0100
0010
0000
0001
1000
0001
0100
0010
,
1000
0000
0001
0100
0000
1000
0100
0000
,
0001
0010
0000
1000
0010
0001
1000
0001
,
0010
0000
0100
1000
0001
0100
0010
0000
,
1000
0100
0010
0100
1000
0001
0100
0010
,
0100
0000
0001
0010
0100
1000
0001
0000
,
0100
0001
1000
0001
0010
0100
0010
0001
,
1000
0000
0010
1000
0100
1000
0010
0000
,
0100
0001
1000
0001
0010
0001
0100
0010
,
0100
0001
1000
0100
0000
0010
0100
0000
,
1000
0001
0100
0001
1000
0100
0110
0000
,
0001
0100
1000
0001
,
0010
0000
1000
0000
0100
0000
0010
0001
,
1000
1001
0110
1001
,
1100
0000
0001
1000
0010
0000
0100
0000
,
0001
1000
0100
0010
0001
0000
0100
0000
,
0110
0000
0001
0000
0010
1000
0010
0000
,
0001
0000
0100
1000
0100
0000
0001
0000
,
1000
0100
0010
0000
0011
0000
1010
0000
,
0101
0000
1100
0000
0001
1000
0010
1000
,
0001
0000
1000
0100
0010
0000
0001
0000
,
0100
0010
0100
0001
1000
0000
0001
0010
,
0100
1000
0001
0000
0100
0001
1000
0001
,
0010
0000
0100
0010
0001
0000
0011
0000
,
0000
1010
0000
0000
1100
0000
0000
0101
,
0000
0000
0011
0000
0000
1010
0000
0000
,
1100
0101
2002
0000
,
0000
0000
0000
0000
,
3003
0000
1010
0000
0101
0000
1000
0100
,
0010
0000
0000
0000
0011
0000
0000
0000
1000
0000
0001
0000
0100
0000
0010
0100
,
0010
1000
0001
0000
0110
0000
1001
0000
,
0001
0010
0100
1000
0001
0100
0010
1000
,
0010
0100
0002
0000
0000
1003
0000
0001
,
0100
0010
2000
0000
0000
3100
0000
0001
,
0100
0010
0001
1000
0100
0001
1000
0010
,
0001
0000
1100
0000
0011
0000
1000
0010
,
0100
0000
0000
0000
0101
0000
0000
0000
1000
0000
0001
0000
0010
0000
0100
0010
,
0100
1000
0001
0000
0110
0000
1001
0000
,
0001
0100
0010
1000
0001
0010
0100
1000
,
0100
0010
0002
0000
0000
1003
0000
0001
,
0010
0100
2000
0000
0000
3010
0000
0001
,
0010
0100
0001
1000
0010
0001
1000
0100
,
0001
0000
0010
0100
1000
0001
0100
0010
,
1000
0000
0001
0100
1000
0001
0010
1000
,
0001
0000
1000
0100
0001
1000
0010
0001
,
1000
0000
0001
0010
1000
0001
0100
1000
,
0001
0000
1000
0010
0001
1000
0100
0001
,
1000
0000
0001
0010
0100
0010
0001
0010
,
0100
1000
0001
0100
0010
1000
0010
0100
,
0001
1000
0100
0010
0001
0100
0010
1000
,
0100
0000
0010
0000
0001
0000
0010
0000
0001
0000
0010
0000
0100
1000
0100
1000
,
0100
1000
0100
1000
0000
0000
0000
0000
0000
0000
0000
0000
0000
0000
0000
0000
,
0000
0220
0000
0000
,
0000
0000
0000
0000
,
0000
0000
0000
0000
,
0330
2002
0000
0000
,
0000
0000
0000
0000
,
0000
0000
0000
0000
,
0000
0000
0000
0000
,
0000
0000
0000
3003
;

//--------------- dance-single - Fred-104 ----------------
#NOTEDATA:;
#STEPSTYPE:dance-single;
#DESCRIPTION:Fred-104;
#DIFFICULTY:Hard;
#METER:16;
#CREDIT:Fred-104;
#NOTES:
0000
0000
0000
0000
,
0000
0000
0000
0000
,
0000
0000
0000
0000
,
0000
0000
0000
0000
,
0000
0000
0000
0000
,
0000
0000
0000
0000
,
1000
0000
0100
0000
,
0010
0000
0001
0000
,
1000
0000
0001
0000
,
0100
0000
0010
1000
,
0001
0000
0010
0100
,
1000
0001
0100
0010
,
2000
0000
3002
0000
,
1003
0100
1000
0100
0010
0100
0010
0100
,
0010
0001
0010
0001
1000
0010
1000
0010
,
0100
0001
0100
0001
1000
0001
1000
0001
,
0010
0100
0010
0100
1000
0001
0100
0001
,
1000
0001
1000
0001
0010
0100
1000
0001
,
0100
0010
1000
0010
0100
0001
1000
0100
,
0020
0000
0000
0000
,
0002
0000
0000
0033
,
1001
0000
1000
1100
0000
0001
0101
0000
,
1000
0100
0001
0100
0010
0001
1000
0000
,
0110
0000
0001
0011
0000
1000
1010
0000
,
0001
0100
0010
0100
1000
0100
0001
1000
,
1001
0000
0000
0000
1000
0000
0110
0000
0000
0000
0001
0100
0020
0000
0000
0000
,
1030
0000
0010
0000
0100
0000
1000
0000
0001
0000
0010
0100
0002
0000
0000
0000
,
1003
0100
0100
0001
0100
0100
1000
0010
,
0010
0001
0010
0010
1000
0100
0010
0001
,
1000
0100
0001
0100
0010
0100
1000
0000
,
0001
0000
0100
0000
1000
0000
0100
0001
0100
0000
0010
0000
1000
0000
0001
0000
,
1000
0010
0100
0010
0001
0010
1000
0000
,
0001
0000
0010
0000
1000
0000
0010
0001
0010
0000
0001
0000
1000
0000
0010
0000
,
0100
0001
1000
0100
0001
0100
1000
0000
,
0001
0000
0100
0000
0010
0000
1000
0001
1000
0000
0100
0010
0100
0000
1000
0000
,
1001
0000
0001
0101
0000
1000
1010
0000
,
0001
0000
0010
0000
0100
0000
1000
0001
0100
0001
1000
0000
0100
0010
0001
0000
,
1000
0010
0100
1000
0100
0001
0010
0100
,
0001
0000
0100
0000
1000
0000
0001
0100
0001
0000
1000
0100
1000
0000
0001
0000
,
1000
0100
0010
1000
0010
0001
0100
0010
,
0001
0000
0010
0000
1000
0000
0001
0010
0001
0000
1000
0010
1000
0001
1000
0001
,
1000
0000
0100
0000
0001
0000
0100
0000
0010
0000
0001
1000
0010
0000
0001
0000
,
0010
0000
0100
0000
0001
0000
1000
0100
1000
0000
0001
0100
0001
0000
1000
0000
,
1001
0000
1100
1001
0000
0101
1001
0000
,
1000
0000
0100
0000
0001
0000
1000
0000
0010
0000
0001
0010
0100
0000
1000
0001
,
1000
0000
0010
0100
0001
0000
1000
0000
,
0100
0010
0001
0000
1000
0000
0001
0100
,
0010
1010
0101
1100
,
0011
0000
1000
0001
0100
0000
0010
0000
,
1000
0001
0010
0100
0110
0000
1100
0000
,
1001
0000
0001
0100
0010
0001
0010
0100
,
0001
0010
0100
0001
0100
0010
0001
0100
,
1000
0100
0010
0100
0001
1000
0100
0010
,
0001
1000
0100
0010
1000
0010
0100
0010
,
0001
1000
0001
0100
1000
0100
0001
1000
,
0100
0010
0001
1000
0010
0100
1000
0001
,
0010
0100
0001
0010
0100
0001
1000
0010
,
0100
1000
0001
0100
0010
0000
1001
0000
,
1100
1001
0000
0101
1001
0000
1010
1001
,
0000
0011
1001
0000
1100
0101
0000
0011
,
1010
0110
2002
0000
,
0000
0000
0000
0000
,
3003
0000
1100
0000
0101
0000
1000
0100
,
0110
0000
0000
0000
0000
0000
0011
0000
0000
0000
0000
0000
0001
0000
0000
1000
0000
0000
0010
0000
0000
1000
0001
1000
,
0001
0010
0110
0000
1100
0000
0101
0000
,
1000
0000
0001
0000
0100
0000
0010
0000
1000
0000
0001
0000
0010
0100
0010
0100
,
1000
0001
0100
0010
2000
0000
0000
0000
3001
0000
0010
0000
0000
0000
0010
0100
,
1000
0001
1000
0010
0200
0000
0000
0000
0301
0000
1000
0000
0000
0000
1000
0100
,
0010
0001
1000
0001
1000
0000
0100
0000
0100
0000
0001
0000
0100
0000
0100
0000
,
1000
0001
1010
0000
0011
0000
1000
0010
,
0110
0000
0000
0000
0000
0000
0101
0000
0000
0000
0000
0000
0001
0000
0000
1000
0000
0000
0100
0000
0000
1000
0001
1000
,
0001
0100
0110
0000
1010
0000
0011
0000
,
1000
0000
0001
0000
0010
0000
0100
0000
1000
0000
0001
0000
0100
0010
0100
0010
,
1000
0001
0010
0100
2000
0000
0000
0000
3001
0000
0100
0000
0000
0000
0100
0010
,
1000
0001
1000
0100
0020
0000
0000
0000
0031
0000
1000
0000
0000
0000
1000
0010
,
0100
0001
1000
0001
1000
0000
0010
0000
0010
0000
0001
0000
0010
0000
0010
0000
,
1000
0001
1000
0000
0001
0100
0001
0000
1000
0100
0000
0010
0001
0000
1000
0010
,
0000
0100
0001
0000
1000
0001
0010
0000
0100
1000
0000
0001
0100
0000
0010
1000
,
0000
0001
0010
0000
0100
0010
0001
0000
1000
0001
0000
0100
0001
0000
1000
0001
,
0000
0010
0100
0000
1000
0001
0100
0000
0010
1000
0000
0001
0010
0000
0100
0010
,
0000
0001
1000
0000
0010
1000
0010
1000
0010
1000
0010
0000
0100
0001
0100
0001
,
0100
0001
0100
0000
0001
1000
0001
0000
1000
0100
0000
0010
0001
0000
0100
0001
,
0000
1000
0001
0000
0010
0100
1000
0000
0010
0100
0000
0001
1000
0000
0100
0010
,
0000
0100
1000
0000
0001
0100
0010
0000
0100
0001
0000
0010
0100
0000
1000
0001
,
0000
0100
0001
0000
1000
0100
1000
0100
1000
0100
1000
0100
0010
0001
0010
0001
,
0010
0001
0010
0001
0000
0000
0000
0000
0000
0000
0000
0000
0000
0000
0000
0000
,
0000
0002
0023
0230
,
2300
3002
0203
0320
,
2030
3200
0320
0032
,
2003
3002
0203
2300
,
3020
0032
0203
2300
,
3020
0032
2003
3020
,
0032
0203
2300
3002
,
0203
0320
2030
3001
;

//--------------- dance-single - Fred-104† ----------------
#NOTEDATA:;
#STEPSTYPE:dance-single;
#DESCRIPTION:Fred-104†;
#DIFFICULTY:Challenge;
#METER:18;
#CREDIT:Fred-104†;
#NOTES:
0000
0000
0000
0000
,
0000
0000
0000
0000
,
0000
0000
0000
0000
,
0000
0000
0000
0000
,
0000
0000
0000
0000
,
0000
0000
0000
0000
,
0002
0000
2003
0000
,
3200
0000
0320
0000
,
0032
0000
2003
0000
,
3002
0000
0203
2300
,
3002
0000
0023
2030
,
3200
0302
2003
3020
,
0230
0000
2000
3300
,
0001
0010
0001
0010
0100
1000
0100
1000
,
0001
0100
0001
0100
0010
1000
0010
1000
,
0100
0010
0100
0010
0001
1000
0001
1000
,
0100
0010
0001
0100
0010
1000
0100
0010
,
0001
1000
0001
0100
0010
1000
0010
0100
,
0001
1000
0100
0001
0100
0010
0100
1000
,
0002
0000
0000
0000
,
2000
0000
0000
3003
,
1100
0010
0001
0101
0010
1000
1001
0000
,
0011
0010
0100
1000
0001
0100
0110
0000
,
1010
0000
0100
0000
0001
0000
0011
0000
0100
0000
1000
0000
1001
0000
1000
0001
,
1000
0100
0010
0001
0100
0001
1001
0000
,
1100
0000
0000
0001
0000
0000
0100
0000
0000
0101
0000
0000
1000
0000
0000
0100
0010
0100
0010
0000
0000
0001
0000
0000
,
0011
0000
0001
0000
1000
0000
0010
0000
0110
0000
0100
0001
1000
0100
1000
0000
,
1200
0310
0001
0201
0310
1000
1020
0130
,
0001
0021
0130
1000
0210
0301
0120
1030
,
0001
1000
0010
0001
1000
0100
0010
1000
,
0001
0000
0010
0000
1000
0000
0010
0001
1000
0100
0010
0000
0001
0000
1000
0000
,
0001
0100
1000
0001
0010
1000
0010
0100
,
0001
0000
1000
0000
0100
0000
0010
0001
1000
0010
0100
0000
0001
1000
0100
1000
,
0001
0000
1000
0000
0010
0000
0001
0000
1000
0000
0100
0010
0100
0010
0100
0000
,
0001
0000
1000
0000
0100
0000
0010
0001
1000
0010
0100
0001
0100
0010
1000
0000
,
1020
0130
0001
0021
0130
1000
1200
0310
,
0001
0000
0100
0000
0010
0000
1000
0001
0010
0100
1000
0001
0100
0010
0100
0001
,
1000
0000
0100
0010
0001
0000
1000
0000
0010
0100
0001
0000
1000
0000
0001
0000
,
0010
0100
1000
0000
0001
0000
0100
0010
1000
0010
0100
0010
1000
0000
0001
0000
,
1000
0000
0100
0010
0001
0000
1000
0000
0100
0010
0001
0000
1000
0000
0001
0000
,
0100
0010
1000
0000
0001
0000
0010
0100
1000
0100
0010
0100
1000
0001
0100
0010
,
0100
0000
0001
1000
0100
0000
0010
0001
1000
0010
0100
0001
1000
0000
0001
0000
,
1000
0100
0010
0000
0001
0000
1000
0001
0100
0001
1000
0001
0100
0010
1000
0000
,
2010
3001
1000
0012
1003
0001
2100
3001
,
1000
0000
0102
0000
1003
0000
0001
0000
1000
0100
0010
0001
0100
0010
1000
0001
,
1000
0000
0001
1000
0100
0001
0100
0010
,
0001
0100
0010
0001
0010
0000
0100
0001
,
1000
0001
0011
0001
1001
1000
1010
0010
,
0110
0000
0100
0001
1000
0100
0001
0100
,
0010
0000
0000
0000
0000
0000
0000
0000
0001
0000
0000
0000
0000
0000
0000
0000
1000
0000
0000
0000
0000
0000
0000
0000
0100
0000
0000
0000
0000
0000
0000
0000
1100
0000
0000
0000
0000
0000
0000
0000
0000
0000
0000
0000
0000
1000
0000
0000
0010
0000
0000
0000
0000
0000
0000
0000
0000
0000
0000
0000
0000
0100
0000
0000
,
0001
0000
0000
0000
1000
0000
0100
0000
0010
0000
1000
0000
0010
0000
0001
1000
,
0010
0000
0001
0000
0010
0000
0100
0000
0010
0000
1000
0001
0100
0000
1000
0000
,
0100
0000
0010
0000
0100
0000
0001
1000
0100
0000
0001
0100
1000
0000
0001
0100
,
1000
0000
0100
0001
1000
0000
0001
0000
0010
0000
0100
0000
0001
0000
0100
0010
,
0001
0000
1000
0000
0010
0000
0001
0010
0100
0000
0001
0000
1000
0000
0100
0000
,
0010
0000
0001
1000
0010
1000
0001
0000
0010
0000
0100
1000
0001
0000
0100
0001
,
1000
0001
0010
0000
0100
0000
1000
0000
0001
0000
0100
0010
1000
0010
0100
0000
,
0001
0000
1000
0100
0001
0000
1000
0010
0001
0000
1000
0000
1200
0000
0310
0000
,
0001
0201
0310
1000
1020
0130
0001
0021
,
0130
1000
1002
0103
0010
2001
3100
0010
,
0012
1003
0201
1300
0220
0000
0000
0000
,
0000
0000
0000
0000
,
0330
0000
2000
0010
3002
0100
1003
0001
,
0011
0000
0000
0000
0000
0000
1001
0000
0000
0000
0000
0000
1000
0000
0000
0100
0000
0000
0010
0000
0000
0001
1000
0001
,
1000
0001
0200
0010
0302
0010
0103
0001
,
1000
0000
0100
0000
0010
0001
1000
0000
0010
1000
0001
0000
0010
0001
1000
0010
,
0100
0001
1000
0100
0010
0000
0000
0000
0001
0000
0102
0000
0000
0000
1003
0100
,
0010
0001
1000
0010
0100
0000
0000
0000
0001
0000
0012
0000
0000
0000
1003
0001
,
0100
0010
1000
0001
1000
0100
1000
0100
0010
0000
0001
0100
0001
0100
0010
0000
,
1000
0001
0100
0001
2000
0000
0100
0000
3002
0000
0010
0000
1003
0000
0001
0000
,
0101
0000
0000
0000
0000
0000
1001
0000
0000
0000
0000
0000
1000
0000
0000
0010
0000
0000
0100
0000
0000
0001
1000
0001
,
1000
0001
0020
0100
0032
0100
0013
0001
,
1000
0000
0010
0000
0100
0001
1000
0000
0100
1000
0001
0000
0100
0001
1000
0100
,
0010
0001
1000
0010
0100
0000
0000
0000
0001
0000
0012
0000
0000
0000
1003
0010
,
0100
0001
1000
0100
0010
0000
0000
0000
0001
0000
0102
0000
0000
0000
1003
0001
,
0010
0100
1000
0001
1000
0100
1000
0100
0010
0000
0001
0100
0010
1000
0001
1000
,
0010
0100
0001
0000
1000
0100
0010
0100
1000
0100
0010
0001
1000
0010
0100
0001
,
0100
0010
1000
0000
0001
0010
0100
0000
0010
0100
1000
0000
0001
1000
0010
1000
,
0001
0100
0010
0000
1000
0001
0100
0000
0001
1000
0100
0000
0010
0001
1000
0010
,
0100
0010
1000
0000
0001
0010
0100
0000
1000
0001
0010
0000
0001
1000
0010
1000
,
0001
0100
0010
0000
1000
0001
0010
0100
1000
0100
0010
0000
0001
1000
0010
0100
,
0010
1000
0001
0000
1000
0001
0100
0001
1000
0010
0100
0010
1000
0001
0010
0001
,
1000
0100
0010
0001
1000
0001
0100
0001
1000
0001
0100
0001
1000
0001
0010
0100
,
1000
0100
0010
0001
1000
0001
0010
0001
1000
0001
0010
0001
1000
0010
0100
0001
,
0100
0010
1000
0001
1000
0100
0010
0001
1000
0100
0010
0001
1000
0010
0100
0001
,
1000
0010
0100
0001
0000
0000
0000
0000
0000
0000
0000
0000
0000
0000
0000
0000
,
0000
2000
3200
2300
,
3200
0320
0032
0023
,
0032
2003
3020
0230
,
0302
2003
3200
0302
,
0203
2300
3020
0032
,
0023
2030
3200
0320
,
0032
2003
3020
0230
,
0302
0023
0230
1300
;

//--------------- dance-double - Fred-104 ----------------
#NOTEDATA:;
#STEPSTYPE:dance-double;
#DESCRIPTION:Fred-104;
#DIFFICULTY:Easy;
#METER:9;
#CREDIT:Fred-104;
#NOTES:
00000000
00000000
00000000
00000000
,
00000000
00000000
00000000
00000000
,
00000000
00000000
00000000
00000000
,
00000000
00000000
00000000
00000000
,
00000000
00000000
00000000
00000000
,
00000000
00000000
00000000
00000000
,
00001000
00000000
00010000
00000000
,
00001000
00000000
01000000
00000000
,
00001000
00000000
00010000
00000000
,
00001000
00000000
01000000
00010000
,
10000000
00000000
01000000
00100000
,
00001000
00010000
00000100
00000010
,
00000002
00000000
00002003
00000000
,
00003100
00000000
00000010
00000000
,
00000001
00000000
00000100
00000000
,
00001000
00000000
00010000
00000000
,
00100000
00000000
10000000
01000000
,
00010000
00000000
00001000
00000100
,
00000001
00000010
00000100
00010000
,
00002000
00000000
00000000
00000000
,
00020000
00000000
00000000
00033000
,
00011000
00000000
00000000
00001000
00000000
00000000
00100000
00000000
,
00001000
00010000
00001000
00010000
,
00100000
00000000
00000000
01000000
00000000
00000000
00010000
00000000
,
10000000
01000000
00010000
01000000
,
10000000
00000000
00000000
00100000
00000000
00000000
00010000
00000000
,
00001000
00010000
00001000
00100000
,
00101000
00000000
00000000
00001000
00000000
00000000
00010000
00000000
,
00000000
00000010
00000000
00000000
00010000
00000000
00001000
00000000
,
00010000
00000000
00000000
00000100
00000000
00000000
00000010
00000000
,
00000000
00000001
00000000
00000000
00000100
00000010
00000100
00000000
,
00001000
00000000
00000000
00010000
00000000
00000000
00100000
00000000
,
00000000
01000000
00000000
00000000
00010000
10000000
00010000
00000000
,
10000000
00000000
00000000
01000000
00000000
00000000
00100000
00000000
,
00000000
00001000
00000000
00000000
00010000
00000010
00010000
00000000
,
00001000
00000000
00000000
01000000
00000000
00000000
00001000
00000000
,
00010000
00001000
00000000
00010000
00001000
00000000
00000110
00000000
,
00000001
00000000
00001000
00000100
00000000
00001000
00000100
00000000
,
00000010
00000001
00000100
00001000
,
00010000
00000000
00100000
01000000
00000000
00100000
01000000
00000000
,
00010000
00100000
01000000
10000000
,
00100000
00000000
00010000
00001000
00000000
00010000
00001000
00000000
,
00000100
00000000
00000001
00000000
00000010
00000100
00000010
00000000
,
00001001
00000000
00000000
00000001
00000000
00000000
00000100
00000000
,
00000000
00001000
00000000
00000000
00010000
00000000
00001000
00000000
,
00010000
00000000
00000000
00100000
00000000
00000000
01000000
00000000
,
00000000
00001000
00000000
00000000
00010000
00000000
00000000
00000100
,
00000000
00000110
00000011
00000110
,
00001001
00000001
00000100
00001000
,
00010000
00001000
00010000
00000000
00011000
00000000
01100000
00000000
,
10010000
00000000
10000000
00000000
00000000
01000000
00000000
00000000
,
00010000
00000000
00000000
00001000
00000000
00000000
00010000
00000000
,
00000000
00100000
00000000
00000000
10100000
00000000
01100000
00000000
,
01010000
10010000
10000000
01000000
,
00010000
00000000
00001000
00010000
00001000
00000000
00010000
00000000
,
00000100
00010000
00000100
00001000
,
00000100
00000010
00000001
00000100
,
00001000
00010000
00001000
00011000
,
00000000
01001000
00000000
00000000
00011000
00000000
00000000
00010100
,
00000000
00000000
00101000
00000000
00000000
00010010
00000000
00000000
,
00001000
00100000
20020000
00000000
,
00000000
00000000
00000000
00000000
,
30030000
00000000
10000000
00000000
00010000
00000000
10000000
01000000
,
10000000
01000000
00100000
00001000
,
00001000
00010000
00001000
00000100
,
00000001
00001000
00000010
00000100
,
00001000
00000000
00011000
00000000
00000000
00001000
00000000
01000000
,
00001000
00000000
00010000
00000000
00000000
00000100
00000000
00001000
,
00000001
00000000
00001000
00000000
00000100
00000010
00000000
00000001
,
00001000
00000000
00000001
00000000
00001000
00000000
00000001
00000010
,
00000001
00000010
00000100
00010000
,
00010000
00001000
00010000
00100000
,
10000000
00010000
01000000
00100000
,
00010000
00000000
00011000
00000000
00000000
00010000
00000000
00000010
,
00010000
00000000
00001000
00000000
00000000
00100000
00000000
00010000
,
10000000
00000000
00010000
00000000
00100000
01000000
00000000
10000000
,
00010000
10000000
01000000
00010000
,
00100000
10000000
01000000
10000000
,
01000000
00100000
00001000
00100000
,
00001000
00010000
00001000
00000100
,
00000001
00001000
00000100
00000010
,
00000001
00000000
00000100
00000000
00001000
00000000
00010000
00001000
,
00010000
00000000
01000000
00000000
00100000
00000000
00010000
10000000
,
00010000
00000000
10000000
00000000
00010000
00000000
01000000
00001000
,
01000000
00000000
00001000
00010000
00001000
00010000
00001000
00010000
,
00001000
00010000
00000000
00000000
00000000
00000000
00000000
00000000
,
00000000
02200000
00000000
00000000
,
00000000
00000000
00000000
00000000
,
00000000
00000000
00000000
00000000
,
03300000
20020000
00000000
00000000
,
00000000
00000000
00000000
00000000
,
00000000
00000000
00000000
00000000
,
00000000
00000000
00000000
00000000
,
00000000
00000000
00000000
30030000
;

//--------------- dance-double - Fred-104 ----------------
#NOTEDATA:;
#STEPSTYPE:dance-double;
#DESCRIPTION:Fred-104;
#DIFFICULTY:Medium;
#METER:13;
#CREDIT:Fred-104;
#NOTES:
00000000
00000000
00000000
00000000
,
00000000
00000000
00000000
00000000
,
00000000
00000000
00000000
00000000
,
00000000
00000000
00000000
00000000
,
00000000
00000000
00000000
00000000
,
00000000
00000000
00000000
00000000
,
10000000
00000000
01000000
00000000
,
00100000
00000000
00001000
00000000
,
00010000
00000000
00000100
00000000
,
00000010
00000000
00000001
00000100
,
00001000
00000000
00010000
00100000
,
10000000
01000000
00010000
00001000
,
00020000
00000000
00032000
00000000
,
00013000
00001000
00000100
00000010
,
00001000
00000100
00000010
00000001
,
00001000
00100000
00010000
00001000
,
00010000
01000000
00100000
00010000
,
10000000
01000000
00010000
00001000
,
00000010
00000001
00000100
00001000
,
00020000
00000000
00000000
00000000
,
00002000
00000000
00000000
00033000
,
00001000
00010000
00100000
01000000
00000000
00010000
10000000
00000000
,
01000000
00100000
00000000
00001000
00010000
00000010
00010000
00000000
,
00001000
00000100
00000001
00001000
00000000
00000100
00000010
00000000
,
00000001
00001000
00000000
00000010
00000100
00001000
00010000
00000000
,
00001000
00010000
00001000
01000000
00000000
00010000
00100000
00000000
,
01000000
00100000
00000000
00010000
10000000
00100000
01000000
00000000
,
00010000
10000000
01000000
10000000
00000000
00010000
01000000
00000000
,
00001000
00010000
00000000
00001000
00000100
00000010
00001000
00000100
,
00000010
00000001
00001000
00000001
00000000
00000100
00000001
00000000
,
00001000
00000100
00000000
00000010
00001000
00010000
00001000
00000000
,
01000000
00001000
00010000
00001000
00000000
00100000
00010000
00000000
,
10000000
01000000
00000000
00100000
00001000
00010000
00001000
00000000
,
01000000
00001000
00010000
00001000
00000000
00100000
00001000
00000000
,
00010000
00001000
00000000
00000100
00000001
00001000
00000100
00000000
,
00000010
00000100
00001000
00000001
00000000
00000100
00001000
00000000
,
00010000
00010000
00000000
00001000
00010000
00000000
00011000
00000000
,
00001000
00010000
00001000
00100000
00000000
00100000
00010000
00000000
,
10000000
00010000
01000000
00010000
10000000
01000000
00100000
00000000
,
00001000
00010000
00000010
00010000
00000000
00010000
00000100
00000000
,
00001000
00000100
00000010
00000100
00000010
00000001
00001000
00000000
,
00000001
00000100
00000010
00000100
00000000
00000100
00000001
00000000
,
00000010
00000100
00001000
00000100
00010000
00001000
01000000
00000000
,
00011000
00000000
00000000
01001000
00000000
00000000
01010000
00000000
,
00000000
10100000
00000000
00000000
10000000
01000000
00010000
00001000
,
00010000
00000100
00000010
00000001
,
00000100
00000000
00001000
00000000
00010000
00000000
00100000
01000000
,
00010000
11000000
00110000
01100000
,
10010000
10000000
01000000
00010000
,
00001000
00000100
00000001
00001000
00001010
00000000
00000101
00000000
,
00001001
00000000
00000001
00000000
00000100
00001000
00010000
00000000
,
00100000
00000000
01000000
00010000
00100000
00000000
01000000
00000000
,
00100000
00010000
00001000
00000000
00000100
00000010
00000001
00001000
,
00000010
00000000
00000110
00000000
00001001
00000000
00000001
00000100
,
00001000
00000000
00010000
00000000
00100000
10000000
00010000
00000000
,
00100000
01000000
00000000
10000000
00010000
00000000
01000000
00010000
,
00000000
10000000
01000000
00000000
00100000
00001000
00000000
00010000
,
00000010
00000000
00010000
00001000
00010000
00000000
00011000
00000000
,
00000000
00110000
00000000
00000000
10100000
00000000
00000000
11000000
,
00000000
00000000
01010000
00000000
00000000
00011000
00000000
00000000
,
00001010
00000011
00022000
00000000
,
00000000
00000000
00000000
00000000
,
00033000
00000000
00011000
00000000
01001000
00000000
00001000
00010000
,
00000100
00000000
00000000
00000000
00001001
00000000
00000000
00000000
00001000
00000000
00000100
00000000
00000001
00000000
00000100
00001000
,
00000100
00001000
00000001
00000000
00000110
00000000
00001001
00000000
,
00000001
00000010
00000100
00000010
00001000
00010000
01000000
00100000
,
00010000
10000000
00200000
00000000
01300000
00020000
00000000
10030000
,
00100000
00010000
00002000
00000000
00013000
00002000
00000000
00003100
,
00000001
00000010
00000100
00001000
00000001
00000100
00001000
00010000
,
00001000
00000000
00011000
00000000
00010100
00000000
00010000
00001000
,
01000000
00000000
00000000
00000000
10010000
00000000
00000000
00000000
00010000
00000000
01000000
00000000
10000000
00000000
01000000
00010000
,
01000000
00010000
10000000
00000000
01100000
00000000
10010000
00000000
,
10000000
00100000
01000000
00100000
00010000
00001000
00000100
00000010
,
00001000
00000001
00000020
00000000
00000130
00002000
00000000
00003001
,
00000010
00001000
00020000
00000000
00031000
00020000
00000000
01030000
,
10000000
00100000
01000000
00010000
10000000
01000000
00010000
00001000
,
00010000
00000000
00001000
00010000
00100000
00010000
00001000
00010000
,
00000010
00000000
00001000
00000100
00000001
00000100
00001000
00000001
,
00000100
00000000
00000001
00000100
00000010
00000100
00001000
00010000
,
00001000
00000000
01000000
00001000
00010000
00001000
00100000
00010000
,
01000000
00000000
00100000
10000000
01000000
00100000
00001000
00010000
,
00011000
00000000
00001000
00010000
00100000
01000000
00010000
10000000
,
01000000
00010000
00001000
00010000
00100000
00010000
00001000
00000100
,
00000001
00001000
00000100
00000010
00000001
00000100
00001000
00010000
,
00100000
00000000
01000000
00000000
00001000
00000000
00010000
00000000
00100000
00000000
10000000
00000000
01000000
00100000
01000000
00100000
,
01000000
00100000
01000000
00100000
00000000
00000000
00000000
00000000
00000000
00000000
00000000
00000000
00000000
00000000
00000000
00000000
,
00000000
00022000
00000000
00000000
,
00000000
00000000
00000000
00000000
,
00000000
00000000
00000000
00000000
,
00033000
00002002
00000000
00000000
,
00000000
00000000
00000000
00000000
,
00000000
00000000
00000000
00000000
,
00000000
00000000
00000000
00000000
,
00000000
00000000
00000000
00003003
;

//--------------- dance-double - Fred-104 ----------------
#NOTEDATA:;
#STEPSTYPE:dance-double;
#DESCRIPTION:Fred-104;
#DIFFICULTY:Hard;
#METER:16;
#CREDIT:Fred-104;
#NOTES:
00000000
00000000
00000000
00000000
,
00000000
00000000
00000000
00000000
,
00000000
00000000
00000000
00000000
,
00000000
00000000
00000000
00000000
,
00000000
00000000
00000000
00000000
,
00000000
00000000
00000000
00000000
,
00000001
00000000
00000010
00000000
,
00001000
00000000
00010000
00000000
,
01000000
00000000
10000000
00000000
,
00010000
00000000
01000000
00100000
,
00010000
00000000
00001000
00000100
,
00000010
00001000
00000100
00000010
,
00000002
00000000
00002003
00000000
,
00003001
00000100
00000001
00000100
00000010
00001000
00000010
00001000
,
00000001
00000010
00000100
00010000
00001000
00100000
00010000
10000000
,
00100000
01000000
00010000
10000000
01000000
00100000
00001000
00010000
,
00001000
00000100
00000001
00001000
00000100
00000010
00000001
00001000
,
00000010
00000100
00001000
00010000
00100000
10000000
00100000
00010000
,
00001000
00010000
01000000
10000000
00010000
01000000
00100000
00010000
,
00002000
00000000
00000000
00000000
,
00020000
00000000
00000000
00033000
,
00011000
00000000
00000010
00001010
00000000
00000001
00000011
00000000
,
00001000
00000100
00000010
00001000
00010000
01000000
10000000
00010000
,
01010000
00000000
10000000
10100000
00000000
00010000
00110000
00000000
,
10000000
00100000
01000000
00100000
00010000
00001000
00000100
00000001
,
00000011
00000000
00000000
00000000
00000100
00000000
00001100
00000000
00000000
00000000
00001000
00000001
00002000
00000000
00000000
00000000
,
00003001
00000000
00000010
00000000
00000100
00000000
00000001
00000000
00001000
00000000
00000010
00000100
00002000
00000000
00000000
00000000
,
00003001
00000100
00001000
00010000
00100000
10000000
10000000
01000000
,
00010000
00001000
00000010
00000001
00000100
00001000
00010000
00001000
,
00011000
00000000
00001000
00010000
00100000
01000000
10000000
00010000
,
00001000
00000000
00010000
00000000
00000100
00000000
00001000
00000100
00000010
00000000
00000001
00000000
00000100
00000000
00001000
00000000
,
00010000
00000000
00001000
00010000
10000000
00100000
01000000
00010000
,
00001000
00000000
00010000
00000000
00000100
00000000
00000010
00000001
00001000
00000000
00000010
00000000
00000100
00000000
00001000
00000000
,
00010000
00000000
00001000
00010000
00100000
01000000
00010000
00100000
,
01000000
00000000
10000000
00000000
00010000
00000000
00001000
00000100
00000010
00000000
00000001
00001000
00000010
00000000
00000100
00000000
,
00000101
00000000
00010000
00011000
00000000
00001000
01001000
00000000
,
00001000
00000000
00010000
00000000
01000000
00000000
10000000
00010000
01000000
00010000
01000000
00001000
00010000
00000100
00001000
00000100
,
00010000
00001000
00000010
00000100
00001000
00000010
00000100
00001000
,
00000001
00000000
00000010
00000000
00000100
00000000
00000001
00000010
00000100
00000000
00010000
00001000
00010000
00000000
00001000
00000000
,
00010000
00100000
10000000
00010000
00100000
01000000
00010000
10000000
,
00100000
00000000
01000000
00000000
10000000
00000000
00100000
01000000
00010000
00000000
10000000
01000000
00100000
00000000
00001000
00000000
,
00000010
00000000
00000001
00000000
00000100
00000000
00000010
00000000
00001000
00000000
00000100
00000010
00001000
00000000
00000001
00000000
,
00000100
00000000
00000010
00000000
00000001
00000000
00000100
00000010
00001000
00000000
00000001
00000010
00000100
00000000
00001000
00000000
,
00001100
00000000
00010000
00011000
00000000
00001000
01001000
00000000
,
00001000
00000000
00010000
00000000
00100000
00000000
01000000
00000000
00100000
00000000
10000000
01000000
00100000
00000000
00001000
00010000
,
00001000
00000000
00010000
00001000
00000100
00000000
00000001
00000000
,
00000010
00000100
00000010
00000000
00000100
00000000
00010000
00001000
,
00010000
00100000
01000000
00010000
00100000
01000000
10000000
00010000
,
01010000
00000000
10000000
00000000
00100000
00010000
00001000
00000100
,
00000010
00001000
00000100
00000010
00000110
00000000
00011000
00000000
,
01100000
00000000
00010000
00100000
10000000
00100000
00001000
00000000
,
01000000
00010000
00001000
00000010
00000100
00000000
00000001
00000100
,
00001000
00000100
00000001
00000000
00001000
00000100
00000010
00001000
,
00010000
00100000
01000000
00000000
00010000
00100000
01000000
00010000
,
01000000
00100000
00010000
00001000
00000100
00000010
00000001
00000100
,
00001000
00010000
00100000
10000000
10000000
01000000
00010000
00001000
,
00000010
00000001
00000001
00000010
00001000
00010000
01000000
10000000
,
10000000
00100000
00010000
00001000
00000100
00000001
00000011
00000010
,
00000100
00001100
00001000
00000100
00010100
00010000
00001000
01001000
,
01000000
00001000
00011000
00010000
00000010
00010010
00010000
00001000
,
01001000
00010010
00002002
00000000
,
00000000
00000000
00000000
00000000
,
00003003
00000000
00001010
00000000
00000101
00000000
00000001
00000010
,
00000100
00000000
00000000
00000000
00000000
00000000
00011000
00000000
00000000
00000000
00000000
00000000
00001000
00000000
00000000
00010000
00000000
00000000
00100000
00000000
00000000
10000000
00010000
10000000
,
00010000
00100000
00101000
00000000
00010100
00000000
00001001
00000000
,
00000001
00000000
00001000
00000000
00000010
00000000
00000100
00000000
00001000
00000000
00010000
00000000
00100000
10000000
00100000
00000000
,
01000000
00010000
01000000
00000000
10010000
00000000
00000000
00000000
10000000
00000000
02000000
00000000
00000000
00000000
03100000
00001000
,
00100000
00000000
00001000
00000000
00011000
00000000
00000000
00000000
00010000
00000000
00002000
00000000
00000000
00000000
00003100
00000001
,
00000100
00000001
00001000
00000100
00000010
00001000
00010000
01000000
,
00100000
00010000
00110000
00000000
11000000
00000000
10000000
00100000
,
01000000
00000000
00000000
00000000
00000000
00000000
00011000
00000000
00000000
00000000
00000000
00000000
00010000
00000000
00000000
00001000
00000000
00000000
00000010
00000000
00000000
00000001
00001000
00000001
,
00001000
00000010
00010010
00000000
01001000
00000000
10010000
00000000
,
10000000
00000000
00010000
00000000
00100000
00000000
01000000
00000000
00010000
00000000
00001000
00000000
00000010
00000001
00000010
00000000
,
00000100
00001000
00000100
00000000
00001001
00000000
00000000
00000000
00000001
00000000
00000200
00000000
00000000
00000000
00000310
00010000
,
00000010
00000000
00010000
00000000
00011000
00000000
00000000
00000000
00001000
00000000
00020000
00000000
00000000
00000000
01030000
10000000
,
01000000
10000000
00010000
01000000
00100000
00010000
00001000
00000100
,
00000010
00001000
00000100
00000010
00000001
00000100
00001000
00010000
,
00100000
10000000
00010000
00100000
01000000
10000000
00010000
00001000
,
00000100
00000010
00000001
00000100
00000010
00000001
00001000
00000100
,
00001000
00010000
00100000
10000000
00010000
00100000
01000000
10000000
,
00100000
00010000
00001000
00000100
00000001
00000010
00001000
00010000
,
00001000
00000000
00010000
00001000
00010000
00000100
00001000
00000000
00000001
00001000
00000000
00000100
00000010
00000000
00000001
00001000
,
00000000
00000010
00010000
00000000
00001000
00100000
00001000
00000000
00100000
00010000
00000000
10000000
00010000
00000000
01000000
00100000
,
00000000
10000000
00100000
00000000
01000000
00010000
10000000
00000000
01000000
00100000
00000000
00001000
00010000
00000000
00000010
00001000
,
00000000
00000010
00000100
00000000
00000001
00001000
00000001
00001000
00000100
00000010
00000100
00000010
00000001
00001000
00000010
00000100
,
00000001
00001000
00000010
00000100
00000000
00000000
00000000
00000000
00000000
00000000
00000000
00000000
00000000
00000000
00000000
00000000
,
00000000
00000002
00000203
00002300
,
00023000
00230000
20300000
32000000
,
03020000
00032000
00023000
00230000
,
00320000
00032000
00003200
00000302
,
00002003
00003200
00000320
00000032
,
00002003
00003020
00000230
00002300
,
00023000
00230000
20300000
32000000
,
03020000
00032000
00023000
00031000
;

//--------------- dance-double - Fred-104† ----------------
#NOTEDATA:;
#STEPSTYPE:dance-double;
#DESCRIPTION:Fred-104†;
#DIFFICULTY:Challenge;
#METER:18;
#CREDIT:Fred-104†;
#NOTES:
00000000
00000000
00000000
00000000
,
00000000
00000000
00000000
00000000
,
00000000
00000000
00000000
00000000
,
00000000
00000000
00000000
00000000
,
00000000
00000000
00000000
00000000
,
00000000
00000000
00000000
00000000
,
00020000
00000000
00032000
00000000
,
00003200
00000000
00000302
00000000
,
00000023
00000000
00000230
00000000
,
00002300
00000000
00003020
00000230
,
00002300
00000000
00023000
00230000
,
02300000
03020000
00230000
02300000
,
23000000
00000000
00020000
30030000
,
10000000
00100000
10000000
00100000
00010000
00001000
00010000
00001000
,
00000010
00000001
00000010
00000001
00001000
00000001
00001000
00000001
,
00000100
00001000
00000100
00001000
00010000
01000000
00010000
01000000
,
10000000
00010000
10000000
00010000
00100000
01000000
10000000
00010000
,
01000000
00100000
00010000
00001000
00000100
00000001
00001000
00000100
,
00000010
00001000
00010000
01000000
00100000
00010000
01000000
00001000
,
00020000
00000000
00000000
00000000
,
00002000
00000000
00000000
00033000
,
00011000
00010000
00000100
00001100
00000100
00010000
00011000
00000000
,
00011000
00001000
00010000
00100000
10000000
01000000
01100000
00000000
,
00011000
00000000
00010000
00000000
00000010
00000000
00001010
00000000
00001000
00000000
00000100
00000000
00000110
00000000
00000001
00001000
,
00000001
00000000
00000100
00000000
00001000
00000000
00010000
00000000
00100000
00000000
10000000
01000000
00100000
00000000
00000000
00000000
,
00011000
00000000
00000000
00010000
00000000
00000000
00000010
00000000
00000000
00001010
00000000
00000000
00000001
00000000
00000000
00000010
00000100
00000010
00000100
00000000
00000000
00001000
00000000
00000000
,
00001001
00000000
00000001
00000000
00000100
00000000
00001000
00000000
00010000
00000000
01000000
00100000
01000000
00100000
00010000
00000000
,
10000000
00100000
00010000
00001000
00000100
00000001
00000001
00000010
,
00001000
00010000
01000000
10000000
02100000
03010000
01200000
10300000
,
00010000
10000000
01000000
00100000
00010000
00001000
00000001
00000010
,
00000100
00000000
00001000
00000000
00000001
00000000
00000100
00001000
00010000
00100000
10000000
00000000
01000000
00000000
00100000
00000000
,
00001000
00010000
00100000
01000000
10000000
00010000
00001000
00010000
,
00000100
00000000
00000010
00000000
00000001
00000000
00001000
00000010
00000100
00001000
00010000
00000000
00100000
01000000
00010000
00000000
,
10000000
00100000
00010000
00001000
00010000
01000000
00010000
00001000
,
00000010
00000000
00000100
00000000
00001000
00000000
00000010
00000100
00001000
00010000
00100000
00000000
01000000
00010000
10000000
00000000
,
10100000
00010000
10000000
11000000
00100000
00001000
00011000
00010000
,
00011000
00000000
00001000
00000000
00011000
00000000
00010000
00001000
00000010
00000100
00000010
00000001
00000100
00000010
00001000
00000100
,
00000010
00000000
00000001
00000100
00000010
00000000
00001000
00000000
00000100
00000010
00000001
00000000
00001000
00000000
00000010
00000100
,
00001000
00000000
00010000
00000000
00100000
00000000
01000000
00010000
00100000
00010000
10000000
00010000
00100000
00000000
01000000
00000000
,
10000000
00000000
00100000
00010000
00001000
00000000
00010000
00000000
00100000
01000000
00010000
00000000
00100000
00000000
01000000
10000000
,
00010000
00000000
01000000
00000000
00100000
00000000
00010000
00001000
00000100
00000001
00001000
00000100
00000010
00000001
00001000
00000010
,
00000100
00000000
00000001
00000100
00001000
00000000
00010000
00000000
00001000
00010000
01000000
00000000
00100000
00000000
00010000
00100000
,
01000000
00000000
10000000
00000000
00010000
00000000
01000000
00010000
10000000
01000000
00100000
00001000
00010000
00000010
00010000
00000000
,
00011000
00000010
00010000
00011000
00100000
00001000
00011000
00000100
,
00010000
00000000
00011000
00000000
01000000
00000000
00001000
00000000
00010000
00001000
00010000
00000100
00000010
00000001
00000100
00000010
,
00001000
00000000
00000001
00000010
00001000
00010000
01000000
00000000
,
00100000
00010000
10000000
00100000
00010000
00000000
00001000
00010000
,
01000000
10000000
10100000
00000000
00011000
00000000
00000101
00000000
,
00001001
00000000
00000001
00000100
00000010
00000100
00001000
00010000
,
00100000
00000000
00000000
00000000
00000000
00000000
00000000
00000000
10000000
00000000
00000000
00000000
00000000
00000000
00000000
00000000
01000000
00000000
00000000
00000000
00000000
00000000
00000000
00000000
00100000
00000000
00000000
00000000
00000000
00000000
00000000
00000000
00011000
00000000
00000000
00000000
00000000
00000000
00000000
00000000
00000000
00000000
00000000
00000000
00000000
00000001
00000000
00000000
00000100
00000000
00000000
00000000
00000000
00000000
00000000
00000000
00000000
00000000
00000000
00000000
00000000
00000010
00000000
00000000
,
00001000
00000000
00000000
00000000
00000001
00000000
00000100
00000000
00001000
00000000
00000100
00000000
00000001
00000010
00000100
00000000
,
00010000
00000000
01000000
00000000
00100000
00000000
01000000
00000000
00010000
00001000
00010000
00000000
00001000
00000000
00010000
00000000
,
00100000
00000000
10000000
00000000
01000000
00100000
00001000
00000000
00010000
00000000
00001000
00000010
00001000
00000000
00010000
00001000
,
00000100
00000000
00001000
00010000
00001000
00000000
00010000
00000000
00001000
00000000
00000100
00000000
00000010
00001000
00000100
00000000
,
00000010
00000000
00000001
00000000
00001000
00000000
00000010
00000100
00001000
00000000
00010000
00000000
00001000
00000000
01000000
00000000
,
00010000
00000000
00100000
00001000
00010000
00001000
01000000
00000000
00010000
00000000
00100000
01000000
10000000
00000000
00100000
01000000
,
00010000
01000000
00100000
00000000
10000000
00000000
00100000
00000000
00010000
00000000
00001000
00010000
00000010
00010000
00001000
00000000
,
00010000
00000000
00001000
00000100
00000010
00000000
00010000
00001000
00010000
00000000
00001000
00000000
00011000
00000000
00000010
00000000
,
00010000
00011000
01000000
00001000
00011000
00000100
00010000
00011000
,
00100000
00001000
00011000
00001000
01000000
01001000
00001000
00010000
,
00010010
01001000
00022000
00000000
,
00000000
00000000
00000000
00000000
,
00033000
00000000
00020000
00001000
00030020
00001000
00010030
00001000
,
00011000
00000000
00000000
00000000
00000000
00000000
01100000
00000000
00000000
00000000
00000000
00000000
00010000
00000000
00000000
00100000
00000000
00000000
01000000
00000000
00000000
10000000
01000000
10000000
,
01000000
00100000
00002000
00010000
00203000
00010000
00301000
00010000
,
00000010
00000000
00001000
00000000
00000010
00000100
00000010
00000000
00000100
00000001
00000100
00000000
00000001
00000010
00000001
00000010
,
00000100
00001000
00000100
00010000
00001000
00000000
00000000
00000000
00010000
00000000
00021000
00000000
00000000
00000000
00031000
01000000
,
00010000
01000000
00001000
00010000
00001000
00000000
00000000
00000000
00010000
00000000
00012000
00000000
00000000
00000000
00013000
00000100
,
00001000
00000100
00010000
00001000
00010000
00000100
00001000
00000001
00000100
00000000
00000010
00001000
00000001
00000010
00000100
00000000
,
00010000
00001000
00010000
00001000
00020000
00000000
00001000
00000000
00030200
00000000
00001000
00000000
00010300
00000000
00001000
00000000
,
00011000
00000000
00000000
00000000
00000000
00000000
01100000
00000000
00000000
00000000
00000000
00000000
00010000
00000000
00000000
01000000
00000000
00000000
00100000
00000000
00000000
10000000
00100000
10000000
,
00100000
01000000
00002000
00010000
02003000
00010000
03001000
00010000
,
00000100
00000000
00001000
00000000
00000100
00000010
00000100
00000000
00000010
00000001
00000010
00000000
00000001
00000100
00000001
00000100
,
00000010
00001000
00000010
00010000
00001000
00000000
00000000
00000000
00010000
00000000
00021000
00000000
00000000
00000000
00031000
00100000
,
00010000
00100000
00001000
00010000
00001000
00000000
00000000
00000000
00010000
00000000
00012000
00000000
00000000
00000000
00013000
00000010
,
00001000
00000010
00010000
00001000
00010000
00000010
00001000
00000001
00000010
00000000
00000100
00001000
00000001
00000100
00000010
00000000
,
00010000
00001000
00010000
00001000
00100000
00001000
00010000
00000000
00000010
00001000
00000010
00000000
00000100
00000001
00001000
00000000
,
00000001
00000010
00000100
00000000
00010000
00001000
00010000
00000000
00001000
00100000
00010000
00000000
10000000
00010000
00100000
00000000
,
01000000
10000000
00010000
00000000
01000000
00001000
00010000
00000000
00001000
00000100
00000010
00000000
00001000
00000100
00000010
00000000
,
00000001
00001000
00000010
00000000
00000100
00000001
00001000
00000000
00000001
00000010
00000100
00000000
00010000
00001000
00010000
00000000
,
00100000
01000000
00010000
00000000
10000000
00010000
00100000
00000000
01000000
00100000
00001000
00000000
00010000
00000100
00001000
00000001
,
00000100
00000010
00001000
00000000
00000001
00000010
00000100
00001000
00000100
00000010
00000001
00000000
00001000
00000010
00010000
00001000
,
00100000
00001000
00010000
00000000
00001000
00100000
00010000
00100000
01000000
10000000
00010000
00000000
01000000
00100000
10000000
01000000
,
00100000
00010000
00100000
00000000
00001000
00010000
00000010
00001000
00000010
00010000
00001000
00100000
00010000
10000000
00010000
01000000
,
00001000
00010000
00000100
00001000
00000100
00000010
00000001
00000100
00000010
00001000
00000100
00010000
00001000
00100000
00010000
01000000
,
00100000
10000000
01000000
00100000
00000000
00000000
00000000
00000000
00000000
00000000
00000000
00000000
00000000
00000000
00000000
00000000
,
00000000
00020000
20030000
32000000
,
03020000
00032000
00003020
00000032
,
00002003
00003020
00000230
00002300
,
00023000
00230000
02300000
23000000
,
32000000
03020000
20030000
32000000
,
03020000
00032000
00023000
00230000
,
00320000
00032000
00003200
00000302
,
00002003
00003020
00020030
00031000
;
