#VERSION:0.83;
#TITLE:Night sky;
#ARTIST:USAO;
#GENRE:PUMPCORE;
#BANNER:Night sky.png;
#BACKGROUND:Night sky-bg.png;
#CDTITLE:./CDTitles/bm IIDX 22 PENDUAL.png;
#MUSIC:Night sky.ogg;
#SAMPLESTART:82.48;
#SAMPLELENGTH:15;
#BPMS:0=192,168=96,184=192;
#BGSTAGE:26;

//--------------- dance-single - Fred-104 ----------------
#NOTEDATA:;
#STEPSTYPE:dance-single;
#DESCRIPTION:Fred-104;
#DIFFICULTY:Beginner;
#METER:5;
#CREDIT:Fred-104;
#NOTES:
0000
0000
0000
0000
,
0000
0000
0000
0000
,
0000
0000
0000
0000
,
0000
0000
0000
0000
,
0000
0000
0000
0000
,
0000
0000
0000
0000
,
1000
0000
0001
0000
,
1000
0000
0010
0000
,
1000
0000
0001
0000
,
2002
0000
0000
3003
,
2000
0000
0000
3000
,
0002
0000
0000
0003
,
2000
0000
3002
0000
,
2003
0000
3002
0000
,
1003
0000
0010
0000
,
1000
0000
0001
0000
,
0100
0000
0001
0000
,
1000
1000
2000
3000
,
0001
0000
0010
0000
,
0001
0000
1000
0000
,
0001
0000
0100
0000
,
0001
0001
0002
0003
,
1000
0000
0010
0000
,
0100
0000
0001
0000
,
2000
0000
3002
0000
,
2003
0000
3000
0000
,
0002
0000
0000
0000
,
2003
0000
0000
0000
,
3002
0000
0000
0000
,
0003
0000
0000
0000
,
2000
0000
0000
0000
,
3002
0000
0000
0000
,
2003
0000
0000
0000
,
3000
0000
0000
0000
,
0001
0000
0001
0000
,
1000
0000
1000
0000
,
0010
0000
0010
0000
,
0100
0100
0100
0000
,
0001
0000
1000
0000
,
0010
0000
0100
0000
,
0001
0001
0001
0001
,
2002
0000
3003
0000
,
2000
0000
3002
0000
,
1003
0001
1000
0000
,
0002
0000
2003
0000
,
3001
1000
0001
0000
,
0001
0000
0100
0000
,
0001
0000
0010
0010
,
0010
0000
0001
0000
,
1000
0000
0001
0000
,
1000
0000
0001
0000
,
0100
0000
0010
0010
,
0010
0000
0100
0000
,
0001
0001
2002
3003
,
1000
0000
0010
0000
,
1000
0000
0100
0100
,
0100
0000
0010
0000
,
0001
0000
1000
1000
,
1000
0000
0001
0000
,
0100
0000
0010
0010
,
0010
0000
0100
0000
,
0001
0001
2002
3003
,
1000
0000
0010
0000
,
1000
0000
0100
0100
,
0100
0000
1000
0000
,
0001
0000
0010
0010
,
0010
0000
0001
0000
,
1000
0000
0001
0001
,
0001
0000
1000
0000
,
0001
0001
2002
3003
,
2000
0000
3002
0000
,
2003
0000
3000
0000
,
0002
0000
2003
0000
,
3002
0000
2003
0000
,
3002
0000
0000
0000
,
2003
0000
3002
0000
,
1003
0000
0001
0000
,
2002
0000
3003
0000
,
1000
0000
0010
0000
,
1000
0000
0100
0100
,
0100
0000
1000
0000
,
0001
0000
0010
0010
,
0010
0000
0001
0000
,
1000
0000
0001
0000
,
1000
1000
1000
1000
,
2002
0000
0000
3003
,
2002
0000
0000
0000
,
0000
0000
0000
0000
,
3003
0000
0000
0000
,
0000
0000
0000
0000
,
0220
0000
0000
0000
,
0000
0000
0000
0000
,
0330
0000
0000
0000
,
2002
0000
0000
0000
,
3003
0000
0000
0000
;

//--------------- dance-single - Fred-104 ----------------
#NOTEDATA:;
#STEPSTYPE:dance-single;
#DESCRIPTION:Fred-104;
#DIFFICULTY:Easy;
#METER:9;
#CREDIT:Fred-104;
#NOTES:
0000
0000
0000
0000
,
0000
0000
0000
0000
,
0000
0000
0000
0000
,
0000
0000
0000
0000
,
0000
0000
0000
0000
,
0000
0000
0000
0000
,
1000
0010
1000
0000
,
0001
0100
0001
0000
,
1000
1000
0001
0001
,
2002
0000
0000
3003
,
1000
0000
0000
0010
0000
0000
1000
0000
,
0100
0000
0000
0010
0000
0000
0001
0000
,
0100
0001
0010
0001
,
1000
0100
1000
0000
0001
0010
0001
0000
,
1000
1000
0100
0100
,
0001
0001
0010
0010
,
1000
0010
1000
0000
0001
0100
0001
0000
,
1000
0001
2002
3003
,
0001
0010
0001
0010
,
1000
0100
1000
0100
,
0001
1000
0001
1000
,
0001
0000
0001
0000
1000
0100
1000
0000
,
0001
0100
0001
0100
,
1000
0010
1000
0010
,
0001
0001
1000
1000
,
0002
0000
2000
3003
,
2000
0000
0000
0000
,
3020
0000
0000
0000
,
0230
0000
0000
0000
,
0300
0000
0000
0000
,
0002
0000
0000
0000
,
0023
0000
0000
0000
,
0230
0000
0000
0000
,
1300
0000
0000
0001
0000
0000
1000
0000
,
0001
0000
0000
0010
0000
0001
0010
0000
,
0001
0000
0000
0100
0000
0001
1000
0000
,
0100
0000
0000
1000
0000
0100
1000
0000
,
0001
0010
0001
0000
1000
0100
1000
0000
,
0001
0001
0010
0010
,
0100
0100
1000
1000
,
0001
0100
0001
0000
1000
0010
1000
0000
,
0001
1000
2002
3003
,
1000
0000
0100
0000
1000
0010
0001
0000
,
0001
0010
1000
0000
0001
1000
2002
3003
,
1000
0000
0010
0000
1000
0100
0001
0000
,
0001
0100
1000
0000
0001
1000
2002
3003
,
0001
0000
0010
0000
0001
0000
0000
0100
,
0000
0000
0010
0000
0100
0001
0100
0000
,
0001
0000
1000
0000
0100
0000
0000
1000
,
0000
0000
0010
0000
0100
0001
0100
0000
,
0010
0000
1000
0000
0100
0000
0000
0010
,
0000
0000
0001
0000
1000
0001
1000
0000
,
0001
0100
0010
1000
,
0001
1000
2002
3003
,
1000
0100
1000
0010
,
0100
0001
0010
0001
,
0200
0000
0302
0000
,
0013
0000
0000
0001
0000
0000
1000
0000
,
0100
1000
0010
1000
,
0001
0100
0010
1000
,
0001
0010
0001
0000
1000
0100
1000
0000
,
1001
0110
2002
3003
,
1000
0000
0100
0000
1000
0000
0010
0020
,
0000
0130
0001
0100
,
0002
0000
0000
2003
0000
3020
0000
0230
,
0000
0000
0301
1000
,
0001
0010
0001
1000
,
0010
0000
0100
0020
0000
0000
0130
0000
,
0001
0000
0010
0001
0000
1000
0000
0001
,
0100
0001
2002
3003
,
2000
0000
3020
0000
,
0032
0000
0203
2300
,
3002
0000
0203
0000
,
2300
0000
3020
0000
,
0032
0000
2003
3020
,
0230
0000
0302
0000
,
1003
0100
0001
0010
,
2000
0000
0002
3003
,
1000
0000
0010
0000
1000
0100
1000
0000
,
0001
0100
0010
0100
,
0001
0000
0010
0000
0100
0010
0001
0000
,
0100
0000
0000
0010
0000
0000
1000
0000
,
0001
0000
1000
0000
0100
1000
0100
0000
,
0010
0001
1000
0010
,
0100
0001
0100
0000
0010
1000
0010
0000
,
0220
0000
0000
0330
,
2002
0000
0000
0000
,
0000
0000
0000
0000
,
3003
0000
0000
0000
,
0220
0000
0000
0330
,
2002
0000
0000
0000
,
0000
0000
0000
3003
,
0220
0000
0000
0330
,
2002
0000
0000
0000
,
3003
0000
0000
0000
;

//--------------- dance-single - Fred-104 ----------------
#NOTEDATA:;
#STEPSTYPE:dance-single;
#DESCRIPTION:Fred-104;
#DIFFICULTY:Medium;
#METER:13;
#CREDIT:Fred-104;
#NOTES:
0000
0000
0000
0000
,
0000
0000
0000
0000
,
0000
0000
0000
0000
,
0000
0000
0000
0000
,
0000
0000
0000
0000
,
0000
0000
0000
0000
,
0001
0001
0100
0100
,
0001
0010
0001
0000
1000
0100
1000
0000
,
0001
0100
0010
1000
0100
0010
0001
1000
,
0020
0000
0000
0030
,
1000
0100
1000
0100
0000
0010
0100
0000
,
1000
0010
1000
0010
0000
0100
0010
0000
,
1000
0100
0010
0100
1000
0001
0100
0001
,
0000
0010
0000
0001
0000
1000
0000
0100
,
0000
1010
0000
0100
0000
0010
0000
0101
,
0000
0010
0000
1001
0000
1000
0010
0100
,
0000
0001
0010
0001
1000
0010
0100
0001
,
1000
0001
2002
3003
,
0001
0100
0001
1000
0100
0010
0001
1000
,
0010
0100
0001
0010
0001
1000
0100
0000
,
1000
0001
1000
0010
0100
0001
1000
0010
,
0200
0300
0200
0300
1000
0001
1001
0000
,
1000
0001
0010
0100
1000
0010
0100
0010
,
1000
0001
0010
0001
0100
0010
1000
0000
,
1001
0000
0001
0100
0000
0100
0010
0000
0010
1000
0000
1000
,
0002
0000
2000
3003
,
0002
0000
0000
0000
,
0203
0000
0000
0000
,
2300
0000
0000
0000
,
3000
0000
0000
0000
,
0002
0000
0000
0000
,
0023
0000
0000
0000
,
2030
0000
0000
0000
,
3001
0000
0000
0100
0000
0000
0010
0000
,
1001
0000
1000
0100
0000
1000
0010
0000
,
0110
0000
0100
0001
0000
0010
0001
0000
,
0101
0000
0001
0010
0000
0100
1000
0000
,
0001
0100
0010
1000
0100
0010
0001
0000
,
0011
0001
0101
0001
,
1010
1000
1100
1000
,
0100
0010
0001
0100
0010
1000
0100
0010
,
0001
1000
0001
1000
0001
0000
2002
3003
,
1000
0010
1000
0000
0010
0100
0010
0200
0000
0301
0010
0001
1000
0001
0200
0000
,
0301
0010
0001
0010
0100
0010
0001
0010
0001
1000
0010
0100
0001
1000
1001
0000
,
0001
0010
0001
0000
0010
0100
0010
0200
0000
1300
0010
1000
0001
1000
0200
0000
,
1300
0010
1000
0010
0100
0010
1000
0010
1000
0001
0010
0100
1000
0001
1001
0000
,
1000
0000
1010
0000
1000
0100
1000
0001
,
0000
0100
0010
0000
0100
0100
0100
0000
,
0001
0000
0011
0000
0010
0001
1000
0010
,
0000
0100
0001
0000
1000
1000
1000
0000
,
0110
0000
1001
0000
0001
0010
0100
1000
,
0000
0010
0100
0000
0001
0001
0001
0000
,
1000
0100
1000
0001
0100
0010
0100
0000
,
0101
1010
2002
3003
,
1000
0000
0010
1000
0000
0100
1000
0001
,
0000
0100
0000
0010
0000
0100
0000
0001
,
0010
0000
0001
1000
0010
0000
1000
0010
,
0100
0000
0010
1000
0000
0100
1000
0000
,
0001
1000
0001
0010
0000
0001
0100
0010
,
0000
0100
0000
0001
0000
1000
0000
0100
,
0000
0010
0100
1000
0000
0010
0100
0001
,
2000
0001
0020
3030
,
1010
0000
1001
0000
1000
0100
1000
0010
,
0000
0100
0001
0000
1000
0001
0010
0001
,
0100
0000
0010
0100
0000
0001
0000
0100
,
0010
1000
0001
0000
0100
0010
1000
0000
,
1100
0000
0011
0000
0001
0010
0100
0010
,
0000
0001
1000
0000
0010
1000
0100
0000
,
1000
0010
0100
0001
0010
0001
1000
0000
,
1100
0011
2002
3003
,
0002
0100
0203
0010
,
0320
0000
1000
0000
1030
0000
0001
1000
,
0200
1000
2300
0001
,
3002
0000
0010
0000
0023
0000
0031
1000
,
0200
0000
1000
0000
1300
0000
0001
0100
,
0020
0100
0230
0301
,
1001
0000
0001
0010
0000
0010
0100
0000
0100
1000
0000
1000
,
0002
0000
2000
3003
,
1000
0100
1000
0010
0000
0100
0001
0010
,
0000
0001
1000
0010
0000
1000
0001
0100
,
0001
0000
0010
0001
1000
0000
0010
1000
,
0100
1000
0001
0010
0000
0100
0010
0000
,
0001
0010
0100
1000
0000
0010
0100
0001
,
0000
1000
0100
1000
0000
0010
0100
0001
,
0100
0010
1000
0010
0100
0001
1000
0000
,
2002
0000
0000
3003
,
2200
0000
0000
0000
,
3300
0000
0000
2000
,
3002
0000
0000
0100
0000
0100
0000
0203
,
0000
0000
0000
0300
,
0220
0000
0000
0000
,
0330
0000
0010
2000
0000
0000
3002
0000
,
2003
0000
0000
0001
0000
0001
0000
0002
,
0000
0000
0000
0000
,
3003
0000
0000
0000
;

//--------------- dance-single - Fred-104 ----------------
#NOTEDATA:;
#STEPSTYPE:dance-single;
#DESCRIPTION:Fred-104;
#DIFFICULTY:Hard;
#METER:16;
#CREDIT:Fred-104;
#NOTES:
0000
0000
0000
0000
,
0000
0000
0000
0000
,
0000
0000
0000
0000
,
0000
0000
0000
0000
,
0000
0000
0000
0000
,
0000
0000
0000
0000
,
1000
0100
1000
0010
,
0100
0001
0100
0001
0010
0001
1000
0100
,
1000
0100
1000
0100
0010
0001
0010
0001
1000
0010
1000
0010
0100
0001
0100
0001
,
2000
0000
0000
3000
,
1100
1000
0010
0110
0100
0001
0011
0000
,
0101
0100
0010
1010
1000
0100
0110
0000
,
0011
0001
1000
0010
0110
0100
0001
0011
,
0000
1010
0000
0101
0000
1100
0000
0101
,
0000
0011
0000
1010
0000
0011
0000
0101
,
0000
1100
0000
0101
0000
0001
0010
0001
,
1000
0000
0010
0000
0100
0000
0001
0000
0010
0100
0010
0100
1000
0010
0100
0001
,
1000
0000
0000
0001
0010
0000
0000
0001
0100
0000
0010
0000
1001
0000
0000
0000
,
0001
0000
0100
0001
0100
0000
0010
0000
1000
0000
0100
1000
0100
0000
0010
0000
,
0001
0000
0100
0010
0100
0000
0001
0000
1000
0000
0100
0000
0110
0000
0000
0000
,
0010
0000
0001
1000
0001
0000
0100
0000
0010
0000
1000
0100
1000
0000
0001
0000
,
0200
0000
0300
0000
0200
0000
0300
0000
1000
0000
0100
0000
1000
0001
1000
0001
,
1000
0000
0001
0100
0001
0000
0010
0000
0100
0000
1000
0001
1000
0000
0010
0000
,
0100
0000
0010
1000
0010
0000
1000
0000
0001
0000
1000
0100
1000
0000
0001
0000
,
0011
0000
0010
0100
0000
0100
1000
0010
0100
0001
0010
0001
,
2000
0000
0002
3003
,
2100
0000
0000
0000
,
3020
0000
0000
0000
,
0230
0000
0000
0000
,
0300
0000
0000
0000
,
0012
0000
0000
0000
,
0023
0000
0000
0000
,
0230
0000
0000
0000
,
1300
0000
0010
0100
0000
0010
1000
0000
,
0001
0100
0100
0001
0100
0100
0101
0000
,
1000
0100
0100
1000
0100
0100
1100
0000
,
0001
0010
0010
0001
0010
0010
0011
0000
,
1000
0010
0010
1000
0010
0010
1000
0100
,
1100
0101
1100
0101
,
1010
0011
1010
0011
,
1001
1000
0100
0010
0001
0100
0010
1000
,
0001
0010
0001
0010
0100
1000
0100
1000
0100
0000
0000
0000
2002
0000
3003
0000
,
1000
0000
0010
0000
0100
0000
0000
0000
0001
0000
0010
0000
0001
0000
2000
0000
0000
0000
3010
0000
1000
0000
0100
0000
1000
0000
0001
0100
0001
0000
0100
0000
,
0020
1000
1000
1030
0001
1000
0100
0010
0001
0100
0001
0010
0001
1000
2002
3003
,
0001
0000
0010
0000
0100
0000
0000
0000
1000
0000
0010
0000
1000
0000
0002
0000
0000
0000
0013
0000
0001
0000
0100
0000
0001
0000
1000
0100
1000
0000
0100
0000
,
0020
0001
0001
0031
1000
0001
0100
0010
1000
0100
1000
0010
1000
0001
2002
3003
,
1000
0100
1100
1000
0010
0100
0101
0001
,
0010
0000
0100
0000
1100
0000
1000
0000
0001
0100
0010
0100
0002
0000
0000
0000
,
1003
0001
0010
0001
0100
0010
0001
0010
,
1000
0001
0100
1000
0100
0010
1000
0000
,
0001
0010
0011
0100
1000
0001
1001
0100
,
0010
0000
0001
0000
0101
0000
0100
0000
0010
1000
0100
0010
0002
0000
0000
0000
,
1003
0000
0001
0100
0001
0000
1000
0010
1000
0000
0001
0010
0100
1000
0010
0100
,
0001
0010
0001
0000
1000
0100
1000
0000
2002
0000
0000
0000
3003
0000
0000
0000
,
1000
0000
0100
1000
0010
0000
1000
0000
0001
0000
0100
0001
0010
0000
0100
0000
,
1000
0000
0001
1000
0010
0000
0100
0000
0001
0000
0010
0100
2000
0000
3020
0000
,
0130
0000
0001
1000
0010
0000
0100
0000
0001
0000
1000
0100
0010
0000
0001
0000
,
1000
0100
0001
1000
0010
0001
1001
0000
,
0001
0000
0100
0001
1000
0000
0010
0000
0100
0000
0010
0100
0001
0000
1000
0000
,
0001
0000
0010
0001
0100
0000
0010
0000
1000
0000
0010
0100
0002
0000
2003
0000
,
3001
0000
0100
0001
0100
0000
0010
1000
0010
0000
1000
0100
1000
0000
0001
0010
,
0002
1000
0200
0303
,
0001
0010
0100
0000
1000
0000
0010
0000
0100
0001
1000
0000
0010
0000
1000
0000
,
0100
0010
0001
0000
1000
0000
0010
0000
0100
0001
0010
0000
0001
0000
1000
0000
,
0001
0010
1000
0020
0000
0031
0010
0100
,
1000
0010
0001
1000
0100
0001
1001
0000
,
0001
1000
0010
0000
1000
0000
0100
0000
0010
0100
1000
0000
0010
0000
0100
0000
,
0001
1000
0010
0000
1000
0000
0100
0000
1000
0001
0010
0000
0001
0000
0100
0000
,
0001
0010
0001
0010
0100
0000
1000
0010
1000
0010
0100
0000
0001
1000
0100
1000
,
0001
0000
0000
0100
0010
0000
0000
1000
0001
0000
1000
0000
1001
0000
0000
0000
,
0002
0010
2003
0100
,
3020
0000
0000
0000
0100
0000
0000
0000
1030
0000
0010
0000
0100
0001
0100
0001
,
2000
0010
3002
0100
,
0023
0000
0001
0000
0130
1000
1001
0000
,
2000
0000
0000
0000
0010
0000
0000
0000
0001
0000
0000
0000
3100
0010
0100
0010
,
0002
0010
2003
0100
,
3010
0000
0100
0001
0000
0010
0001
1000
0010
0100
0001
1000
,
0200
0000
0020
0330
,
0010
0001
1000
0000
0001
0000
0100
0000
0010
1000
0100
0000
1000
0000
0010
0000
,
0100
0001
0010
0000
0001
0000
1000
0000
0001
0000
0010
0100
1000
0000
0001
0000
,
0100
0001
1000
0000
0010
0000
0100
0000
0010
1000
0100
0000
0010
0000
0001
0000
,
1000
0100
1000
0010
0100
0000
0001
0010
0001
1000
0001
0000
1001
0000
0000
0000
,
1000
0010
0100
0000
0010
0000
1000
0000
0001
0010
0100
0000
1000
0000
0001
0000
,
0100
0001
0010
0000
0001
0000
0100
0000
0010
0000
1000
0001
0100
0000
0010
0000
,
1000
0010
1000
0010
0100
0001
0100
0001
1000
0100
1000
0100
0010
0001
0010
0001
,
2000
0000
0000
3000
,
1020
0000
0000
0000
0000
0000
1000
2030
,
0000
0000
0000
3200
,
0320
0000
0032
0203
0000
0320
0000
0230
,
0000
0000
0000
0300
,
2002
0000
0000
0000
,
3000
0000
0013
0020
0000
0032
2003
3002
,
0203
0000
0320
2030
0000
3200
0300
2002
,
0000
0000
0000
0000
,
3003
0000
0000
0000
;

//--------------- dance-single - Fred-104† ----------------
#NOTEDATA:;
#STEPSTYPE:dance-single;
#DESCRIPTION:Fred-104†;
#DIFFICULTY:Challenge;
#METER:17;
#CREDIT:Fred-104†;
#NOTES:
0000
0000
0000
0000
,
0000
0000
0000
0000
,
0000
0000
0000
0000
,
0000
0000
0000
0000
,
0000
0000
0000
0000
,
0000
0000
0000
0000
,
0001
0010
0001
1000
0010
0100
0001
1000
,
0000
0100
0001
0100
0000
0010
0001
1000
,
0000
2002
0000
0000
0000
0000
3003
0000
,
2200
0000
3300
0202
0000
0303
1100
0000
,
0001
0000
0100
0010
0100
0000
0001
0000
0010
0100
0010
0000
0001
0000
0000
0000
,
1000
0000
0100
0010
0100
0000
1000
0000
0010
0100
0010
0000
1000
0000
0000
0000
,
0001
0000
0010
0100
1000
0000
0001
0000
0100
0010
1000
0000
0001
0000
0011
0000
,
0000
1010
0000
1100
0000
0101
0000
1001
,
0000
1000
0100
0001
1000
0010
0100
1000
,
0001
0100
1000
0001
0010
0100
0001
1000
,
0100
0010
0100
0010
0100
0010
0100
0010
0001
1000
0001
1000
0001
1000
0001
1000
,
0020
0230
0302
1003
,
0001
0000
0010
0100
1000
0000
0001
1000
0010
0000
0100
0001
1000
0000
0100
0010
,
0001
0000
1000
0010
0100
0000
0010
1000
0001
0000
0010
0100
1000
0000
0010
0100
,
0001
0000
1000
0001
0100
0000
0001
1000
0100
0000
0010
0001
1000
0000
0001
0100
,
0010
0000
1000
0001
0100
0000
0100
0001
1000
0000
0100
0000
1000
0001
1000
0001
,
1000
0000
0001
0010
0100
0000
1000
0001
0100
0000
0001
1000
0100
0000
0010
0001
,
1000
0000
0001
1000
0010
0000
1000
0001
0010
0000
0100
1000
0001
0000
0001
0000
,
1000
0100
0010
0001
0010
0100
1000
0010
0100
0001
0100
0010
,
2000
0000
0002
0000
,
3003
0000
1000
0020
0000
0031
0010
2000
,
0000
3002
0000
0023
0000
2030
0000
3020
,
0000
0000
0000
0000
,
0030
0000
0000
0000
,
0002
0000
0103
2000
0000
3100
0001
2000
,
0000
3200
0000
0302
0000
0203
0000
0320
,
0000
0002
0000
0030
0000
0003
0000
0000
,
1001
0000
1000
0100
0000
0010
0001
0000
,
1100
0100
0010
0011
0000
0101
1001
0000
,
0011
0001
1000
1010
0000
0110
0101
0000
,
1100
1000
0001
0101
0000
1010
1001
0000
,
0001
0001
0010
0010
0100
0100
1000
0001
,
0101
1010
0011
1100
,
1010
0101
1100
0011
,
1000
0100
0001
0100
0010
1000
0010
0001
,
1000
0010
1000
0010
0100
0001
0100
0001
2000
0000
0000
0000
3000
0000
0000
0000
,
0001
0000
0010
0000
0100
0000
1000
0000
0001
0000
0100
0000
1000
0000
0200
0000
0000
0000
0301
0000
1000
0000
0100
0000
0010
0000
0001
1000
0010
1000
0010
1000
,
0001
0010
0100
0001
1000
0010
0100
1000
0010
0100
1000
0001
0010
0100
0002
0000
,
1003
0000
0010
0000
0100
0000
0001
0000
1000
0000
0100
0000
0001
0000
0200
0000
0000
0000
1300
0000
0001
0000
0100
0000
0010
0000
1000
0001
0010
0001
0010
0001
,
1000
0010
0100
1000
0001
0010
0100
0001
0010
0100
0001
1000
0010
0100
2000
0000
,
3001
0000
0010
0000
1002
0003
1000
0000
0100
0000
0010
0000
0021
0030
0001
0000
,
0100
0000
0010
0000
0201
0300
0001
0000
1000
0100
0010
0001
1000
0010
2000
0000
,
3001
0000
0010
0000
1200
0300
1000
0000
0010
0000
0100
0000
1002
0003
0001
0000
,
1000
0000
0010
0000
0201
0300
0001
0000
0100
0000
0010
0000
2001
3000
0001
0000
,
1000
0000
0001
0100
0010
0000
1000
0000
0001
0000
0010
0100
1000
0000
0001
0000
,
1000
0010
1000
0010
0100
0000
1000
0000
0100
0001
0100
0001
2000
0000
3002
0000
,
0013
0100
0010
0100
0010
0100
0010
0100
1000
0001
1000
0001
1000
0001
1000
0001
,
0200
0000
0300
0000
0200
0000
0300
0000
0200
0000
0300
0000
0001
1000
0001
1000
,
0001
0000
0010
0100
1000
0000
0001
0000
0100
0000
0010
1000
0001
0000
0010
0000
,
0100
0000
0010
0001
1000
0000
0010
0000
1000
0001
0010
0000
0100
1000
0100
1000
,
0001
0000
0100
0001
1000
0000
0001
0000
0010
0000
0100
0010
0001
0000
1000
0000
,
0001
0100
0010
0001
1000
0100
0002
0000
,
1003
0000
0100
0010
0001
0000
1000
0000
0010
0000
0100
0010
1000
0000
0100
0000
,
0010
0000
0100
1000
0001
0000
0100
0000
0001
0010
0100
1000
0001
0000
0100
0000
,
0010
1000
0010
1000
0001
0100
0001
0100
0001
0010
0001
0010
0100
1000
0100
1000
,
0002
0203
2300
3100
,
0001
0010
0100
0000
1000
0000
0001
0100
0010
1000
0001
0000
1000
0000
0100
0010
,
0001
1000
0010
0000
0100
0000
0001
1000
0100
1000
0001
0010
0100
0000
1000
0000
,
0001
1000
0010
0000
0100
0000
0010
1000
0001
0010
0100
0000
0010
0000
0001
1000
,
0100
1000
0001
0000
0100
0000
0010
1000
0001
0010
0100
1000
0001
0000
1000
0000
,
0010
1000
0001
0000
0010
0000
0100
0010
0001
1000
0010
0000
0100
0000
0001
1000
,
0010
1000
0001
0000
0010
0000
0100
1000
0001
0100
0010
0000
0100
0000
0001
0000
,
0010
0100
0010
0100
0010
0001
1000
0001
1000
0001
0010
0100
1000
0001
0100
0010
,
2000
0000
0000
0000
3200
0000
0000
0000
0320
0000
0000
0000
0031
1000
0010
1000
,
0002
0000
0013
0000
0100
1000
0001
0000
0200
0000
0310
0000
1000
0001
0010
0000
,
0200
0000
0310
0000
0001
1000
0010
0000
0100
0000
0100
0000
0001
1000
0001
1000
,
0200
0000
0310
0000
0001
1000
0010
0000
0200
0000
0301
0000
1000
0001
0010
0000
,
0200
0000
1300
0000
0100
0010
0001
0000
2000
0000
3001
0000
1001
0000
0000
0000
,
0002
0000
0013
0000
0100
0010
0001
0000
1000
0000
1000
0000
0001
1000
0001
1000
,
0002
0000
1003
0000
0010
0100
0001
0000
2000
0000
3100
0000
0010
0001
1000
0000
,
0001
0100
0010
0001
1000
0100
0010
0001
1000
0100
0010
1000
,
0002
0023
0230
1300
,
0001
0000
0010
0100
1000
0000
0001
0000
0100
0000
0010
1000
0001
0000
1000
0000
,
0100
0010
0100
0010
0001
0000
1000
0000
0010
1000
0010
1000
0001
0000
0010
0000
,
0100
0000
1000
0001
0010
0000
0100
0000
0010
0000
0001
0100
0010
0000
1000
0000
,
0001
0010
0001
0010
0100
0000
0001
0100
0010
0100
0010
0000
0002
0000
0000
0000
,
1003
0000
0001
1000
0010
0000
0100
0000
0001
0000
1000
0100
0010
0000
0001
0000
,
1000
0010
1000
0010
0100
0000
0001
0000
1000
0100
1000
0100
0010
0000
0001
0000
,
1000
0010
1000
0010
0100
0001
0100
0001
1000
0100
1000
0100
0010
0001
1000
0001
,
0200
0000
0000
0300
,
2001
0000
0000
0000
0000
0000
0001
3002
,
0000
0000
0000
0023
,
2030
0000
3020
0230
0000
0320
0000
0032
,
0000
0000
0000
0003
,
2002
0000
0000
0000
,
0003
0000
3100
0200
0000
2300
3002
2003
,
3020
0000
0032
0023
0000
0230
0300
0202
,
0000
0000
0000
0000
,
0303
0000
0000
0000
;

//--------------- dance-double - Fred-104 ----------------
#NOTEDATA:;
#STEPSTYPE:dance-double;
#DESCRIPTION:Fred-104;
#DIFFICULTY:Easy;
#METER:9;
#CREDIT:Fred-104;
#NOTES:
00000000
00000000
00000000
00000000
,
00000000
00000000
00000000
00000000
,
00000000
00000000
00000000
00000000
,
00000000
00000000
00000000
00000000
,
00000000
00000000
00000000
00000000
,
00000000
00000000
00000000
00000000
,
01000000
00100000
01000000
00000000
,
00010000
10000000
00010000
00000000
,
10000000
01000000
00010000
00001000
,
00022000
00000000
00000000
00033000
,
00010000
00000000
00000000
00001000
00000000
00000000
00000100
00000000
,
00000001
00000000
00000000
00001000
00000000
00000000
00000100
00000000
,
00000010
00000001
00001000
00000001
,
00000100
00000010
00000100
00000000
00000001
00000010
00000001
00000000
,
00000100
00000100
00001000
00001000
,
00010000
00010000
01000000
01000000
,
00100000
00010000
00100000
00000000
00010000
10000000
01000000
00000000
,
00100000
00001000
00022000
00033000
,
00001000
00010000
00001000
00000010
,
00001000
00010000
00001000
00000000
,
00010000
00001000
00010000
00100000
,
00010000
00000000
00010000
00000000
00001000
00010000
00001000
00000000
,
00010000
00001000
00000100
00001000
,
00010000
01000000
00010000
00000000
,
00001000
00001000
00010000
00010000
,
00002000
00000000
00020000
00033000
,
00020000
00000000
00000000
00000000
,
00030020
00000000
00000000
00000000
,
00002030
00000000
00000000
00000000
,
00003000
00000000
00000000
00000000
,
00000200
00000000
00000000
00000000
,
00020300
00000000
00000000
00000000
,
00032000
00000000
00000000
00000000
,
01003000
00000000
00000000
00100000
00000000
00000000
01000000
00000000
,
00010000
00000000
00000000
10000000
00000000
00000000
01000000
00000000
,
00100000
00000000
00000000
00001000
00000000
00000000
00010000
00000000
,
00001000
00000000
00000000
00000010
00000000
00000000
00000100
00000000
,
00001000
00000010
00001000
00000000
00000001
00000100
00000001
00000000
,
00000010
00000010
00001000
00001000
,
00010000
00010000
00100000
00100000
,
10000000
00010000
10000000
00000000
00100000
01000000
00100000
00000000
,
10000000
00010000
20020000
30030000
,
10000000
00000000
01000000
00000000
00010000
00001000
00000100
00000000
,
00000010
00001000
00000001
00000000
00000100
00000010
00000220
00000330
,
00000001
00000000
00000100
00000000
00001000
00010000
01000000
00000000
,
00100000
00010000
10000000
00000000
01000000
00100000
02200000
03300000
,
00010000
00000000
01000000
00000000
00010000
00000000
00000000
00100000
,
00000000
00000000
00001000
00000000
00010000
00001000
00010000
00000000
,
00001000
00000000
01000000
00000000
00010000
00000000
00000000
01000000
,
00000000
00000000
00010000
00000000
00100000
00010000
00100000
00000000
,
00001000
00000000
00010000
00000000
00001000
00000000
00000000
00000100
,
00000000
00000000
00000010
00000000
00001000
00000001
00000010
00000000
,
00001000
00010000
00100000
01000000
,
01010000
11000000
20020000
30030000
,
10000000
00100000
10000000
00010000
,
10000000
01000000
00100000
00010000
,
00200000
00000000
00302000
00000000
,
00013000
00000000
00000000
00001000
00000000
00000000
00010000
00000000
,
00001000
00000010
00000100
00010000
,
00001000
00000010
00000100
00010000
,
00001000
00010000
00001000
00000000
00100000
00010000
01000000
00000000
,
00001000
00010000
00022000
00033000
,
00001000
00000000
00010000
00000000
00000100
00000000
00001000
00002000
,
00000000
00003001
00001000
00000001
,
00000200
00000000
00000000
00000320
00000000
00000230
00000000
00000302
,
00000000
00000000
00000103
00001000
,
00010000
00100000
01000000
00010000
,
10000000
00000000
00010000
00020000
00000000
00000000
01030000
00000000
,
00100000
00000000
10000000
01000000
00000000
00100000
00000000
00010000
,
01000000
00001000
00022000
00033000
,
00020000
00000000
00032000
00000000
,
00023000
00000000
00030200
00002300
,
00003200
00000000
00000320
00000000
,
00000230
00000000
00000320
00000000
,
00000032
00000000
00002003
00003020
,
00002030
00000000
00003200
00000000
,
00010300
00001000
00010000
00100000
,
02000000
00000000
00020000
03030000
,
00100000
00000000
00001000
00000000
00010000
00001000
00010000
00000000
,
00000100
00001000
00000010
00001000
,
00000010
00000000
00000100
00000000
00000001
00000100
00000001
00000000
,
00000010
00000000
00000000
00001000
00000000
00000000
00010000
00000000
,
00100000
00000000
10000000
00000000
00010000
00100000
00010000
00000000
,
01000000
00100000
01000000
00010000
,
00100000
00010000
00100000
00000000
00001000
00010000
00001000
00000000
,
00022000
00000000
00000000
00033000
,
00022000
00000000
00000000
00000000
,
00000000
00000000
00000000
00000000
,
00033000
00000000
00000000
00000000
,
00000220
00000000
00000000
00000330
,
00002002
00000000
00000000
00000000
,
00000000
00000000
00000000
00003003
,
00000022
00000000
00000000
00000033
,
00002200
00000000
00000000
00000000
,
00003300
00000000
00000000
00000000
;

//--------------- dance-double - Fred-104 ----------------
#NOTEDATA:;
#STEPSTYPE:dance-double;
#DESCRIPTION:Fred-104;
#DIFFICULTY:Medium;
#METER:14;
#CREDIT:Fred-104;
#NOTES:
00000000
00000000
00000000
00000000
,
00000000
00000000
00000000
00000000
,
00000000
00000000
00000000
00000000
,
00000000
00000000
00000000
00000000
,
00000000
00000000
00000000
00000000
,
00000000
00000000
00000000
00000000
,
00000001
00001000
00000010
00000100
,
00000001
00000010
00000001
00000000
00001000
00000100
00001000
00000000
,
00000001
00000100
00000001
00000100
00001000
00010000
01000000
10000000
,
00200000
00000000
00000000
00300000
,
10000000
00100000
10000000
00100000
00000000
01000000
00100000
00000000
,
01000000
00001000
01000000
00001000
00000000
00010000
00001000
00000000
,
00100000
00001000
00010000
00001000
01000000
00001000
00010000
00001000
,
00000000
00100000
00000000
00001000
00000000
00010000
00000000
00000010
,
00000000
00001010
00000000
00000100
00000000
00001000
00000000
00001001
,
00000000
00000010
00000000
00000110
00000000
00000001
00000010
00000100
,
00000000
00000010
00000001
00000100
00001000
00010000
00100000
01000000
,
00010000
10000000
20020000
30030000
,
10000000
01000000
00010000
01000000
10000000
01000000
00100000
00000000
,
00010000
00100000
01000000
00100000
00010000
00100000
00001000
00000000
,
00010000
00001000
00000010
00000100
00010000
00001000
00010000
00000000
,
00002000
00003000
00002000
00003000
00010000
00001000
00011000
00000000
,
00010000
00001000
00000100
00000001
00001000
00000100
00000010
00000000
,
00000001
00001000
00000001
00000100
00001000
00000100
00000001
00000000
,
00001001
00000000
00000001
00000010
00000000
00000010
00001000
00000000
00001000
00010000
00000000
00010000
,
00002000
00000000
00020000
00033000
,
00002000
00000000
00000000
00000000
,
00023000
00000000
00000000
00000000
,
02030000
00000000
00000000
00000000
,
03000000
00000000
00000000
00000000
,
00020000
00000000
00000000
00000000
,
00032000
00000000
00000000
00000000
,
00003020
00000000
00000000
00000000
,
00000031
00000000
00000000
00000100
00000000
00000000
00001000
00000000
,
00011000
00000000
00010000
00001000
00000000
00000010
00000001
00000000
,
00001001
00000000
00000001
00000100
00000000
00000010
00001000
00000000
,
00001100
00000000
00000100
00010000
00000000
00001000
00010000
00000000
,
01000000
00100000
00010000
10000000
00100000
01000000
00010000
10000000
,
01000000
00010000
00001000
00000010
,
00000001
00000100
00001000
00010000
,
00001000
00010000
00001000
00100000
00010000
10000000
00100000
00010000
,
00001000
00000100
00000010
00001000
00000001
00000000
00002002
00003003
,
00000001
00000100
00000001
00000000
00000010
00000100
00000010
00000002
00000000
00000103
00000001
00000010
00000001
00001000
00000200
00000000
,
00010300
00001000
00010000
00100000
01000000
00010000
10000000
00010000
10000000
00100000
01000000
00100000
10000000
01000000
01100000
00000000
,
10000000
01000000
10000000
00000000
00100000
01000000
00100000
20000000
00000000
31000000
10000000
00100000
10000000
00010000
02000000
00000000
,
03001000
00010000
00001000
00000010
00000100
00001000
00000001
00001000
00000001
00000010
00000100
00000010
00000001
00000100
00000110
00000000
,
00000001
00000010
00000001
00001000
00000001
00000100
00000010
00001000
,
00000000
00000100
00010000
00000000
00001000
00001000
00001000
00000000
,
00100000
00001000
00010000
00000000
00001000
00100000
00010000
10000000
,
00000000
00010000
00100000
01000000
00100000
00010000
10000000
00000000
,
00100000
10000000
00100000
10000000
01000000
10000000
01000000
00100000
,
00000000
00001000
00010000
00000000
00001000
00001000
00001000
00000000
,
00010000
00001000
00000100
00000001
00001000
00000100
00000010
00000001
,
00001000
00000001
00002002
00003003
,
00000001
00000010
00000001
00001000
00000001
00000100
00000001
00000000
,
00001000
00000100
00000010
00000100
00010000
00001000
00010000
00000000
,
00001000
00000010
00000100
00010000
00001000
00100000
01000000
00000000
,
00100000
00010000
10000000
01000000
00100000
00010000
00110000
00000000
,
10000000
01000000
00010000
00001000
00010000
01000000
10000000
00000000
,
10000000
00100000
00010000
00001000
00010000
00100000
10000000
00000000
,
10000000
01000000
00100000
00001000
00010000
00000100
00000010
00000001
,
00002000
00000001
00000002
00003003
,
00000001
00000100
00000001
00000010
00000001
00001000
00000001
00000100
,
00000000
00000010
00000100
00001000
00010000
00100000
01000000
00010000
,
10000000
00100000
00010000
00001000
00000000
00010000
00000000
00100000
,
10000000
01000000
00010000
00001000
00000100
00000001
00001000
00000000
,
00000001
00000010
00000100
00001000
00000010
00000100
00001000
00010000
,
00000100
00001000
00010000
00100000
00001000
00010000
00100000
00000000
,
01000000
00010000
00100000
01000000
10000000
00100000
00010000
00001000
,
00000010
00001100
00002002
00003003
,
00000001
00000100
00001000
00010000
00100000
01000000
00010000
00100000
,
00001000
00010000
00001000
00000010
00000100
00010000
00001000
00000000
,
00010000
01000000
00100000
00010000
10000000
01000000
00100000
00010000
,
01000000
00100000
00010000
00001000
01000000
00001000
00010000
00000000
,
00001000
00000010
00000001
00001000
00000001
00000010
00000100
00000010
,
00001000
00010000
00100000
01000000
00010000
10000000
00100000
00000000
,
10010000
00000000
10000000
01000000
00000000
01000000
00100000
00000000
00100000
00001000
00000000
00001000
,
00020000
00000000
00002000
00033000
,
00010000
00001000
00000010
00000100
00010000
00001000
01000000
00001000
,
00010000
00001000
00000010
00000001
00001000
00000010
00000100
00000000
,
00000001
00000100
00000010
00000100
00001000
00010000
00100000
01000000
,
00010000
10000000
01000000
00010000
00001000
00000010
00000001
00000000
,
00001000
00000001
00000010
00000100
00000010
00001000
00010000
00100000
,
01000000
00010000
01000000
00010000
00100000
01000000
10000000
00100000
,
00010000
00001000
00000010
00000100
00010000
00001000
00000010
00000000
,
00000220
00000000
00000000
00000330
,
00002002
00000000
00000000
00000000
,
00003003
00000000
00000000
00000002
,
00000203
00000000
00000320
00020030
00000000
00032000
00000000
00020000
,
00000000
00000000
00000000
00033000
,
00022000
00000000
00000000
00000000
,
00033000
00000000
00002000
00203000
00000000
00000000
00320000
00000000
,
20030000
00000000
32000000
03200000
00000000
00302000
00000000
00020000
,
00000000
00000000
00000000
00000000
,
00033000
00000000
00000000
00000000
;

//--------------- dance-double - Fred-104 ----------------
#NOTEDATA:;
#STEPSTYPE:dance-double;
#DESCRIPTION:Fred-104;
#DIFFICULTY:Hard;
#METER:17;
#CREDIT:Fred-104;
#NOTES:
00000000
00000000
00000000
00000000
,
00000000
00000000
00000000
00000000
,
00000000
00000000
00000000
00000000
,
00000000
00000000
00000000
00000000
,
00000000
00000000
00000000
00000000
,
00000000
00000000
00000000
00000000
,
00010000
00001000
00000010
00000100
,
00010000
00001000
00000010
00000100
00010000
00001000
00100000
01000000
,
00010000
00001000
00010000
00001000
00000010
00000100
00000010
00000100
00010000
00001000
00100000
00001000
00010000
00001000
00010000
00000000
,
00022000
00000000
00000000
00033000
,
00011000
00010000
00000010
00001010
00001000
00000100
00000110
00000000
,
00000011
00000001
00000100
00001100
00001000
00010000
00011000
00000000
,
00011000
00001000
00010000
01010000
01000000
10000000
00100000
10100000
,
00000000
01010000
00000000
11000000
00000000
00110000
00000000
10100000
,
00000000
01010000
00000000
00001010
00000000
00000101
00000000
00001100
,
00000000
00000011
00000000
00001001
00000000
00000001
00000010
00001000
,
00010000
00000000
00100000
00000000
01000000
00000000
00010000
00000000
10000000
00010000
00100000
00010000
01000000
00100000
10000000
00100000
,
01000000
00000000
00000000
00010000
10000000
00000000
00000000
01000000
00100000
00000000
00001000
00000000
00011000
00000000
00000000
00000000
,
00010000
00000000
00000010
00001000
00000100
00000000
00010000
00000000
00001000
00000000
00100000
00010000
01000000
00000000
00001000
00000000
,
00010000
00000000
00000100
00001000
00000010
00000000
00000100
00000000
00000001
00000000
00000010
00000000
00000110
00000000
00000000
00000000
,
00001000
00000000
00000010
00010000
00001000
00000000
00100000
00000000
00010000
00000000
01000000
00001000
00010000
00000000
00000010
00000000
,
00000200
00000000
00000300
00000000
00000200
00000000
00000300
00000000
00001000
00000000
00000001
00000000
00000100
00000010
00001000
00000010
,
00000100
00000000
00000001
00000010
00000100
00000000
00001000
00000000
00000100
00000000
00000010
00000001
00001000
00000000
00000100
00000000
,
00010000
00000000
00000010
00001000
00000100
00000000
00010000
00000000
00001000
00000000
00100000
00010000
01000000
00000000
00010000
00000000
,
10000000
01000000
00010000
00001000
00010000
01000000
10000000
00100000
00010000
00001000
00010000
00100000
,
20000000
00000000
00020000
30030000
,
10200000
00000000
00000000
00000000
,
02300000
00000000
00000000
00000000
,
03020000
00000000
00000000
00000000
,
00030000
00000000
00000000
00000000
,
00012000
00000000
00000000
00000000
,
00023000
00000000
00000000
00000000
,
00030200
00000000
00000000
00000000
,
00001300
00000000
00000010
00000100
00000000
00000010
00001000
00000000
,
00000001
00000010
00001000
00010000
01000000
10000000
00010000
00000000
,
10000000
00100000
00010000
00001000
00000100
00000001
00001000
00000000
,
00000001
00000100
00001000
00010000
00100000
10000000
00010000
00000000
,
10000000
01000000
00010000
00001000
00000010
00000001
00001000
00000001
,
00001001
00011000
10010000
00011000
,
00001001
00011000
10010000
00011000
,
00001000
00000001
00000010
00000001
00000100
00000010
00001000
00000001
,
00000010
00000001
00000010
00000100
00001000
00000100
00010000
00001000
00010000
00000000
00000000
00000000
00011000
00000000
00000000
00000000
,
00010000
00000000
00001000
00000000
00000010
00000000
00000000
00000000
00000100
00000000
00010000
00000000
00001000
00000000
00200000
00000000
00000000
00000000
01300000
00000000
00010000
00000000
00001000
00000000
00010000
00000000
00001000
00010000
00001000
00000000
00010000
00000000
,
00000200
00001000
00001000
00001300
00000001
00000100
00000010
00000100
00001000
00010000
00100000
01000000
00010000
10000000
10010000
00000000
,
00001000
00000000
00010000
00000000
00100000
00000000
00000000
00000000
01000000
00000000
00001000
00000000
00010000
00000000
00000020
00000000
00000000
00000000
00000130
00000000
00001000
00000000
00010000
00000000
00001000
00000000
00010000
00001000
00010000
00000000
00001000
00000000
,
02000000
00010000
00010000
03010000
10000000
01000000
00100000
01000000
00010000
00001000
00000010
00000100
00001000
00000001
00001001
00000000
,
00000001
00000100
00000110
00000010
00001000
00000100
00010100
00010000
,
00001000
00000000
01000000
00000000
01001000
00000000
00001000
00000000
00010000
00000010
00001000
00000100
00020000
00000000
00000000
00000000
,
00031000
00100000
00110000
00010000
10000000
01000000
01100000
00100000
,
00001000
00010000
00011000
00010000
00000100
00001000
00001001
00000000
,
00000001
00000100
00000110
00001000
00000001
00000010
00000110
00001000
,
00000100
00000000
00010000
00000000
00011000
00000000
00001000
00000000
00100000
00010000
10000000
00100000
02000000
00000000
00000000
00000000
,
03010000
00000000
00100000
00010000
10000000
00000000
00100000
10000000
01000000
00000000
10000000
01000000
00100000
00010000
00100000
00001000
,
00010000
00000010
00001000
00000000
00000010
00000100
00000001
00000000
00002002
00000000
00000000
00000000
00003003
00000000
00000000
00000000
,
00001000
00000000
00000010
00001000
00000100
00000000
00000010
00000000
00000001
00000000
00000100
00000001
00000010
00000000
00000001
00000000
,
00001000
00000000
00000010
00010000
00001000
00000000
00100000
00000000
00010000
00000000
01000000
00001000
00020000
00000000
00030200
00000000
,
00001300
00000000
00000100
00000010
00000001
00000000
00001000
00000000
00000010
00000000
00000100
00000001
00000010
00000000
00000001
00000000
,
00000100
00001000
00010000
00100000
01000000
00010000
10010000
00000000
,
00010000
00000000
00100000
01000000
00100000
00000000
00010000
00000000
00001000
00000000
00000010
00000100
00000010
00000000
00001000
00000000
,
00010000
00000000
01000000
00100000
01000000
00000000
00010000
00000000
00001000
00000000
00000100
00000010
00000200
00000000
00002300
00000000
,
00003010
00000000
00010000
00000010
00001000
00000000
00000100
00010000
00001000
00000000
01000000
00001000
00010000
00000000
00001000
00100000
,
00010000
00100000
00022000
00033000
,
00010000
00001000
00010000
00000000
00000100
00001000
00000010
00000000
00000100
00000001
00000010
00000000
00000001
00001000
00000010
00000000
,
00000100
00000000
00000001
00000000
00000010
00000001
00001000
00000000
00000100
00000000
00001000
00000000
00000001
00000010
00000100
00000000
,
00000010
00000001
00000100
00001000
00010000
01000000
00100000
00010000
,
10000000
01000000
00010000
00001000
00010000
00100000
10100000
00000000
,
00010000
10000000
00100000
00000000
01000000
00010000
00100000
00000000
00001000
00010000
00000100
00000000
00010000
00001000
01000000
00000000
,
00010000
00000000
00100000
00000000
00001000
00010000
00001000
00000000
00000010
00000000
00000100
00000000
00001000
00000001
00000010
00000000
,
00000001
00000100
00000010
00001000
00000100
00000000
00010000
00000010
00001000
00000100
00010000
00000000
00001000
00100000
00010000
10000000
,
01000000
00000000
00000000
00100000
00001000
00000000
00000000
00010000
00001000
00000000
00010000
00000000
00011000
00000000
00000000
00000000
,
00010000
00001000
00000100
00000001
00001000
00000100
00000010
00000001
,
00000100
00000000
00001000
00000000
00010000
00000000
00100000
00000000
01000000
00000000
00010000
00000000
10000000
00100000
10000000
01000000
,
00100000
00010000
01000000
00001000
00010000
00001000
00000100
00000010
,
00001000
00000100
00000010
00000001
00001000
00000001
00000101
00000000
,
00000001
00000000
00000010
00000000
00001000
00000000
00000010
00000000
00000001
00000000
00000100
00000000
00001000
00010000
00001000
00010000
,
01000000
00100000
00010000
01000000
00001000
00010000
00001000
00000100
,
00000010
00001000
00000001
00000010
00000100
00000010
00001000
00010000
00100000
01000000
00010000
10000000
,
00020000
00000000
20000000
30030000
,
00010000
01000000
00100000
00000000
10000000
00000000
01000000
00000000
10000000
00100000
01000000
00000000
00010000
00000000
00100000
00000000
,
01000000
00100000
01000000
00100000
00010000
00000000
01000000
00000000
00001000
00010000
00001000
00010000
00001000
00000000
00000010
00000000
,
00000100
00001000
00000001
00000000
00001000
00000000
00000001
00000000
00000010
00000001
00000100
00000000
00000010
00000000
00001000
00000000
,
00000001
00000100
00000001
00000100
00001000
00000000
00010000
00100000
00010000
00100000
10000000
00000000
10010000
00000000
00000000
00000000
,
00010000
10000000
00100000
00000000
10000000
00000000
01000000
00000000
00100000
00010000
01000000
00000000
00001000
00000000
00010000
00000000
,
00000100
00001000
00000100
00000010
00000100
00000000
00001000
00000000
00000001
00000100
00000010
00001000
00000001
00000000
00000010
00000000
,
00000001
00000010
00000100
00001000
00000100
00010000
00001000
00100000
00010000
00100000
01000000
10000000
00010000
01000000
00100000
01000000
,
00020000
00000000
00000000
00030000
,
20010000
00000000
00000000
00000000
00000000
00000000
31000000
02000000
,
00000000
00000000
00000000
03200000
,
00302000
00000000
00023000
00032000
00000000
00003020
00000000
00000230
,
00000000
00000000
00000000
00000300
,
00002200
00000000
00000000
00000000
,
00000300
00000000
00000001
00003002
00000000
00000203
00000302
00000023
,
00002030
00023000
02030000
23000000
00000000
30020000
00000000
02000000
,
00000000
00000000
00000000
00000000
,
03030000
00000000
00000000
00000000
;

//--------------- dance-double - Fred-104† ----------------
#NOTEDATA:;
#STEPSTYPE:dance-double;
#DESCRIPTION:Fred-104†;
#DIFFICULTY:Challenge;
#METER:17;
#CREDIT:Fred-104†;
#NOTES:
00000000
00000000
00000000
00000000
,
00000000
00000000
00000000
00000000
,
00000000
00000000
00000000
00000000
,
00000000
00000000
00000000
00000000
,
00000000
00000000
00000000
00000000
,
00000000
00000000
00000000
00000000
,
00001000
00010000
00100000
01000000
00010000
10000000
01000000
00010000
,
00000000
00001000
00000000
00000100
00000000
00000001
00000000
00000010
,
00000000
00002002
00000000
00000000
00000000
00000000
00003003
00000000
,
00000220
00000000
00000330
00022000
00000000
00033000
01100000
00000000
,
10000000
01000000
00010000
00001000
00000010
00000001
00001001
00000000
,
00000001
00000100
00001000
00010000
00100000
10000000
10010000
00000000
,
10000000
00100000
00001000
00000010
00010000
00001000
00000010
00000001
,
00000000
00001000
00000000
00100000
00000000
10000000
00000000
10010000
,
00000000
10000000
01000000
00010000
01000000
10000000
01000000
00010000
,
00001000
00000100
00000001
00001000
00000100
00000001
00000100
00001000
,
00000010
00000100
00001000
00010000
10000000
01000000
00010000
00001000
,
00000020
00002030
00003200
00000310
,
00000001
00000000
00000100
00000001
00001000
00000000
00000001
00000010
00000100
00000000
00010000
00001000
01000000
00000000
00010000
10000000
,
01000000
00000000
00100000
00001000
00010000
00000000
00001000
00000010
00000001
00000000
00000010
00000100
00001000
00000000
00000010
00000100
,
00000001
00000000
00001000
00000010
00010000
00000000
00001000
00100000
00010000
00000000
10000000
00010000
00100000
00000000
01000000
00100000
,
00001000
00000000
00001000
00000000
00010000
00000000
00010000
00000000
00001000
00000000
00010000
00000000
00001000
00010000
00001000
00010000
,
00001000
00000000
00010000
00000010
00001000
00000000
00000001
00000010
00000100
00000000
00010000
00001000
01000000
00000000
00010000
00100000
,
01000000
00000000
00100000
00010000
10000000
00000000
00100000
00010000
00001000
00000000
00000100
00000001
00000010
00000000
00000010
00000000
,
00000001
00000100
00000010
00000100
00001000
00010000
00100000
01000000
00010000
10000000
01000000
00100000
,
00002000
00000000
00020000
00000000
,
00033000
00000000
00010000
00002000
00000000
00003010
00000001
00000020
,
00000000
00002030
00000000
00023000
00000000
00230000
00000000
20300000
,
00000000
00000000
00000000
00000000
,
30000000
00000000
00000000
00000000
,
00020000
00000000
10030000
01000000
00000000
00010000
00001000
00000100
,
00000000
00000001
00000000
00000100
00000000
00001000
00000000
00020000
,
00000000
02000000
00000000
00030000
00000000
03000000
00000000
00000000
,
10000000
00100000
00010000
00001000
00000100
00000001
00001000
00000000
,
00000010
00000100
00001000
00010000
00100000
01000000
00010000
00100000
,
01000000
00010000
00001000
00000010
00000100
00001000
00000001
00000010
,
00001000
00010000
01000000
00100000
00010000
10000000
00100000
00010000
,
00001000
00000100
00000010
00001000
00000100
00000010
00000001
00001000
,
00001001
00011000
10010000
00011000
,
00001001
00011000
10010000
00011000
,
00001000
00010000
00100000
10000000
00010000
00100000
01000000
10000000
,
00010000
01000000
00001000
00010000
00001000
00010000
00000010
00010000
00002000
00000000
00000000
00000000
00003000
00000000
00000000
00000000
,
00010000
00000000
00001000
00000000
00000100
00000000
00000001
00000000
00001000
00000000
00000100
00000000
00000010
00000000
00000002
00000000
00000000
00000000
00000103
00000000
00001000
00000000
00010000
00000000
00100000
00000000
01000000
00010000
10000000
00010000
10000000
00010000
,
10000000
01000000
00100000
00010000
00001000
00000100
00000010
00000001
00001000
00000010
00000100
00001000
00010000
00100000
00020000
00000000
,
00031000
00000000
00010000
00000000
01000000
00000000
10000000
00000000
00010000
00000000
01000000
00000000
00100000
00000000
20000000
00000000
00000000
00000000
31000000
00000000
00010000
00000000
00001000
00000000
00000010
00000000
00000100
00001000
00000001
00001000
00000001
00001000
,
00000001
00000100
00000010
00001000
00010000
01000000
00100000
10000000
00010000
00100000
01000000
00010000
00001000
00000010
00002000
00000000
,
00013000
00000100
00000001
00000100
00001000
00000010
00000001
00000010
,
00001000
00000000
00000100
00000000
00000010
00000000
00000001
00000000
00000100
00001000
00010000
00001000
00020000
00000000
00130000
00000000
,
10000000
01000000
00010000
01000000
10000000
00100000
00010000
00100000
,
10000000
01000000
00010000
00001000
00011000
00010000
00011000
00000000
,
00010000
00000010
00000001
00000010
00001000
00000100
00000001
00000100
,
00010000
00000000
01000000
00000000
00100000
00000000
00010000
00000000
10000000
00100000
10000000
00100000
00020000
00000000
00032000
00000000
,
00003010
00000001
00000010
00000001
00000010
00000100
00000010
00000100
00010000
00001000
00010000
00001000
01000000
00010000
01000000
00010000
,
02000000
00000000
00000000
00000000
03002000
00000000
00000000
00000000
00203000
00000000
00000000
00000000
00310000
10000000
00010000
10000000
,
00010000
10000000
01000000
00001000
00000100
00010000
00001000
00000100
,
00000001
00000000
00001000
00000000
00000100
00000000
00000010
00000000
00010000
00000000
00100000
00000000
00001000
00010000
00001000
00010000
,
00001000
00010000
00100000
01000000
10000000
00010000
00001000
00000100
,
00000001
00000010
00001000
00010000
01000000
10000000
10010000
00000000
,
00001000
00010000
00100000
01000000
10000000
00010000
00001000
00000100
,
00000010
00000000
00010000
00000000
00001000
00000000
00000010
00000000
00000001
00000000
00000010
00000000
00000100
00001000
00000100
00001000
,
00000001
00000000
00000100
00000001
00000100
00000000
00000010
00010000
00000010
00000000
00010000
00001000
01000000
00010000
10000000
00010000
,
00200000
00302000
00023000
00031000
,
00010000
00001000
00000100
00000010
00001000
00000100
00000001
00000100
,
00010000
00001000
00010000
00100000
01000000
10000000
00010000
00001000
,
00000100
00000010
00001000
00000001
00000010
00001000
00010000
10000000
,
00100000
00010000
01000000
00100000
00010000
00001000
00011000
00000000
,
00001000
00010000
01000000
00100000
10000000
00010000
00001000
00000010
,
00000001
00001000
00000010
00000100
00010000
01000000
00001000
00010000
,
01000000
00100000
01000000
00100000
01000000
00100000
01000000
00100000
00010000
10000000
00010000
10000000
00010000
10000000
00010000
10000000
,
00200000
00000000
00000000
00000000
00302000
00000000
00000000
00000000
00003020
00000000
00000000
00000000
00010030
00001000
00010000
00001000
,
00020000
00031000
00000010
00000100
00000002
00001003
00010000
01000000
,
00200000
00000000
00310000
00000000
10000000
00000000
00100000
00000000
00001000
00000000
00000010
00000000
00000100
00000001
00000100
00000001
,
00002000
00003100
00000010
00001000
00020000
01030000
00100000
10000000
,
00020000
00031000
00000010
00000100
00002000
00013000
00011000
00000000
,
00002000
00000000
01003000
00000000
00010000
00000000
01000000
00000000
00100000
00000000
00001000
00000000
00000010
00000100
00000010
00000100
,
00000020
00001030
00010000
01000000
00200000
10300000
00010000
00100000
,
01000000
10000000
00010000
01000000
00100000
00010000
00001000
00000100
00000001
00001000
00000100
00000010
,
00000002
00000203
00002300
00003100
,
00000001
00000010
00010000
00100000
00001000
00010000
01000000
00100000
,
00010000
01000000
00100000
00001000
00000010
00010000
00001000
00000100
,
00000001
00001000
00000100
00000010
00001000
00010000
01000000
10000000
,
00100000
00010000
00001000
00000100
00000001
00001000
00001001
00000000
,
00000001
00000100
00010000
10000000
00010000
00100000
01000000
00001000
,
00000100
00010000
00001000
00000010
00000001
00000010
00001000
00100000
,
01000000
10000000
01000000
10000000
01000000
10000000
01000000
10000000
00010000
01000000
00010000
01000000
00010000
01000000
00010000
01000000
,
00002000
00000000
00000000
00003000
,
00012000
00000000
00000000
00000000
00000000
00000000
00013000
00020000
,
00000000
00000000
00000000
00032000
,
00003200
00000000
00000302
00000023
00000000
00000230
00000000
00020300
,
00000000
00000000
00000000
00030000
,
00022000
00000000
00000000
00000000
,
00030000
00000000
00010000
00023000
00000000
00030200
00002300
00003002
,
00000203
00002300
00023000
00230000
00300000
20000000
00000000
02000000
,
00000000
00000000
00000000
00000000
,
33000000
00000000
00000000
00000000
;
