#VERSION:0.83;
#TITLE:NeverWorld;
#ARTIST:奏音;
#ARTISTTRANSLIT:Kanon;
#BANNER:NeverWorld.png;
#BACKGROUND:NeverWorld-bg.png;
#CDTITLE:./CDTitles/MUSECA 1.5.png;
#MUSIC:NeverWorld.ogg;
#SAMPLESTART:22.8;
#SAMPLELENGTH:15;
#DISPLAYBPM:100:200;
#BPMS:0=200,73.5=100,74=200,152.5=400,153=300,153.375=250,153.6875=150,153.875=100,154=200,308=100,309.5=200,372=100;
#STOPS:72=0.15,72.5=0.15,73=0.15,152.5=0.075,154.5=0.15,162=0.15,169.5=0.15,177=0.15,309.5=0.15,310.5=0.15,318=0.15,325.5=0.15,333=0.15;
#TIMESIGNATURES:0=4=4,72=2=4,74=4=4,154=3=4,157=4=4,169=3=4,172=4=4,308=2=4,310=3=4,313=4=4,325=3=4,328=4=4;
#BGSTAGE:3;

//--------------- dance-single - Fred-104 ----------------
#NOTEDATA:;
#STEPSTYPE:dance-single;
#DESCRIPTION:Fred-104;
#DIFFICULTY:Beginner;
#METER:4;
#CREDIT:Fred-104;
#NOTES:
0000
0000
0000
0000
,
0000
0000
0000
0000
,
0000
0000
0000
0000
,
0000
0000
0000
0000
,
0000
0000
0000
0000
,
0000
0000
0000
0000
,
0000
0000
0000
0000
,
0000
0000
0000
0000
,
0000
0000
0000
0000
,
0000
0000
0000
0000
,
0000
0000
0000
0000
,
1000
0000
0000
0000
,
0001
0000
1000
0000
,
0010
0000
0000
0000
,
1000
0000
0001
0000
,
1000
0000
0000
0000
,
0100
0000
0100
0000
,
0010
0000
0000
0000
,
0001
0000
0001
0001
,
0001
0000
1000
1000
,
1000
0000
0001
0000
,
1000
0000
0010
0000
,
0100
0000
0010
0010
,
0010
0000
1000
0000
,
0001
0000
1000
1000
,
1000
0000
0001
0000
,
0000
0000
1000
0000
,
1000
0000
0001
0000
,
0000
0000
0100
0000
,
0010
0000
0100
0000
,
0000
0000
0100
0000
,
0001
0000
1000
0000
,
0000
0000
0001
0000
,
1000
0000
0001
0000
,
0000
0000
1000
0000
,
0100
0000
0001
0000
,
0010
0000
1000
1000
,
1000
1000
2000
0000
,
3000
0000
0000
0000
0002
0003
0000
0000
,
0000
0000
0000
0001
0000
0000
0000
0001
,
0000
0000
0000
2000
3000
0000
0000
0000
,
0000
1000
0000
1000
,
0000
0000
0200
0300
0000
0000
0000
0000
,
0000
0100
0000
0000
0000
0010
0000
0000
,
0000
0020
0030
0000
0000
0000
0000
0000
,
0001
0000
0001
0000
,
1000
0000
1000
0000
,
0001
0000
0000
0000
,
1000
0000
0010
0000
,
1000
0000
0000
0000
,
0100
0000
0010
0000
,
0001
0000
0000
0000
,
1000
0000
0001
0000
,
1000
0000
0000
0000
,
0002
0000
0000
0003
,
2000
3000
0002
0003
,
0200
0000
0000
0300
,
0020
0030
0200
0300
,
0002
0000
0000
0003
,
2000
3000
0002
0003
,
2000
0000
0000
3000
,
0002
0003
2000
3000
,
1001
0000
0000
0000
,
0001
0000
1000
0000
,
1001
0000
0000
0000
,
1000
0000
0001
0000
,
1001
0000
0000
0000
,
0001
0000
1000
0000
,
1001
0000
0000
0000
,
1000
0000
0001
0000
,
1000
0000
1000
0000
,
0010
0000
0010
0000
,
1000
0000
1000
0000
,
0001
0000
0010
0000
,
0001
0000
0001
0000
,
1000
0000
1000
0000
,
0001
0001
0001
0000
,
1001
0000
0000
0000
2000
3000
0000
0000
,
0000
0000
0000
0100
0000
0000
0000
0100
,
0000
0000
0000
0200
0300
0000
0000
0000
,
0000
0010
0000
0001
,
0000
0000
0020
0030
0000
0000
0000
0000
,
0000
0001
0000
0000
0000
1000
0000
0000
,
0000
0002
0003
0000
0000
0000
0000
0000
,
0001
0000
1000
0000
,
0002
0000
0003
0000
,
1000
0000
0001
0000
,
0200
0000
0300
0000
,
0001
0000
0100
0000
,
0020
0000
0030
0000
,
0100
0000
0010
0000
,
2000
0000
3000
0000
,
0002
0000
0003
0000
,
2002
0000
0000
0000
,
0000
0000
0000
0000
,
3003
0000
0000
0000
;

//--------------- dance-single - Fred-104 ----------------
#NOTEDATA:;
#STEPSTYPE:dance-single;
#DESCRIPTION:Fred-104;
#DIFFICULTY:Easy;
#METER:10;
#CREDIT:Fred-104;
#NOTES:
0000
0000
0000
0000
,
0000
0000
0000
0000
,
0000
0000
0000
0000
,
0000
0000
0000
0000
,
0000
0000
0000
0000
,
0000
0000
0000
0000
,
0000
0000
0000
0000
,
0000
0000
0000
0000
,
0000
0000
0000
0000
,
0000
0000
0000
0000
,
0000
0000
0000
0000
,
0001
0000
0000
0001
0000
0000
0001
0000
,
0100
0010
0100
0100
,
0001
0000
0000
0001
0000
0000
0001
0000
,
0010
0100
0010
0100
,
1000
0000
0000
1000
0000
0000
1000
0000
,
0100
0010
0100
0100
,
1000
0000
0000
0001
0000
0000
1000
0000
,
2002
0000
0000
3003
0002
0003
0002
0003
,
1000
0001
1000
0000
0200
0000
0310
0001
,
0010
0001
0200
0320
,
0130
0001
0100
0001
0100
0001
0100
0001
,
0100
0000
1001
0000
2000
3000
2000
3000
,
0010
1000
0001
0000
0010
0100
0010
0000
,
0200
0300
0200
0300
1001
0000
1000
0001
,
1000
0100
0010
0001
,
1000
0000
1001
0000
0001
0000
0000
1000
,
0000
0001
0100
0010
,
0100
0010
1000
0000
0001
0000
0000
0001
,
0000
0000
0010
0000
0200
0300
0200
0300
,
1000
0001
1000
0001
0010
0000
0000
0010
,
0000
0100
0100
1000
,
0002
0003
0002
0003
0010
0000
0000
0100
,
0000
0100
1000
0001
,
1000
1000
1001
0000
,
0110
0000
1001
0000
,
0110
0000
0001
0001
,
1000
0000
1000
0000
0010
0100
0010
0200
,
0020
0000
0000
0000
0000
0000
0000
0000
0300
0000
0000
0000
0000
0000
0000
0000
0030
0000
0000
0000
0000
0000
0000
0000
0000
0000
0000
0000
0000
0000
0000
0000
1000
0000
0000
0000
0000
0000
0000
0000
2000
3000
0000
0000
0000
0000
0000
0000
0000
0000
0000
0000
0000
0000
0000
0000
0001
0000
0000
0000
0000
0000
0000
0000
,
0000
1000
0000
0001
0000
0100
0000
0010
,
0000
0000
0000
0000
0000
0000
0000
0000
1000
0000
0000
0000
0000
0000
0000
0000
0000
0000
0000
0000
0000
0000
0000
0000
0001
0000
0000
0000
0000
0000
0000
0000
0002
0003
0000
0000
0000
0000
0000
0000
0000
0000
0000
0000
0000
0000
0000
0000
0010
0000
0000
0000
0000
0000
0000
0000
0000
0000
0000
0000
0000
0000
0000
0000
,
0100
0010
0001
1000
,
0010
0000
0000
0000
0000
0000
0000
0000
0000
0000
0000
0000
0000
0000
0000
0000
0100
0000
0000
0000
0000
0000
0000
0000
0200
0300
0000
0000
0000
0000
0000
0000
0000
0000
0000
0000
0000
0000
0000
0000
0001
0000
0000
0000
0000
0000
0000
0000
0000
0000
0000
0000
0000
0000
0000
0000
0010
0000
0000
0000
0000
0000
0000
0000
,
0000
0001
0000
0100
0000
0010
0000
1000
,
0000
0000
0000
0000
0000
0000
0000
0000
0010
0000
0000
0000
0000
0000
0000
0000
0020
0030
0000
0000
0000
0000
0000
0000
0000
0000
0000
0000
0000
0000
0000
0000
0100
0000
0000
0000
0000
0000
0000
0000
0000
0000
0000
0000
0000
0000
0000
0000
0001
0000
0000
0000
0000
0000
0000
0000
0000
0000
0000
0000
0000
0000
0000
0000
,
1000
0000
0100
0000
0010
0001
0010
0000
,
0001
0001
0000
0100
0001
0000
1000
0000
,
0100
0010
0001
1000
,
0010
0010
0000
0100
0010
0000
1000
0000
,
0100
0010
0001
1000
,
0001
0001
0000
0100
0001
0000
0010
0000
,
0100
0010
0001
1000
,
0100
0100
0000
1000
0001
0000
0100
0000
,
0010
1000
0001
0010
,
0200
0000
1300
0001
,
0100
0000
0010
0000
1000
0001
1000
0000
,
0100
0010
0001
1000
,
0010
0000
0100
0000
0001
0010
0001
0000
,
0100
0100
0010
1000
,
0001
0000
0010
0000
0100
1000
0100
0000
,
1000
1000
0001
0001
,
0100
0010
0100
0000
0001
1000
0001
0000
,
1100
0000
0000
0001
0000
0000
2002
0000
,
0000
0000
0000
3003
,
0101
0000
0000
1000
0000
0000
2002
0000
,
0000
0000
0000
3003
,
1010
0000
0000
0001
0000
0000
0220
0000
,
0000
0000
0000
0330
,
0011
0000
0000
1000
0000
0000
0220
0000
,
0000
0000
0000
0330
,
0001
0000
1000
0001
0000
1000
0100
0000
,
0010
0100
0010
0001
,
1000
0001
0000
0100
0001
0000
1000
0000
,
0010
1000
0001
1000
,
0100
0000
0010
0100
0000
0010
0001
0000
,
1000
0001
0100
0010
,
0100
0010
0100
0000
0001
0000
1000
0000
,
2002
0000
0000
0000
0000
0000
0000
0000
0000
0000
0000
0000
0000
0000
0000
0000
0000
0000
0000
0000
0000
0000
0000
0000
3003
0000
0000
0000
0000
0000
0000
0000
0001
0000
0000
0000
0000
0000
0000
0000
0002
0003
0000
0000
0000
0000
0000
0000
0000
0000
0000
0000
0000
0000
0000
0000
0100
0000
0000
0000
0000
0000
0000
0000
,
0000
0001
0000
1000
0000
0100
0000
0010
,
0000
0000
0000
0000
0000
0000
0000
0000
0100
0000
0000
0000
0000
0000
0000
0000
0000
0000
0000
0000
0000
0000
0000
0000
1000
0000
0000
0000
0000
0000
0000
0000
2000
3000
0000
0000
0000
0000
0000
0000
0000
0000
0000
0000
0000
0000
0000
0000
0001
0000
0000
0000
0000
0000
0000
0000
0000
0000
0000
0000
0000
0000
0000
0000
,
0100
0010
1000
0001
,
0010
0000
0000
0000
0000
0000
0000
0000
0000
0000
0000
0000
0000
0000
0000
0000
0100
0000
0000
0000
0000
0000
0000
0000
0200
0300
0000
0000
0000
0000
0000
0000
0000
0000
0000
0000
0000
0000
0000
0000
0010
0000
0000
0000
0000
0000
0000
0000
0000
0000
0000
0000
0000
0000
0000
0000
0001
0000
0000
0000
0000
0000
0000
0000
,
0000
0100
0000
0010
0000
1000
0000
0100
,
0000
0000
0000
0000
0000
0000
0000
0000
0010
0000
0000
0000
0000
0000
0000
0000
0020
0030
0000
0000
0000
0000
0000
0000
0000
0000
0000
0000
0000
0000
0000
0000
0100
0000
0000
0000
0000
0000
0000
0000
0000
0000
0000
0000
0000
0000
0000
0000
1000
0000
0000
0000
0000
0000
0000
0000
0000
0000
0000
0000
0000
0000
0000
0000
,
0001
0000
0100
0010
0200
0000
0300
0000
,
0001
0001
0000
0010
0100
0000
1000
0000
,
0001
0000
1000
0000
0010
0100
0010
0000
,
1000
1000
0000
0100
0010
0000
0001
0000
,
1000
0000
0010
0000
0100
0001
0100
0000
,
0010
0010
0000
1000
0001
0000
0010
0000
,
0100
0100
0000
1000
0001
0000
0100
0000
,
0001
1000
0001
1000
0100
0010
0100
0010
,
0002
0000
2003
3002
,
0203
0000
0000
0000
,
0020
0000
0000
0000
,
0330
0000
0000
0000
;

//--------------- dance-single - Fred-104 ----------------
#NOTEDATA:;
#STEPSTYPE:dance-single;
#DESCRIPTION:Fred-104;
#DIFFICULTY:Medium;
#METER:14;
#CREDIT:Fred-104;
#NOTES:
0000
0000
0000
0000
,
0000
0000
0000
0000
,
0000
0000
0000
0000
,
0000
0000
0000
0000
,
0000
0000
0000
0000
,
0000
0000
0000
0000
,
0000
0000
0000
0000
,
0000
0000
0000
0000
,
0000
0000
0000
0000
,
0000
0000
0000
0000
,
0000
0000
0000
0000
,
0001
0000
0010
0100
0000
1000
0001
0000
,
0100
0001
0100
0000
0010
1000
0010
0000
,
1000
0000
0001
0010
0000
0100
1000
0000
,
0001
1000
0010
0000
0100
0001
1000
0000
,
0100
0000
0010
0001
0000
1000
0010
0000
,
0100
0001
0100
0010
1000
0001
0010
0000
,
0100
0000
1000
0001
0000
0100
0010
0000
,
2000
3000
0000
0000
0000
0000
0000
0000
0200
0300
0000
0000
0000
0000
0000
0000
0020
0030
0000
0000
0000
0000
0000
0000
0022
0000
0033
0000
0000
0000
0000
0000
2000
0000
0000
0000
0000
0000
0000
0000
3000
0000
0000
0000
0000
0000
0000
0000
2000
0000
0000
0000
0000
0000
0000
0000
3000
0000
0000
0000
0000
0000
0000
0000
,
0001
1000
0010
0100
0002
0003
0001
1000
,
0001
0100
0010
1000
0200
0000
0310
0001
,
1000
0001
1000
0001
0010
0100
0010
0100
,
0010
0000
0001
0000
1000
0010
0000
0010
0200
0000
0300
0000
0200
0000
0300
0000
,
0001
0000
0000
1000
0000
0000
0001
0000
0000
1000
0000
0000
0100
0000
0010
0000
0001
0000
1000
0000
0000
0000
0010
0000
,
0100
0000
0110
0000
1002
0000
1003
0001
,
0010
0000
0010
0000
0100
0000
0010
0000
0002
0003
0000
0000
2000
3000
0000
0000
,
0020
0030
0000
0000
0110
0000
0000
0000
1000
0000
0100
0000
1000
0000
0010
0000
,
0100
0010
2000
0000
3002
0000
0013
0100
,
1000
0001
0200
0000
0310
1000
0100
1000
,
0010
0100
0002
0000
2003
0000
3200
0000
,
0310
0100
1000
0001
0100
0010
1000
0010
,
0100
0001
2000
0000
3100
0010
0100
0010
,
0002
0000
2003
0000
3001
0100
0010
1000
,
0100
1000
0020
0000
0130
0001
1000
0100
,
0010
0001
2000
0000
3001
0010
0000
0010
,
0100
0100
0100
0000
1000
0010
0000
0010
,
0100
0100
0100
0000
0101
0000
1010
0000
,
0011
0000
1100
0000
0001
1000
0010
0200
,
0002
0000
0000
0000
0000
0000
0000
0000
0300
0000
0000
0000
0000
0000
0000
0000
0003
0000
0000
0000
0000
0000
0000
0000
0000
0000
0000
0000
0000
0000
0000
0000
1000
0000
0000
0000
0000
0000
0000
0000
2000
3000
0000
0000
0000
0000
0000
0000
0100
0000
0000
0000
0000
0000
0000
0000
0010
0000
0000
0000
0000
0000
0000
0000
,
0001
1000
0010
0100
0010
1000
0100
0010
,
0001
0000
0000
0000
0000
0000
0000
0000
1000
0000
0000
0000
0000
0000
0000
0000
0000
0000
0000
0000
0000
0000
0000
0000
0100
0000
0000
0000
0000
0000
0000
0000
0200
0300
0000
0000
0000
0000
0000
0000
1000
0000
0000
0000
0000
0000
0000
0000
0001
0000
0000
0000
0000
0000
0000
0000
0100
0000
0000
0000
0000
0000
0000
0000
,
0010
1000
0001
0100
0010
0100
0010
1000
,
0100
0000
0000
0000
0000
0000
0000
0000
0000
0000
0000
0000
0000
0000
0000
0000
0010
0000
0000
0000
0000
0000
0000
0000
0020
0030
0000
0000
0000
0000
0000
0000
0100
0000
0000
0000
0000
0000
0000
0000
1000
0000
0000
0000
0000
0000
0000
0000
0001
0000
0000
0000
0000
0000
0000
0000
0100
0000
0000
0000
0000
0000
0000
0000
,
0010
1000
0010
0100
0010
1000
0001
0010
,
0000
0000
0000
0000
0000
0000
0000
0000
0001
0000
0000
0000
0000
0000
0000
0000
0002
0003
0000
0000
0000
0000
0000
0000
0010
0000
0000
0000
0000
0000
0000
0000
0100
0000
0000
0000
0000
0000
0000
0000
1000
0000
0000
0000
0000
0000
0000
0000
0001
0000
0000
0000
0000
0000
0000
0000
0100
0000
0000
0000
0000
0000
0000
0000
,
0010
1000
0100
0010
0001
1000
0001
0000
,
1000
0100
0000
0100
0001
0100
1000
0001
,
1000
0100
0010
0001
0100
0010
1000
0000
,
0001
0100
0000
0100
1000
0100
0001
1000
,
0100
0010
0001
1000
0010
0100
0010
0000
,
1000
0010
0000
0010
0001
0010
0100
0010
,
1000
0001
0010
0100
1000
0001
0100
0000
,
0010
0010
1000
0001
0010
0010
0100
1000
,
0001
0100
0010
1000
0001
0000
1001
0000
,
1000
0100
0100
0010
0001
1000
0010
0100
,
0001
0010
0100
1000
0010
0100
0001
1000
,
0100
0010
0100
0001
0100
1000
0001
0100
,
1000
0100
0001
1000
0100
0010
0001
0000
,
0100
0010
1000
0001
1000
0100
0010
0100
,
0001
0100
0010
0001
1000
0001
0100
0000
,
0010
1000
0100
1000
0001
0100
0010
1000
,
0001
0010
0100
1000
0001
1000
0100
1000
,
1100
0000
0000
0101
0000
0000
1010
0000
,
0000
1000
0100
0010
0001
1000
0001
0010
,
0011
0000
0000
1010
0000
0000
0101
0000
,
0000
0001
1000
0100
0010
0100
1000
0001
,
0101
0000
0000
1010
0000
0000
0011
0000
,
0000
1000
0010
0100
1000
0100
0001
1000
,
1001
0000
0000
0110
0000
0000
1001
0000
,
0000
1000
0010
0001
0010
1000
0001
0001
,
1000
0100
1000
0100
0010
0100
1000
0000
,
0000
0001
1000
0001
0100
0010
1000
1000
,
0001
0010
0000
0010
0100
0010
0001
0000
,
0000
1000
0010
0100
0001
1000
0100
0100
,
0010
0100
1000
0010
0000
0100
0001
0000
,
0000
1000
0100
0010
0001
1000
0010
0100
,
0001
1000
0001
1000
0001
0010
0100
1000
,
0002
0000
0000
0000
0003
0000
0000
0000
2000
0000
0000
0000
3000
0000
0000
0000
2002
0000
0000
0000
0000
0000
0000
0000
3003
0000
0000
0000
0000
0000
0000
0000
0001
0000
0000
0000
0000
0000
0000
0000
0002
0003
0000
0000
0000
0000
0000
0000
0100
0000
0000
0000
0000
0000
0000
0000
1000
0000
0000
0000
0000
0000
0000
0000
,
0100
0001
1000
0100
0010
0001
0100
0010
,
1000
0000
0000
0000
0000
0000
0000
0000
0001
0000
0000
0000
0000
0000
0000
0000
0000
0000
0000
0000
0000
0000
0000
0000
0010
0000
0000
0000
0000
0000
0000
0000
0020
0030
0000
0000
0000
0000
0000
0000
0100
0000
0000
0000
0000
0000
0000
0000
0010
0000
0000
0000
0000
0000
0000
0000
0001
0000
0000
0000
0000
0000
0000
0000
,
0100
0010
1000
0001
0010
0100
0010
0001
,
1000
0000
0000
0000
0000
0000
0000
0000
0000
0000
0000
0000
0000
0000
0000
0000
0100
0000
0000
0000
0000
0000
0000
0000
0200
0300
0000
0000
0000
0000
0000
0000
0010
0000
0000
0000
0000
0000
0000
0000
0100
0000
0000
0000
0000
0000
0000
0000
1000
0000
0000
0000
0000
0000
0000
0000
0010
0000
0000
0000
0000
0000
0000
0000
,
0100
1000
0100
0010
0100
0001
1000
0100
,
0000
0000
0000
0000
0000
0000
0000
0000
1000
0000
0000
0000
0000
0000
0000
0000
2000
3000
0000
0000
0000
0000
0000
0000
0001
0000
0000
0000
0000
0000
0000
0000
0100
0000
0000
0000
0000
0000
0000
0000
0010
0000
0000
0000
0000
0000
0000
0000
1000
0000
0000
0000
0000
0000
0000
0000
0001
0000
0000
0000
0000
0000
0000
0000
,
0010
0100
0010
0100
1000
0001
2000
0000
,
3001
0010
0001
0010
0100
1000
0100
1000
,
0001
0100
0010
1000
0010
0100
0001
0000
,
1000
0100
1000
0100
0010
0001
0010
0001
,
0100
0010
1000
0001
0010
0100
1000
0000
,
0001
0100
0010
0100
0001
0100
0010
0100
,
0001
1000
0100
0010
0001
0010
0100
1000
,
0001
0100
1000
0100
0001
1000
0100
0001
,
0200
0000
2300
3002
,
1003
0001
0010
0100
0000
1000
0010
0100
0000
0001
0010
0100
0000
1000
0010
0100
,
0001
1000
0100
0010
0000
0001
0100
0010
0000
1000
0100
0010
0000
0001
0100
0020
,
0030
0000
0000
0000
;

//--------------- dance-single - Fred-104 ----------------
#NOTEDATA:;
#STEPSTYPE:dance-single;
#DESCRIPTION:Fred-104;
#DIFFICULTY:Hard;
#METER:17;
#CREDIT:Fred-104;
#NOTES:
0000
0000
0000
0000
,
0000
0000
0000
0000
,
0000
0000
0000
0000
,
0000
0000
0000
0000
,
0000
0000
0000
0000
,
0000
0000
0000
0000
,
0000
0000
0000
0000
,
0000
0000
0000
0000
,
0000
0000
0000
0000
,
0000
0000
0000
0000
,
0000
0000
0000
0000
,
1000
0000
0100
1000
0000
0001
0100
0000
,
0010
1000
0001
1000
0100
0010
0001
1000
,
0010
0000
0100
0001
0000
1000
0001
0000
,
0010
0100
0010
0001
0100
0010
1000
0001
,
0010
0100
1000
0010
0000
0100
0001
0000
,
1000
0100
0001
0100
0010
0001
1000
0001
,
0100
0010
1000
0001
0010
0100
1000
0000
,
2200
3300
0000
0000
0000
0000
0000
0000
0202
0303
0000
0000
0000
0000
0000
0000
0022
0033
0000
0000
0000
0000
0000
0000
2020
0000
0000
0000
3030
0000
0000
0000
1002
0000
0000
0000
0000
0000
0000
0000
0003
0000
0000
0000
0000
0000
0000
0000
0002
0000
0000
0000
0000
0000
0000
0000
0003
0000
0000
0000
0000
0000
0000
0000
,
1000
0001
0100
0100
0020
0030
0020
1030
,
0001
0000
0100
0010
1000
0000
0100
0010
0002
0000
0000
0000
1003
0000
0001
0000
,
0100
0010
0100
0010
0100
0010
0100
0010
0200
0000
0320
0000
0230
0000
0320
0000
,
0230
0000
0302
0000
1003
0100
0000
0100
0020
0000
0030
0000
0020
0000
0030
0000
,
0001
0000
0000
1000
0000
0000
0001
0000
0000
1000
0000
0000
0001
0000
0000
1000
0000
0000
0001
0000
0000
1000
0000
0000
0010
0000
0000
0000
0100
0000
0000
0000
0001
0000
0000
0000
0010
0000
0000
0000
0100
0000
0000
0000
1000
0000
0000
0000
,
0020
0030
0020
0030
0200
0000
0302
0000
,
1003
0000
0000
0000
0100
0000
0000
0000
0010
0000
0000
0000
0001
0000
0000
0000
0000
0000
0100
0000
0000
0010
0000
0000
0002
0000
0000
0000
0000
0000
0003
0000
0000
0000
0000
0000
0020
0000
0000
0000
0000
0000
0030
0000
0000
0000
0000
0000
,
2000
3000
2002
3003
0001
0100
1000
0001
,
0010
0100
0002
0000
2003
0000
3100
0010
,
0001
1000
0001
1000
0010
1000
0010
1000
0001
0000
0010
0000
1000
0000
0001
0000
,
0100
0010
0200
0000
0320
0000
0032
0000
,
1003
0001
0100
0010
1000
0001
0100
1000
,
0001
0000
0010
0000
0200
0000
0000
0000
0301
1000
0001
1000
0001
1000
0001
1000
,
0002
0000
2003
0000
3100
0010
1000
0001
,
0100
0010
0002
0000
1003
0010
0001
1000
,
0100
0001
2000
0000
3001
0010
0010
0001
,
0010
0010
0011
0000
1000
0010
0010
1000
,
0010
0010
1010
0000
1001
0001
0011
0010
,
0110
0000
0100
0000
1000
0001
1000
0000
0001
0100
0010
1000
0001
0010
0100
1000
,
0002
0000
0000
0000
2000
0000
0000
0000
0003
0000
0000
0000
0000
0000
0000
0000
3000
0000
0000
0000
0000
0000
0000
0000
0000
0000
0000
0000
0000
0000
0000
0000
1100
0000
0000
0000
0000
0000
0000
0000
2200
3300
0000
0000
0000
0000
0000
0000
0001
0000
0000
0000
0000
0000
0000
0000
1000
0000
0000
0000
0000
0000
0000
0000
,
0010
0000
0100
0000
0001
1000
0001
0000
1000
0000
0100
0000
0010
0000
0100
0000
,
1000
0000
0000
0000
0000
0000
0000
0000
0001
0000
0000
0000
0000
0000
0000
0000
0100
0000
0000
0000
0000
0000
0000
0000
0110
0000
0000
0000
0000
0000
0000
0000
0220
0330
0000
0000
0000
0000
0000
0000
0001
0000
0000
0000
0000
0000
0000
0000
1000
0000
0000
0000
0000
0000
0000
0000
0100
0000
0000
0000
0000
0000
0000
0000
,
0010
0000
0100
1000
0100
0000
1000
0000
0001
0000
0100
0000
0010
0000
1000
0000
,
0001
0000
0000
0000
0000
0000
0000
0000
0010
0000
0000
0000
0000
0000
0000
0000
0011
0000
0000
0000
0000
0000
0000
0000
0022
0033
0000
0000
0000
0000
0000
0000
1000
0000
0000
0000
0000
0000
0000
0000
0001
0000
0000
0000
0000
0000
0000
0000
0100
0000
0000
0000
0000
0000
0000
0000
0010
0000
0000
0000
0000
0000
0000
0000
,
1000
0001
1000
0000
0001
1000
0100
0000
0010
0000
1000
0000
0010
0000
0001
0000
,
0000
0000
0000
0000
0000
0000
0000
0000
1001
0000
0000
0000
0000
0000
0000
0000
2002
3003
0000
0000
0000
0000
0000
0000
0001
0000
0000
0000
0000
0000
0000
0000
1000
0000
0000
0000
0000
0000
0000
0000
0010
0000
0000
0000
0000
0000
0000
0000
0100
0000
0000
0000
0000
0000
0000
0000
0001
0000
0000
0000
1000
0000
0000
0000
,
0001
0000
0010
0000
0001
0000
0010
0000
0100
1000
0100
1000
0001
0000
0100
0000
,
0010
0000
1000
0000
0010
0000
0100
0001
0100
0000
0001
0000
1000
0000
0100
1000
,
0100
0000
0010
0000
0001
0000
0100
0010
0001
0010
0001
0010
0100
0000
0001
1000
,
0001
0000
1000
0000
0001
0000
0010
0100
0010
0000
0001
0000
1000
0000
0010
0100
,
0010
0000
1000
0000
0001
1000
0001
0000
1000
0000
0100
0001
0100
0000
0010
0000
,
0001
0000
1000
0000
0001
0000
0100
0010
0100
0000
0001
0000
1000
0000
0001
0010
,
0001
0000
0010
0000
0100
0000
1000
0000
0001
1000
0001
0000
0100
0010
1000
0000
,
0010
0000
0100
0000
0001
1000
0001
1000
0001
0000
0010
0000
0100
1000
0100
1000
,
0001
0000
1000
0001
0100
0000
0010
1000
0001
0010
0100
0010
0002
0000
0000
0000
,
1003
0000
0001
0010
0001
0010
0100
0000
1000
0000
0001
0000
1000
0001
0100
0000
,
0020
0000
1000
0031
0020
0000
0001
1030
0010
0000
1000
0001
0010
0001
1000
0001
,
0100
0000
0001
1000
0100
0010
0001
0000
1000
0000
0010
0000
0100
0000
0001
0100
,
0001
0000
1000
0100
1000
0000
0001
0000
0100
0010
0100
0000
0001
0000
1000
0100
,
0010
0000
0001
1000
0001
0000
0010
0100
1000
0001
0100
0000
0010
0000
1000
0001
,
0200
0000
0001
1300
0200
0000
1000
0301
0100
0000
0010
1000
0001
0010
0100
0010
,
0001
0000
0010
0000
0001
0000
0010
0000
0100
0000
1000
0000
0001
0000
1000
0100
,
1000
0000
0001
0100
0001
0000
1000
0001
1000
0000
0001
0010
0100
1000
0001
0000
,
0011
0000
0000
1010
0000
0000
0101
0000
,
0000
0000
1000
0000
0010
0000
0100
0000
0010
0000
0001
0010
0100
0000
0001
0000
,
1001
0000
0000
1100
0000
0000
0101
0000
,
0000
0000
1000
0000
0001
0000
0010
0000
1000
0000
0010
0100
0010
0000
0001
0000
,
1001
0000
0000
0011
0000
0000
1010
0000
,
0000
0000
0001
0000
1000
0000
0100
0000
0001
0100
0010
0000
0100
0000
1000
0000
,
1001
0000
0000
0110
0000
0000
1001
0000
,
0001
0000
0000
0010
0000
0000
0100
0000
0000
1000
0000
0000
0001
0000
0000
1000
0010
1000
0010
0000
0000
0100
0000
0000
,
0001
1000
0100
0001
1000
0010
0001
0000
,
0010
0000
0100
0000
1000
0000
0001
0000
0100
0010
0100
0010
0100
0000
0001
0000
,
1000
0100
0000
0001
1000
0010
0100
1000
,
0001
0000
1000
0000
0010
0000
0100
0000
1000
0000
0100
0001
0100
0000
0010
0000
,
1000
0001
0010
1000
0001
0100
0010
0000
,
0001
0000
0000
1000
0000
0000
0010
0000
0000
0100
0000
0000
0001
0000
0000
1000
0100
1000
0100
0000
0000
0010
0000
0000
,
0001
0000
1000
0000
0001
0000
1000
0000
0100
0010
0100
0010
0001
1000
0010
0100
,
0020
0000
0000
0000
0000
0000
0000
0000
2030
0000
0000
0000
0000
0000
0000
0000
3200
0000
0300
0000
0020
0000
0030
0000
2002
3003
0000
0000
0000
0000
0000
0000
1010
0000
0000
0000
0000
0000
0000
0000
2020
3030
0000
0000
0000
0000
0000
0000
0001
0000
0000
0000
0000
0000
0000
0000
1000
0000
0000
0000
0000
0000
0000
0000
,
0100
0000
0010
0000
0001
0010
0001
0000
1000
0000
0010
0000
0100
0000
0001
1000
,
0001
0000
0000
0000
1000
0000
0000
0000
0100
0000
0000
0000
0010
0000
0000
0000
0001
0000
0000
0000
0000
0000
0000
0000
1001
0000
0000
0000
0000
0000
0000
0000
2002
3003
0000
0000
0000
0000
0000
0000
0001
0000
0000
0000
0000
0000
0000
0000
1000
0000
0000
0000
0000
0000
0000
0000
0010
0000
0000
0000
0000
0000
0000
0000
,
1000
0000
0001
0000
0010
0100
0010
0100
0010
0000
0001
1000
0010
1000
0001
0010
,
0001
0000
0000
0000
1000
0000
0000
0000
0001
0000
0000
0000
0000
0000
0000
0000
0101
0000
0000
0000
0000
0000
0000
0000
0202
0303
0000
0000
0000
0000
0000
0000
0001
0000
0000
0000
0000
0000
0000
0000
1000
0000
0000
0000
0000
0000
0000
0000
0100
0000
0000
0000
0000
0000
0000
0000
1000
0000
0000
0000
0000
0000
0000
0000
,
0001
0100
0001
0000
1000
0000
0100
0000
0010
0000
0001
1000
0001
0000
0100
0000
,
0010
0000
0000
0000
0000
0000
0000
0000
0110
0000
0000
0000
0000
0000
0000
0000
0220
0330
0000
0000
0000
0000
0000
0000
1000
0000
0000
0000
0000
0000
0000
0000
0001
0000
0000
0000
0100
0000
0000
0000
0001
0000
0000
0000
0100
0000
0000
0000
0010
0000
0000
0000
0000
0000
0000
0000
1000
0000
0000
0000
0001
0000
0000
0000
,
0010
0000
0100
0000
0010
0000
0100
1000
0001
0000
1000
0001
0100
0010
1000
0001
,
0010
0000
0010
0000
0100
0000
1000
0001
1000
0100
1000
0001
0100
0000
0010
1000
,
0001
0000
1000
0001
1000
0000
0010
0100
0001
1000
0100
0000
0010
0001
1000
0000
,
0001
0000
0001
0000
1000
0000
0001
0100
0010
1000
0001
1000
0100
0000
0010
0001
,
0010
0000
0001
1000
0001
0000
1000
0010
0100
0010
1000
0001
0010
0000
0100
0000
,
1000
0000
1000
0000
0100
0000
0010
0001
0010
0100
1000
0000
0001
0100
0001
0000
,
0100
0000
0100
0000
0010
0000
1000
0001
1000
0010
0100
0000
0001
1000
0100
0000
,
0010
0001
0010
0001
1000
0010
1000
0010
0100
0001
1000
0001
0010
0100
1000
0001
,
2000
0000
3002
2003
,
3001
0010
0100
1000
0000
0010
0100
0001
0000
0010
0100
1000
0000
0010
0100
0001
,
1000
0100
0010
0001
0000
0100
0010
1000
0000
0100
0010
0001
0000
0100
0010
2000
,
3000
0000
0000
0000
;

//--------------- dance-double - Fred-104 ----------------
#NOTEDATA:;
#STEPSTYPE:dance-double;
#DESCRIPTION:Fred-104;
#DIFFICULTY:Easy;
#METER:10;
#CREDIT:Fred-104;
#NOTES:
00000000
00000000
00000000
00000000
,
00000000
00000000
00000000
00000000
,
00000000
00000000
00000000
00000000
,
00000000
00000000
00000000
00000000
,
00000000
00000000
00000000
00000000
,
00000000
00000000
00000000
00000000
,
00000000
00000000
00000000
00000000
,
00000000
00000000
00000000
00000000
,
00000000
00000000
00000000
00000000
,
00000000
00000000
00000000
00000000
,
00000000
00000000
00000000
00000000
,
00010000
00000000
00000000
00001000
00000000
00000000
00010000
00000000
,
00001000
00010000
00100000
10000000
,
01000000
00000000
00000000
01000000
00000000
00000000
01000000
00000000
,
00100000
00001000
00010000
00001000
,
00000100
00000000
00000000
00000100
00000000
00000000
00000100
00000000
,
00000001
00001000
00000100
00000010
,
00001000
00000000
00000000
00010000
00000000
00000000
00001000
00000000
,
00022000
00000000
00000000
00033000
00002000
00003000
00002000
00003000
,
00010000
01000000
00100000
00000000
00020000
00000000
00130000
01000000
,
10000000
00100000
00020000
00032000
,
00013000
00001000
00010000
00001000
01000000
00100000
01000000
00100000
,
01000000
00000000
10010000
00000000
20000000
30000000
20000000
30000000
,
01000000
00100000
00001000
00000000
00010000
00000010
00001000
00000000
,
00000200
00000300
00000200
00000300
00000110
00000000
00000001
00000100
,
00001000
00010000
00001000
00001000
,
00010000
00000000
00011000
00000000
00001000
00000000
00000000
01000000
,
00000000
00010000
10000000
01000000
,
00100000
00010000
00100000
00000000
00001000
00000000
00000000
00010000
,
00000000
00000000
00000100
00000000
00002000
00003000
00002000
00003000
,
00000100
00000010
00000100
00000010
00000001
00000000
00000000
00000100
,
00000000
00001000
00010000
00001000
,
00020000
00030000
00020000
00030000
00001000
00000000
00000000
01000000
,
00000000
00010000
10000000
01000000
,
00100000
00100000
01100000
00000000
,
00011000
00000000
00000110
00000000
,
00011000
00000000
00010000
00001000
,
00000100
00000000
00000001
00000000
00001000
00000100
00000010
00000002
,
00002000
00000000
00000000
00000000
00000000
00000000
00000000
00000000
00000003
00000000
00000000
00000000
00000000
00000000
00000000
00000000
00003000
00000000
00000000
00000000
00000000
00000000
00000000
00000000
00000000
00000000
00000000
00000000
00000000
00000000
00000000
00000000
00000001
00000000
00000000
00000000
00000000
00000000
00000000
00000000
00000002
00000003
00000000
00000000
00000000
00000000
00000000
00000000
00000000
00000000
00000000
00000000
00000000
00000000
00000000
00000000
00000100
00000000
00000000
00000000
00000000
00000000
00000000
00000000
,
00000000
00001000
00000000
00010000
00000000
00001000
00000000
00010000
,
00000000
00000000
00000000
00000000
00000000
00000000
00000000
00000000
01000000
00000000
00000000
00000000
00000000
00000000
00000000
00000000
00000000
00000000
00000000
00000000
00000000
00000000
00000000
00000000
00100000
00000000
00000000
00000000
00000000
00000000
00000000
00000000
00200000
00300000
00000000
00000000
00000000
00000000
00000000
00000000
00000000
00000000
00000000
00000000
00000000
00000000
00000000
00000000
00010000
00000000
00000000
00000000
00000000
00000000
00000000
00000000
00000000
00000000
00000000
00000000
00000000
00000000
00000000
00000000
,
00100000
01000000
10000000
00100000
,
00010000
00000000
00000000
00000000
00000000
00000000
00000000
00000000
00000000
00000000
00000000
00000000
00000000
00000000
00000000
00000000
00001000
00000000
00000000
00000000
00000000
00000000
00000000
00000000
00002000
00003000
00000000
00000000
00000000
00000000
00000000
00000000
00000000
00000000
00000000
00000000
00000000
00000000
00000000
00000000
00010000
00000000
00000000
00000000
00000000
00000000
00000000
00000000
00000000
00000000
00000000
00000000
00000000
00000000
00000000
00000000
00001000
00000000
00000000
00000000
00000000
00000000
00000000
00000000
,
00000000
00000100
00000000
00000010
00000000
00001000
00000000
00000001
,
00000000
00000000
00000000
00000000
00000000
00000000
00000000
00000000
00000010
00000000
00000000
00000000
00000000
00000000
00000000
00000000
00000020
00000030
00000000
00000000
00000000
00000000
00000000
00000000
00000000
00000000
00000000
00000000
00000000
00000000
00000000
00000000
00000100
00000000
00000000
00000000
00000000
00000000
00000000
00000000
00000000
00000000
00000000
00000000
00000000
00000000
00000000
00000000
00010000
00000000
00000000
00000000
00000000
00000000
00000000
00000000
00000000
00000000
00000000
00000000
00000000
00000000
00000000
00000000
,
00001000
00000000
00010000
00000000
00001000
01000000
00001000
00000000
,
00010000
00010000
00000000
01000000
00100000
00000000
01000000
00000000
,
00010000
10000000
01000000
00100000
,
00001000
00001000
00000000
00010000
00000010
00000000
00010000
00000000
,
00001000
00010000
00000100
00001000
,
00000100
00000100
00000000
00000010
00000100
00000000
00001000
00000000
,
00000010
00000100
00001000
00010000
,
00001000
00001000
00000000
00010000
00000100
00000000
00001000
00000000
,
00000001
00000100
00001000
00010000
,
00002000
00000000
00013000
00100000
,
01000000
00000000
00010000
00000000
10000000
01000000
00100000
00000000
,
00001000
00010000
00001000
00010000
,
00000010
00000000
00001000
00000000
00000010
00001000
00000100
00000000
,
00000010
00000001
00001000
00000010
,
00000100
00000000
00001000
00000000
00010000
00001000
00010000
00000000
,
01000000
01000000
10000000
10000000
,
00100000
00010000
00001000
00000000
00010000
00001000
00010000
00000000
,
00011000
00000000
00000000
00000010
00000000
00000000
00020020
00000000
,
00000000
00000000
00000000
00030030
,
00011000
00000000
00000000
00100000
00000000
00000000
00202000
00000000
,
00000000
00000000
00000000
00303000
,
00011000
00000000
00000000
00010000
00000000
00000000
00020200
00000000
,
00000000
00000000
00000000
00030300
,
00011000
00000000
00000000
00001000
00000000
00000000
02002000
00000000
,
00000000
00000000
00000000
03003000
,
00001000
00000000
00010000
00001000
00000000
01000000
00010000
00000000
,
10000000
01000000
00100000
00001000
,
00010000
00000010
00000000
00010000
00001000
00000000
00010000
00000000
,
00000100
00001000
00000100
00000010
,
00000001
00000000
00000100
00001000
00000000
00010000
00001000
00000000
,
00010000
00100000
01000000
00100000
,
01000000
00010000
10000000
00000000
01000000
00000000
00100000
00000000
,
20020000
00000000
00000000
00000000
00000000
00000000
00000000
00000000
00000000
00000000
00000000
00000000
00000000
00000000
00000000
00000000
00000000
00000000
00000000
00000000
00000000
00000000
00000000
00000000
30030000
00000000
00000000
00000000
00000000
00000000
00000000
00000000
10000000
00000000
00000000
00000000
00000000
00000000
00000000
00000000
20000000
30000000
00000000
00000000
00000000
00000000
00000000
00000000
00000000
00000000
00000000
00000000
00000000
00000000
00000000
00000000
01000000
00000000
00000000
00000000
00000000
00000000
00000000
00000000
,
00000000
00100000
00000000
00001000
00000000
00010000
00000000
00000010
,
00000000
00000000
00000000
00000000
00000000
00000000
00000000
00000000
00010000
00000000
00000000
00000000
00000000
00000000
00000000
00000000
00000000
00000000
00000000
00000000
00000000
00000000
00000000
00000000
00001000
00000000
00000000
00000000
00000000
00000000
00000000
00000000
00002000
00003000
00000000
00000000
00000000
00000000
00000000
00000000
00000000
00000000
00000000
00000000
00000000
00000000
00000000
00000000
00010000
00000000
00000000
00000000
00000000
00000000
00000000
00000000
00000000
00000000
00000000
00000000
00000000
00000000
00000000
00000000
,
00001000
00000100
00000001
00001000
,
00000100
00000000
00000000
00000000
00000000
00000000
00000000
00000000
00000000
00000000
00000000
00000000
00000000
00000000
00000000
00000000
00000010
00000000
00000000
00000000
00000000
00000000
00000000
00000000
00000020
00000030
00000000
00000000
00000000
00000000
00000000
00000000
00000000
00000000
00000000
00000000
00000000
00000000
00000000
00000000
00000001
00000000
00000000
00000000
00000000
00000000
00000000
00000000
00000000
00000000
00000000
00000000
00000000
00000000
00000000
00000000
00001000
00000000
00000000
00000000
00000000
00000000
00000000
00000000
,
00000000
00000010
00000000
00010000
00000000
00001000
00000000
00100000
,
00000000
00000000
00000000
00000000
00000000
00000000
00000000
00000000
00001000
00000000
00000000
00000000
00000000
00000000
00000000
00000000
00002000
00003000
00000000
00000000
00000000
00000000
00000000
00000000
00000000
00000000
00000000
00000000
00000000
00000000
00000000
00000000
00100000
00000000
00000000
00000000
00000000
00000000
00000000
00000000
00000000
00000000
00000000
00000000
00000000
00000000
00000000
00000000
00010000
00000000
00000000
00000000
00000000
00000000
00000000
00000000
00000000
00000000
00000000
00000000
00000000
00000000
00000000
00000000
,
10000000
00000000
01000000
00100000
02000000
00000000
03000000
00000000
,
10000000
10000000
00000000
01000000
00100000
00000000
00001000
00000000
,
00010000
00000000
00001000
00000000
00000100
00000001
00000100
00000000
,
00000010
00000010
00000000
00001000
00000100
00000000
00000010
00000000
,
00000001
00000000
00000100
00000000
00001000
00010000
00001000
00000000
,
00010000
00010000
00000000
00100000
01000000
00000000
00010000
00000000
,
10000000
10000000
00000000
01000000
00100000
00000000
00001000
00000000
,
00010000
00001000
00010000
00000000
00000100
00010000
00000100
00000000
,
00020000
00000000
00032000
00023000
,
00032000
00000000
00000000
00000000
,
00020000
00000000
00000000
00000000
,
00033000
00000000
00000000
00000000
;

//--------------- dance-double - Fred-104 ----------------
#NOTEDATA:;
#STEPSTYPE:dance-double;
#DESCRIPTION:Fred-104;
#DIFFICULTY:Medium;
#METER:14;
#CREDIT:Fred-104;
#NOTES:
00000000
00000000
00000000
00000000
,
00000000
00000000
00000000
00000000
,
00000000
00000000
00000000
00000000
,
00000000
00000000
00000000
00000000
,
00000000
00000000
00000000
00000000
,
00000000
00000000
00000000
00000000
,
00000000
00000000
00000000
00000000
,
00000000
00000000
00000000
00000000
,
00000000
00000000
00000000
00000000
,
00000000
00000000
00000000
00000000
,
00000000
00000000
00000000
00000000
,
00001000
00000000
00010000
00100000
00000000
01000000
00010000
00000000
,
00100000
00000000
01000000
00000000
10000000
00100000
00010000
00000000
,
00001000
00000000
00010000
00000100
00000000
00010000
00001000
00000000
,
00010000
00000100
00001000
00000000
00000100
00000010
00000001
00000000
,
00001000
00000000
00000010
00000100
00000000
00001000
00010000
00000000
,
00001000
00000000
01000000
00000000
00010000
10000000
01000000
00000000
,
00100000
00000000
00001000
00010000
00000000
00000100
00000010
00000000
,
00000002
00000003
00000000
00000000
00000000
00000000
00000000
00000000
00000200
00000300
00000000
00000000
00000000
00000000
00000000
00000000
00000020
00000030
00000000
00000000
00000000
00000000
00000000
00000000
00002020
00000000
00000000
00000000
00003030
00000000
00000000
00000000
00000002
00000000
00000000
00000000
00000000
00000000
00000000
00000000
00000003
00000000
00000000
00000000
00000000
00000000
00000000
00000000
00000002
00000000
00000000
00000000
00000000
00000000
00000000
00000000
00000003
00000000
00000000
00000000
00000000
00000000
00000000
00000000
,
00000100
00001000
00010000
00100000
02000000
00000000
03010000
10000000
,
01000000
00100000
01000000
10000000
00020000
00000000
01030000
00100000
,
00010000
00001000
00000100
00000001
00000100
00000010
00000100
00000010
,
00000100
00000000
00000001
00000000
00001000
00000100
00000000
00000100
00000020
00000000
00000030
00000000
00000020
00000000
00000030
00000000
,
00000001
00000000
00000000
00000100
00000000
00000000
00000001
00000000
00000000
00000100
00000000
00000000
00001000
00000000
00000000
00000000
00010000
00000000
01000000
00000000
10000000
00000000
00010000
00000000
,
01000000
00000000
01100000
00000000
10020000
00000000
10030000
01000000
,
00100000
00000000
00100000
00000000
00001000
00000000
00010000
00000000
00002000
00003000
00000000
00000000
00020000
00030000
00000000
00000000
,
00000020
00000030
00000000
00000000
00001001
00000000
00000000
00000000
00000001
00000000
00000100
00000000
00000001
00000000
00001000
00000000
,
00000100
00001000
00000001
00000000
00000020
00000000
00000230
00000000
,
00010300
00001000
00010000
00000000
00001000
00100000
00010000
00100000
,
00001000
00010000
00002000
00000000
00013000
00000000
00100000
00000000
,
01000000
00010000
10000000
01000000
00100000
00001000
00010000
00001000
,
01000000
00010000
02000000
00000000
03001000
00001000
00010000
00010000
,
00001000
00000100
00000001
00000000
00001000
00000100
00000010
00000001
,
00001000
00000010
00000100
00000000
00000001
00000010
00000100
00000010
,
00001000
00010000
00001000
00000000
00010000
00001000
00000000
00001000
,
00000010
00000001
00001000
00000000
00000001
00000100
00000000
00000100
,
00001000
00010000
00001000
00000000
00011000
00000000
00110000
00000000
,
10100000
00000000
10010000
00000000
00010000
01000000
10000000
02000000
,
00020000
00000000
00000000
00000000
00000000
00000000
00000000
00000000
03000000
00000000
00000000
00000000
00000000
00000000
00000000
00000000
00030000
00000000
00000000
00000000
00000000
00000000
00000000
00000000
00000000
00000000
00000000
00000000
00000000
00000000
00000000
00000000
10000000
00000000
00000000
00000000
00000000
00000000
00000000
00000000
20000000
30000000
00000000
00000000
00000000
00000000
00000000
00000000
01000000
00000000
00000000
00000000
00000000
00000000
00000000
00000000
00010000
00000000
00000000
00000000
00000000
00000000
00000000
00000000
,
00001000
00000100
00000001
00001000
00000100
00000010
00001000
00010000
,
01000000
00000000
00000000
00000000
00000000
00000000
00000000
00000000
00100000
00000000
00000000
00000000
00000000
00000000
00000000
00000000
00010000
00000000
00000000
00000000
00000000
00000000
00000000
00000000
00100000
00000000
00000000
00000000
00000000
00000000
00000000
00000000
00200000
00300000
00000000
00000000
00000000
00000000
00000000
00000000
00001000
00000000
00000000
00000000
00000000
00000000
00000000
00000000
00010000
00000000
00000000
00000000
00000000
00000000
00000000
00000000
00001000
00000000
00000000
00000000
00000000
00000000
00000000
00000000
,
00000100
00000010
00001000
00000100
00000010
00001000
00010000
00100000
,
01000000
00000000
00000000
00000000
00000000
00000000
00000000
00000000
00100000
00000000
00000000
00000000
00000000
00000000
00000000
00000000
10000000
00000000
00000000
00000000
00000000
00000000
00000000
00000000
20000000
30000000
00000000
00000000
00000000
00000000
00000000
00000000
01000000
00000000
00000000
00000000
00000000
00000000
00000000
00000000
00010000
00000000
00000000
00000000
00000000
00000000
00000000
00000000
00001000
00000000
00000000
00000000
00000000
00000000
00000000
00000000
00000010
00000000
00000000
00000000
00000000
00000000
00000000
00000000
,
00001000
00010000
00100000
00010000
00001000
00000100
00000001
00000010
,
00000100
00000000
00000000
00000000
00000000
00000000
00000000
00000000
00001000
00000000
00000000
00000000
00000000
00000000
00000000
00000000
00002000
00003000
00000000
00000000
00000000
00000000
00000000
00000000
00000010
00000000
00000000
00000000
00000000
00000000
00000000
00000000
00000100
00000000
00000000
00000000
00000000
00000000
00000000
00000000
00001000
00000000
00000000
00000000
00000000
00000000
00000000
00000000
00010000
00000000
00000000
00000000
00000000
00000000
00000000
00000000
00100000
00000000
00000000
00000000
00000000
00000000
00000000
00000000
,
01000000
00010000
00100000
01000000
10000000
00010000
01000000
00000000
,
00001000
00010000
00000000
00010000
01000000
00010000
00001000
00010000
,
00001000
00000100
00000001
00001000
00000100
00000010
00000001
00000000
,
00001000
00000010
00000000
00000010
00000001
00000010
00001000
00000001
,
00000010
00001000
00010000
00100000
01000000
00100000
10000000
00000000
,
00010000
00100000
00000000
00100000
10000000
00100000
01000000
10000000
,
00010000
00000000
00100000
01000000
00010000
00001000
00000010
00000100
,
00001000
00001000
00000001
00000100
00000010
00000010
00010000
00001000
,
00010000
00100000
10000000
00100000
01000000
00000000
10010000
00000000
,
00010000
00100000
01000000
10000000
00100000
00010000
00100000
01000000
,
00100000
10000000
00010000
00100000
01000000
00010000
00001000
00000010
,
00000100
00001000
00000001
00000100
00001000
00010000
00100000
01000000
,
00100000
10000000
01000000
00100000
00001000
00010000
00001000
00000000
,
00010000
00001000
00000100
00000010
00001000
00000100
00000001
00001000
,
00000010
00000100
00001000
00000001
00000100
00001000
00010000
00000000
,
00001000
00010000
00001000
01000000
00010000
00100000
00010000
10000000
,
01000000
00010000
00001000
00010000
00100000
00010000
00001000
00000000
,
00011000
00000000
00000000
01001000
00000000
00000000
00011000
00000000
,
00000000
00010000
00001000
00000100
00000001
00001000
00000100
00000000
,
00000110
00000000
00000000
00001001
00000000
00000000
00000101
00000000
,
00000000
00000001
00000010
00001000
00010000
01000000
10000000
00000000
,
10100000
00000000
00000000
00011000
00000000
00000000
00101000
00000000
,
00000000
00010000
00001000
00100000
00001000
00010000
00001000
00000000
,
01001000
00000000
00000000
00010100
00000000
00000000
00001001
00000000
,
00000000
00000001
00000100
00001000
00010000
00100000
10000000
00000000
,
00010000
00100000
01000000
00100000
00010000
10000000
00100000
00000000
,
00000000
01000000
00100000
00010000
00001000
00000100
00000010
00001000
,
00000100
00001000
00000000
00000100
00000010
00001000
00010000
00000000
,
00000000
00001000
00010000
00100000
01000000
10000000
01000000
00010000
,
10000000
01000000
00100000
00001000
00000000
00010000
00001000
00000000
,
00000000
00010000
00001000
00000100
00001000
00010000
00001000
00010000
,
00000100
00001000
00000100
00000010
00000001
00000100
00001000
00000000
,
00020000
00000000
00000000
00000000
00000000
00000000
00000000
00000000
00032000
00000000
00000000
00000000
00000000
00000000
00000000
00000000
00023000
00000000
00000000
00000000
00030000
00000000
00000000
00000000
00022000
00033000
00000000
00000000
00000000
00000000
00000000
00000000
00001000
00000000
00000000
00000000
00000000
00000000
00000000
00000000
00002000
00003000
00000000
00000000
00000000
00000000
00000000
00000000
00010000
00000000
00000000
00000000
00000000
00000000
00000000
00000000
00100000
00000000
00000000
00000000
00000000
00000000
00000000
00000000
,
10000000
00010000
00100000
01000000
00100000
10000000
00100000
00010000
,
01000000
00000000
00000000
00000000
00000000
00000000
00000000
00000000
00100000
00000000
00000000
00000000
00000000
00000000
00000000
00000000
00010000
00000000
00000000
00000000
00000000
00000000
00000000
00000000
00001000
00000000
00000000
00000000
00000000
00000000
00000000
00000000
00002000
00003000
00000000
00000000
00000000
00000000
00000000
00000000
00010000
00000000
00000000
00000000
00000000
00000000
00000000
00000000
00001000
00000000
00000000
00000000
00000000
00000000
00000000
00000000
00000100
00000000
00000000
00000000
00000000
00000000
00000000
00000000
,
00000010
00001000
00000010
00000100
00000001
00001000
00000100
00000010
,
00001000
00000000
00000000
00000000
00000000
00000000
00000000
00000000
00010000
00000000
00000000
00000000
00000000
00000000
00000000
00000000
00001000
00000000
00000000
00000000
00000000
00000000
00000000
00000000
00002000
00003000
00000000
00000000
00000000
00000000
00000000
00000000
00010000
00000000
00000000
00000000
00000000
00000000
00000000
00000000
00100000
00000000
00000000
00000000
00000000
00000000
00000000
00000000
01000000
00000000
00000000
00000000
00000000
00000000
00000000
00000000
00010000
00000000
00000000
00000000
00000000
00000000
00000000
00000000
,
10000000
01000000
00100000
10000000
00100000
00010000
01000000
00100000
,
00010000
00000000
00000000
00000000
00000000
00000000
00000000
00000000
00001000
00000000
00000000
00000000
00000000
00000000
00000000
00000000
00002000
00003000
00000000
00000000
00000000
00000000
00000000
00000000
00010000
00000000
00000000
00000000
00000000
00000000
00000000
00000000
00001000
00000000
00000000
00000000
00000000
00000000
00000000
00000000
00010000
00000000
00000000
00000000
00000000
00000000
00000000
00000000
00000100
00000000
00000000
00000000
00000000
00000000
00000000
00000000
00001000
00000000
00000000
00000000
00000000
00000000
00000000
00000000
,
00000010
00010000
00001000
01000000
00001000
00010000
00000200
00000000
,
00001300
00000001
00000100
00000010
00000100
00001000
00010000
00001000
,
01000000
00010000
00100000
00001000
00100000
00010000
10000000
00000000
,
00010000
00100000
01000000
00100000
00001000
00010000
00001000
01000000
,
00001000
00010000
00000100
00000010
00000001
00000100
00001000
00000000
,
00010000
00001000
00010000
00100000
01000000
00010000
00100000
01000000
,
10000000
00100000
00010000
00001000
00010000
01000000
00010000
00000000
,
00001000
00010000
00000100
00001000
00000001
00000100
00000010
00010000
,
00002000
00000000
00023000
00230000
,
10300000
01000000
10000000
01000000
00000000
00010000
00001000
00010000
00000000
00001000
00000010
00000001
00000000
00001000
00000001
00001000
,
00000001
00000100
00000001
00000100
00000000
00001000
00010000
00001000
00000000
00010000
00100000
10000000
00000000
00010000
10000000
00020000
,
00030000
00000000
00000000
00000000
;

//--------------- dance-double - Fred-104 ----------------
#NOTEDATA:;
#STEPSTYPE:dance-double;
#DESCRIPTION:Fred-104;
#DIFFICULTY:Hard;
#METER:17;
#CREDIT:Fred-104;
#NOTES:
00000000
00000000
00000000
00000000
,
00000000
00000000
00000000
00000000
,
00000000
00000000
00000000
00000000
,
00000000
00000000
00000000
00000000
,
00000000
00000000
00000000
00000000
,
00000000
00000000
00000000
00000000
,
00000000
00000000
00000000
00000000
,
00000000
00000000
00000000
00000000
,
00000000
00000000
00000000
00000000
,
00000000
00000000
00000000
00000000
,
00000000
00000000
00000000
00000000
,
00010000
00000000
00000000
00001000
00000000
00000000
00010000
00000000
,
00001000
00000100
00000010
00001000
00000100
00000010
00000001
00001000
,
00000010
00000000
00000000
00000100
00000000
00000000
00001000
00000000
,
00010000
00001000
01000000
00010000
00100000
00001000
00010000
00100000
,
10000000
00000000
00010000
00100000
00000000
01000000
10000000
00000000
,
00010000
00000000
01000000
00000000
00100000
00000000
00010000
00000000
00001000
00000000
00000100
00000000
00000010
00001000
00000010
00001000
,
00000001
00001000
00000100
00000010
00001000
00010000
00001000
00000000
,
00022000
00033000
00000000
00000000
00000000
00000000
00000000
00000000
02200000
03300000
00000000
00000000
00000000
00000000
00000000
00000000
20020000
30030000
00000000
00000000
00000000
00000000
00000000
00000000
20200000
00000000
00000000
00000000
30300000
00000000
00000000
00000000
10020000
00000000
00000000
00000000
00000000
00000000
00000000
00000000
00030000
00000000
00000000
00000000
00000000
00000000
00000000
00000000
00020000
00000000
00000000
00000000
00000000
00000000
00000000
00000000
00030000
00000000
00000000
00000000
00000000
00000000
00000000
00000000
,
10000000
01000000
00010000
00001000
00020000
00030000
00020000
00031000
,
00010000
00000000
00001000
00000100
00000010
00000000
00001000
00000001
00000020
00000000
00000000
00000000
00000130
00000000
00001000
00000000
,
00000001
00001000
00000010
00000000
00010000
00001000
00010000
00000000
00001000
00000000
00010000
00000000
00001000
00000000
00010000
00000000
,
00200000
00000000
02300000
00000000
03010000
10000000
00000000
10000000
02000000
00000000
03000000
00000000
02000000
00000000
03000000
00000000
,
00100000
00000000
00000000
00001000
00000000
00000000
00100000
00000000
00000000
00001000
00000000
00000000
00100000
00000000
00000000
00001000
00000000
00000000
00100000
00000000
00000000
00001000
00000000
00000000
00010000
00000000
00000000
00000000
00001000
00000000
00000000
00000000
00010000
00000000
00000000
00000000
00000010
00000000
00000000
00000000
00001000
00000000
00000000
00000000
00000010
00000000
00000000
00000000
,
00020000
00030000
00020000
00030000
00002000
00000000
00023000
00000000
,
00031000
00000000
00000000
00000000
00000100
00000000
00000000
00000000
00000010
00000000
00000000
00000000
00001000
00000000
00000000
00000000
00000000
00000000
00000100
00000000
00000000
00000010
00000000
00000000
00000001
00000000
00000000
00000000
00000000
00000000
00001000
00000000
00000000
00000000
00000000
00000000
00000010
00000000
00000000
00000000
00000000
00000000
00000100
00000000
00000000
00000000
00000000
00000000
,
00001000
00010000
00011000
00000000
00001000
00010000
00100000
01000000
,
00010000
10000000
02000000
00000000
03200000
00000000
00310000
01000000
,
00100000
10000000
01000000
00000000
00100000
00010000
10000000
00000000
00010000
00000000
00100000
00000000
01000000
00000000
00010000
00000000
,
00001000
00000010
00000200
00000000
00002300
00000000
00003020
00000000
,
00001030
00000001
00000010
00001000
00010000
00000100
00001000
00010000
,
00100000
00000000
01000000
00000000
00020000
00000000
00000000
00000000
00031000
00010000
00001000
00010000
00001000
01000000
00001000
01000000
,
00002000
00000000
00023000
00000000
00031000
00010000
01000000
10000000
,
00010000
01000000
00200000
00000000
00310000
00001000
00000010
00000100
,
00000010
00001000
00020000
00000000
00031000
00010000
00100000
10000000
,
01000000
00010000
00001000
00000000
00010000
00001000
00000010
00000001
,
00000100
00001000
00010000
00000000
00001000
00001000
00010000
00010000
,
00100000
00000000
00100000
00000000
10000000
00010000
10000000
00000000
00010000
01000000
00010000
01000000
00001000
00010000
00001000
00010000
,
00002000
00000000
00000000
00000000
00020000
00000000
00000000
00000000
00003000
00000000
00000000
00000000
00000000
00000000
00000000
00000000
00030000
00000000
00000000
00000000
00000000
00000000
00000000
00000000
00000000
00000000
00000000
00000000
00000000
00000000
00000000
00000000
00011000
00000000
00000000
00000000
00000000
00000000
00000000
00000000
00022000
00033000
00000000
00000000
00000000
00000000
00000000
00000000
00010000
00000000
00000000
00000000
00000000
00000000
00000000
00000000
00001000
00000000
00000000
00000000
00000000
00000000
00000000
00000000
,
00000100
00000000
00000010
00000000
00001000
00000010
00010000
00000000
00001000
00000000
00000010
00000000
00000100
00000000
00001000
00000000
,
00000100
00000000
00000000
00000000
00000000
00000000
00000000
00000000
00010000
00000000
00000000
00000000
00000000
00000000
00000000
00000000
00001000
00000000
00000000
00000000
00000000
00000000
00000000
00000000
01001000
00000000
00000000
00000000
00000000
00000000
00000000
00000000
02002000
03003000
00000000
00000000
00000000
00000000
00000000
00000000
00001000
00000000
00000000
00000000
00000000
00000000
00000000
00000000
00010000
00000000
00000000
00000000
00000000
00000000
00000000
00000000
00100000
00000000
00000000
00000000
00000000
00000000
00000000
00000000
,
01000000
00000000
00010000
00100000
01000000
00000000
00100000
00000000
00001000
00000000
00000010
00000000
00000100
00000000
00001000
00000000
,
00000010
00000000
00000000
00000000
00000000
00000000
00000000
00000000
00000100
00000000
00000000
00000000
00000000
00000000
00000000
00000000
00000110
00000000
00000000
00000000
00000000
00000000
00000000
00000000
00000220
00000330
00000000
00000000
00000000
00000000
00000000
00000000
00001000
00000000
00000000
00000000
00000000
00000000
00000000
00000000
00000100
00000000
00000000
00000000
00000000
00000000
00000000
00000000
00000010
00000000
00000000
00000000
00000000
00000000
00000000
00000000
00001000
00000000
00000000
00000000
00000000
00000000
00000000
00000000
,
00010000
00001000
00010000
00000000
00100000
00000000
01000000
00000000
00010000
00000000
00100000
00000000
01000000
00000000
00100000
00000000
,
00000000
00000000
00000000
00000000
00000000
00000000
00000000
00000000
00101000
00000000
00000000
00000000
00000000
00000000
00000000
00000000
00202000
00303000
00000000
00000000
00000000
00000000
00000000
00000000
00001000
00000000
00000000
00000000
00000000
00000000
00000000
00000000
00010000
00000000
00000000
00000000
00000000
00000000
00000000
00000000
00001000
00000000
00000000
00000000
00000000
00000000
00000000
00000000
00000100
00000000
00000000
00000000
00000000
00000000
00000000
00000000
00000010
00000000
00000000
00000000
00001000
00000000
00000000
00000000
,
00000100
00000000
00001000
00000000
00010000
00000000
00100000
00000000
01000000
00100000
01000000
00100000
00010000
00000000
00100000
00000000
,
00001000
00000000
00010000
00000000
01000000
00000000
00100000
00010000
10000000
00000000
00100000
00000000
01000000
00000000
00100000
00000000
,
00010000
00000000
00001000
00000000
00000100
00000000
00001000
00010000
00001000
00000000
00010000
00001000
00010000
00000000
00000100
00000000
,
00001000
00000000
00000100
00000000
00000010
00000000
00000001
00001000
00000001
00000000
00000100
00000000
00000010
00000000
00000100
00000000
,
00001000
00000000
00010000
00000000
00100000
00000000
01000000
00000000
00010000
00100000
00010000
00100000
01000000
00000000
10000000
00000000
,
00010000
00000000
01000000
00000000
00100000
00000000
00010000
00001000
00010000
00000000
00001000
00000000
00000100
00000000
00000010
00000000
,
00000001
00000010
00001000
00000001
00000010
00000100
00010000
00001000
,
01000000
00000000
00001000
00000000
00010000
00001000
00010000
00001000
00010000
00000000
00001000
00000000
00100000
00010000
10000000
00010000
,
01000000
00000000
00100000
10000000
00010000
00000000
00100000
01000000
10000000
00010000
01000000
00100000
20000000
00000000
00000000
00000000
,
30010000
00000000
10000000
00010000
00100000
00001000
00010000
00000000
00001000
00000000
00000100
00000000
00000010
00001000
00000001
00000000
,
00000200
00000000
00000001
00001300
00000200
00000000
00001000
00000301
00000100
00000000
00000010
00001000
00000001
00000010
00000100
00000000
,
00010000
00000000
00001000
00010000
00001000
00010000
00001000
00000000
00010000
00000000
00100000
00000000
01000000
00000000
10000000
00000000
,
01000000
00010000
00100000
01000000
00010000
00001000
00010000
00000000
,
00001000
00000000
00010000
00001000
00010000
00000000
00000010
00001000
00000001
00001000
00000100
00000000
00010000
00000000
00001000
00010000
,
00002000
00000000
00010000
00003010
00002000
00000000
00000010
00013000
00001000
00000000
00100000
00010000
00100000
00001000
00010000
00000000
,
00001000
00010000
01000000
00100000
10000000
00100000
00010000
01000000
,
00100000
00010000
00001000
00000010
00000100
00001000
00000010
00000100
,
00001001
00000000
00000000
00010010
00000000
00000000
00011000
00000000
,
00000000
00000000
00001000
00000000
00010000
00000000
00100000
00000000
01000000
00100000
10000000
00000000
01000000
00000000
00010000
00000000
,
00011000
00000000
00000000
00000110
00000000
00000000
00001001
00000000
,
00000000
00000000
00000001
00000000
00000010
00000000
00001000
00010000
00001000
00000000
00000100
00000000
00000001
00000000
00000010
00000000
,
00000110
00000000
00000000
00011000
00000000
00000000
01100000
00000000
,
00000000
00000000
00001000
00000000
00010000
00000000
00100000
00000000
01000000
10000000
01000000
00000000
00010000
00000000
10000000
00000000
,
11000000
00000000
00000000
01010000
00000000
00000000
00011000
00000000
,
00000000
00000000
00010000
00000000
00001000
00000000
00000100
00000001
00001000
00000000
00000100
00000010
00000001
00000000
00001000
00000000
,
00000010
00000100
00001000
00010000
01000000
10000000
00100000
00000000
,
00000000
00000000
01000000
00000000
00010000
00000000
00100000
00000000
01000000
00000000
00010000
00000000
00001000
00000010
00000001
00000000
,
00001000
00000000
00000010
00000000
00000000
00000000
00000100
00000000
00001000
00000000
00010000
00100000
01000000
00000000
00000000
00000000
,
00000000
00000000
00010000
00000000
00100000
00000000
01000000
00000000
00010000
00000000
00001000
00000010
00000100
00000000
00001000
00000000
,
00000010
00000100
00001000
00010000
00100000
01000000
00010000
00000000
,
00000000
00000000
00000000
00000000
00000000
00000000
00100000
00000000
00000000
00001000
00000000
00000000
00010000
00000000
00000000
00000000
00000000
00000000
00000100
00000000
00000000
00000000
00000000
00000000
00000010
00000000
00000000
00000000
00000000
00000000
00000001
00000000
00001000
00000000
00000001
00000000
00001000
00000000
00000000
00000000
00000000
00000000
00000010
00000000
00000000
00000000
00000000
00000000
,
00000100
00000000
00000001
00000000
00001000
00000000
00000100
00000000
00010000
00001000
00010000
00001000
01000000
00010000
10000000
00010000
,
00200000
00000000
00000000
00000000
00000000
00000000
00000000
00000000
00302000
00000000
00000000
00000000
00000000
00000000
00000000
00000000
00023000
00000000
00030000
00000000
00000020
00000000
00000030
00000000
00000220
00000330
00000000
00000000
00000000
00000000
00000000
00000000
00000110
00000000
00000000
00000000
00000000
00000000
00000000
00000000
00000220
00000330
00000000
00000000
00000000
00000000
00000000
00000000
00001000
00000000
00000000
00000000
00000000
00000000
00000000
00000000
00000100
00000000
00000000
00000000
00000000
00000000
00000000
00000000
,
00000010
00000000
00000001
00000000
00001000
00000010
00001000
00000000
00000100
00000000
00000010
00000000
00001000
00000000
00010000
00000000
,
01000000
00000000
00000000
00000000
00000000
00000000
00000000
00000000
00100000
00000000
00000000
00000000
00000000
00000000
00000000
00000000
00010000
00000000
00000000
00000000
00000000
00000000
00000000
00000000
10010000
00000000
00000000
00000000
00000000
00000000
00000000
00000000
20020000
30030000
00000000
00000000
00000000
00000000
00000000
00000000
00010000
00000000
00000000
00000000
00000000
00000000
00000000
00000000
01000000
00000000
00000000
00000000
00000000
00000000
00000000
00000000
00100000
00000000
00000000
00000000
00000000
00000000
00000000
00000000
,
00010000
00000000
00001000
00000000
00010000
00001000
00010000
00001000
00010000
00000000
00000010
00001000
00000010
00000000
00000100
00000001
,
00001000
00000000
00000000
00000000
00000000
00000000
00000000
00000000
00000001
00000000
00000000
00000000
00000000
00000000
00000000
00000000
00000011
00000000
00000000
00000000
00000000
00000000
00000000
00000000
00000022
00000033
00000000
00000000
00000000
00000000
00000000
00000000
00001000
00000000
00000000
00000000
00000000
00000000
00000000
00000000
00000010
00000000
00000000
00000000
00000000
00000000
00000000
00000000
00000100
00000000
00000000
00000000
00000000
00000000
00000000
00000000
00001000
00000000
00000000
00000000
00000000
00000000
00000000
00000000
,
00010000
00001000
00010000
00000000
00100000
00000000
01000000
00000000
00010000
00000000
00100000
01000000
00100000
00000000
00010000
00000000
,
10000000
00000000
00000000
00000000
00000000
00000000
00000000
00000000
11000000
00000000
00000000
00000000
00000000
00000000
00000000
00000000
22000000
33000000
00000000
00000000
00000000
00000000
00000000
00000000
00010000
00000000
00000000
00000000
00000000
00000000
00000000
00000000
10000000
00000000
00000000
00000000
00100000
00000000
00000000
00000000
10000000
00000000
00000000
00000000
00100000
00000000
00000000
00000000
01000000
00000000
00000000
00000000
00000000
00000000
00000000
00000000
00100000
00000000
00000000
00000000
00000000
00000000
00000000
00000000
,
00010000
00000000
00001000
00000000
00000100
00000000
00000010
00000000
00001000
00000001
00000010
00000000
00000100
00001000
00000001
00000000
,
00001000
00000000
00000001
00000000
00000010
00000100
00001000
00000100
00010000
00000000
00001000
01000000
00100000
00000000
01000000
00000000
,
00010000
10000000
01000000
00000000
00100000
00001000
00010000
00000000
00001000
00010000
00000010
00000000
00001000
00000001
00000010
00000000
,
00000100
00000000
00001000
00000000
00000001
00000000
00000100
00001000
00010000
00000000
00001000
00010000
00100000
00000000
01000000
00000000
,
00010000
00000000
10000000
00100000
01000000
00000000
00010000
10000000
01000000
10000000
00010000
10000000
01000000
00000000
00100000
00000000
,
00001000
00000000
00010000
00000000
00000010
00000000
00001000
00000010
00000100
00000000
00000010
00000000
00000001
00000000
00000010
00000000
,
00001000
00000000
00000100
00000000
00000010
00000000
00001000
00010000
00001000
00000000
00100000
00010000
10000000
00000000
00010000
00000000
,
00200000
00000000
00010000
10300000
00200000
00000000
10000000
00310000
00100000
01000000
10000000
01000000
00100000
00001000
00010000
00000010
,
00020000
00000000
00032000
00023000
,
00031000
00000100
00000001
00001000
00000000
00000100
00000010
00000001
00000000
00001000
00000100
00000010
00000000
00000001
00000100
00001000
,
00010000
00100000
10000000
00010000
00000000
00100000
01000000
10000000
00000000
00010000
01000000
00100000
00000000
00010000
00001000
00020000
,
00030000
00000000
00000000
00000000
;
