#VERSION:0.83;
#TITLE:Need Your Love;
#ARTIST:Sota Fujimori;
#BANNER:Need Your Love.png;
#BACKGROUND:Need Your Love-bg.png;
#CDTITLE:./CDTitles/REFLEC BEAT.png;
#MUSIC:Need Your Love.ogg;
#SAMPLESTART:55.88;
#SAMPLELENGTH:15;
#DISPLAYBPM:146;
#BPMS:0=146.5,4=146;
#BGSTAGE:15;

//--------------- dance-single - Fred-104 ----------------
#NOTEDATA:;
#STEPSTYPE:dance-single;
#DESCRIPTION:Fred-104;
#DIFFICULTY:Beginner;
#METER:3;
#CREDIT:Fred-104;
#NOTES:
0000
0000
0000
0000
,
0000
0000
0000
0000
,
0000
0000
0000
0000
,
0000
0000
0000
0000
,
0000
0000
0000
0000
,
0000
0000
0000
0000
,
1000
0000
0000
0000
,
1000
0000
0000
0000
,
0001
0000
0000
0000
,
0001
0000
0000
0000
,
2002
0000
0000
0000
,
0000
0000
3003
0000
,
1000
0000
1000
0000
,
1000
0000
0000
0000
,
0001
0000
0001
0000
,
0001
0000
0000
0000
,
1000
0000
1000
0000
,
1000
0000
0000
0000
,
0100
0000
0100
0000
,
0010
0000
0000
0000
,
0001
0001
0001
0000
,
0010
0000
0100
0000
,
1000
0000
0001
0000
,
1000
0000
1000
0000
,
0010
0010
0010
0000
,
1000
1000
1000
0000
,
0001
0000
1000
0000
,
1001
0000
0000
0000
,
0001
0000
1000
0000
,
0010
0000
1000
0000
,
0010
0010
0010
0000
,
0100
0100
0100
0000
,
1001
0000
0000
0000
,
1000
1000
1000
0000
,
0001
0000
0001
0000
,
1000
0000
0000
0000
,
1000
0000
1000
0000
,
0010
0000
0000
0000
,
0001
0000
0001
0000
,
0100
0000
0000
0000
,
1000
0000
1000
0000
,
1001
0000
0000
0000
,
0001
0000
0001
0000
,
1000
0000
0000
0000
,
0001
0000
0010
0000
,
0001
0000
0000
0000
,
0100
0100
0100
0000
,
0010
0000
0010
0000
,
1000
0000
1000
0000
,
0001
0000
0000
0000
,
1000
0000
0010
0000
,
1000
0000
1000
0000
,
0001
0000
0001
0000
,
1000
0000
1000
0000
,
0100
0000
0100
0000
,
0001
0000
0001
0000
,
0010
0000
0010
0000
,
1000
0000
0000
0000
,
1001
0000
0000
0000
,
0001
0000
0001
0000
,
1000
1000
1000
0000
,
0001
0001
0001
0000
,
1001
0000
0000
0000
;

//--------------- dance-single - Fred-104 ----------------
#NOTEDATA:;
#STEPSTYPE:dance-single;
#DESCRIPTION:Fred-104;
#DIFFICULTY:Easy;
#METER:5;
#CREDIT:Fred-104;
#NOTES:
0000
0000
0000
0000
,
0000
0000
0000
0000
,
0000
0000
0000
0000
,
0000
0000
0000
0000
,
0000
0000
0000
0000
,
0000
0000
0000
0000
,
1000
1000
0010
0000
,
1000
1000
0001
0000
,
0100
0100
0010
0000
,
0100
0100
0001
0000
,
2000
0001
0000
0001
,
0000
0001
0000
3001
,
1000
0010
0100
0000
,
0100
0100
0010
0001
,
0100
0100
0010
0000
,
1000
0001
1000
0010
,
1000
0001
1000
0000
,
0001
1000
0100
1000
,
0010
1000
0010
0000
,
1000
0001
2002
3003
,
0001
0001
0100
0000
,
1000
1000
0100
0000
,
0001
0010
0100
0000
,
1000
0010
0100
0000
,
0001
0001
1000
0010
,
0100
0100
0010
1000
,
0001
1000
0001
1000
,
1001
0000
0000
0000
,
1000
1000
0100
0100
,
0010
0010
0001
0001
,
1000
1000
0100
0100
,
0001
0001
0010
0010
,
2002
0000
0000
3003
,
0100
0100
0100
0000
,
1001
0001
0010
1000
,
0010
0001
1000
0000
,
0001
0001
0100
1000
,
0100
0001
1000
0000
,
0001
0100
0020
0030
,
1000
0100
0020
0030
,
0001
1000
1001
0000
,
1000
0001
1001
0000
,
1000
0100
0010
0000
,
0001
0010
0001
0001
,
1000
1000
0100
0000
,
1000
1000
0100
0001
,
0001
0100
1000
0000
,
0001
1000
0010
0000
,
1000
0000
0001
0000
,
2002
0000
0000
3003
,
1000
0100
0100
1000
,
0001
1000
0100
0000
,
0010
0010
0001
1000
,
0001
1000
0100
0000
,
0010
0010
0001
0010
,
0001
0100
0010
0000
,
1000
0001
0010
0100
,
1000
0001
2002
0000
,
3003
0000
0000
0000
,
1000
0000
0010
0000
,
0001
0100
0110
0000
,
1000
0100
0010
0000
,
0001
0000
0000
1000
0000
1001
0000
0000
;

//--------------- dance-single - Fred-104 ----------------
#NOTEDATA:;
#STEPSTYPE:dance-single;
#DESCRIPTION:Fred-104;
#DIFFICULTY:Medium;
#METER:9;
#CREDIT:Fred-104;
#NOTES:
0000
0000
0000
0000
,
0000
0000
0000
0000
,
0000
0000
0000
0000
,
0000
0000
0000
0000
,
0000
0000
0000
0000
,
0000
0000
0000
0000
,
1000
0000
0010
0000
1000
0001
1000
0000
,
0100
0000
0010
0000
0001
0100
0001
0000
,
1000
0000
0010
0000
0001
0010
1000
0000
,
0001
0000
0100
0000
1000
0100
0001
0000
,
1002
1000
0000
1000
,
0000
1000
0000
1003
,
1100
0000
0000
0000
0001
0000
0000
0100
0000
0000
0010
0000
0100
0000
0000
0000
,
0002
0000
1003
0100
0020
0000
0031
0000
,
0100
0000
0000
0000
0001
0000
0000
0001
0000
0000
1000
0000
0010
0000
0000
0000
,
2000
0000
0000
0000
3100
0000
0010
0000
0002
0000
0000
0000
0203
0000
0000
0010
,
0300
0000
0000
0000
0001
0000
0000
0010
0000
0000
0010
0000
0001
0000
0000
0000
,
2000
0000
3001
0100
2000
0000
3001
0010
,
1000
0000
0000
0000
0001
0000
0000
1000
0000
0000
0010
0000
0100
0000
0000
0000
,
1001
0000
1000
0100
0010
0000
0001
0100
,
0010
0000
0000
0010
0000
0000
0010
0000
0000
0000
0110
0000
0000
0000
0000
0000
,
0001
0000
0000
0001
0000
0000
1000
0000
0001
0000
0000
0000
1001
0000
0000
0000
,
0200
0000
0000
1000
0000
0000
1000
0000
0000
0000
0001
0000
0301
0000
0000
0000
,
0020
0000
0000
0001
0000
0000
0001
0000
0000
0000
1000
0000
1030
0000
0000
0000
,
0001
0000
0000
1000
0000
0000
1100
0000
0000
0000
1001
0000
0000
0000
0000
0000
,
0010
0000
0000
0100
0000
0000
0110
0000
0000
0000
1001
0000
0000
0000
0000
0000
,
0001
0000
1000
0100
0000
0010
0100
1000
,
0001
0000
0100
0010
0000
2002
0000
3003
,
0001
0010
0001
0000
0010
1000
0010
0000
,
0001
0100
0001
0000
0100
1000
0100
0000
,
0001
0100
0010
0000
1000
0100
0010
0000
,
0001
0010
0100
0000
1000
0010
0100
0000
,
0001
0000
0001
0000
1000
0000
1000
1000
,
0001
1000
0010
0100
0010
1000
0001
0000
,
1000
0100
0010
0000
0001
1000
0010
0000
,
0100
0000
0110
0000
0000
1001
0000
0000
,
1000
0100
0001
0000
0100
1000
0010
0100
,
0002
0000
0100
0000
0000
0010
0000
0000
,
0103
0001
0010
0001
0100
0000
0010
0000
,
1000
1000
0000
2200
0000
0000
3300
0000
,
0002
0000
0000
2003
0000
0000
3020
0000
,
0130
0000
0001
0000
0000
1001
0000
0000
,
0001
0000
0000
1000
0000
0000
0001
0000
0000
0000
0100
0000
0010
0000
0000
0000
,
1000
0100
0010
0000
1000
0010
0100
0000
,
0001
0100
0010
0000
0001
0010
0100
0000
,
0001
0000
0200
0000
0000
0010
0000
0000
,
0310
0100
0010
1000
0001
0000
1001
0000
,
1000
0100
0000
0110
0000
0010
0001
0000
,
0100
0000
0010
1000
0000
0010
0100
0000
,
2002
0000
0000
3003
,
2000
3200
0302
0023
,
2030
0000
0000
3002
0000
0000
2003
0000
,
3020
2030
3200
0320
,
0032
0000
0000
0203
0000
0000
0320
0000
,
0230
0302
0023
0230
,
2300
0000
0000
3002
0000
0000
0203
0000
,
2300
3200
0320
2030
,
3200
0000
0000
0320
0000
0000
0031
0000
,
2002
0000
0000
3003
,
1000
0010
0000
0000
1000
0010
0000
0000
0100
0001
0000
0000
0100
0001
0000
0000
,
1000
0010
0100
0010
1000
0000
0010
0100
,
0001
0000
0100
0000
0110
0000
0010
1000
,
0001
0000
0100
0010
0000
0110
0000
0000
;

//--------------- dance-single - Fred-104 ----------------
#NOTEDATA:;
#STEPSTYPE:dance-single;
#DESCRIPTION:Fred-104;
#DIFFICULTY:Hard;
#METER:12;
#CREDIT:Fred-104;
#NOTES:
0000
0000
0000
0000
,
0000
0000
0000
0000
,
0000
0000
0000
0000
,
0000
0000
0000
0000
,
0000
0000
0000
0000
,
0000
0000
0000
0000
,
1000
0010
1000
0001
1000
0100
1000
0001
,
0010
0100
1000
0001
0100
0010
0100
0001
,
1000
0100
0010
0100
1000
0100
0001
0100
,
1000
0001
0100
1000
0100
0010
1000
0001
,
2001
0100
0000
0100
,
3001
0100
0010
1000
,
0001
0000
0000
0000
1000
0010
0100
0002
0000
0000
0100
0000
0103
0000
0001
0000
,
2000
0000
3100
0001
0200
0000
1300
0100
,
2000
0000
0000
0000
3001
1000
0001
0200
0000
0000
0001
0000
0301
0000
0000
0000
,
1001
0000
0000
0000
0001
0000
0100
0000
2000
0000
0000
0000
3100
0000
0001
1000
,
0001
0000
1000
0000
0001
1000
0100
2000
0000
0000
0001
0000
3001
0000
0000
0000
,
1001
0000
0001
0010
0200
0000
0310
0001
,
1000
0000
0000
0000
0001
1000
0001
0200
0000
0000
0001
0000
0301
0000
1000
0000
,
0001
0000
0000
0000
0100
0000
0100
0000
0110
0000
0000
0000
1000
0000
0001
1000
,
0100
0000
0000
1000
0000
0000
0010
0000
0000
0000
0220
0000
0000
0000
0330
0000
,
0001
0000
0000
0010
0000
0000
0100
0000
1000
0000
0000
0000
0001
0000
1000
0000
,
1010
0000
0000
1010
0000
0000
1001
0000
0000
0000
0001
0000
0100
0000
0000
0000
,
0011
0000
0000
0011
0000
0000
1001
0000
0000
0000
1000
0000
0001
0000
0000
0000
,
1100
0000
0000
1001
0000
0000
0101
0000
0000
0000
0001
0000
0100
0000
0010
0000
,
1010
0000
0000
1001
0000
0000
0011
0000
0001
0000
0100
0000
0010
0000
1000
0000
,
0001
0100
1000
0100
0000
0001
0100
0010
,
1010
0000
1100
0101
0000
2002
0000
3003
,
1000
0001
0100
1000
0100
0010
1000
0000
,
0001
0010
0100
0001
0100
1000
0001
0000
,
1000
0010
0100
1000
0100
0001
1000
0000
,
0001
1000
0001
0100
0010
1000
0001
0000
,
1000
0000
1000
0000
1000
0000
0001
1000
,
0001
1000
0001
1000
0001
1000
0001
1000
0001
1000
0001
1000
0001
0000
0000
0000
,
1000
0010
0001
0010
0100
0001
2000
0000
,
0001
0000
3200
0010
0000
1000
1300
0000
,
0001
1000
0010
0100
1000
0100
0001
1000
,
0200
0000
0320
0001
0000
0001
1030
0000
,
0001
0100
1000
0100
0001
0000
0100
0010
,
1000
1100
0000
1010
0000
0010
0100
0001
,
1000
0000
0100
0010
0000
1000
0001
0100
,
0010
0000
0001
1000
0010
1000
0001
0000
,
1000
0000
0100
1000
0000
0001
1000
0000
0000
0000
0010
0000
0100
0000
0010
0000
,
1000
0000
0100
0000
1000
0001
0200
0000
0000
0000
0001
0000
0301
0000
0000
0000
,
0001
0000
1000
0000
0100
1000
0100
0000
0020
0000
0100
0000
0000
0000
0130
0000
,
1000
0000
0001
0100
1000
0100
0010
0000
,
1000
0100
0010
0001
0101
0000
0001
0100
,
0001
1001
0000
1010
0000
0001
1000
0010
,
0100
0000
0001
0100
0000
0010
1000
0000
,
2002
0000
0000
3003
,
1100
0000
0001
0100
1000
0100
0010
1000
,
0001
0010
0100
0020
0000
0001
0031
0000
,
1001
0000
0001
0100
0010
0001
0010
1000
,
0001
0100
0010
0200
0000
0010
0310
0000
,
1100
0000
1000
0010
0001
1000
0100
0001
,
1000
0010
0100
0002
0000
1000
1003
0000
,
1001
0000
1000
0100
0001
1000
0010
0001
,
1000
0000
0020
0200
0000
0000
0330
0000
,
2002
0000
0000
3003
,
0001
0010
0000
0010
0000
0010
0000
0000
0100
0010
0000
0010
0000
0010
0000
0000
,
0001
0100
0000
0100
0000
0100
0000
0010
0100
0000
0000
0000
0001
0000
1000
0000
,
0100
0000
0010
0100
0010
0000
0001
1000
0010
0000
0000
0000
0100
0000
0001
0000
,
0011
0000
0000
0000
1100
0000
1100
0000
0000
0000
1001
0000
0001
0000
0100
0010
,
1000
0000
0000
0000
;

//--------------- dance-single - Fred-104 ----------------
#NOTEDATA:;
#STEPSTYPE:dance-single;
#DESCRIPTION:Fred-104;
#DIFFICULTY:Challenge;
#METER:14;
#CREDIT:Fred-104;
#NOTES:
0000
0000
0000
0000
,
0000
0000
0000
0000
,
0000
0000
0000
0000
,
0000
0000
0000
0000
,
0000
0000
0000
0000
,
0000
0000
0000
0000
,
1000
0000
0010
1000
0100
0000
0010
0000
0001
0000
1000
0001
0010
0000
0200
0000
,
1300
0000
0001
0010
0100
0000
0010
0000
0001
0000
1000
0001
0100
0000
0020
0000
,
0130
0000
0001
1000
0010
0000
0100
0001
1000
0000
0100
0010
0001
0000
2000
0000
,
3001
0000
0010
0100
1000
0000
0010
0001
0010
0000
0100
0001
1000
0000
0002
0000
,
2003
0001
0000
3001
,
0100
0001
0000
0001
1000
0000
1000
0001
0000
1000
0010
0000
0100
0000
0001
0000
,
1001
0000
0000
0001
0100
0010
1000
0020
0000
0000
0130
0000
0110
0000
0000
0000
,
1001
0000
0000
0001
2000
0000
3010
0000
0012
0000
0003
0010
0002
0000
0013
0000
,
1010
0000
0000
1000
0100
0010
0001
0200
0000
0000
0301
0000
0100
0000
0010
0000
,
1010
0000
0000
0000
1100
0000
0001
0000
0100
0000
0000
0000
0101
0000
1000
0100
,
1000
0000
0000
0001
1000
0010
0100
0020
0000
0000
1030
0000
1100
0000
0000
0000
,
0100
0000
0021
0032
1003
0000
1020
2030
,
3001
0000
0000
0100
0010
1000
0001
0200
0000
0000
0301
0000
1001
0000
0000
0000
,
0110
0000
0000
0001
1000
0000
0010
0000
0200
0000
0000
0000
0301
0000
0010
0100
,
1000
0000
0001
0010
0000
0100
0002
0000
0000
0000
0203
0000
2300
0000
0000
0000
,
3001
0000
0100
0010
0000
1000
0010
0000
0110
0000
0100
0000
0101
0000
0000
0000
,
0021
0000
0000
0031
0000
0000
1001
0000
0001
0000
1000
0000
1100
0000
0000
0000
,
2010
0000
0000
3010
0000
0000
0110
0000
0100
0000
0001
0000
0101
0000
0000
0000
,
0001
0000
0100
1000
0000
0100
0002
0000
0000
0000
1003
0000
0010
1000
0001
0000
,
1000
0000
0100
0001
0000
0100
1000
0000
0001
0000
0100
0010
0100
0000
0001
0000
,
1000
0100
0010
0011
0000
1010
0000
0011
,
0101
0000
1100
0101
0000
2002
0000
3003
,
1000
0100
1000
0100
0010
0001
0010
0001
,
1000
0010
1000
0010
0100
0001
0100
0001
,
1000
0100
0010
0001
0010
0100
1000
0001
,
1000
0000
0001
0100
0001
0000
1000
0010
1000
0001
1000
0001
1000
0000
0001
0000
,
1000
0100
1000
0100
0010
0100
0010
0100
1000
0100
1000
0100
2000
0000
3002
0000
,
0103
0010
0100
0010
1000
0001
1000
0001
0100
0010
1000
0001
0100
0000
0000
0000
,
0001
0010
0011
0001
0100
0010
2010
0000
,
3001
0000
0100
2000
0000
3100
0002
0000
,
1003
0100
0110
0010
0001
0100
0110
0010
,
2000
0000
3100
0020
0000
1030
0020
0000
,
0031
1000
0001
0100
0110
0000
0010
1000
,
0100
0001
0100
0000
0010
0000
0001
0000
1000
0000
0010
0000
0100
0000
0000
0000
,
0011
0100
1000
1010
0100
0001
1001
0000
,
0110
0000
1000
0100
0001
0010
1000
0000
,
0001
0010
0000
0100
0010
0000
0002
0000
0000
0000
0103
0000
0010
0000
1000
0000
,
0100
0000
0010
0000
0001
0100
0010
0000
0001
0000
0010
0000
1000
0000
0000
0000
,
0001
0000
0100
0000
1000
0100
0010
0000
1000
0100
0010
0000
0001
0000
1000
0000
,
0001
0100
1000
0100
0001
1000
1001
0000
,
0001
0100
0010
0000
1000
0000
0100
0000
0010
0000
0001
0000
1000
0000
0010
0000
,
1000
0100
0010
0000
0001
0000
0100
0000
0010
0000
1000
0001
0010
0000
0000
0000
,
0001
0010
0100
0000
0001
0000
0100
1000
0001
0000
0100
0000
0010
0000
0000
0000
,
1000
0000
0010
0100
0000
0001
0100
0000
0101
0000
0001
0000
1000
0100
1000
0100
,
2000
0000
3001
0100
1000
0001
0010
1000
,
0001
0100
1000
0100
0010
1000
0002
0000
,
2003
0000
3100
0010
1000
0010
0100
1000
,
0001
0100
0010
0001
0010
1000
0002
0000
,
0203
0000
0301
1000
0010
0001
0010
0100
,
0001
1000
0100
0001
0100
0010
0002
0000
,
1003
0000
0001
1000
0100
0000
1000
0000
0010
0000
0100
0000
1000
0000
0100
0000
,
0010
0000
1000
0000
0001
0000
0100
0000
0010
0100
0010
0000
1000
0001
1000
0000
,
2002
0000
0000
3003
,
0001
0010
0000
0100
0000
1000
0000
1000
0001
0100
0000
0010
0000
1000
0000
1000
,
0001
1000
0000
0100
0000
0010
0000
0001
0100
0000
0010
1000
0001
0000
1000
0000
,
0001
0000
1000
0100
0010
0000
0001
0100
0010
0000
1000
0000
0001
0000
0010
0000
,
0001
0000
0000
0000
0000
0000
0100
0000
0000
0010
0000
0000
0100
0000
0000
0000
0000
0000
0110
0000
0000
0000
0000
0000
0000
0000
0000
0000
0000
0000
1010
0000
0000
0000
0000
0000
1000
0000
0000
0000
0000
0000
0001
0000
1000
0000
0001
0000
,
1000
0000
0000
0000
;

//--------------- dance-double - Fred-104 ----------------
#NOTEDATA:;
#STEPSTYPE:dance-double;
#DESCRIPTION:Fred-104;
#DIFFICULTY:Easy;
#METER:5;
#CREDIT:Fred-104;
#NOTES:
00000000
00000000
00000000
00000000
,
00000000
00000000
00000000
00000000
,
00000000
00000000
00000000
00000000
,
00000000
00000000
00000000
00000000
,
00000000
00000000
00000000
00000000
,
00000000
00000000
00000000
00000000
,
10000000
00000000
01000000
00000000
,
10000000
00000000
00100000
00000000
,
00010000
00000000
00001000
00000000
,
00000010
00000000
00000001
00000000
,
00002000
00000000
00000000
00000000
,
00000002
00000000
00000000
00003003
,
00001001
00000001
00000100
00000000
,
00000010
00000100
00000010
00000000
,
00010000
00001000
00010000
00000000
,
00001000
00100000
00010000
00000000
,
01000000
00100000
01000000
00010000
,
10000000
00000000
01000000
00000000
,
00010000
00001000
00000100
00000001
,
00001000
00000000
00000001
00000000
,
00000001
00000100
00000010
00000000
,
00001000
00000100
00000010
00000001
,
00001000
00000000
00000010
00000000
,
00010000
00000000
00001000
00000000
,
00011000
00001000
00100000
00000000
,
01100000
00100000
10000000
00000000
,
01000000
00000000
00100000
00000000
,
20020000
00000000
00000000
30030000
,
00020000
00000000
00032000
00000000
,
00003020
00000000
00000032
00000000
,
00000203
00000000
00002300
00000000
,
00023000
00000000
02030000
00000000
,
13000000
10000000
10000000
00010000
,
01000000
00100000
02200000
03300000
,
10000000
10000000
01000000
00100000
,
00002000
00000000
00023000
00000000
,
00030100
00000010
00000010
00000001
,
00002000
00000000
00003020
00000000
,
00000130
00000100
00000001
00000000
,
00001000
00000001
00001000
00000000
,
00000001
00000000
00000100
00000000
,
00000220
00000000
00000000
00000330
,
00011000
00001000
00010000
00000000
,
00001000
00100000
00010000
00000000
,
01000000
00100000
01000000
00000000
,
00010000
10000000
00100000
00000000
,
10000000
01000000
00100000
00000000
,
00001000
00010000
00000100
00000000
,
00001000
00000000
00000001
00000000
,
00002002
00000000
00000000
00003003
,
00000001
00000001
00000010
00001000
,
00010000
00000000
00100000
00000000
,
10000000
00010000
10000000
00100000
,
01000000
00000000
00010000
00000000
,
10000000
01000000
00010000
00001000
,
00000100
00000000
00000001
00000000
,
00001000
00000001
00000100
00000001
,
00001000
00000000
00000001
00000000
,
00000101
00000000
00000000
00000000
,
00000002
00000000
00002003
00000000
,
00003001
00000010
00001000
00000000
,
00010000
01000000
10000000
00000000
,
00100000
00000000
00000000
00010000
00000000
00011000
00000000
00000000
;

//--------------- dance-double - Fred-104 ----------------
#NOTEDATA:;
#STEPSTYPE:dance-double;
#DESCRIPTION:Fred-104;
#DIFFICULTY:Medium;
#METER:9;
#CREDIT:Fred-104;
#NOTES:
00000000
00000000
00000000
00000000
,
00000000
00000000
00000000
00000000
,
00000000
00000000
00000000
00000000
,
00000000
00000000
00000000
00000000
,
00000000
00000000
00000000
00000000
,
00000000
00000000
00000000
00000000
,
10000000
00010000
01000000
00000000
00100000
01000000
00010000
00000000
,
01000000
00100000
00001000
00000000
00010000
00000100
00001000
00000000
,
00000010
00000100
00001000
00000000
00000001
00000100
00000010
00000000
,
00001000
00000001
00000010
00000000
00000100
00001000
00000100
00000000
,
00000120
00000001
00000000
00000001
,
00000000
00001000
00000000
00001030
,
00000010
00000000
00000000
00000000
00010000
00000000
00000000
00001000
00000000
00000000
00010000
00000000
00001000
00000000
00000000
00000000
,
00020000
00000000
00130000
01000000
00200000
00000000
00310000
10000000
,
00010000
00000000
00000000
00000000
01000000
00000000
00000000
00100000
00000000
00000000
10000000
00000000
01000000
00000000
00000000
00000000
,
20010000
00000000
00000000
00000000
31000000
00000000
00010000
00000000
00001000
00000000
00000000
00000000
00020000
00000000
00000000
00001000
,
00030000
00000000
00000000
00000000
00000010
00000000
00000000
00000001
00000000
00000000
00001000
00000000
00000001
00000000
00000000
00000000
,
00000200
00000000
00000301
00000010
00002000
00000000
00013000
00001000
,
00000100
00000000
00000000
00000000
00000001
00000000
00000000
00001000
00000000
00000000
00000010
00000000
00000100
00000000
00000000
00000000
,
00000110
00000000
00010000
00001000
01000000
00000000
00100000
10000000
,
00010000
00000000
00000000
01000000
00000000
00000000
00100000
00000000
00000000
00000000
01100000
00000000
00000000
00000000
00000000
00000000
,
00010000
00000000
00000000
00001000
00000000
00000000
00000010
00000000
00000011
00000000
00000000
00000000
00001001
00000000
00000000
00000000
,
00000002
00000000
00000000
00000100
00000000
00000000
00000100
00000000
00000000
00000000
00000010
00000000
00000013
00000000
00000000
00000000
,
00002000
00000000
00000000
00000010
00000000
00000000
00000010
00000000
00000000
00000000
00010000
00000000
00013000
00000000
00000000
00000000
,
00001000
00000000
00000000
00010000
00000000
00000000
00001000
00000000
00000000
00000000
00110000
00000000
00000000
00000000
00000000
00000000
,
01000000
00000000
00000000
00100000
00000000
00000000
10000000
00000000
00000000
00000000
00010000
00000000
10010000
00000000
00000000
00000000
,
01000000
00000000
00100000
00100000
00000000
00001000
00010000
00000100
,
00001000
00000000
00000001
00000100
00000000
00000220
00000000
00000330
,
00002000
00003002
00000023
00002030
,
00023000
00230000
20300000
30020000
,
20030000
32000000
03020000
00032000
,
00003200
00000302
00002003
00003001
,
00000110
00000000
00000100
00000000
00000100
00000000
00000010
00000010
,
00001000
00000001
00001000
00000100
00000010
00000001
00001000
00000000
,
00000001
00000100
00000010
00000000
00000001
00000010
00001000
00000000
,
00000001
00000000
00000200
00000000
00000000
00002300
00000000
00000000
,
00013000
00001000
00010000
00000000
00100000
10000000
00010000
01000000
,
00100000
00000000
20000000
00000000
00000000
32000000
00000000
00000000
,
03100000
01000000
10000000
00010000
01000000
00000000
01010000
00000000
,
00010000
00001000
00000000
00001100
00000000
00000010
00000100
00000000
,
00000001
00000000
00000100
00001000
00000000
00000100
00000010
00000000
,
00001000
00000000
00000001
00001000
00000100
00000010
00000001
00000000
,
00000100
00000000
00000000
00000010
00000000
00000000
00010000
00000000
00000000
00000000
00001000
00000000
00100000
00000000
00000000
00000000
,
00001000
00100000
00010000
02000000
00000000
00100000
03100000
00000000
,
10000000
00100000
01000000
00000000
00010000
00100000
01000000
00000000
,
00010000
00000000
00002000
00000000
00000000
00003200
00000000
00000000
,
00000310
00000001
00001000
00000010
00000100
00000000
00000110
00000000
,
00000010
00010000
00000000
00011000
00000000
00001000
01000000
00000000
,
00010000
00000000
01000000
00100000
00000000
10000000
00010000
00000000
,
20020000
00000000
00000000
30030000
,
00020000
02030000
23000000
30200000
,
00302000
00000000
00013000
00000010
00002000
00000000
00003200
00000000
,
00020300
00032000
00003200
00000302
,
00000023
00000000
00001030
00010000
00200000
00000000
20300000
00000000
,
30020000
20030000
32000000
03020000
,
00032000
00000000
00003100
00000001
00002000
00000000
00003002
00000000
,
00000203
00000000
00000310
00001000
00020000
00000000
00230000
00000000
,
10300000
00000000
00010000
10000000
00100000
01000000
00010000
00000000
,
00022000
00000000
00000000
00033000
,
00010000
00000010
00000000
00000000
00010000
00001000
00000000
00000000
00100000
00001000
00000000
00000000
01000000
00001000
00000000
00000000
,
01000000
00100000
10000000
00010000
00100000
00000000
01100000
00000000
,
10000000
01000000
00010000
00000000
00011000
00000000
00001000
00000010
,
00000001
00000000
00000100
00000010
00000000
00001001
00000000
00000000
;

//--------------- dance-double - Fred-104 ----------------
#NOTEDATA:;
#STEPSTYPE:dance-double;
#DESCRIPTION:Fred-104;
#DIFFICULTY:Hard;
#METER:12;
#CREDIT:Fred-104;
#NOTES:
00000000
00000000
00000000
00000000
,
00000000
00000000
00000000
00000000
,
00000000
00000000
00000000
00000000
,
00000000
00000000
00000000
00000000
,
00000000
00000000
00000000
00000000
,
00000000
00000000
00000000
00000000
,
00010000
10000000
00100000
10000000
00010000
10000000
00100000
10000000
,
01000000
00100000
01000000
00100000
00001000
00010000
00001000
00010000
,
00000100
00000010
00000100
00000010
00000001
00000100
00000001
00000100
,
00000001
00001000
00000010
00010000
00001000
01000000
00100000
00000000
,
20010000
01000000
00000000
31000000
,
00010000
00001000
00000100
00000001
,
00001001
00000000
00000000
00000000
00000001
00000100
00000001
00000200
00000000
00000000
00000010
00000000
00000310
00000000
00000000
00000000
,
00000200
00000000
00000301
00001000
00000020
00000000
00010030
00001000
,
00010000
00000000
00000000
00000000
00001000
00010000
00001000
00020000
00000000
00000000
00000100
00000000
00030100
00000000
00000000
00000000
,
00020000
00000000
00000000
00000000
00031000
00000000
01000000
00000000
00020000
00000000
00000000
00000000
01030000
00000000
00100000
01000000
,
00000000
00000000
00100000
00000000
10000000
01000000
10000000
00200000
00000000
00000000
01000000
00000000
01300000
00000000
00000000
00000000
,
10010000
00000000
01000000
00010000
00002000
00000000
00003100
00001000
,
00020000
00000000
00000000
00000000
00031000
00010000
00000100
00020000
00000000
00000000
00001000
00000000
00031000
00000000
00010000
00000000
,
00001000
00000000
00000000
00000000
00000100
00000000
00000010
00000000
00000001
00000000
00000000
00000000
00001000
00000000
00000100
00000010
,
00000100
00000000
00000010
00000001
00000000
00000000
00000100
00000000
00000000
00000000
00000010
00000000
00001000
00000000
00000000
00000000
,
00000001
00000000
00000100
00000010
00000000
00000000
00000100
00000000
00000001
00000000
00001000
00000000
00000001
00000000
00000000
00000000
,
00002000
00000000
00000000
00003020
00000000
00000000
00020030
00000000
00000000
00000000
00130000
00000000
00110000
00000000
00000000
00000000
,
00020000
00000000
00000000
00230000
00000000
00000000
00302000
00000000
00000000
00000000
00003010
00000000
00001010
00000000
00000000
00000000
,
00001001
00000000
00000000
00000110
00000000
00000000
00001001
00000000
00000000
00000000
00000001
00000000
00000100
00000000
00000010
00000000
,
00001010
00000000
00000000
00010010
00000000
00000000
00011000
00000000
00000000
00000000
00001000
00000000
00010000
00000000
01000000
00000000
,
01100000
00000000
00010000
01000000
00000000
10000000
01000000
00010000
,
10010000
00000000
01000000
00100000
00000000
00022000
00000000
00033000
,
01000000
00001000
00100000
00001000
00010000
00000010
00010000
00000000
,
00000010
00001000
00000010
00001000
00000001
00000100
00000010
00000000
,
00000100
00000001
00000100
00000010
00001000
00010000
01000000
00000000
,
00100000
10000000
00010000
10000000
01000000
00100000
00001000
00000000
,
00010000
00000000
00010000
00000000
00010000
00000000
00001000
00010000
,
00001000
00010000
00001000
00010000
00001000
00010000
00001000
00010000
00001000
00010000
00001000
00010000
00001000
00000000
00000000
00000000
,
00010000
00000010
00001000
00000001
00000010
00000100
00010000
00001000
,
00020000
00100000
10000000
01030000
,
00010000
00001000
00000010
00000001
00001000
00000001
00000100
00000010
,
00000200
00000010
00001000
00000301
,
00001000
00000001
00000010
00000100
00010000
00000000
00001000
00000100
,
00000001
00001000
00000000
00001001
00000000
00000001
00000010
00001000
,
00010000
00000000
00100000
10000000
00000000
00010000
10000000
00000000
,
00100000
01000000
00010000
10000000
01000000
00100000
00010000
00000000
,
10000000
00100000
00000000
01000000
00100000
00000000
10000000
00000000
01000000
00000000
00000000
00000000
00100000
00000000
00001000
00000000
,
00010000
00000000
00000010
00000000
00001000
00000020
00001000
00000000
00000000
00000000
00000100
00000000
00000130
00000000
00000000
00000000
,
00000010
00000000
00001000
00000000
00000001
00000010
00000001
00000000
00000200
00000000
00000010
00000000
00000000
00000000
00000310
00000000
,
00001000
00000000
00000100
00010000
00001000
00010000
01000000
00000000
,
00010000
00001000
00010000
00000100
00000010
00000000
00001001
00000000
,
00000001
00000100
00000000
00000110
00000000
00000010
00001000
00000100
,
00010000
00000000
00001000
00100000
00000000
01000000
00100000
00000000
,
20020000
00000000
00000000
30030000
,
21000000
00000000
30010000
01000000
10000000
01000000
00100000
10000000
,
01000000
00100000
00001000
00020000
00000000
00000100
00030100
00000000
,
00012000
00000000
00013000
00001000
00000100
00000001
00001000
00000100
,
00000010
00000001
00001000
00000002
00000000
00000100
00000103
00000000
,
00000110
00000000
00000001
00000010
00001000
00010000
00100000
10000000
,
00010000
01000000
00100000
02000000
00000000
00010000
03010000
00000000
,
10010000
00000000
10000000
01000000
00100000
00000000
00001000
00000000
,
00010000
00000000
00000200
00002000
00000000
00000000
00003300
00000000
,
00000220
00000000
00000000
00000330
,
00000001
00000010
00000000
00000010
00000000
00000100
00000000
00000000
00001000
00000100
00000000
00010000
00000000
00001000
00000000
00000000
,
00100000
00010000
00000000
10000000
00000000
00100000
00000000
01000000
00010000
00000000
00000000
00000000
10000000
00000000
01000000
00000000
,
10000000
00000000
00100000
10000000
00100000
00000000
01000000
00010000
01000000
00000000
00000000
00000000
00010000
00000000
00001000
00000000
,
00011000
00000000
00000000
00000000
00001010
00000000
00001001
00000000
00000000
00000000
00000101
00000000
00000100
00000000
00000010
00000100
,
00000010
00000000
00000000
00000000
;

//--------------- dance-double - Fred-104 ----------------
#NOTEDATA:;
#STEPSTYPE:dance-double;
#DESCRIPTION:Fred-104;
#DIFFICULTY:Challenge;
#METER:14;
#CREDIT:Fred-104;
#NOTES:
00000000
00000000
00000000
00000000
,
00000000
00000000
00000000
00000000
,
00000000
00000000
00000000
00000000
,
00000000
00000000
00000000
00000000
,
00000000
00000000
00000000
00000000
,
00000000
00000000
00000000
00000000
,
00010000
00001000
00100000
00000000
00010000
00000000
10000000
00000000
00100000
01000000
00010000
00000000
10000000
00000000
02000000
00000000
,
03100000
00001000
00010000
00000000
00001000
00000000
00010000
00000000
00000100
00001000
00000001
00000000
00000100
00000000
00000020
00000000
,
00001030
00000001
00000010
00000000
00000100
00000010
00000001
00000000
00000100
00000010
00001000
00000000
00000100
00000000
00020000
00000000
,
00031000
00100000
00010000
00000000
10000000
00010000
01000000
00000000
00100000
10000000
00010000
00000000
01000000
00000000
00200000
00000000
,
02300000
00001000
00000000
03001000
,
00010000
00000100
00000000
00001000
00000001
00000000
00000001
00000100
00000000
00000010
00000100
00000000
00000001
00000000
00001000
00000000
,
00001001
00000000
00000000
00000001
00000100
00000010
00001000
00000200
00000000
00000000
00010300
00000000
00011000
00000000
00000000
00000000
,
00011000
00000000
00000000
00001000
00100000
00000000
00010000
00000000
10010000
00000000
00000000
10000000
01000000
00000000
00100000
00000000
,
00110000
00000000
00000000
00001000
00100000
00001000
00010000
00000020
00000000
00000000
00001030
00000000
00000100
00000000
00000010
00000000
,
00000011
00000000
00000000
00000001
00000100
00000000
00001000
00000000
00011000
00000000
00000000
00001000
00010000
00000000
01000000
10000000
,
00010000
00000000
00000000
10000000
01000000
00100000
01000000
20000000
00000000
00000000
30100000
00000000
01000000
00000000
00100000
00000000
,
10100000
00000000
00000000
10000000
01000000
00000000
00010000
00000000
00011000
00000000
00000000
00001000
00000100
00000000
00000001
00001000
,
00000001
00000000
00000000
00000100
00000010
00001000
00000001
00000020
00000000
00000000
00000031
00000000
00000100
00000000
00000010
00000000
,
00001010
00000000
00000000
00000001
00000010
00000000
00001000
00000000
00011000
00000000
00000000
00010000
00100000
00000000
10000000
00010000
,
10000000
00100000
00000000
01000000
00100000
00000000
20000000
00000000
00000000
00000000
30020000
00000000
02030000
00000000
00000000
00000000
,
03001000
00100000
00000000
00001000
00010000
00000000
00000010
00000000
00001010
00000000
00001000
00000000
00001001
00000000
00000000
00000000
,
00000001
00000100
00000000
00001000
00000100
00000000
00000101
00000000
00000000
00000000
00000011
00000000
00001001
00000000
00000000
00000000
,
00010000
00001000
00000000
00000010
00000100
00000000
00000110
00000000
00000000
00000000
00010000
00000000
00011000
00000000
00000000
00000000
,
00001000
00100000
00000000
00010000
10000000
00000000
11000000
00000000
00000000
00000000
01100000
00000000
01000000
00000000
10000000
00000000
,
00010000
10000000
00000000
00010000
01000000
00000000
00100000
00000000
10000000
00000000
01000000
00000000
00100000
00000000
00001000
00000000
,
00011000
00010000
00000100
00000110
00000000
00000011
00000001
00001000
,
00001001
00000000
00000101
00001100
00000000
00022000
00000000
00033000
,
00001000
00010000
00100000
01000000
00001000
00010000
00100000
00001000
,
00010000
00001000
00000100
00000010
00010000
00000100
00001000
00000010
,
00000100
00000001
00000010
00001000
00010000
00100000
10000000
00010000
,
10000000
00000000
01000000
10000000
01000000
00000000
00100000
01000000
00100000
00010000
00100000
00010000
00100000
00000000
00001000
00000000
,
00010000
00001000
00010000
00001000
00010000
00000010
00010000
00000010
00010000
00001000
00010000
00001000
00020000
00000000
00030200
00000000
,
00001300
00000100
00001000
00000100
00000010
00000001
00000010
00000001
00001000
00000100
00000010
00000001
00001000
00000000
00000000
00000000
,
00000001
00000100
00001000
00010000
00100000
10000000
02000000
00000000
,
03020000
00000000
00031000
00000020
00000000
00000031
00002000
00000000
,
00003001
00000010
00001000
00010000
01000000
10000000
00100000
00010000
,
00002000
00000000
00003100
00000002
00000000
00001003
00000002
00000000
,
00001003
00000100
00000010
00000001
00000101
00000000
00000001
00000100
,
00000010
00001000
00000010
00010010
00000000
00011000
00001000
00100000
,
00010000
01000000
00100000
01000000
00010000
10000000
00010000
00000000
,
10000000
01000000
00010000
00001000
00000010
00000001
00001000
00000000
,
00000001
00000000
00000010
00000001
00000000
00001000
00000001
00000000
00000100
00000000
00000010
00001000
00000010
00000000
00000100
00000000
,
00000001
00000000
00000010
00000000
00000100
00001000
00000200
00000000
00000000
00000000
00010000
00000000
00010300
00000000
00000000
00000000
,
00001000
00000000
00100000
00000000
00010000
00100000
01000000
00000000
10000000
00100000
01000000
00000000
00100000
00000000
10000000
00000000
,
01000000
00000000
00100000
00000000
00001000
00010000
00002000
00000000
00000000
00000000
00010000
00000000
00013000
00000000
00000000
00000000
,
00000100
00001000
00000001
00000000
00000100
00000000
00000010
00000000
00001000
00000000
00000001
00000010
00000100
00000000
00001000
00000000
,
00000001
00000010
00001000
00000000
00010000
00000000
00100000
00000000
10000000
00000000
00010000
10000000
00010000
00000000
00000000
00000000
,
10000000
01000000
00010000
00000000
00001000
00000000
00000100
00000001
00001000
00000000
00000001
00000000
00000100
00000000
00000010
00000000
,
00001010
00000000
00001000
00000001
00000000
00000100
00000010
00000000
00000100
00000000
00000010
00000000
00001000
00000100
00001000
00000100
,
00020000
00000000
00031000
00010000
00100000
10000000
00010000
01000000
,
00100000
01000000
10000000
01000000
00010000
10000000
00020000
00000000
,
20030000
00000000
31000000
00100000
00001000
00010000
00000100
00000010
,
00000001
00000100
00001000
00010000
00100000
10000000
00020000
00000000
,
02030000
00000000
03001000
00010000
00001000
00100000
00001000
00010000
,
00000010
00001000
00000001
00000100
00001000
00010000
00002000
00000000
,
00013000
00001000
00010000
01000000
10000000
00010000
01000000
00100000
,
10000000
00000000
01000000
00000000
00100000
00000000
00001000
00000000
00010000
00000000
00100000
00000000
10000000
00010000
10000000
00000000
,
20020000
00000000
00000000
30030000
,
10000000
01000000
00000000
00100000
00000000
00001000
00000000
00001000
00010000
00001000
00000000
00010000
00000000
00000100
00000000
00000100
,
00001000
00000001
00000000
00000100
00000000
00000010
00000000
00001000
00000001
00000000
00000010
00000100
00000010
00000000
00000001
00000000
,
00001000
00000000
00000001
00000100
00000010
00000000
00001000
00000010
00000100
00000000
00000001
00000000
00001000
00000000
00000100
00000000
,
00010100
00000000
00010000
00001000
00010000
00000000
00011000
00000000
00000000
00000000
01100000
00000000
00100000
00000000
10000000
00010000
,
01000000
00000000
00000000
00000000
;
