#TITLE:Necroxis Girl;
#ARTIST:BEMANI Sound Team "HuΣeR";
#ARTISTTRANSLIT:HuMeR;
#GENRE:GLITCH DUBSTEP;
#BANNER:Necroxis Girl.png;
#BACKGROUND:Necroxis Girl-bg.png;
#CDTITLE:./CDTitles/jb clan.png;
#MUSIC:Necroxis Girl.ogg;
#SAMPLESTART:76.801;
#SAMPLELENGTH:15;
#BPMS:0=75,15.75=150,79=300,79.5=150,79.75=75,80=150,111=300,111.75=150,111.875=75,112=150,174=75,174.5=150,205.75=75,206=150,224=300,224.25=150,225.5=300,225.75=150,237=300,237.75=150,237.875=75,238=150,270=75,272=150;
#STOPS:15.75=0.1,111=0.05,111.25=0.05,174.5=0.05,174.625=0.05,174.75=0.05,174.875=0.05,205=0.1,205.25=0.1,205.5=0.1,224=0.05,225.5=0.05,237=0.05,237.25=0.05;
#TIMESIGNATURES:0=4=4,92=5=4,97=4=4,101=3=4,104=4=4,172=3=4,175=4=4,203=3=4,206=4=4,270=2=4,272=4=4;
#BGSTAGE:30;

//--------------- dance-single - Fred-104 ----------------
#NOTES:
     dance-single:
     Fred-104:
     Beginner:
     4:
     :
0000
0000
0000
0000
,
0000
0000
0000
0000
,
0000
0000
0000
0000
,
0000
0000
0000
0000
,
0001
0000
0000
0000
,
0000
0000
0000
0000
,
0000
0000
0000
0000
,
0000
0000
0000
0000
,
1000
0000
0000
0000
,
0000
0000
0000
0000
,
0000
0000
0000
0000
,
0002
0000
0000
0003
,
2000
0000
0000
3000
,
0020
0000
0000
0030
,
0200
0000
0000
0300
,
0002
0000
0000
0003
,
1000
0000
0000
1000
,
0001
0000
0000
0001
,
0100
0000
0100
0000
,
0010
0010
0010
0000
,
1000
0000
0001
0000
,
0100
0000
0100
0100
,
0100
0000
0010
0000
,
0100
0100
0100
0000
,
0000
0001
0000
1000
,
0000
0001
0000
0000
,
1000
0000
0100
0000
,
1000
0000
0000
0000
,
1001
0000
0001
0000
,
0100
0000
0000
0000
,
0010
0000
0110
0000
,
1000
0000
0000
0000
,
0001
0000
1001
0000
,
1000
0000
0100
0000
,
0010
0000
0010
0000
,
0001
0000
1000
0000
,
1001
0000
0000
0000
,
0000
0000
0000
0000
,
0000
0000
0000
0000
,
0000
0000
0000
0000
,
0110
0000
0000
0000
,
0000
0000
0000
0000
,
0000
0000
0000
0000
,
0002
0000
0003
1000
,
0000
1000
0000
0001
,
0000
0010
0010
0010
,
0000
0100
0000
1000
,
0000
0001
0001
0001
,
0000
0100
0000
0010
,
0000
0100
0000
0001
,
0001
0001
0000
2000
,
0000
3000
0001
0000
,
0000
0001
0000
0000
,
0010
0000
0100
0100
,
1000
0000
0001
0000
,
0100
0000
0020
0000
,
0000
0030
0100
0000
,
0001
0000
1000
1000
,
1000
0000
0001
0001
,
0002
0003
1001
0000
,
1000
0000
0001
0000
,
0100
0000
0110
0000
,
0010
0000
1000
0000
,
0001
0000
1001
0000
,
1000
0000
0100
0000
,
1000
0000
0001
0001
,
0001
0000
1000
1000
,
1000
0000
1001
0000
,
2002
0000
0000
0000
,
3003
0000
0000
0000
;

//--------------- dance-single - Fred-104 ----------------
#NOTES:
     dance-single:
     Fred-104:
     Easy:
     8:
     :
0000
0000
0000
0000
,
0000
0000
0000
0000
,
0000
0000
0000
0000
,
0000
0000
0000
0000
,
1001
0000
0000
0000
,
0000
0000
0000
0000
,
0000
0000
0000
0000
,
0000
0000
0000
0000
,
0110
0000
0000
0000
,
0000
0000
0000
0000
,
0000
0000
0000
0000
,
0001
1000
0001
0200
,
0301
0001
0010
0010
,
1000
1000
0100
0100
,
0001
0001
1000
1000
,
0100
0000
0100
0000
0010
0000
0010
0001
,
1000
0000
0000
0100
0000
0000
0010
0000
0000
0001
0000
0000
2001
0000
0000
0000
,
3001
0000
0000
0100
0000
0000
0010
0000
0000
1000
0000
0000
1002
0000
0000
0000
,
1003
0000
0000
0100
0000
0000
0100
0000
0010
0000
0000
0001
0000
0000
0001
0000
,
0100
0000
0010
0000
0100
0010
0110
0000
,
1001
0001
0110
1000
,
0100
0200
0000
0310
0001
1000
0001
0000
,
0200
0000
0000
0310
0000
0000
0100
0000
0001
0000
1000
0000
0001
0000
0000
0000
,
1000
1000
1000
0000
0100
0000
0110
0000
,
1001
0000
0001
0000
1001
0000
1000
0100
,
1000
0002
1000
1003
,
0010
0100
1001
0001
,
1000
0000
0100
0000
1000
0001
2000
3000
,
0001
0010
0110
0000
,
1000
0000
0001
0000
,
0100
0010
0110
0000
,
1001
0000
0001
1000
,
0010
0100
0101
0000
,
0001
0000
1000
0100
,
1000
0100
0001
0100
,
1000
0000
0001
0000
0100
0010
0100
0000
,
1001
0000
0000
0000
,
0000
0000
0000
0000
,
0000
0000
0000
0000
,
0000
0000
0000
0000
0000
0000
0000
0100
,
0110
0000
0000
0000
,
0000
0000
0000
0000
,
0000
0000
0000
0000
,
1000
0000
0100
0000
0010
0002
1003
0000
,
1000
0010
0010
0100
,
0100
0000
0001
1000
0001
1000
0001
0000
,
0010
0010
0100
0100
,
1000
0000
1000
0001
1000
0001
1000
0000
,
0010
0100
0001
0010
,
0100
0000
1000
0001
1000
0001
1000
0000
,
0010
0001
0100
1000
,
0001
0000
2002
3003
1000
0000
0100
0000
,
0110
0000
0000
0001
0000
0000
1000
0000
,
0001
1000
0001
0000
0100
0010
0100
0000
,
0002
0000
2003
0000
3100
0010
0100
0000
,
0010
0001
1000
0001
,
1001
0000
0002
1003
,
0010
0100
0010
1000
,
0100
0000
0010
0000
0001
1000
0001
0000
,
0100
0000
0220
0330
0001
0000
1000
0000
,
1100
0000
1000
0100
,
0001
0100
1000
0100
,
0110
0000
0010
0001
,
1000
0001
0100
0010
,
0110
0000
0001
0100
,
1000
0100
0001
1000
,
0100
0010
0001
1000
,
0010
0100
0010
0000
2002
0000
0000
3003
,
2002
0000
0000
0000
,
3003
0000
0000
0000
;

//--------------- dance-single - Fred-104 ----------------
#NOTES:
     dance-single:
     Fred-104:
     Medium:
     13:
     :
0000
0000
0000
0000
,
0000
0000
0000
0000
,
0000
0000
0000
0000
,
0000
0000
0000
0000
0000
0000
0000
0000
0000
0000
0000
0000
0000
0000
0000
0100
,
0110
0000
0000
0000
,
0000
0000
0000
0000
,
0000
0000
0000
0000
,
0000
0000
0000
0000
0000
0000
0000
0001
,
1001
0000
0000
0000
,
0000
0000
0000
0000
,
0000
0000
0000
0000
,
0001
0010
1000
0001
0100
1000
0001
0000
,
1001
1000
0100
0100
,
0010
0000
0000
0000
0010
0000
0000
0000
0001
0000
0000
0000
0001
1000
0001
1000
,
0001
0001
0100
0100
,
0010
0000
0000
0000
0010
0000
0000
0000
1000
0000
0001
0000
1000
0001
1000
0001
,
1000
0000
0000
1100
0000
0000
0101
0000
0000
1100
0000
0000
1001
0000
0000
0000
,
0001
0000
0000
0011
0000
0000
1010
0000
0000
0011
0000
0000
1001
0000
0000
0000
,
1000
0100
0010
0001
0100
0010
1000
0001
,
0010
0100
1000
0001
0100
0010
0110
0000
,
1001
0000
0001
0010
0100
1000
1001
0000
,
0001
0020
0000
1030
0010
0001
1000
0010
,
0200
0000
0000
0301
1000
0000
1000
0000
0100
0000
0010
0000
0001
0000
1000
0000
,
0001
1000
0001
1000
0002
0000
0000
0000
0103
0000
0001
0000
1001
0000
0000
0000
,
0110
0000
1001
0000
1010
0000
0001
0010
,
0100
1000
0200
1000
1000
1300
0001
0100
,
0010
0000
0100
0000
0001
0000
1000
0000
1001
0000
0000
1000
0001
0000
0010
0000
,
0100
1000
0010
0100
0001
0010
0200
0300
,
1000
0000
0000
0100
0000
0000
1000
0000
0001
0000
1000
0000
0010
0000
0000
0000
0000
0000
0110
0000
0000
0000
0000
0000
,
1100
0000
0101
0000
1001
0000
0001
1000
,
0001
0100
0001
0100
0001
0100
0001
0000
0000
1000
0000
0000
,
1001
0000
0000
0110
0000
0000
1001
0000
0000
0001
1000
0001
,
0100
0000
0010
0000
0100
0000
0001
0000
0000
1000
0000
0000
0100
0000
0000
0000
0000
0000
0110
0000
0000
0000
0000
0000
,
0011
0000
1010
0000
0101
0000
1000
0001
,
1000
0100
0001
0100
1000
0000
0001
0100
,
1000
0000
0001
0000
0010
0000
1000
0000
0001
0000
0010
0000
0100
1000
0100
1000
,
0200
0000
0000
0000
,
0000
0000
0000
0000
,
0000
0000
0000
0000
,
0300
0000
0000
0000
0000
0000
0000
0010
,
1001
0000
0000
0000
,
0000
0000
0000
0000
,
0000
0000
0000
0000
,
0001
0000
0000
0000
0100
0000
0000
0000
1000
0000
0000
0000
0100
0000
0000
0000
0001
0000
0010
0000
0200
0300
0200
0300
1000
0000
0000
0000
0000
0000
1000
0000
,
0100
0000
0000
0100
0010
0000
0000
0010
0001
0000
1000
0001
1000
0000
0001
0100
,
0000
0010
1000
0000
0001
0000
0010
0000
0100
0000
1000
0000
0001
0000
0000
0001
,
0100
0000
0000
0100
0010
0000
0000
0010
0100
0000
0001
1000
0001
0000
0010
0100
,
0000
0010
0001
0000
1000
0000
0010
0000
0100
0000
0001
0000
1000
0000
0000
1000
,
0100
0000
0010
0000
0001
1000
0001
0000
0100
0000
0010
1000
0010
0000
0000
0100
,
0001
0000
1000
0000
0001
0010
0001
0000
0010
0000
0100
0000
1000
0000
0001
0000
,
0100
0010
1000
0100
0010
0001
2000
3200
,
0302
0000
0203
0000
1300
1000
0001
0002
1003
0000
0010
0000
0001
0000
0010
0000
,
1000
0001
0010
0010
0001
0100
0100
0001
,
0010
0010
0001
1000
0001
0010
0110
0000
,
2000
0000
3002
0000
0203
0000
0310
0000
1000
0001
1000
0001
2000
0000
0000
0000
,
3001
0100
0010
1000
0010
0010
0110
0000
,
0002
0000
0003
0000
2000
0000
3000
0000
0002
0000
0000
1003
0001
0000
0100
0000
,
0010
1000
0001
0010
0001
0100
1000
0100
,
0001
1000
0100
0010
0001
0001
1000
1000
,
0010
0000
0000
0100
0000
0000
0220
0000
0000
0330
0000
0000
1001
0000
0000
0000
0000
0000
0001
0000
0100
0000
0001
0000
,
0100
0000
0110
0000
0001
0100
1000
0001
,
0010
0000
0000
1000
0000
0000
0010
0000
0000
0100
0000
0000
0001
0000
1000
0000
0001
0000
1000
0000
0100
0000
1000
0000
,
0100
0110
0011
1001
,
0001
0100
0010
1000
0001
0010
0100
1000
,
1001
1010
0101
1100
,
0001
1000
0010
0100
0001
0010
1000
0010
,
0001
0000
1000
0100
0001
1000
0010
0001
,
0010
0000
0100
0000
1000
0001
1000
0001
2000
0000
0000
0000
0000
0000
0000
3000
,
2002
0000
0000
0000
,
3003
0000
0000
0000
;

//--------------- dance-single - Fred-104 ----------------
#NOTES:
     dance-single:
     Fred-104:
     Hard:
     17:
     :
0000
0000
0000
0000
,
0000
0000
0000
0000
,
0000
0000
0000
0000
,
0000
0000
0000
0000
0000
0000
0000
0000
0000
0000
0000
0000
0000
0000
0000
0110
,
1001
0000
0000
0000
,
0000
0000
0000
0000
,
0000
0000
0000
0000
,
0000
0000
0000
0000
0000
0000
0000
1100
,
0110
0000
0000
0000
,
0000
0000
0000
0000
,
0000
0000
0000
0000
,
0001
0010
0100
1000
0010
0100
0001
0010
0100
1000
0010
0100
0002
0000
0000
0003
,
1001
0000
1000
0100
0000
1000
0001
0000
0100
0000
0001
1000
0000
0001
0010
0000
,
0100
0000
0010
0001
0000
0100
0010
0000
1000
0000
0001
0000
0100
1000
0100
0010
,
1000
0000
0001
0010
0000
0100
1000
0000
0001
0000
0100
0001
0000
1000
0001
0000
,
1000
0000
0100
0010
0000
0100
1000
0000
0001
0000
0100
0000
0010
1000
0010
1000
,
0001
0010
0100
1000
0010
0100
0001
0010
0100
1000
0010
0100
0002
0000
0000
0000
,
1003
0100
0010
0001
0100
0010
1000
0100
0010
0001
0100
0010
2000
0000
0000
0000
,
3001
0010
0100
1000
0100
0010
0001
1000
0001
0100
0010
1000
0010
0100
0001
1000
,
0100
0010
0001
0100
0010
1000
0001
0010
0100
0000
0010
0000
0220
0000
0000
0330
,
1001
0000
2010
3100
1020
0130
2010
3000
,
1001
0000
0000
0000
0000
0000
0011
0000
0000
0000
0000
0000
0001
0000
0000
0000
0000
0000
0101
0000
0000
0000
0000
0000
1001
0000
0000
0000
0000
0000
0110
0000
0000
0000
0000
0000
0001
0000
0000
0010
0000
0000
0100
0000
1000
0000
0100
0000
,
2000
0000
0000
3001
1000
0000
0001
0000
0101
0000
1000
0000
0001
1000
0100
0010
,
0001
0010
1000
0010
0002
0000
0000
0000
1003
0000
0010
0000
0110
0000
0000
0000
,
0101
0000
1100
0000
0110
0000
0000
0000
1001
0000
0000
0000
0001
0100
0010
1000
,
0010
0001
0010
2000
0001
0000
0001
0000
0001
0000
3001
0000
0100
0010
0100
0010
,
0100
0000
0001
0000
1000
0000
0100
0000
0120
0000
0000
0031
0100
1000
0100
0010
,
0001
0000
0000
0000
0000
0000
0000
0000
0010
0000
0000
0000
0000
0000
0000
0000
1000
0000
0000
0000
0001
0000
0000
0000
0010
0000
0000
0000
0100
0000
0000
0000
0010
0000
0000
0000
0001
0000
0000
0000
0100
0000
0000
0000
0010
0000
0000
0000
2000
3000
0000
0000
0002
0003
0000
0000
2000
0000
0000
0000
0000
0000
3000
0000
,
2001
0000
0000
3000
0000
0000
0000
0000
0000
0000
0000
0000
0000
0000
0000
0000
0000
0000
0000
0000
0000
0000
0000
0000
0001
0000
0000
0000
0000
0000
0000
0000
0000
0000
0000
0000
0000
0000
0000
0000
0000
0000
0000
0000
0000
0000
0000
0000
1000
0000
0000
0000
0000
0000
0000
0000
0000
0000
0000
0000
0000
0000
0000
0000
0100
0000
0000
0000
0000
0000
0000
0000
0000
0000
0000
0000
0000
0000
0000
0000
0100
0000
0000
0000
0000
0000
0000
0000
0000
0000
0000
0000
0000
0000
0000
0000
0002
0000
0000
0000
0000
0000
0000
0000
0000
0000
0000
0000
0000
0000
0000
0000
0000
0000
0000
0000
0000
0000
0000
0000
0000
0000
0000
0000
0000
0000
0000
0000
0000
0000
0000
0000
0000
0000
0000
0000
0000
0000
0000
0000
0000
0000
0000
0000
0023
0000
0000
0000
0000
0000
0000
0000
0000
0000
0000
0000
0000
0000
0000
0000
0000
0000
0000
0000
0000
0000
0000
0000
0000
0000
0000
0000
0000
0000
0000
0000
0000
0000
0000
0000
0000
0000
0000
0000
0000
0000
0000
0000
0000
0000
0000
0000
,
0130
0000
0000
0000
0000
0000
0000
0000
1000
0000
0000
0000
0100
0000
0000
0000
0000
0000
0000
0000
0001
0000
0000
0000
0100
0000
0000
0000
0000
0000
0000
0000
0010
0000
0000
0000
0001
0000
0000
0010
0000
0000
0100
0000
0000
1000
0000
0000
,
0001
0100
1000
0001
0010
1000
1001
0000
0000
1000
0000
0000
,
0110
0000
0001
1000
0000
0000
0110
0000
1000
0001
0010
0100
,
1000
0000
0000
0000
0010
0000
0000
0000
0100
0000
0000
0000
0001
0000
0000
0010
0000
0000
0100
0000
0000
1000
0000
0000
0001
0000
0000
0000
0000
0000
0000
0000
0000
0000
0000
0000
1001
0000
0000
0000
0000
0000
0000
0000
0000
0000
0000
0000
,
1100
0000
0000
0000
0000
0000
0000
0000
0001
0000
0000
0000
0100
0000
0000
0000
0000
0000
0000
0000
0000
0000
0000
0000
0101
0000
0000
0000
0000
0000
0000
0000
1000
0000
0000
0000
0001
0000
0000
0010
0000
0000
0100
0000
0000
1000
0000
0000
,
0001
0100
1000
0100
0001
0100
1000
0100
0001
0000
0000
1000
0100
0010
0001
1000
,
0010
0000
0100
0001
1000
0001
0010
0000
0100
0010
0001
0000
0100
0010
0100
0010
,
0200
0000
0000
0000
,
0000
0000
0000
0000
,
0000
0000
0000
0000
,
0300
0000
0000
0000
0000
0000
0000
0110
,
1001
0000
0000
0000
,
0000
0000
0000
0000
,
0000
0000
0000
0000
,
1000
0000
0100
0000
0010
0000
0001
0000
0100
0000
0010
0000
1000
0000
0100
0000
0020
0000
0032
0000
1003
0001
1000
0001
1000
0000
0000
0000
0001
0000
0010
0000
,
1000
0000
0010
0001
1000
0000
0001
0100
1000
0000
0100
0001
1000
0000
0100
0001
,
0000
0100
1000
0000
0100
0001
0100
0000
1000
0001
0100
0010
1000
0000
0001
0010
,
1000
0000
0010
0001
0100
0000
0001
0010
1000
0000
0010
0001
0100
0000
0001
0100
,
0000
1000
0100
0000
0001
0010
0100
0000
1000
0100
0010
0001
1000
0000
0100
0010
,
0000
0001
1000
0000
0001
0100
1000
0000
0100
0000
0001
1000
0100
0000
0001
0100
,
0000
0010
0001
0000
1000
0010
0001
0010
0100
0000
0001
0000
1000
0100
0010
0001
,
1000
0010
0100
0001
1000
0001
0010
0100
1000
0001
0100
0010
2000
0000
3020
0000
,
0032
0000
0000
0000
0000
0000
0000
0000
0023
0000
0000
0000
0000
0000
0000
0000
2030
3000
0000
0000
0200
0300
0000
0000
0020
0030
0000
0000
0011
0000
0000
0000
1000
0000
0000
0000
0100
0000
0000
0000
0001
0000
0000
0000
0100
0000
0000
0000
1000
0000
0000
0000
0001
0000
0000
0000
0100
0000
0000
0000
0010
0000
0000
0000
,
1000
0000
0001
0010
0100
0010
1000
0000
1000
0010
0100
0010
0001
0000
0001
0100
,
1000
0100
0001
0000
1000
0100
0020
0000
0031
1000
0010
0000
1000
0001
0010
0001
,
0200
0000
0320
0000
2030
0000
3001
0010
0100
1000
0100
1000
0200
0000
0000
0000
,
1300
0000
0000
0000
0000
0000
0001
0000
0000
0000
0000
0000
0100
0000
0000
0001
0000
0000
1000
0000
0100
0000
1000
0000
0100
0000
0000
0000
0000
0000
1100
0000
0000
0000
0000
0000
1001
0000
0000
0000
0000
0000
0000
0000
0000
0001
0000
0000
,
0200
0300
0010
0001
0010
1000
0002
0003
1000
0200
0000
0310
1000
0001
0200
0000
,
0310
0000
0000
0000
0000
0000
0001
0000
0000
0000
0000
0000
1000
0000
0000
0010
0000
0000
0100
0000
0001
0000
1000
0000
0001
0000
0000
0000
0000
0000
0101
0000
0000
0000
0000
0000
1100
0000
0000
0000
0000
0000
0101
0000
0000
0000
0000
0000
,
1000
0000
0001
0000
1000
0000
0001
0000
0000
0000
0000
0000
1000
0000
0010
0000
1000
0000
0010
0000
0000
0100
0000
0000
0002
0000
0000
0000
0000
0000
0010
0000
0000
0000
0000
0000
2003
0000
0000
0000
0000
0000
0100
0000
0000
0000
0000
0000
,
3001
0000
0000
0000
0000
0000
0000
0000
0000
0000
0000
0000
0000
0000
0000
0000
0000
0000
0000
0000
0000
0000
0000
0000
1000
0000
0000
0000
0000
0000
0000
0000
0000
0000
0000
0000
0000
0000
0000
0000
0000
0000
0000
0000
0000
0000
0000
0000
0200
0000
0000
0300
0000
0000
0000
0000
0000
0000
0000
0000
0020
0000
0000
0030
0000
0000
0000
0000
0000
0000
0000
0000
0200
0000
0000
0000
0000
0000
0000
0000
0000
0000
0000
0000
0000
0000
0000
0000
0000
0000
0300
0000
0000
0000
0000
0000
1100
0000
0000
0000
0000
0000
0000
0000
0000
0000
0000
0000
0000
0000
0000
0000
0000
0000
0000
0000
0000
0000
0000
0000
1001
0000
0000
0000
0000
0000
0000
0000
0000
0000
0000
0000
0000
0000
0000
0000
0000
0000
0000
0000
0000
0000
0000
0000
1000
0000
0000
0000
0000
0000
0000
0000
0000
0000
0000
0000
0000
0000
0000
0000
0100
0000
0000
0000
0000
0000
0000
0000
0000
0000
0000
0000
0000
0000
0000
0000
0010
0000
0000
0000
0000
0000
0000
0000
0000
0000
0000
0000
0000
0000
0000
0000
,
0021
0000
0031
0100
0020
0000
0031
1000
0200
0000
0301
1000
0200
0000
0301
1000
,
0020
0000
0000
0000
0000
0000
0230
0000
0000
0000
0000
0000
1300
0000
0000
0010
0000
0000
1000
0000
0001
0000
1000
0000
0001
0000
0000
0000
0010
0000
0000
0000
0010
0000
0000
0000
1000
0000
0000
0000
0010
0000
0000
0000
0010
0000
0000
0000
,
0002
0000
1003
0100
0020
0000
1030
0001
0200
0000
1300
0001
0200
0000
0310
0001
,
2000
0000
0000
0000
0000
0000
3100
0000
0000
0001
0000
0000
1000
0000
0000
0100
0000
0000
0010
0000
0000
0001
0000
0000
1000
0000
0000
0010
0000
0000
1000
0000
0000
0001
0000
0000
0010
0000
0100
0000
0010
0000
0000
0000
0001
0000
0000
0000
,
2000
0000
3001
0100
2000
0000
3001
0010
0200
0000
0301
0010
0200
0000
1300
0100
,
0020
0000
0032
0000
1003
0010
0100
0001
1000
0100
0001
0100
1000
0100
0001
0100
,
1000
0000
0000
0010
0100
1000
0100
0001
1000
0100
0010
0001
0100
0010
1000
0001
,
0010
0001
1000
0010
0001
1000
0100
0010
2000
0000
0000
0000
0000
0000
0000
3000
,
2002
0000
0000
0000
,
3003
0000
0000
0000
;

//--------------- dance-double - Fred-104 ----------------
#NOTES:
     dance-double:
     Fred-104:
     Easy:
     8:
     :
00000000
00000000
00000000
00000000
,
00000000
00000000
00000000
00000000
,
00000000
00000000
00000000
00000000
,
00000000
00000000
00000000
00000000
,
00011000
00000000
00000000
00000000
,
00000000
00000000
00000000
00000000
,
00000000
00000000
00000000
00000000
,
00000000
00000000
00000000
00000000
,
00011000
00000000
00000000
00000000
,
00000000
00000000
00000000
00000000
,
00000000
00000000
00000000
00000000
,
00010000
00001000
00000100
00000002
,
00001003
00001000
00000100
00000100
,
00010000
00010000
00001000
00001000
,
00010000
00010000
00100000
00100000
,
10000000
00000000
10000000
00000000
00010000
00000000
00010000
10000000
,
01000000
00000000
00000000
00100000
00000000
00000000
00001000
00000000
00000000
00010000
00000000
00000000
00011000
00000000
00000000
00000000
,
00010000
00000000
00000000
00001000
00000000
00000000
00000100
00000000
00000000
00000001
00000000
00000000
00000011
00000000
00000000
00000000
,
00001000
00000000
00000000
00000001
00000000
00000000
00000100
00000000
00001000
00000000
00000000
00010000
00000000
00000000
00100000
00000000
,
10000000
00000000
01000000
00000000
00010000
00001000
00011000
00000000
,
00011000
00001000
01001000
01000000
,
00010000
00020000
00000000
00130000
01000000
10000000
00010000
00000000
,
20000000
00000000
00000000
30100000
00000000
00000000
10000000
00000000
01000000
00000000
00100000
00000000
01000000
00000000
00000000
00000000
,
00100000
00100000
00100000
00000000
00001000
00000000
00011000
00000000
,
00010010
00000000
00010000
00000000
00011000
00000000
00010000
00001000
,
00000100
00000020
00001000
00001030
,
00000100
00000010
00000001
00000000
00001001
00000000
00000001
00000000
,
00000100
00001000
00010000
00000000
00001000
00010000
00002000
00003000
,
01000000
00100000
01100000
00000000
,
10000000
01000000
00100000
00001000
,
00010000
00001000
00011000
00000000
,
00001001
00000000
00010000
00001000
,
00010000
00001000
00011000
00000000
,
00001000
00000000
00010000
00100000
,
10000000
01000000
00010000
00001000
,
00000100
00000000
00000001
00000000
00000010
00001000
00010000
00000000
,
00011000
00000000
00000000
00000000
,
00000000
00000000
00000000
00000000
,
00000000
00000000
00000000
00000000
,
00000000
00000000
00000000
00000000
00000000
00000000
00000000
10000000
,
10010000
00000000
00000000
00000000
,
00000000
00000000
00000000
00000000
,
00000000
00000000
00000000
00000000
,
00001000
00000000
00010000
00000000
00001000
00002000
00013000
00000000
,
00010000
00001000
00001000
00000100
,
00000100
00000000
00000001
00001000
00000001
00001000
00000001
00000000
,
00000010
00000010
00010000
00010000
,
00100000
00000000
00100000
01000000
10000000
01000000
10000000
00000000
,
00100000
00010000
00001000
00000100
,
00000001
00000000
00000010
00000100
00000010
00000100
00010000
00000000
,
00001000
00100000
01000000
10000000
,
00010000
00000000
20020000
30030000
10000000
00000000
01000000
00000000
,
01100000
00000000
00000000
00001000
00000000
00000000
00010000
00000000
,
00000010
00001000
00000010
00000000
00010000
00001000
00010000
00000000
,
00200000
00000000
02300000
00000000
03010000
10000000
01000000
00000000
,
00100000
00001000
00010000
00001000
,
00011000
00000000
00020000
00031000
,
00000100
00000001
00000010
00001000
,
00010000
00000000
00001000
00000000
00010000
00001000
00000100
00000000
,
00000001
00000000
00000220
00000330
00001000
00000000
00000100
00000000
,
00000110
00000000
00000001
00000100
,
00001000
00010000
00001000
01000000
,
01100000
00000000
10000000
01000000
,
00100000
00001000
00000010
00000100
,
00001100
00000000
00000001
00000100
,
00001000
00010000
00100000
10000000
,
01000000
00000000
00010000
00000000
00001000
00010000
00001000
00000000
,
00000100
00000010
00000100
00000000
00000220
00000000
00000000
00000330
,
00002002
00000000
00000000
00000000
,
00003003
00000000
00000000
00000000
;

//--------------- dance-double - Fred-104 ----------------
#NOTES:
     dance-double:
     Fred-104:
     Medium:
     13:
     :
00000000
00000000
00000000
00000000
,
00000000
00000000
00000000
00000000
,
00000000
00000000
00000000
00000000
,
00000000
00000000
00000000
00000000
00000000
00000000
00000000
00000000
00000000
00000000
00000000
00000000
00000000
00000000
00000000
00001000
,
00011000
00000000
00000000
00000000
,
00000000
00000000
00000000
00000000
,
00000000
00000000
00000000
00000000
,
00000000
00000000
00000000
00000000
00000000
00000000
00000000
01000000
,
10010000
00000000
00000000
00000000
,
00000000
00000000
00000000
00000000
,
00000000
00000000
00000000
00000000
,
10000000
00100000
00010000
00001000
00000010
00000001
00001000
00000000
,
00001001
00000001
00000100
00000100
,
00001000
00000000
00000000
00000000
00001000
00000000
00000000
00000000
00010000
00000000
00000000
00000000
00010000
00001000
00010000
00001000
,
00010000
00010000
01000000
01000000
,
10000000
00000000
00000000
00000000
10000000
00000000
00000000
00000000
00010000
00000000
10000000
00000000
00010000
10000000
00010000
10000000
,
00010000
00000000
10000000
01000000
00000000
00100000
00001000
00000000
00010000
00000100
00000000
00001000
00000002
00000000
00000000
00000000
,
00000103
00000000
00000001
00001000
00000000
00000010
00010000
00000000
00001000
01000000
00000000
00100000
20000000
00000000
00000000
00000000
,
30010000
01000000
10000000
01000000
00100000
01000000
00010000
10000000
,
01000000
00010000
00001000
00000010
00000100
00001000
00001001
00000000
,
00000110
00000000
00001000
00000001
00000100
00000010
00001010
00000000
,
00000001
00000100
00000000
00001000
00010000
01000000
10000000
01000000
,
00200000
00000000
00000000
00301000
00010000
00000000
00010000
00000000
00001000
00000000
00010000
00000000
00001000
00000000
00010000
00000000
,
00000010
00001000
00000010
00001000
00000020
00000000
00000000
00000000
00000130
00000000
00000001
00000000
00001001
00000000
00000000
00000000
,
00000101
00000000
00001100
00000000
00011000
00000000
00001000
00010000
,
01000000
00100000
00020000
00100000
00100000
00130000
01000000
00100000
,
00001000
00000000
00010000
00000000
00000010
00000000
00010000
00000000
00011000
00000000
00000000
00001000
01000000
00000000
00001000
00000000
,
00010000
00100000
01000000
00100000
00010000
00001000
00020000
00030000
,
00001000
00000000
00000000
00010000
00000000
00000000
00001000
00000000
00010000
00000000
00000010
00000000
00001000
00000000
00000000
00000000
00000000
00000000
00010010
00000000
00000000
00000000
00000000
00000000
,
01001000
00000000
00010100
00000000
00101000
00000000
00001000
00010000
,
00001000
01000000
00001000
01000000
00001000
01000000
00001000
00000000
00000000
00010000
00000000
00000000
,
01100000
00000000
00000000
10010000
00000000
00000000
11000000
00000000
00000000
10000000
01000000
10000000
,
01000000
00000000
00100000
00000000
00010000
00000000
00100000
00000000
00000000
00001000
00000000
00000000
00010000
00000000
00000000
00000000
00000000
00000000
00101000
00000000
00000000
00000000
00000000
00000000
,
00010010
00000000
01001000
00000000
00010100
00000000
00010000
00001000
,
00010000
00001000
00000100
00001000
00010000
00000000
00001000
00010000
,
01000000
00000000
00100000
00000000
00010000
00000000
00100000
00000000
00001000
00000000
00010000
00000000
00000010
00001000
00000010
00001000
,
00000020
00000000
00000000
00000000
,
00000000
00000000
00000000
00000000
,
00000000
00000000
00000000
00000000
,
00000030
00000000
00000000
00000000
00000000
00000000
00000000
00000100
,
00001001
00000000
00000000
00000000
,
00000000
00000000
00000000
00000000
,
00000000
00000000
00000000
00000000
,
10000000
00000000
00100000
00000000
00010000
00000000
00001000
00000000
00010000
00100000
02000000
03020000
10030000
00000000
00000000
10000000
,
01000000
00000000
00100000
00000000
00001000
00000000
00000000
00001000
00010000
00000000
00000010
00001000
00000010
00000000
00010000
00001000
,
00000000
00100000
00001000
00000000
00010000
00000000
00001000
00000000
00000010
00000000
00000100
00000000
00001000
00000000
00000000
00001000
,
00000001
00000000
00000100
00000000
00001000
00000000
00000000
00001000
00010000
00000000
00001000
01000000
00001000
00000000
00010000
00100000
,
00000000
01000000
00010000
00000000
10000000
00000000
01000000
00000000
10000000
00000000
00100000
00000000
01000000
00000000
00000000
01000000
,
00001000
00000000
00010000
00000000
00001000
00010000
00001000
00000000
00000100
00000000
00000010
00001000
00000010
00000000
00000000
00000100
,
00000001
00000000
00001000
00000000
00000100
00000010
00000100
00000000
00000010
00000000
00000001
00000000
00000100
00000000
00001000
00000000
,
00010000
00001000
00010000
01000000
10000000
01000000
00200000
00302000
,
00023000
00000000
00030020
00000000
00001030
00001000
00000001
00000002
00001003
00000000
00000100
00000000
00000001
00000000
00000100
00000000
,
00001000
00000000
00000100
00000000
00010000
00001000
00010000
00000000
00001000
00000000
00010000
00001000
00010000
00000000
00000010
00000000
,
00010000
00001000
00010000
00000000
00001000
00000000
00010000
00000000
00001000
00000000
01000000
00000000
01010000
00000000
00000000
00000000
,
20000000
32000000
03020000
00031000
00010000
00010000
00020000
00000000
,
00031000
00010000
00001000
00000100
00000001
00000010
00000110
00000000
,
00020000
00000000
00030000
00000000
00002000
00000000
00003000
00000000
00020000
00000000
00000000
00031000
00010000
00000000
01000000
00000000
,
00100000
01000000
00010000
00001000
00010000
00001000
00000100
00000010
,
00000100
00001000
00010000
00001000
00010000
00010000
00001000
00001000
,
00010000
00000000
00000000
00001000
00000000
00000000
00022000
00000000
00000000
00033000
00000000
00000000
01100000
00000000
00000000
00000000
00000000
00000000
00010000
00000000
10000000
00000000
00010000
00000000
,
10000000
00000000
01100000
00000000
00010000
10000000
01000000
00010000
,
00001000
00000000
00000000
00000100
00000000
00000000
00000010
00000000
00000000
00001000
00000000
00000000
00000001
00000000
00000010
00000000
00000001
00000000
00000010
00000000
00000100
00000000
00001000
00000000
,
00000100
00011000
01001000
00011000
,
00001000
00010000
00100000
10000000
01000000
00100000
00001000
00010000
,
00011000
00010010
00101000
00010100
,
00010000
00001000
00000100
00000001
00001000
00000100
00000001
00000100
,
00001000
00000000
00000010
00000100
00001000
00010000
00100000
01000000
,
00010000
00000000
10000000
00000000
01000000
00100000
01000000
00000000
02200000
00000000
00000000
00000000
00000000
00000000
00000000
03300000
,
20020000
00000000
00000000
00000000
,
30030000
00000000
00000000
00000000
;

//--------------- dance-double - Fred-104 ----------------
#NOTES:
     dance-double:
     Fred-104:
     Hard:
     17:
     :
00000000
00000000
00000000
00000000
,
00000000
00000000
00000000
00000000
,
00000000
00000000
00000000
00000000
,
00000000
00000000
00000000
00000000
00000000
00000000
00000000
00000000
00000000
00000000
00000000
00000000
00000000
00000000
00000000
00011000
,
00011000
00000000
00000000
00000000
,
00000000
00000000
00000000
00000000
,
00000000
00000000
00000000
00000000
,
00000000
00000000
00000000
00000000
00000000
00000000
00000000
00001010
,
00000101
00000000
00000000
00000000
,
00000000
00000000
00000000
00000000
,
00000000
00000000
00000000
00000000
,
00000001
00000100
00001000
00000000
00010000
00100000
10000000
00000000
00010000
00100000
01000000
10000000
00020000
00000000
00000000
00030000
,
10010000
00000000
10000000
01000000
00000000
00100000
00001000
00000000
00010000
00000000
00001000
00000010
00000000
00000100
00001000
00000000
,
00000001
00000000
00000100
00000010
00000000
00000100
00001000
00000000
00010000
00000000
00100000
00000000
01000000
00010000
10000000
00010000
,
00100000
00000000
01000000
00100000
00000000
00001000
00000010
00000000
00000100
00000000
00001000
00000100
00000000
00010000
00001000
00000000
,
01000000
00000000
00001000
00010000
00000000
00100000
10000000
00000000
00010000
00000000
00100000
00000000
00001000
00010000
00001000
01000000
,
00001000
00010000
00000100
00001000
00000010
00000100
00000001
00000100
00000010
00001000
00000100
00010000
00002000
00000000
00000000
00000000
,
00013000
00001000
00100000
00010000
01000000
00100000
10000000
00100000
01000000
00010000
00100000
00001000
00020000
00000000
00000000
00000000
,
00031000
00010000
01000000
00100000
00010000
10000000
00100000
01000000
00100000
10000000
00010000
00100000
01000000
00100000
00001000
00010000
,
00000100
00000010
00000001
00001000
00000010
00010000
00001000
00100000
01000000
00000000
10000000
00000000
20020000
00000000
00000000
30030000
,
01100000
00000000
00201000
00301000
00010020
00010030
00011000
00000000
,
00001100
00000000
00000000
00000000
00000000
00000000
00000101
00000000
00000000
00000000
00000000
00000000
00001000
00000000
00000000
00000000
00000000
00000000
00001010
00000000
00000000
00000000
00000000
00000000
00000011
00000000
00000000
00000000
00000000
00000000
00001001
00000000
00000000
00000000
00000000
00000000
00001000
00000000
00000000
00000001
00000000
00000000
00000100
00000000
00000001
00000000
00001000
00000000
,
00000002
00000000
00000000
00001003
00000010
00000000
00010000
00000000
00011000
00000000
00001000
00000000
01000000
00010000
10000000
01000000
,
00100000
00001000
00010000
00100000
02000000
00000000
00000000
00000000
03010000
00000000
10000000
00000000
11000000
00000000
00000000
00000000
,
01010000
00000000
01001000
00000000
00011000
00000000
00000000
00000000
00000110
00000000
00000000
00000000
00001000
00000010
00000100
00000001
,
00001000
00000100
00000001
00000100
00002000
00000000
00000100
00000000
00000100
00000000
00003100
00000000
00000010
00000001
00001000
00000010
,
00000100
00000000
00001000
00000000
00010000
00000000
00100000
00000000
02100000
00000000
00000000
03010000
01000000
10000000
01000000
00100000
,
00010000
00000000
00000000
00000000
00000000
00000000
00000000
00000000
00100000
00000000
00000000
00000000
00000000
00000000
00000000
00000000
10000000
00000000
00000000
00000000
01000000
00000000
00000000
00000000
00100000
00000000
00000000
00000000
00001000
00000000
00000000
00000000
00010000
00000000
00000000
00000000
00000100
00000000
00000000
00000000
00001000
00000000
00000000
00000000
00000001
00000000
00000000
00000000
00000200
00000300
00000000
00000000
00000020
00000030
00000000
00000000
00000200
00000000
00000000
00000000
00000000
00000000
00000300
00000000
,
00001001
00000000
00000000
00000001
00000000
00000000
00000100
00000000
00001000
00000000
00010000
00000000
00002000
00000000
00000000
00000000
00000000
00000000
02003000
00000000
00000000
00000000
00000000
00000000
,
03001000
00000000
00000000
00000000
00000000
00000000
00000000
00000000
00010000
00000000
00000000
00000000
00100000
00000000
00000000
00000000
00000000
00000000
00000000
00000000
10000000
00000000
00000000
00000000
01000000
00000000
00000000
00000000
00000000
00000000
00000000
00000000
00100000
00000000
00000000
00000000
00001000
00000000
00000000
00010000
00000000
00000000
00001000
00000000
00000000
00000010
00000000
00000000
,
00000001
00000100
00001000
00010000
01000000
10000000
10010000
00000000
00000000
01000000
00000000
00000000
,
00011000
00000000
00000010
00001000
00000000
00000000
00000101
00000000
00001000
00000001
00000010
00001000
,
00010000
00000000
00000000
00000000
00100000
00000000
00000000
00000000
10000000
00000000
00000000
00000000
00010000
00000000
00000000
00100000
00000000
00000000
01000000
00000000
00000000
10000000
00000000
00000000
01000000
00000000
00000000
00000000
00000000
00000000
00000000
00000000
00000000
00000000
00000000
00000000
10010000
00000000
00000000
00000000
00000000
00000000
00000000
00000000
00000000
00000000
00000000
00000000
,
01100000
00000000
00000000
00000000
00000000
00000000
00000000
00000000
10000000
00000000
00000000
00000000
00010000
00000000
00000000
00000000
00000000
00000000
00000000
00000000
00000000
00000000
00000000
00000000
01100000
00000000
00000000
00000000
00000000
00000000
00000000
00000000
00010000
00000000
00000000
00000000
10000000
00000000
00000000
01000000
00000000
00000000
00100000
00000000
00000000
00001000
00000000
00000000
,
00010000
00001000
00000010
00001000
00010000
00001000
00000010
00001000
00010000
00000000
00000000
00001000
00010000
00000010
00001000
00000001
,
00000100
00000000
00000010
00000100
00001000
00010000
00100000
00000000
01000000
00010000
10000000
00000000
01000000
00100000
01000000
00100000
,
02000000
00000000
00000000
00000000
,
00000000
00000000
00000000
00000000
,
00000000
00000000
00000000
00000000
,
03000000
00000000
00000000
00000000
00000000
00000000
00000000
00101000
,
00011000
00000000
00000000
00000000
,
00000000
00000000
00000000
00000000
,
00000000
00000000
00000000
00000000
,
00000001
00000000
00001000
00000000
00000010
00000000
00010000
00000000
00001000
00000000
01000000
00000000
00010000
00000000
01000000
00000000
00002000
00000000
00023000
00000000
00031000
00010000
00001000
00010000
00001000
00000000
00000000
00000000
00001000
00000000
00010000
00000000
,
00100000
00000000
00010000
00001000
00100000
00000000
00010000
10000000
00100000
00000000
01000000
00010000
10000000
00000000
01000000
00010000
,
00000000
00001000
00010000
00000000
00100000
00000000
01000000
00000000
00100000
10000000
00010000
00100000
01000000
00000000
00100000
00001000
,
00010000
00000000
00001000
00000010
00000001
00000000
00000010
00000100
00001000
00000000
00000001
00000100
00001000
00000000
00010000
00001000
,
00000000
00000100
00000010
00000000
00001000
00000000
00000001
00000000
00001000
00000010
00010000
00001000
00010000
00000000
00001000
00010000
,
00000000
01000000
00100000
00000000
00001000
00010000
00100000
00000000
01000000
00000000
00100000
10000000
00010000
00000000
00100000
00010000
,
00000000
00001000
00000100
00000000
00000010
00000001
00001000
00000010
00000100
00000000
00000001
00000000
00001000
00000001
00000100
00000010
,
00000100
00001000
00010000
00100000
01000000
00100000
10000000
00010000
00100000
01000000
00100000
00010000
20000000
00000000
30200000
00000000
,
00320000
00000000
00000000
00000000
00000000
00000000
00000000
00000000
00032000
00000000
00000000
00000000
00000000
00000000
00000000
00000000
00023000
00030000
00000000
00000000
00002000
00003000
00000000
00000000
00020000
00030000
00000000
00000000
00011000
00000000
00000000
00000000
00010000
00000000
00000000
00000000
00001000
00000000
00000000
00000000
00000100
00000000
00000000
00000000
00001000
00000000
00000000
00000000
00010000
00000000
00000000
00000000
00001000
00000000
00000000
00000000
01000000
00000000
00000000
00000000
00001000
00000000
00000000
00000000
,
00010000
00000000
00001000
00010000
00100000
00010000
00001000
00000000
00010000
00001000
00000010
00001000
00010000
00000000
00001000
00010000
,
00100000
00010000
00001000
00000000
00010000
00001000
02000000
00000000
03010000
10000000
01000000
00000000
00100000
00001000
00100000
00001000
,
00020000
00000000
00032000
00000000
00003200
00000000
00000310
00001000
00000010
00010000
00001000
00010000
02000000
00000000
00000000
00000000
,
03100000
00000000
00010000
00000000
01000000
00001000
00010000
00000010
00001000
00000000
00001010
00000000
00010010
00000000
00000000
00001000
,
00020000
00030000
00100000
01000000
00100000
00010000
00002000
00003000
00010000
00002000
00000000
00003010
00000100
00000010
00002000
00000000
,
00013000
00000000
00001000
00000000
00010000
00001000
01000000
00001000
00010000
00000000
00010010
00000000
01001000
00000000
00011000
00000000
,
00001000
00000000
00100000
00000000
00010000
00000000
10000000
00000000
00000000
00000000
00000000
00000000
00010000
00000000
00000000
01000000
00000000
00000000
10000000
00000000
00000000
01000000
00000000
00000000
00020000
00000000
00000000
00000000
00000000
00000000
00100000
00000000
00000000
00000000
00000000
00000000
20030000
00000000
00000000
00000000
00000000
00000000
01000000
00000000
00000000
00000000
00000000
00000000
,
30010000
00000000
00000000
00000000
00000000
00000000
00000000
00000000
00000000
00000000
00000000
00000000
00000000
00000000
00000000
00000000
00000000
00000000
00000000
00000000
00000000
00000000
00000000
00000000
10000000
00000000
00000000
00000000
00000000
00000000
00000000
00000000
00000000
00000000
00000000
00000000
00000000
00000000
00000000
00000000
00000000
00000000
00000000
00000000
00000000
00000000
00000000
00000000
02000000
00000000
00000000
03000000
00000000
00000000
00000000
00000000
00000000
00000000
00000000
00000000
00200000
00000000
00000000
00300000
00000000
00000000
00000000
00000000
00000000
00000000
00000000
00000000
00002000
00000000
00000000
00000000
00000000
00000000
00000000
00000000
00000000
00000000
00000000
00000000
00000000
00000000
00000000
00000000
00000000
00000000
00003000
00000000
00000000
00000000
00000000
00000000
00011000
00000000
00000000
00000000
00000000
00000000
00000000
00000000
00000000
00000000
00000000
00000000
00000000
00000000
00000000
00000000
00000000
00000000
00000000
00000000
00000000
00000000
00000000
00000000
00010100
00000000
00000000
00000000
00000000
00000000
00000000
00000000
00000000
00000000
00000000
00000000
00000000
00000000
00000000
00000000
00000000
00000000
00000000
00000000
00000000
00000000
00000000
00000000
00010000
00000000
00000000
00000000
00000000
00000000
00000000
00000000
00000000
00000000
00000000
00000000
00000000
00000000
00000000
00000000
00001000
00000000
00000000
00000000
00000000
00000000
00000000
00000000
00000000
00000000
00000000
00000000
00000000
00000000
00000000
00000000
00000100
00000000
00000000
00000000
00000000
00000000
00000000
00000000
00000000
00000000
00000000
00000000
00000000
00000000
00000000
00000000
,
00000002
00000000
00001003
00000100
00000002
00000000
00001003
00000010
00000002
00000000
00000013
00000001
00002000
00000000
00003010
00010000
,
00002000
00000000
00000000
00000000
00000000
00000000
02003000
00000000
00000000
00000000
00000000
00000000
03100000
00000000
00000000
01000000
00000000
00000000
00010000
00000000
10000000
00000000
00010000
00000000
10000000
00000000
00000000
00000000
01000000
00000000
00000000
00000000
00010000
00000000
00000000
00000000
00001000
00000000
00000000
00000000
00000100
00000000
00000000
00000000
00000001
00000000
00000000
00000000
,
00002000
00000000
00003100
00000010
00002000
00000000
00013000
01000000
00200000
00000000
00310000
00100000
02000000
00000000
03010000
10000000
,
00200000
00000000
00000000
00000000
00000000
00000000
00310000
00000000
00000000
00000000
00000000
00000000
10000000
00000000
00000000
00100000
00000000
00000000
00010000
00000000
00000000
00001000
00000000
00000000
00000100
00000000
00000000
00000001
00000000
00000000
00001000
00000000
00000000
00000100
00000000
00000000
00000010
00000000
00000100
00000000
00001000
00000000
00000000
00000000
00000001
00000000
00000000
00000000
,
00002000
00000000
00003001
00001000
00000020
00000000
00000130
00001000
00020000
00000000
00130000
10000000
00020000
00000000
00130000
01000000
,
00020000
00000000
00032000
00000000
00003100
00000001
00000100
00000001
00001000
00000100
00000001
00000100
00001000
00000100
00000001
00000100
,
00001000
00000000
00000000
00000001
00001000
00000010
00000100
00001000
00010000
00100000
00010000
00001000
00000100
00000001
00001000
00000100
,
00000010
00001000
00010000
01000000
10000000
01000000
00100000
00000000
00220000
00000000
00000000
00000000
00000000
00000000
00000000
00330000
,
00022000
00000000
00000000
00000000
,
00033000
00000000
00000000
00000000
;
