#TITLE:NEO GENERATOR SEVEN;
#ARTIST:L.E.D.-G;
#GENRE:MAINSTREAM HARDCORE;
#BANNER:NEO GENERATOR SEVEN.png;
#BACKGROUND:NEO GENERATOR SEVEN-bg.png;
#CDTITLE:./CDTitles/bm IIDX 22 PENDUAL.png;
#MUSIC:NEO GENERATOR SEVEN.ogg;
#SAMPLESTART:85.71;
#SAMPLELENGTH:15;
#BPMS:0=182;
#BGSTAGE:29;

//--------------- dance-single - Fred-104 ----------------
#NOTES:
     dance-single:
     Fred-104:
     Beginner:
     7:
     :
0000
0000
0000
0000
,
0000
0000
0000
0000
,
0000
0000
0000
0000
,
0000
0000
0000
0000
,
0000
0000
0000
0000
,
0000
0000
0000
0000
,
0000
0000
0000
0000
,
0000
0000
0000
0000
,
0000
0000
0000
0000
,
1000
1000
0001
0001
,
0010
0100
0010
0001
,
0100
0100
0010
1000
,
0001
1000
2002
3003
,
0001
0001
0010
0010
,
1000
1000
0100
0100
,
0001
0001
1000
1000
,
0100
0010
0001
1000
,
2002
0000
0000
0000
,
3003
0000
0000
0000
,
0001
0010
1000
0000
,
0100
0010
0100
0001
,
1000
0100
0010
0001
,
1000
0001
1000
2002
,
3003
0000
0001
1000
,
0100
0010
0100
0001
,
0100
0010
0100
1000
,
2002
0000
0000
3003
,
0001
0100
0010
0100
,
0010
1000
0100
0000
,
0010
0100
1000
0010
,
1000
0001
0010
0000
,
0100
0010
0001
0100
,
0010
1000
0001
0000
,
0100
0100
0010
0010
,
0100
0001
1000
0001
,
1001
0000
0001
1000
,
0100
0100
0010
0100
,
0010
0001
0100
0010
,
0100
0001
1000
0000
,
0001
0001
0100
0100
,
1000
1000
0010
0010
,
0001
0001
1000
1000
,
0100
0000
0010
0000
0001
1000
0001
0000
,
1001
0000
0000
0000
,
0000
0000
0000
0000
,
0000
0000
0000
0000
,
0000
0000
0000
0000
,
0000
0000
0000
0000
,
0000
0000
0000
0000
,
0000
0000
0000
0000
,
0000
0000
0000
0000
,
0110
0000
0000
0001
,
0000
1000
0000
0000
,
0110
0000
0000
1000
,
0000
0001
0000
0000
,
1001
0000
0000
1000
,
0000
0001
0000
0000
,
1001
0000
0000
0000
,
0000
0000
0000
0000
,
1000
1000
0100
0100
,
0001
0001
0010
0010
,
1000
0100
0010
0001
,
0100
0000
0100
0000
0010
0100
0010
0000
,
2002
0000
0000
0000
,
0000
0000
0000
0000
,
3003
0000
0000
0000
,
1000
1000
0001
0100
,
0010
0100
0001
0000
,
0010
0010
0100
1000
,
0001
0001
0100
0100
,
0110
0000
0001
1000
,
0000
1000
0100
1000
,
0002
0003
0200
0300
,
2000
3000
0020
0030
,
0001
1000
0010
1000
,
0100
0100
0010
0000
,
0001
1000
0001
0010
,
0100
0100
1000
0000
,
1001
0000
0000
0000
,
0000
0000
0000
0000
,
1001
0000
0110
0000
,
0001
0000
1000
0000
,
0002
0000
1003
0000
,
0001
0010
0001
0000
,
1000
0010
1000
0000
,
0001
0010
0100
0000
,
1000
0100
0010
0000
,
0001
1000
0010
0000
,
0100
0000
0001
0000
1000
0001
1000
0000
,
1100
0000
0000
0110
0000
0000
0011
0000
,
2002
0000
0000
0000
,
3003
0000
0000
0000
;

//--------------- dance-single - Fred-104 ----------------
#NOTES:
     dance-single:
     Fred-104:
     Easy:
     10:
     :
0000
0000
0000
0000
,
0000
0000
0000
0000
,
0000
0000
0000
0000
,
0000
0000
0000
0000
,
0000
0000
0000
0000
,
0000
0000
0000
0000
,
0000
0000
0000
0000
,
0000
0000
0000
0000
,
0000
0000
0000
0000
,
1000
0001
0100
0010
,
1000
0000
0001
0000
0010
0100
0010
0000
,
0100
1000
0001
0100
,
0010
0000
0100
0000
0220
0000
0330
0001
,
1000
1000
0100
0100
,
0010
0010
0001
0001
,
1000
0010
1000
0000
0001
0100
0001
0000
,
1000
0001
1000
0001
1000
0001
1000
0001
,
2000
0000
0000
0000
,
3000
0000
0000
0000
,
1001
0000
1000
0000
0001
1000
0010
0000
,
0001
0100
0010
0100
,
1000
0001
0100
0010
,
1000
0100
0010
0022
,
0033
0000
0001
1000
0001
0000
0010
0000
,
1000
0100
0010
0100
,
0001
0000
1000
0000
0100
0010
0001
0000
,
2002
0000
0000
3003
,
1000
0001
1000
0000
0010
0000
1000
0000
,
0001
0000
1000
0000
0100
0010
0001
0000
,
1000
0010
0001
0010
,
1000
0000
0001
0000
0010
0100
1000
0000
,
0001
0001
0001
0000
1000
0000
0001
0000
,
0100
0000
0010
0000
1000
0001
0010
0000
,
0100
1000
0100
0000
0010
0001
0010
0000
,
0001
1000
0001
1000
0020
0000
0230
0000
,
0301
0000
1001
0000
0001
0100
0010
0000
,
1000
0000
0100
0000
0010
0100
1000
0000
,
0001
0000
0100
0000
0010
1000
0001
0000
,
0010
0100
0010
0000
0100
1000
0001
0000
,
0100
0100
0200
0000
0310
0100
0010
0100
,
0000
0000
0100
0000
0001
0000
0000
0000
1000
0000
0000
1000
0000
0000
1000
0000
,
0001
0100
0001
0000
1000
0100
1000
0000
,
0001
1000
0001
1000
0001
1000
0001
1000
,
0002
0000
0000
0000
,
0000
0000
0000
0000
,
0003
0000
0000
0000
,
0000
0000
0000
0000
,
0000
0000
0000
0000
,
0000
0000
0000
0000
,
0000
0000
0000
0000
,
0000
0000
0000
0000
,
1001
0000
0000
0000
0000
0000
1000
0001
,
0000
0001
0010
0000
0000
0000
0000
0000
,
1001
0000
0000
0000
0000
0000
0001
1000
,
0000
1000
0010
0000
0000
0000
0000
0000
,
0110
0000
0000
0000
0000
0000
0001
0010
,
0000
0010
0100
0000
0000
0000
0000
0000
,
0110
0000
0000
0000
0000
0000
1000
1000
,
0000
0100
0000
0010
0001
0010
0001
0000
,
1000
0100
1000
0100
,
0001
0010
0002
0023
,
1030
0100
1000
0000
0001
0100
0001
0000
,
0100
0010
0100
0010
0100
0010
0100
0010
,
0200
0000
0000
0000
,
0000
0000
0000
0000
,
0300
0000
0000
0000
,
0001
0000
1000
0000
0100
0010
0001
0000
,
1000
0000
0010
0000
0100
0010
1000
0000
,
0001
0001
0010
0000
0100
0000
1000
0000
,
0001
0000
0100
0000
0010
0100
0010
0000
,
1001
0000
1000
0000
0001
0100
0001
0100
,
0000
0000
0010
0000
1000
0000
0000
0000
0001
0000
0000
0001
0000
0000
0001
0000
,
1000
0000
0000
0100
0000
0000
0001
0000
0001
0000
0000
0100
0000
0000
1000
0000
,
1000
0000
0000
0000
0000
0000
0010
0000
0000
0000
0000
0000
0001
0000
0000
0000
0002
0003
0000
0000
0000
0000
0020
0030
0000
0000
0000
0000
2000
3000
0000
0000
,
0001
0010
0100
0000
1000
0000
0010
0000
,
0100
0010
1000
0000
0001
1000
0001
0000
,
1000
0010
1000
0000
0100
0010
0001
0000
,
0100
0000
0001
0000
1000
0000
0000
0000
0001
0000
0000
0001
0000
0000
1000
0000
,
1100
0000
0000
0000
,
0000
0000
0000
0000
0000
0000
0001
1000
,
0001
0000
0000
0100
0000
0000
0010
0000
1000
0000
0000
0100
0000
0000
0010
0000
,
0001
0010
0001
0000
0001
1000
0001
0000
,
0200
0000
0000
0000
0310
1000
0001
0000
,
0010
0000
0100
0000
1000
0010
0100
0000
,
0010
0000
1000
0000
0001
1000
0010
0000
,
0100
0001
0100
0000
0001
0000
1000
0000
,
1001
0000
0001
0000
1000
0001
0010
0000
,
0100
0000
0010
0000
0100
1000
0001
0000
,
0100
0000
0001
0000
1000
0100
0010
0000
,
0001
0000
0000
0001
0000
0000
1000
0000
0000
1000
0000
0000
0001
0000
0000
0000
,
2002
0000
0000
0000
,
3003
0000
0000
0000
;

//--------------- dance-single - Fred-104 ----------------
#NOTES:
     dance-single:
     Fred-104:
     Medium:
     14:
     :
0000
0000
0000
0000
,
0000
0000
0000
0000
,
0000
0000
0000
0000
,
0000
0000
0000
0000
,
0000
0000
0000
0000
,
0000
0000
0000
0000
,
0000
0000
0000
0000
,
0000
0000
0000
0000
,
0000
0000
0000
0000
,
0001
0010
0001
0010
0100
0010
0001
1000
,
0010
1000
0010
1000
0100
1000
0010
0100
,
0010
1000
0100
0010
0100
0010
0001
1000
,
0010
0100
0001
1000
2002
0000
3003
1000
,
0001
0010
0001
0010
0100
1000
0100
1000
,
0001
0100
0001
0100
0010
1000
0010
1000
,
0001
0001
0010
0010
0100
0100
1000
1000
,
0001
0000
0100
0000
0010
0000
1000
0000
0001
1000
0001
1000
0001
1000
0001
0000
,
2002
0000
0000
0000
,
3003
0000
0000
0000
,
1000
0001
0100
1000
0100
0001
1000
0000
,
0100
0010
0001
0100
0010
1000
0100
0000
,
0010
0100
1000
0010
0100
0001
0010
0100
,
1000
0000
0001
0100
0001
0000
0001
0100
0001
0000
1000
0000
2002
0000
0000
0000
,
3000
0003
1000
0100
0010
0001
1000
0010
,
0000
0100
0010
1000
0001
0010
0100
0000
,
1000
1000
0001
0001
0100
0100
0010
0010
,
0220
0000
0000
0330
,
1000
0100
1000
0100
0010
0001
1000
0010
,
0100
0010
1000
0001
0010
0100
0010
0000
,
0001
1000
0001
1000
0010
1000
0001
0010
,
0100
0010
0100
1000
0001
0100
0110
0000
,
0010
0010
0010
1000
0001
0010
0100
1000
,
0001
1000
0100
0010
0001
0100
0010
0000
,
1000
1000
0001
0001
0010
0100
1000
0001
,
0100
0100
0010
0010
0200
0000
0302
0000
,
1003
0000
1001
1000
0001
0010
1000
0010
,
0001
1000
0010
0001
0010
1000
0001
0001
,
1000
0100
0001
0100
1000
0001
0100
1000
,
0100
0001
1000
0100
0010
0000
0011
0000
,
0001
0001
1000
1000
0100
0010
0001
1001
,
0000
0000
1000
0000
0001
0000
0100
0000
0110
0000
0000
0010
0000
0000
0010
0000
,
1000
1000
0001
0001
0010
0010
0100
0100
,
1000
0000
0002
0000
0103
0000
0020
0000
0130
0010
0100
0010
0100
0010
0100
0010
,
0200
0000
0000
0000
,
0000
0000
0000
0000
,
0300
0000
0000
0000
,
0000
0000
0000
0000
,
0000
0000
0000
0000
,
0000
0000
0000
0000
,
0000
0000
0000
0000
,
0000
0000
0000
0000
,
1001
0000
0000
0000
0000
0000
0001
0100
,
0000
0100
0110
0000
0000
0000
0000
0000
,
1010
0000
0000
0000
0000
0000
1000
0100
,
0000
0010
0011
0000
0000
0000
0000
0000
,
1100
0000
0000
0000
0000
0000
1000
0010
,
0000
0100
0101
0000
0000
0000
0000
0000
,
0110
0000
0000
0000
0000
0000
0001
1000
,
0000
0110
0000
0001
1000
0001
0100
0010
,
0100
0001
1000
0100
0010
0100
0010
0001
,
1000
0010
0100
0010
1000
0001
0010
0100
,
1000
1000
0001
0001
0100
0100
0010
0010
,
1000
0000
0001
0000
0010
0000
0100
0000
1000
0001
1000
0001
1000
0001
1000
0001
,
2000
0000
0000
0000
,
0000
0000
0000
0000
,
3000
0000
0000
0000
,
0001
0000
0100
0001
0000
1000
0001
0000
0010
0000
0100
0000
1000
0000
0001
0000
,
0100
0000
0010
1000
0000
0010
1000
0000
0001
0000
0010
0000
0100
0000
0100
0000
,
1000
0000
1000
0000
1000
0000
0001
0000
0100
0000
0001
1000
0000
0001
0010
0000
,
0100
0000
0010
0001
0000
0010
0001
0000
1000
0000
0010
0000
0100
0000
0100
0000
,
0001
0001
1000
0100
0010
0001
0010
0011
,
0000
0000
0001
0000
0100
0000
0010
0000
1010
0000
0000
0001
0000
0000
1000
0000
,
1100
0000
0000
0010
0000
0000
0001
1000
0001
0000
0000
1001
0000
0000
0001
0100
,
0001
0000
0000
0000
0000
0000
1000
0000
0000
0000
0000
0000
0100
0000
0000
0000
0020
0030
0000
0000
0000
0000
0020
0030
0000
0000
0000
0000
0022
0033
0000
0000
,
1000
0000
0001
0000
0010
0000
0100
0000
1000
0000
0001
0100
0000
0010
0100
0000
,
0001
0000
1000
0000
0100
0000
0010
0000
0011
0000
0000
1000
0000
0000
0001
0000
,
0100
0000
0010
0000
1000
0000
0010
0000
0100
0000
0001
1000
0000
0100
0010
0000
,
0001
0000
0100
0000
0010
0000
0100
0000
0010
1000
0000
1000
0001
0000
0010
0000
,
0110
0000
0000
0000
,
0000
0000
0000
0000
0000
0000
1000
0100
,
0110
0000
0000
0001
0000
0000
1000
0000
1001
0000
0000
1000
0000
0000
0010
0000
,
0100
0000
0001
0000
0010
0000
0100
0000
1000
0000
0001
0000
0100
0010
0100
0000
,
0002
2003
3200
0302
0103
0010
0001
0000
,
1000
0001
0100
0010
1000
0100
0010
0000
,
0001
1000
0010
0100
0001
0010
0100
0010
,
0001
0001
0001
1000
0010
0100
0101
0000
,
1000
0001
0010
1000
0010
0001
0010
0000
,
0100
1000
0001
0100
0010
1000
0100
0000
,
0010
0100
1000
0001
0100
0010
1000
0001
,
0010
0000
0000
0010
0000
0000
0110
0000
0000
0100
0000
0000
1000
0000
0001
1000
,
0002
0000
0000
0000
,
0003
0000
0000
0000
;

//--------------- dance-single - Fred-104 ----------------
#NOTES:
     dance-single:
     Fred-104:
     Hard:
     17:
     :
0000
0000
0000
0000
,
0000
0000
0000
0000
,
0000
0000
0000
0000
,
0000
0000
0000
0000
,
0000
0000
0000
0000
,
0000
0000
0000
0000
,
0000
0000
0000
0000
,
0000
0000
0000
0000
,
0000
0000
0000
0000
,
0001
0010
0100
1000
0001
0100
0010
1000
,
0001
0000
1000
0000
0100
0000
0010
0000
0100
1000
0001
0100
0010
0000
1000
0001
,
0010
0100
0010
0001
1000
0010
1000
0001
,
0010
0000
0100
0000
1000
0000
0001
0000
2002
0000
0000
0000
3003
0000
0001
1000
,
0001
0001
0100
0100
0010
0010
1000
1000
,
0100
0000
0100
0000
0010
0000
0010
0000
0001
1000
0010
0000
0100
0001
1000
0000
,
1100
0100
0110
0010
0011
0001
1001
1000
,
0001
0100
0001
0100
0010
1000
0010
1000
0001
0010
0001
0010
0100
1000
0001
0100
,
0020
0000
0000
0000
,
0030
0000
0000
0000
,
1000
0000
0001
0000
0100
0001
0100
0001
2000
0000
3200
0000
0320
0000
0000
0000
,
0032
0203
0310
0002
2003
3200
0302
1003
,
0010
0002
1003
0200
0310
0200
0302
1003
,
0200
0000
0000
0000
0000
0000
0000
0000
1000
0000
0000
0000
0001
0000
0000
0300
0200
0000
0000
0000
0000
0000
0000
0000
0001
0000
0000
0000
1000
0000
0000
0300
0100
0000
0000
0000
0000
0000
0000
0000
0010
0000
0000
0000
0000
0000
0000
0000
0022
0000
0000
0000
0000
0000
0000
0000
0000
0000
0000
0000
0000
0000
0000
0000
,
0003
0000
0030
0000
0001
0010
0001
0010
0002
0000
2003
0000
3200
0000
0310
0000
,
0002
0203
1300
0002
0023
2030
3002
1003
,
1100
0000
0000
1000
0000
0000
1010
0000
0000
0010
0000
0000
0110
0000
0000
0100
0000
0000
0101
0000
0000
0001
1000
0001
,
2000
0001
0001
0001
0001
3001
1001
0000
,
0001
0000
1000
0000
0010
0000
0001
0000
0010
0000
0100
0010
0000
1000
0001
0000
,
0010
0000
1000
0000
0010
0000
0100
0000
1000
0001
0100
0001
1000
0000
0100
0000
,
0010
0001
0100
0010
0001
1000
0100
0010
,
1000
0000
0001
0010
0100
0000
1000
0010
0100
0000
0001
0000
0101
0000
0000
0000
,
1001
0000
1001
0000
1001
0000
0001
0000
1000
0000
0100
0010
0000
0001
1000
0000
,
0010
0100
0001
0100
0010
1000
0001
0000
1000
0000
0001
0010
0000
0100
1000
0000
,
0001
0000
0001
0000
0100
0000
0100
0000
0010
0000
0010
1000
0001
0000
1000
0000
,
0100
0000
0000
0100
0000
0000
0010
0000
0000
0010
0000
0000
0001
0000
0000
1000
0100
0010
0001
0000
0000
1000
0001
0100
,
0010
0000
0000
0000
1001
0000
1000
0000
0010
0000
0100
0001
0000
1000
0100
0000
,
0010
0000
0001
1000
0010
0000
0100
0001
1000
0100
0010
0001
0010
0000
0010
0000
,
0001
0000
1000
0000
0010
0000
0001
0000
1000
0000
0100
0010
0000
1000
0001
0000
,
0011
0100
1000
0001
0100
0010
1000
1000
,
0001
1000
0001
1000
0001
0010
0100
1000
0001
0000
0101
0000
0110
0000
1010
0000
,
0000
0000
0000
0000
0000
0000
1001
0000
0000
0000
0000
0000
0011
0000
0000
0000
0000
0000
0110
0000
0000
0000
0000
0000
1100
0000
0000
0000
0000
0000
0000
0000
0000
0101
0000
0000
0000
0000
0000
0000
0000
0000
1000
0000
0100
0000
0010
0000
,
0001
0001
0100
0100
0010
0010
1000
1000
,
0002
0000
0000
0000
0000
0000
0013
0000
0100
0000
1000
0000
0002
0000
0000
0000
0000
0000
0103
0000
0001
0000
1000
0000
0100
0000
0000
0010
0000
0000
0001
0000
0000
1000
0000
0000
0010
0000
0000
1000
0000
0000
0001
0000
0000
0010
0000
0000
,
0200
0000
0000
0000
,
0000
0000
0000
0000
,
0300
0000
0000
0000
,
0000
0000
0000
0000
,
0000
0000
0000
0000
,
0000
0000
0000
0000
,
0000
0000
0000
0000
,
0000
0000
0000
0000
,
1001
0000
0000
0000
0000
0000
1100
0101
,
0000
1010
0011
0000
0000
0000
0000
0000
,
0110
0000
0000
0000
0000
0000
1010
0011
,
0000
0101
1100
0000
0000
0000
0000
0000
,
1010
0000
0000
0000
0000
0000
0101
1100
,
0000
1010
0011
0000
0000
0000
0000
0000
,
1001
0000
0000
0000
0000
0000
0011
1010
,
0000
0101
0000
1100
0110
0011
0101
1001
,
1000
0000
0001
1000
0100
0000
0010
0100
1000
0000
0001
1000
0010
0000
0100
0000
,
0102
0000
1003
0001
0100
0000
0001
1000
0100
0000
0001
0100
1000
0000
0001
1000
,
0010
0100
0001
1000
0100
0010
0001
1000
,
0010
0100
0010
0100
0001
1000
0001
1000
0001
0010
0001
0010
0100
1000
0100
1000
,
0002
0000
0000
0000
,
0000
0000
0000
0000
,
0003
0000
0000
0000
,
0001
0000
1000
0010
0000
0100
0001
0100
0001
0000
0100
0010
0000
1000
0001
0010
,
0100
0000
1000
0001
0000
0100
0001
1000
0100
0000
0010
0001
1000
0000
1000
0000
,
1010
0000
0110
0000
0101
0000
1000
0000
0001
0000
1000
0100
0000
0010
0001
0010
,
0100
0000
1000
0001
0000
0100
0001
1000
0100
0000
0010
0001
0010
0000
0011
0000
,
0001
0100
0020
0000
1030
0100
0010
0001
1000
0000
1010
0000
0110
0000
0101
0000
,
0000
0000
1100
0000
0110
0000
0011
0000
1001
0000
0000
0110
0000
0000
1001
0000
,
1100
0000
0000
0000
0000
0000
0000
0000
0000
0101
0000
0000
0000
0000
0000
0000
0000
0000
1000
0000
0000
0100
0000
0000
0010
0000
0000
0001
0000
0000
0000
0000
0000
1010
0000
0000
0000
0000
0000
0000
0000
0000
0001
0000
0010
0000
0001
0000
,
0010
0000
0000
0000
0000
0000
0110
0000
0000
0000
0000
0000
0100
0000
1000
0000
0002
0003
0000
0000
0000
0000
2000
3000
0000
0000
0000
0000
2002
3003
0000
0000
,
1000
0000
0010
0100
0000
0010
1000
0001
0010
0000
0100
1000
0000
0001
0100
0001
,
1000
0000
0100
0010
0000
0001
0010
0000
0011
0000
0000
1010
0000
0000
0101
0000
,
1001
0000
0001
1000
0000
0100
0010
0100
1000
0000
0001
0100
0000
0001
1000
0100
,
0010
0000
0001
0100
0000
0010
1000
0000
0001
0010
0000
0010
0100
0000
1100
0000
,
0001
0100
0001
0100
0001
0100
0001
0000
1000
0100
1000
0100
1000
0100
1000
0000
,
0001
0010
0001
0010
0001
0010
0001
0000
1000
0010
1000
0010
1000
0010
1000
0000
,
1001
0000
0000
1010
0000
0000
0101
0000
1100
0000
0000
0110
0000
0000
0011
0000
,
0001
1000
0001
1000
0010
0100
0010
0100
0001
1000
0100
0010
0001
0010
0100
1000
,
0002
0000
2003
0000
3010
0100
0001
0100
0020
0000
2030
0000
3002
0000
0000
0000
,
2003
0000
3020
0000
0031
0000
2000
0000
3100
0010
2000
0000
3002
0000
0013
0000
,
0001
0000
0200
0000
0310
0000
0002
0000
1003
0100
0020
0000
2030
0000
3001
0000
,
0010
0000
0010
0100
0010
0000
1000
0000
0010
0000
0001
0000
1001
0000
0000
0000
,
0001
0000
1000
0000
0010
1000
0001
1000
0100
0000
0010
0000
0002
0000
0000
0000
,
2003
0000
3002
0000
0103
0000
2000
0000
3001
0010
2000
0000
3002
0000
0013
0000
,
0100
0000
0002
0000
1003
0000
0020
0000
0031
1000
0020
0000
0230
0000
0301
0000
,
0011
0000
0000
0000
0000
0000
0000
0000
0000
1010
0000
0000
0000
0000
0000
0000
0000
0000
1100
0000
0000
0000
0000
0000
0000
0000
0000
0101
0000
0000
0000
0000
0000
0000
0000
0000
1001
0000
0000
0000
0000
0000
1000
0000
0100
0000
0010
0000
,
0002
0000
0000
0000
,
0003
0000
0000
0000
;

//--------------- dance-double - Fred-104 ----------------
#NOTES:
     dance-double:
     Fred-104:
     Easy:
     11:
     :
00000000
00000000
00000000
00000000
,
00000000
00000000
00000000
00000000
,
00000000
00000000
00000000
00000000
,
00000000
00000000
00000000
00000000
,
00000000
00000000
00000000
00000000
,
00000000
00000000
00000000
00000000
,
00000000
00000000
00000000
00000000
,
00000000
00000000
00000000
00000000
,
00000000
00000000
00000000
00000000
,
00000001
00001000
00000010
00000100
,
00001000
00000000
00010000
00000000
00001000
00010000
00001000
00000000
,
01000000
00010000
01000000
00001000
,
00010000
00000000
00000100
00000000
00002002
00000000
00003003
00001000
,
00000001
00000001
00000010
00000010
,
00001000
00001000
00010000
00010000
,
00001000
00100000
00001000
00000000
01000000
00100000
01000000
00000000
,
00010000
10000000
00010000
10000000
00010000
10000000
00010000
10000000
,
00020000
00000000
00000000
00000000
,
00030000
00000000
00000000
00000000
,
10010000
00000000
10000000
00000000
01000000
00100000
00001000
00000000
,
00010000
00001000
00000010
00001000
,
00010000
00001000
00000100
00001000
,
00010000
00001000
00000100
00000202
,
00000303
00000000
00000001
00001000
00000001
00000000
00001000
00000000
,
00000010
00010000
00001000
00100000
,
00001000
00000000
00010000
00000000
00000010
00001000
00000010
00000000
,
00002002
00000000
00000000
00003003
,
00000001
00000001
00000001
00000000
00000100
00000000
00001000
00000000
,
00010000
00000000
00100000
00000000
10000000
01000000
00100000
00000000
,
00001000
00010000
01000000
00010000
,
00001000
00000000
00010000
00000000
00000100
00001000
00000001
00000000
,
00000100
00000100
00000100
00000000
00001000
00000000
00010000
00000000
,
00001000
00000000
01000000
00000000
00001000
00010000
00100000
00000000
,
01000000
00010000
10000000
00000000
01000000
00100000
00001000
00000000
,
00010000
00000010
00001000
00000010
00020000
00000000
00032000
00000000
,
00013000
00000000
00011000
00000000
00010000
00001000
00000100
00000000
,
00000001
00000000
00000010
00000000
00000100
00010000
00001000
00000000
,
00010000
00000000
01000000
00000000
00100000
00010000
10000000
00000000
,
01000000
00010000
00001000
00000000
00010000
00001000
00010000
00000000
,
00000100
00000100
00000200
00000000
00000310
00000010
00000001
00000100
,
00000000
00000000
00001000
00000000
00010000
00000000
00000000
00000000
00001000
00000000
00000000
00001000
00000000
00000000
00001000
00000000
,
00010000
01000000
10000000
00000000
01000000
00100000
00001000
00000000
,
00010000
00000010
00010000
00000010
00010000
00001000
00100000
00001000
,
00020000
00000000
00000000
00000000
,
00000000
00000000
00000000
00000000
,
00030000
00000000
00000000
00000000
,
00000000
00000000
00000000
00000000
,
00000000
00000000
00000000
00000000
,
00000000
00000000
00000000
00000000
,
00000000
00000000
00000000
00000000
,
00000000
00000000
00000000
00000000
,
00001001
00000000
00000000
00000000
00000000
00000000
00000001
00000100
,
00000000
00001000
00010000
00000000
00000000
00000000
00000000
00000000
,
00011000
00000000
00000000
00000000
00000000
00000000
00001000
00010000
,
00000000
00100000
10000000
00000000
00000000
00000000
00000000
00000000
,
10010000
00000000
00000000
00000000
00000000
00000000
10000000
01000000
,
00000000
00010000
00001000
00000000
00000000
00000000
00000000
00000000
,
00011000
00000000
00000000
00000000
00000000
00000000
00010000
00010000
,
00000000
00001000
00000000
00000010
00000001
00000010
00000001
00000000
,
00001000
00000010
00000100
00001000
,
00010000
00100000
02000000
03020000
,
10030000
01000000
10000000
00000000
00010000
01000000
00010000
00000000
,
00100000
00001000
00010000
00001000
00000100
00000001
00000010
00000100
,
00020000
00000000
00000000
00000000
,
00000000
00000000
00000000
00000000
,
00030000
00000000
00000000
00000000
,
00001000
00000000
00010000
00000000
00100000
10000000
01000000
00000000
,
00100000
00000000
01000000
00000000
10000000
00100000
00010000
00000000
,
00001000
00001000
00001000
00000000
00010000
00000000
00000100
00000000
,
00000010
00000000
00000100
00000000
00001000
00000001
00000100
00000000
,
00000110
00000000
00010000
00000000
00001000
00010000
01000000
00100000
,
00000000
00000000
00010000
00000000
10000000
00000000
00000000
00000000
01000000
00000000
00000000
01000000
00000000
00000000
01000000
00000000
,
10000000
00000000
00000000
01000000
00000000
00000000
00010000
00000000
00001000
00000000
00000000
00000010
00000000
00000000
00000001
00000000
,
00000001
00000000
00000000
00000000
00000000
00000000
00000100
00000000
00000000
00000000
00000000
00000000
00001000
00000000
00000000
00000000
00020000
00030000
00000000
00000000
00000000
00000000
00200000
00300000
00000000
00000000
00000000
00000000
20000000
30000000
00000000
00000000
,
01000000
00010000
00001000
00000000
00010000
00000000
00100000
00000000
,
01000000
00100000
10000000
00000000
01000000
00100000
00001000
00000000
,
00010000
00000010
00001000
00000000
00000100
00000010
00000001
00000000
,
00000100
00000000
00001000
00000000
00010000
00000000
00000000
00000000
00001000
00000000
00000000
00001000
00000000
00000000
00001000
00000000
,
00011000
00000000
00000000
00000000
,
00000000
00000000
00000000
00000000
00000000
00000000
00001000
00010000
,
00001000
00000000
00000000
00010000
00000000
00000000
00100000
00000000
10000000
00000000
00000000
01000000
00000000
00000000
00100000
00000000
,
00001000
00010000
00000100
00000000
00001000
00000010
00000100
00000000
,
00000002
00000000
00000000
00000000
00000103
00001000
00010000
00000000
,
00001000
00000000
00010000
00000000
01000000
00100000
01000000
00000000
,
00100000
00000000
00010000
00000000
10000000
01000000
00100000
00000000
,
00001000
00010000
00001000
00000000
00010000
00000000
00001000
00000000
,
00011000
00000000
00010000
00000000
00000100
00000010
00000001
00000000
,
00001000
00000000
00000100
00000000
00000010
00000001
00001000
00000000
,
00000010
00000000
00000100
00000000
00001000
00010000
00001000
00000000
,
00010000
00000000
00000000
00010000
00000000
00000000
00001000
00000000
00000000
00001000
00000000
00000000
00010000
00000000
00000000
00000000
,
00022000
00000000
00000000
00000000
,
00033000
00000000
00000000
00000000
;

//--------------- dance-double - Fred-104 ----------------
#NOTES:
     dance-double:
     Fred-104:
     Medium:
     14:
     :
00000000
00000000
00000000
00000000
,
00000000
00000000
00000000
00000000
,
00000000
00000000
00000000
00000000
,
00000000
00000000
00000000
00000000
,
00000000
00000000
00000000
00000000
,
00000000
00000000
00000000
00000000
,
00000000
00000000
00000000
00000000
,
00000000
00000000
00000000
00000000
,
00000000
00000000
00000000
00000000
,
10000000
00010000
10000000
00100000
10000000
01000000
00100000
00001000
,
00010000
00001000
00000010
00000100
00001000
00000001
00000100
00000000
,
00000001
00001000
00000100
00000010
00001000
00010000
01000000
00100000
,
00010000
10000000
00100000
00010000
00022000
00000000
00033000
00010000
,
00001000
00010000
00001000
00010000
01000000
10000000
01000000
00100000
,
00010000
10000000
00100000
00010000
00001000
00000100
00000001
00000010
,
00000100
00000100
00010000
00010000
00001000
00001000
01000000
01000000
,
00001000
00000000
00010000
00000000
00100000
00000000
01000000
00000000
00010000
10000000
00010000
10000000
00010000
10000000
00010000
10000000
,
02000000
00000000
00000000
00000000
,
03000000
00000000
00000000
00000000
,
00001000
00010000
00001000
00010000
00100000
00010000
00001000
00000000
,
00010000
00001000
00000010
00000001
00000010
00000100
00001000
00000000
,
00000001
00001000
00000010
00000100
00001000
00010000
00001000
00000000
,
00010000
00010000
00001000
00001000
00100000
01000000
02200000
00000000
,
03000000
00300000
00010000
10000000
00100000
01000000
00001000
00010000
,
00000000
00001000
00000010
00000001
00000010
00001000
00010000
00000000
,
00001000
00001000
01000000
01000000
00010000
00010000
10000000
01000000
,
02200000
00000000
00000000
03300000
,
00001000
00010000
00001000
00010000
01000000
10000000
01000000
10000000
,
00010000
01000000
00100000
00010000
00001000
00000100
00000001
00000000
,
00000010
00000100
00000010
00000100
00010000
00001000
00010000
00001000
,
00000100
00000010
00000100
00001000
00010000
00001000
00011000
00000000
,
00001000
00001000
00001000
00010000
01000000
10000000
00010000
01000000
,
00100000
01000000
00010000
00001000
00000010
00000100
00000001
00001000
,
00000100
00000100
00000010
00000010
00000001
00000100
00001000
00010000
,
00001000
00001000
00010000
00010000
00200000
00000000
20300000
00000000
,
31000000
00000000
00110000
00010000
10000000
00100000
00010000
00001000
,
00010000
00001000
00010000
00100000
10000000
01000000
00100000
00001000
,
00010000
00001000
00000010
00000001
00000010
00001000
00010000
00001000
,
00000100
00000010
00001000
00000001
00000010
00000100
00001000
00000000
,
00000001
00000001
00000100
00000100
00001000
00010000
00001000
00011000
,
00000000
00000000
00100000
00000000
01000000
00000000
00010000
00000000
10010000
00000000
00000000
10000000
00000000
00000000
01000000
00000000
,
00100000
00100000
00001000
00001000
00000010
00000010
00000100
00000100
,
00001000
00000000
00000002
00000000
00000103
00000000
00002000
00000000
00013000
00001000
00010000
00001000
00010000
00001000
00010000
00001000
,
00020000
00000000
00000000
00000000
,
00000000
00000000
00000000
00000000
,
00030000
00000000
00000000
00000000
,
00000000
00000000
00000000
00000000
,
00000000
00000000
00000000
00000000
,
00000000
00000000
00000000
00000000
,
00000000
00000000
00000000
00000000
,
00000000
00000000
00000000
00000000
,
10010000
00000000
00000000
00000000
00000000
00000000
10000000
01000000
,
00000000
00010000
00011000
00000000
00000000
00000000
00000000
00000000
,
00001001
00000000
00000000
00000000
00000000
00000000
00000001
00000100
,
00000000
00001000
00011000
00000000
00000000
00000000
00000000
00000000
,
10010000
00000000
00000000
00000000
00000000
00000000
10000000
00100000
,
00000000
00010000
00011000
00000000
00000000
00000000
00000000
00000000
,
00001001
00000000
00000000
00000000
00000000
00000000
00000001
00000010
,
00000000
00000110
00000000
00001000
00000001
00000100
00001000
00010000
,
00001000
00010000
00100000
01000000
00100000
10000000
00010000
00100000
,
01000000
00010000
00001000
00000010
00000100
00001000
00000001
00000100
,
00000010
00000010
00001000
00001000
00000100
00000100
00010000
00010000
,
00001000
00000000
00010000
00000000
00100000
00000000
10000000
00000000
00010000
10000000
00010000
10000000
00010000
10000000
00010000
10000000
,
02000000
00000000
00000000
00000000
,
00000000
00000000
00000000
00000000
,
03000000
00000000
00000000
00000000
,
00001000
00000000
00010000
00001000
00000000
00010000
00000100
00000000
00001000
00000000
00000001
00000000
00000010
00000000
00000100
00000000
,
00001000
00000000
00000001
00000100
00000000
00000010
00001000
00000000
00000010
00000000
00010000
00000000
00001000
00000000
00001000
00000000
,
00010000
00000000
00010000
00000000
00010000
00000000
00001000
00000000
00100000
00000000
00010000
10000000
00000000
00100000
01000000
00000000
,
00010000
00000000
00100000
01000000
00000000
00100000
01000000
00000000
10000000
00000000
00100000
00000000
00010000
00000000
00001000
00000000
,
00010000
00001000
00010000
00000000
00001000
00010000
00001000
00000000
00010000
00000000
00000010
00000000
00001000
00000000
00001001
00000000
,
00000000
00000000
00000001
00000000
00000100
00000000
00001000
00000000
00010000
00000000
00000000
01000000
00000000
00000000
10000000
00000000
,
00010000
00000000
00000000
10000000
00000000
00000000
00100000
00000000
00010000
00001000
00000000
00000010
00000000
00000000
00000001
00000000
,
00000001
00000000
00000000
00000000
00000000
00000000
00000100
00000000
00000000
00000000
00000000
00000000
00001000
00000000
00000000
00000000
00020000
00030000
00000000
00000000
00000000
00000000
00002000
00003000
00000000
00000000
00000000
00000000
00022000
00033000
00000000
00000000
,
00001000
00000000
01000000
00010000
00000000
00010000
01000000
00000000
00001000
00000000
00010000
00000100
00000000
00001000
00000001
00000000
,
00000100
00000000
00000010
00000000
00000100
00000000
00001000
00000000
00011000
00000000
00000000
00001000
00000000
00000000
00010000
00000000
,
00001000
00000000
00100000
00010000
00000000
00010000
10000000
00000000
00100000
00000000
01000000
00010000
00000000
10000000
01000000
00000000
,
00100000
00000000
00001000
00000000
00100000
00000000
00001000
00000000
00010000
00001000
00000000
00001000
00010000
00000000
00001000
00000000
,
00011000
00000000
00000000
00000000
,
00000000
00000000
00000000
00000000
00000000
00000000
00010000
00000100
,
00000110
00000000
00000000
00000001
00000000
00000000
00000100
00000000
00001000
00000000
00000000
00010000
00000000
00000000
00100000
00000000
,
01000000
00010000
10000000
00010000
00100000
01000000
00010000
00001000
,
00020000
00032000
00003020
00002030
00013000
00001000
01000000
00000000
,
00001000
00010000
00100000
01000000
00010000
10000000
01000000
00000000
,
00010000
00000100
00010000
00001000
00000010
00000001
00001000
00000000
,
00000010
00000100
00001000
00010000
00100000
01000000
01010000
00000000
,
00010000
10000000
01000000
00010000
00001000
00010000
00100000
00000000
,
10000000
00010000
00100000
01000000
00100000
00010000
00001000
00000000
,
00000100
00000010
00000001
00001000
00000010
00000100
00001000
00010000
,
00001000
00000000
00000000
00100000
00000000
00000000
10010000
00000000
00000000
01000000
00000000
00000000
00001000
00000000
00010000
00001000
,
00020000
00000000
00000000
00000000
,
00030000
00000000
00000000
00000000
;

//--------------- dance-double - Fred-104 ----------------
#NOTES:
     dance-double:
     Fred-104:
     Hard:
     17:
     :
00000000
00000000
00000000
00000000
,
00000000
00000000
00000000
00000000
,
00000000
00000000
00000000
00000000
,
00000000
00000000
00000000
00000000
,
00000000
00000000
00000000
00000000
,
00000000
00000000
00000000
00000000
,
00000000
00000000
00000000
00000000
,
00000000
00000000
00000000
00000000
,
00000000
00000000
00000000
00000000
,
00010000
00001000
00000100
00000010
00000100
00001000
01000000
00010000
,
00100000
01000000
00010000
00001000
00000010
00000100
00001000
00000010
,
00010000
00001000
00000010
00000100
00000010
00000001
00000100
00001000
,
00010000
00000000
00100000
00000000
10000000
00000000
01000000
00000000
02200000
00000000
00000000
00000000
03300000
00000000
00001000
00010000
,
00001000
00001000
00010000
00010000
00000010
00000010
00001000
00001000
,
00000100
00000100
00000010
00000010
00000001
00000001
00001000
00001000
,
00001010
00000010
00010010
00010000
00011000
00001000
00101000
00100000
,
00010000
10000000
01000000
00000000
00100000
00001000
00010000
00000000
00000010
00001000
00000010
00001000
00000001
00001000
00000100
00000010
,
00000002
00000000
00000000
00000000
,
00000003
00000000
00000000
00000000
,
00001000
00000000
00000001
00000000
00000100
00000010
00000100
00000010
00000200
00000000
00002300
00000000
00023000
00000000
00000000
00000000
,
02030000
03200000
00310000
00200000
20300000
30200000
00302000
00003010
,
00000100
00002000
00003001
00000200
00010300
02000000
03002000
00000000
,
00023000
00000000
00000000
00000000
00000000
00000000
00000000
00000000
00001000
00000000
00000000
00000000
00100000
00000000
00000000
00030000
00020000
00000000
00000000
00000000
00000000
00000000
00000000
00000000
00100000
00000000
00000000
00000000
00001000
00000000
00000000
00030000
00010000
00000000
00000000
00000000
00000000
00000000
00000000
00000000
00001000
00000000
00000000
00000000
00000000
00000000
00000000
00000000
00022000
00000000
00000000
00000000
00000000
00000000
00000000
00000000
00000000
00000000
00000000
00000000
00000000
00000000
00000000
00000000
,
00003000
00000000
00030000
00000000
00001000
00100000
01000000
10000000
00020000
00000000
02030000
00000000
03200000
00000000
00301000
00000000
,
00000020
00020030
00031000
00000200
00000320
00002030
00003002
00000013
,
00000110
00000000
00000100
00000000
00010100
00000000
00010000
00000000
00011000
00000000
00001000
00000000
01001000
00000000
01000000
00001000
,
00020000
00001000
00001000
00001000
00001000
00031000
00011000
00000000
,
00010000
00000100
00000001
00000100
00001000
00000001
00000100
00010000
,
01000000
00001000
00010000
00100000
01000000
10000000
01000000
00010000
,
10000000
01000000
00001000
00000100
00010000
00001000
00000010
00000100
,
00010000
00000100
00000001
00000100
00001000
00000001
00000101
00000000
,
00001100
00000110
00000011
00000001
00000010
00010000
00001000
00000100
,
00010000
00001000
00000010
00000100
00001000
00010000
00100000
00001000
,
01000000
00100000
00010000
00001000
00000100
00000010
00010000
00001000
,
00010000
00000000
00010000
00000000
01000000
00000000
01000000
00000000
10000000
00000000
00010000
01000000
10000000
00000000
00010000
00100000
,
10000000
00000000
10010000
10000000
00100000
00010000
00100000
10000000
,
00010000
00100000
01000000
00100000
00001000
00000010
00000001
00001000
,
00000010
00000100
00010000
01000000
00001000
00010000
00100000
01000000
,
00001000
00010000
01000000
00100000
10000000
00010000
00001000
00010000
,
00001000
00010000
00001000
00010000
00000010
00001000
00000001
00001000
00000100
00000000
00000110
00000000
00000011
00000000
00001001
00000000
,
00000000
00000000
00001010
00000000
00010010
00000000
00011000
00000000
00101000
00000000
00000000
00011000
00000000
00000000
00010000
00001000
,
00010000
00001000
00000010
00000100
00001000
00000001
00000100
00001000
,
00020000
00000000
00031000
00100000
00020000
00000000
10030000
00100000
01000000
00010000
10000000
01000000
00100000
00010000
00100000
00001000
,
00020000
00000000
00000000
00000000
,
00000000
00000000
00000000
00000000
,
00030000
00000000
00000000
00000000
,
00000000
00000000
00000000
00000000
,
00000000
00000000
00000000
00000000
,
00000000
00000000
00000000
00000000
,
00000000
00000000
00000000
00000000
,
00000000
00000000
00000000
00000000
,
00011000
00000000
00000000
00000000
00000000
00000000
00010010
00001010
,
00000000
00000101
00001100
00000000
00000000
00000000
00000000
00000000
,
00001001
00000000
00000000
00000000
00000000
00000000
00010100
00011000
,
00000000
01001000
01010000
00000000
00000000
00000000
00000000
00000000
,
01100000
00000000
00000000
00000000
00000000
00000000
11000000
01010000
,
00000000
00011000
00010100
00000000
00000000
00000000
00000000
00000000
,
00101000
00000000
00000000
00000000
00000000
00000000
00010010
00101000
,
00000000
00010100
00000000
01001000
00011000
00010100
00001100
00000011
,
00001000
00000010
00000100
00001000
00010000
00100000
10000000
00010000
,
00100000
00000000
01000000
00000000
00100000
00000000
00010000
00000000
00001000
00000000
00000100
00000010
00000001
00000000
00001000
00000001
,
00000100
00000100
00000010
00000010
00010000
00010000
00001000
00001000
,
00100000
00001000
00100000
00000000
00001000
00010000
00001000
00000000
00010000
00000010
00001000
00000010
00000100
00000001
00001000
00000100
,
00000020
00000000
00000000
00000000
,
00000000
00000000
00000000
00000000
,
00000030
00000000
00000000
00000000
,
00000001
00000000
00000100
00000001
00000000
00001000
00000100
00000000
00010000
00000000
00001000
01000000
00000000
00001000
00010000
00000000
,
00001000
00000000
00100000
00001000
00000000
00010000
00000010
00000000
00010000
00000000
00001000
00100000
00010000
00000000
10000000
00000000
,
10100000
00000000
01100000
00000000
01010000
00000000
00010000
00000000
10000000
00000000
00100000
01000000
00000000
00100000
10000000
01000000
,
00100000
00000000
00001000
00010000
00000000
00000010
00001000
00000000
00000001
00000000
00000010
00000100
00001000
00000000
00001100
00000000
,
00000001
00000100
00000002
00000000
00001003
00000100
00010000
00001000
00010000
00000000
00001000
00000000
01000000
00000000
01010000
00000000
,
00000000
00000000
10000000
00000000
00010000
00000000
00100000
00000000
00101000
00000000
00000000
00010010
00000000
00000000
00011000
00000000
,
00010100
00000000
00000000
00000000
00000000
00000000
00000000
00000000
00000000
00001100
00000000
00000000
00000000
00000000
00000000
00000000
00000000
00000000
00001000
00000000
00000000
00000001
00000000
00000000
00000100
00000000
00000000
00000010
00000000
00000000
00000000
00000000
00000000
00001001
00000000
00000000
00000000
00000000
00000000
00000000
00000000
00000000
00000001
00000000
00000100
00000000
00000001
00000000
,
00000100
00000000
00000000
00000000
00000000
00000000
00000110
00000000
00000000
00000000
00000000
00000000
00000001
00000000
00000100
00000000
00002000
00003000
00000000
00000000
00000000
00000000
00020000
00030000
00000000
00000000
00000000
00000000
00022000
00033000
00000000
00000000
,
00001000
00000000
00100000
00010000
00000000
00100000
01000000
00000000
10000000
00000000
00100000
00010000
00000000
00001000
00000100
00000010
,
00001000
00000000
00000001
00000010
00000000
00000100
00001000
00000000
00001100
00000000
00000000
00010100
00000000
00000000
00011000
00000000
,
00011000
00000000
00001000
00100000
00000000
00010000
10000000
00000000
01000000
00000000
00100000
00001000
00000000
00010000
00001000
01000000
,
00001000
00000000
00010000
00001000
00000000
00000100
00000010
00000000
00001000
00000100
00000000
00000010
00000001
00000000
00001001
00000000
,
00001000
00000100
00001000
00000100
00001000
00000100
00001000
00000000
00000100
00010000
00000100
00010000
00000100
00010000
00000100
00000000
,
00010000
00001000
00010000
00001000
00010000
00001000
00010000
00000000
00000010
00001000
00000010
00001000
00000010
00001000
00000001
00000000
,
00001001
00000000
00000000
00000011
00000000
00000000
00001010
00000000
00011000
00000000
00000000
01010000
00000000
00000000
11000000
00000000
,
00010000
01000000
00010000
00000000
10000000
00100000
10000000
00000000
00010000
10000000
01000000
00100000
00010000
00100000
00001000
00010000
,
00002000
00000000
00023000
00000000
00030100
00001000
00000001
00000100
00000020
00000000
00000032
00000000
00000023
00000000
00000000
00000000
,
00002030
00003002
00000013
00020000
00130000
00002000
00023000
00130000
,
01000000
00002000
00103000
20000000
30100000
00020000
00030020
00000031
,
00000100
00000000
00000100
00000010
00000100
00000000
00001000
00000000
00010000
00000000
00001000
00000000
00011000
00000000
00000000
00000000
,
00001000
00000000
00010000
00000000
01000000
00100000
01000000
00100000
00020000
00000000
20030000
00000000
30020000
00000000
00000000
00000000
,
20030000
30200000
00301000
00000020
00010030
00000020
00000230
00000301
,
00000010
00002000
00013000
02000000
13000000
00020000
02030000
03001000
,
00011000
00000000
00000000
00000000
00000000
00000000
00000000
00000000
00000000
00010010
00000000
00000000
00000000
00000000
00000000
00000000
00000000
00000000
01001000
00000000
00000000
00000000
00000000
00000000
00000000
00000000
00000000
00010100
00000000
00000000
00000000
00000000
00000000
00000000
00000000
00000000
00101000
00000000
00000000
00000000
00000000
00000000
00001000
00000000
00010000
00000000
00001000
00000000
,
00020000
00000000
00000000
00000000
,
00030000
00000000
00000000
00000000
;
