#TITLE:NEMESIS -gratitude remix- IIDX Edition;
#ARTIST:Remixed by PHQUASE;
#GENRE:DRUM'N'BASS;
#BANNER:NEMESIS -gratitude remix- IIDX Edition.png;
#BACKGROUND:NEMESIS -gratitude remix- IIDX Edition-bg.png;
#CDTITLE:./CDTitles/bm IIDX 21 SPADA.png;
#MUSIC:NEMESIS -gratitude remix- IIDX Edition.ogg;
#SAMPLESTART:76.8;
#SAMPLELENGTH:15;
#DISPLAYBPM:21.875:175;
#BPMS:0=175,19=350,20=175,59=350,60=175,75=350,76=175,116=87.5,123.5=350,124=332.5,124.5=315,125=297.5,125.5=280,126=262.5,126.5=245,127=227.5,127.5=210,128=192.5,128.5=175,129=157.5,129.5=140,130=122.5,130.5=105,131=87.5,131.5=65.625,132=43.75,132.5=21.875,132.75=43.75,133=87.5,149=175,308=87.5;
#STOPS:19=0.172,59=0.171,75=0.172,132.5=5.175,251=0.172,251.5=0.171;
#TIMESIGNATURES:0=4=4,128=5=4,133=4=4,249=3=4,252=4=4;
#BGSTAGE:28;

//--------------- dance-single - Fred-104 ----------------
#NOTES:
     dance-single:
     Fred-104:
     Beginner:
     5:
     :
0000
0000
0000
0000
,
0000
0000
0000
0000
,
0000
0000
0000
0000
,
0001
0000
0000
0000
,
1000
0000
0000
0000
,
0000
0001
0000
0010
,
0000
0010
0000
0001
,
0000
1000
0000
0001
,
0000
0010
0000
0001
,
0000
1000
0000
0001
,
0000
1000
0000
0010
,
0000
1000
0000
0000
,
0001
0001
1000
0001
,
1000
0000
0001
0000
,
1000
0000
0020
0030
,
0100
0000
0001
0000
,
1000
0000
0100
0000
,
0010
0010
0001
0000
,
1000
0000
0002
0003
,
1000
0000
0001
0000
,
0100
0100
0010
0100
,
0010
0000
1000
0000
,
0001
0000
1000
0100
,
1000
0000
0001
0000
,
0100
0000
0001
0001
,
0000
0001
0000
0001
,
0000
1000
0000
1000
,
1000
0000
0001
0000
,
1000
1000
0001
0001
,
1001
0010
0100
1000
,
0001
0000
0100
0000
0010
0000
0000
2002
,
0000
0000
0000
0000
,
0000
0000
0000
0000
,
0000
3003
2000
0000
0000
0000
0000
0000
,
3000
0002
0000
0000
,
0003
0200
0000
0000
,
0300
0020
0000
0000
,
0030
0000
1000
0000
0000
1000
0000
0000
,
0000
0000
0001
0001
,
0001
0000
0001
0000
0000
0001
0000
0000
,
0000
0000
0000
0100
,
0100
0100
0000
0010
,
0000
1000
0000
0001
,
0000
1000
1000
0001
,
0001
1001
0000
0001
,
1000
0000
0001
0000
0000
1000
0000
0000
,
0000
0010
0100
0100
,
0100
0000
0010
0000
0000
1000
0000
0000
,
0000
0001
0000
1000
,
0001
0000
1000
0000
0000
1000
0000
0000
,
0000
0001
0001
0100
,
0010
0000
0100
0000
0000
0001
0000
0000
,
0000
1000
1000
0010
,
0100
0000
0001
0000
0000
0010
0000
0000
,
0000
0001
0001
1000
,
0001
0000
0010
0000
0000
0100
0000
0000
,
0000
0100
1000
0010
,
0010
0000
1000
0000
0000
0001
0000
0000
,
0000
1000
0001
1000
,
0001
0000
0100
0000
0000
0010
0000
0000
,
0000
0100
0100
0010
,
0100
2002
0000
0000
,
0000
3003
0000
0000
,
0001
0000
0001
0000
,
1000
0000
0010
0000
,
0100
0000
0001
0000
,
1000
0000
0001
0000
,
0001
0000
1000
0000
,
0001
0000
1000
0001
,
1000
0000
0010
0000
,
1000
0000
0100
0100
,
1000
0000
0001
0000
,
0100
0000
0010
0100
,
0001
0000
1000
0000
,
0001
0000
0100
0000
,
0010
0010
0010
0010
,
0010
0000
0100
0000
,
2002
0000
0000
0000
,
3003
0000
0000
0000
;

//--------------- dance-single - Fred-104 ----------------
#NOTES:
     dance-single:
     Fred-104:
     Easy:
     9:
     :
0000
0000
0000
0000
,
0000
0000
0000
0000
,
0000
0000
0000
0000
,
2000
0000
0000
0000
,
3002
0000
0000
0003
,
1000
0010
1000
0000
0000
0000
0001
0000
,
0100
0010
0100
0000
0000
0000
0001
0000
,
0010
0100
0010
0000
0000
0000
0100
0000
,
1000
0010
1000
0000
0000
0000
0001
0000
,
1000
0010
0100
0000
0000
0000
0001
0000
,
1000
0100
0010
0000
0000
0000
0001
0000
,
0100
0010
0100
0000
0000
0000
0001
0000
,
1000
0001
1000
0001
1000
0000
0001
0000
,
0100
0000
0010
0000
0100
0010
0100
0000
,
0001
0000
0010
0000
0100
2000
3000
0000
,
0001
0000
0100
0000
0010
0100
0010
0000
,
1000
0000
0100
0000
0010
0001
0010
0000
,
0001
0000
1001
0000
1000
0100
1000
0000
,
0010
0100
0010
0000
0100
0002
0003
0000
,
1000
0100
1000
0010
,
0100
0010
0100
0010
0100
0000
0001
0000
,
1000
0010
1000
1000
,
0100
1000
0001
0100
,
0100
0010
0100
0100
,
0001
0010
0001
0010
,
0001
0000
1001
0000
1000
0010
0100
0000
,
0001
0000
0010
0000
0100
1000
0100
0000
,
1000
0010
0100
0001
,
1000
0100
1000
0100
1000
0000
0001
0000
,
1001
0100
0010
0001
,
0100
0010
0100
0001
1000
0001
1000
2002
,
0000
0000
0000
0000
,
0000
0000
0000
0000
,
0000
0000
3003
0000
2000
0000
0000
3002
0000
0000
0000
0000
0003
0000
0100
0000
,
0010
0000
0100
0000
0002
0000
0000
0023
0000
0000
0000
0000
0030
0000
0000
0000
,
0001
0000
1000
0000
0020
0000
0000
0230
0000
0000
0000
0000
0300
0000
0000
0000
,
0010
0000
0100
0000
0002
0000
0000
2003
0000
0000
0000
0000
3000
0000
0001
0000
,
1000
0010
1000
0000
0000
0010
0000
0000
,
1000
0001
0020
0032
,
2003
0000
3010
0000
0000
0100
0000
0000
,
0010
1000
0100
0020
,
0230
1300
1000
0001
,
0001
0100
0100
0010
,
0010
0000
1000
0010
1000
0000
0001
0010
,
0001
0000
1000
0100
1000
0100
1000
0000
,
1001
0000
0002
0000
0000
0103
0000
0000
,
0010
0100
0020
2030
,
3020
0000
0230
0000
0000
0301
0000
0000
,
1000
0001
0010
0200
,
2300
0000
3002
0000
0000
1003
0000
0000
,
0010
0100
0001
2000
,
3200
0000
0320
0000
0000
0031
0000
0000
,
1000
0000
0001
0100
0001
0000
1000
0010
,
1000
0000
0001
0000
0000
1000
0000
0000
,
0010
0000
0100
0000
0001
0000
1000
0010
,
1000
0000
0001
0000
0000
0100
0000
0000
,
0010
0000
1000
0000
0100
0000
0010
0001
,
0010
0000
0001
0000
0000
1000
0000
0000
,
0001
0000
0100
0000
0010
0000
0100
0001
,
0100
0000
0010
0000
0000
1000
0000
0000
,
0100
0000
0010
0100
0010
0100
0010
0000
,
0001
2002
0000
0000
,
0000
0000
0000
0000
3003
0000
1000
1000
,
0001
0000
0000
0100
0000
0000
0010
0000
,
0000
1000
0000
0000
0200
0000
0320
0000
,
0032
0000
0003
0000
1000
0000
0000
0100
,
0000
0010
0001
1000
,
0001
0000
0000
0100
0000
0000
0010
0000
,
1000
0001
0100
0010
,
1000
0000
0000
0010
0000
0000
0010
0000
,
0100
0001
1000
0001
,
0010
0000
0000
0001
0000
0000
0001
0000
,
1000
0001
0100
0010
,
0100
0100
0001
0001
,
1000
1000
0010
0010
,
0100
0010
0100
0000
0001
1000
0001
0000
,
1000
0001
1000
0001
1000
0000
0001
0000
,
2002
0000
0000
0000
,
3003
0000
0000
0000
;

//--------------- dance-single - Fred-104 ----------------
#NOTES:
     dance-single:
     Fred-104:
     Medium:
     13:
     :
0000
0000
0000
0000
,
0000
0000
0000
0000
,
0000
0000
0000
0000
,
0002
0000
0000
0000
,
2003
0000
0000
0000
0000
0000
0000
0000
0000
0000
0000
0000
0000
0000
0000
0000
0000
0000
0000
0000
0000
0000
0000
0000
0000
0000
0000
0000
0000
0000
0000
0000
0000
0000
0000
0000
0000
0000
0000
0000
3001
0000
0000
0000
0000
0000
0000
0000
2002
3003
0000
0000
0000
0000
0000
0000
0000
0000
0000
0000
0000
0000
0000
0000
,
1100
0000
0000
0001
0100
0000
0000
0010
0100
0000
0000
0001
1000
0000
0000
0000
,
0101
0000
0000
1000
0001
0000
0000
0010
0100
0000
0000
1000
0001
0000
0000
0000
,
0110
0000
0000
0001
0100
0000
0000
0001
1000
0000
0000
0010
0100
0000
0000
0000
,
0110
0000
0000
1000
0100
0000
0000
1000
0001
0000
0000
1000
0010
0000
0000
0000
,
0011
0000
0000
0001
0100
0000
0010
0000
1000
0000
0010
0000
0100
0000
0000
0000
,
0110
0000
0000
0010
1000
0000
0001
0000
1000
0000
0100
0000
0010
0000
0000
0000
,
0011
0000
0000
0001
1000
0000
0001
0000
0100
0000
0010
0000
0100
0000
0001
0000
,
1000
1000
0001
0001
1000
0001
1001
0000
,
0001
0100
1000
0000
0001
0010
1000
0000
,
0001
0000
0000
0000
0000
0000
0000
0000
0100
0000
0000
0000
0000
0000
0000
0000
1000
0000
0000
0000
0000
0000
0000
0000
0000
0000
0000
0000
0000
0000
0000
0000
0001
0000
0000
0000
0000
0000
0000
0000
0010
0000
0000
0000
0000
0000
0000
0000
2000
3000
0000
0000
0000
0000
0000
0000
0000
0000
0000
0000
0000
0000
0000
0000
,
1000
0010
0001
0000
1000
0100
0001
0000
,
1000
0010
0001
0000
1000
0100
0001
0001
,
1000
0100
0001
0000
1000
0010
0001
0000
,
0001
0000
0000
0000
0000
0000
0000
0000
0010
0000
0000
0000
0000
0000
0000
0000
1000
0000
0000
0000
0000
0000
0000
0000
0000
0000
0000
0000
0000
0000
0000
0000
0001
0000
0000
0000
0000
0000
0000
0000
0100
0000
0000
0000
0000
0000
0000
0000
2000
3000
0000
0000
0000
0000
0000
0000
0000
0000
0000
0000
0000
0000
0000
0000
,
0001
1000
0010
0000
1000
0001
0100
0100
,
0001
0001
1000
1000
0001
1000
1001
0000
,
0001
0100
0010
0100
0001
0100
0010
1000
,
0100
0001
0100
1000
0010
0100
0001
0000
,
1000
0100
0010
0100
0001
0100
0010
0100
,
1000
0010
0100
0001
0010
1000
0010
0001
,
0000
1000
1001
0000
0001
0100
0010
0100
,
0001
0000
0100
0000
0010
0000
1000
0000
0001
0000
1000
0000
0001
0000
0000
0001
,
0010
0000
0000
0010
0100
0000
0000
0100
1000
0000
0000
1000
0010
0000
0000
0010
,
0100
0100
0010
0010
0100
0010
0110
0000
,
1001
0000
0000
0000
0001
0000
0000
0000
0100
0010
0100
0000
0001
0000
0100
0001
,
0010
0001
0100
0010
1000
0010
0100
0010
1000
0100
0010
0001
1000
0001
2002
0000
,
0000
0000
0000
0000
,
0000
0000
0000
0000
,
0000
0000
3003
0000
2000
0000
0000
3200
0000
0000
0000
0000
0000
0000
0302
0000
,
0203
0000
2300
0000
3002
0000
0000
0203
0000
0000
0000
0000
0000
0000
0000
0000
,
2300
0000
3200
0000
0302
0000
0000
0023
0000
0000
0000
0000
0000
0000
0000
0000
,
2030
0000
3020
0000
0032
0000
0000
2003
0000
0000
0000
0000
0000
0000
3020
0000
,
0032
0023
1030
0000
0010
0100
0000
0010
,
1000
0000
0100
0010
0002
0000
0203
0000
,
0302
0000
0013
0000
0001
1000
0000
0010
,
0100
0000
0001
1000
0010
0000
2000
0000
,
3200
0000
1300
0100
1000
0010
1000
0100
,
0010
0000
0001
0100
0001
0010
0001
0100
,
0001
0000
0001
0010
0100
1000
0001
0100
,
0010
1000
0001
0001
1000
1000
0001
1000
,
1001
0000
0001
0010
0100
0020
0000
0031
,
1000
0010
0100
0001
0020
0031
0020
0130
,
0020
0031
1000
0100
0010
0200
0000
1300
,
0010
0100
0001
1000
0100
0010
0011
0000
,
1010
0000
0010
0001
1000
0020
0000
0130
,
0001
1000
0001
0100
0010
1000
0002
0013
,
2000
3010
0001
0010
0100
2000
0000
3010
,
1000
0100
1000
1000
0001
0001
1000
0001
,
1001
0000
0001
0100
0010
0200
0000
1300
,
0100
0010
0100
0001
2000
3010
0200
0301
,
0020
0130
1000
0001
1000
0200
0000
1300
,
0010
0100
0001
0010
0100
0010
0011
0000
,
1001
0000
1000
0010
0100
0002
0000
1003
,
0100
0010
0001
0100
1000
0100
0002
1003
,
0002
0003
0001
0010
0100
0020
0000
0031
,
1000
0100
1000
1000
0001
0001
1000
0001
,
1001
0000
0110
0000
0000
2002
0000
0000
,
0000
0000
0000
0000
3003
0000
0110
1001
,
0001
0010
0100
1000
0001
0100
0010
0000
,
1000
0100
0010
0100
1000
0001
0100
0000
,
0001
0010
1000
0010
0001
0010
1000
0000
,
0001
0100
1000
0100
0001
0100
1000
0000
,
0001
0100
0010
1000
0100
0010
0100
0000
,
0001
0100
0010
1000
1010
0000
0101
0000
,
0001
1000
0100
1000
0010
1000
0100
1000
,
0100
0010
0100
0010
0001
1000
0001
0100
,
0010
0100
0001
0010
0100
1000
0001
0100
,
0010
1000
0100
0001
0100
1000
0001
0000
,
1000
0010
1000
0010
0100
0001
0100
0001
,
1000
0100
1000
0100
0010
0001
0010
0001
,
1000
0100
0010
0100
1000
0001
0100
0010
,
0100
0000
0000
0000
0001
0000
1000
0000
0001
1000
0001
1000
0001
0000
0000
0000
,
2002
0000
0000
0000
,
3003
0000
0000
0000
;

//--------------- dance-single - Fred-104 ----------------
#NOTES:
     dance-single:
     Fred-104:
     Hard:
     17:
     :
0000
0000
0000
0000
,
0000
0000
0000
0000
,
0000
0000
0000
0000
,
0002
2003
0000
0000
,
0000
0000
0000
0000
0000
0000
0000
0000
0000
0000
0000
0000
3020
0000
0000
0000
0000
0000
0000
0000
0000
0000
0000
0000
0000
0000
0000
0000
0000
0000
0000
0000
0030
0000
0000
0000
0000
0000
0000
0000
0100
0000
0000
0000
0000
0000
0000
0000
0220
0330
0000
0000
0000
0000
0000
0000
0000
0000
0000
0000
0000
0000
0000
0000
,
1001
0000
0000
0001
0100
0000
0010
1000
0000
0010
0100
0000
0001
0000
1000
0000
,
0001
0010
0000
0001
1000
0000
0001
0100
0000
0001
0010
0000
0001
0000
1000
0000
,
0010
1000
0000
0100
1000
0000
0010
1000
0000
0001
1000
0000
0100
0000
0010
0000
,
0001
0010
0000
0001
0100
0000
0001
0010
0000
0010
0100
0000
1000
0000
0001
1000
,
0001
0010
0000
0001
0100
0000
0001
0010
0000
0010
0100
0000
1000
0000
0010
0000
,
1000
0100
0000
0010
0001
0000
1000
0010
0000
0100
0001
0000
1000
0000
0100
0000
,
0010
0001
0000
1000
0001
0000
0100
0010
0000
1000
0010
0000
0100
0000
0001
1000
,
0001
0000
0000
0100
0000
0000
0001
0000
0000
0100
0000
0000
0010
0000
0000
0100
0000
0000
0010
0000
0000
0100
0000
0000
0001
0000
0000
0000
0000
0000
1000
0000
0000
0000
0000
0000
1000
0000
0000
0000
0000
0000
0001
0000
0100
0000
0001
0000
,
1000
0000
0000
0000
0000
0000
0000
0000
0020
0030
0000
0000
0000
0000
0000
0000
0020
0030
0000
0000
0000
0000
0000
0000
0001
0000
0000
0000
0100
0000
0000
0000
0000
0000
0000
0000
0100
0000
0000
0000
0010
0000
0000
0000
0000
0000
0000
0000
1000
0000
0000
0000
0000
0000
0000
0000
0001
0000
0000
0000
1000
0000
0000
0000
,
0000
0000
0000
0000
0010
0000
0000
0000
0100
0000
0000
0000
0000
0000
0000
0000
0001
0000
0000
0000
0000
0000
0000
0000
1000
0000
0000
0000
0100
0000
0000
0000
0000
0000
0000
0000
0010
0000
0000
0000
0001
0000
0000
0000
0000
0000
0000
0000
0202
0303
0000
0000
0000
0000
0000
0000
0000
0000
0000
0000
0000
0000
0000
0000
,
0100
0010
0100
0000
0001
0000
0010
0100
0000
1000
0010
0000
0100
0000
0001
1000
,
0000
0100
0010
0000
0001
0000
1000
0010
0000
0100
0001
0000
1000
0010
0100
0010
,
1000
0000
0001
1000
0001
0000
0100
0010
0000
1000
0010
0000
0100
0000
0001
0010
,
0000
0000
0000
0000
0010
0000
0000
0000
0100
0000
0000
0000
0000
0000
0000
0000
1000
0000
0000
0000
0000
0000
0000
0000
0001
0000
0000
0000
0100
0000
0000
0000
0000
0000
0000
0000
0010
0000
0000
0000
1000
0000
0000
0000
0000
0000
0000
0000
2020
3030
0000
0000
0000
0000
0000
0000
0000
0000
0000
0000
0000
0000
0000
0000
,
0010
0100
0010
0000
1000
0000
0100
0000
0010
0100
0010
0000
0001
0000
0100
0010
,
1000
0000
0000
0010
0000
0000
1000
0000
0000
0010
0000
0000
0100
0000
0000
0010
0000
0000
0100
0000
0000
0010
0000
0000
1000
0000
0000
0000
0000
0000
0001
0000
0000
0000
0000
0000
1000
0000
0000
0000
0000
0000
1000
0000
0010
0000
1000
0000
,
0001
0000
0100
0010
0100
0000
0010
0000
1000
0100
0010
0000
0001
0000
1000
0000
,
0001
0000
1000
0100
1000
0000
0001
0000
1000
0001
0010
0000
0001
0000
0100
0000
,
0001
0000
0010
0100
0010
0000
0001
0000
0100
0010
1000
0000
0010
0000
0100
0000
,
0001
0000
1000
0001
0100
0000
0001
0010
0000
0010
0100
0000
1000
0010
0000
0010
,
0100
0001
0000
0001
1000
0000
0001
0010
0000
1000
0010
0000
0001
0000
2000
0000
,
3010
0100
0010
0000
1000
0000
0001
0100
0001
1000
0010
1000
0001
0000
0000
0001
,
0010
0001
0000
0001
1000
0010
0000
0010
0100
0001
0000
0001
1000
0100
0000
0100
,
0010
0000
0000
0001
0000
0000
0010
0000
0000
0001
0000
0000
0010
0000
0000
0100
0000
0000
0010
0000
0000
0100
0000
0000
1000
0000
0000
0000
0000
0000
0010
0000
0000
0000
0000
0000
0100
0000
0000
0000
0000
0000
0001
0000
1000
0000
0010
0000
,
1000
0000
0000
0000
0010
0000
0100
0000
0001
0000
0000
0000
1000
0000
0000
0100
0010
0000
0001
0000
1000
0000
0010
0000
0110
0000
0100
0000
0000
0000
0001
1000
,
0001
0000
0100
0010
1000
0000
0010
0100
0000
0010
0100
0000
0001
0000
1000
0001
1000
0000
0010
1000
0100
0000
0010
0000
0001
0100
0010
0000
2002
0000
0000
0000
,
0000
0000
0000
0000
,
0000
0000
0000
0000
,
0000
0000
3003
0000
2100
0000
0000
3200
0000
0000
0000
0000
0000
0000
0302
0000
,
0203
0000
2300
0000
3020
0000
0000
0230
0000
0000
0000
0000
0000
0000
0000
0000
,
0302
0000
0023
0000
2030
0000
0000
3020
0000
0000
0000
0000
0000
0000
0000
0000
,
0032
0000
0203
0000
0320
0000
0000
2030
0000
0000
0000
0000
0000
0000
3200
0000
,
0320
0032
1003
0000
0010
1000
1100
0000
,
0010
0000
0000
0000
0000
0000
0000
0000
0001
0000
0000
0000
0000
0000
0000
0000
0101
0000
0000
0000
0000
0000
0000
0000
0000
0000
0000
0000
0000
0000
0000
0000
0120
0000
0000
0000
0000
0000
0000
0000
0000
0000
0000
0000
0000
0000
0000
0030
2010
0000
0000
0000
0000
0000
0000
0000
0000
0000
0000
0000
0000
0000
0000
3000
,
1002
0000
0000
0000
0000
0000
0000
0000
0000
0000
0000
0000
0000
0000
0000
0003
0101
0000
0000
0000
0000
0000
0000
0000
0000
0000
0000
0000
0000
0000
0000
0000
0001
0000
0000
0000
0000
0000
0000
0000
0100
0000
0000
0000
0000
0000
0000
0000
0110
0000
0000
0000
0000
0000
0000
0000
0000
0000
0000
0000
0000
0000
0000
0000
,
1000
0100
0110
0010
0001
1000
0002
0100
,
2003
0000
0010
0000
3001
0000
1000
0010
1000
0000
0001
0100
0001
0000
1000
0001
,
1000
0000
0000
0000
0000
0000
0001
0000
1000
0000
0100
0000
1000
0000
0000
0000
0000
0000
0001
0000
0000
0100
0000
0000
0001
0000
0000
0000
0000
0000
1000
0000
0000
0010
0000
0000
1000
0000
0000
0000
0000
0000
0001
0000
0000
1000
0000
0000
,
0001
0000
0000
0000
0000
0000
1000
0000
0100
0000
1000
0000
0001
0000
0000
0000
0000
0000
0100
0000
0000
0000
0000
0000
0010
0000
0000
0000
0000
0000
1000
0000
0000
0000
0000
0000
0100
0000
0000
0010
0000
0000
0100
0000
0000
0010
0000
0000
,
0100
0000
0000
0000
0000
0000
2000
0000
0000
0000
0000
0000
3001
0000
0000
0100
0000
0000
0001
0000
0000
0100
0000
0000
0010
0000
0000
1000
0000
0000
0010
0000
0000
1000
0000
0000
0001
0000
0000
0000
0000
0000
1000
0000
0010
0000
0100
0000
,
0001
0000
0002
0013
1000
0002
0103
0010
,
0001
0000
0100
0000
0020
0000
1000
0001
0030
0001
1000
0000
2010
0000
0000
3010
,
0002
0000
0000
0013
2000
0000
3001
0100
0001
0000
2000
3100
0000
0010
0001
0000
,
1000
0010
0100
0001
1000
0000
0001
0100
0010
0100
0001
0000
0101
0000
0100
0000
,
0110
0000
0010
1000
0002
0000
1003
0010
0100
0000
0002
0103
0000
1000
0100
0000
,
0001
0000
1000
0100
0020
0000
0001
1000
0030
1000
0001
0000
0102
0000
0000
0103
,
0020
0000
1000
0000
2030
0000
3001
1000
0010
0000
2000
3100
0000
0010
0001
0000
,
1000
0010
1000
0100
2100
3100
0210
0310
,
0021
0000
0030
0000
0002
0000
1003
0100
0001
0000
0200
1300
0000
0010
0100
0000
,
0001
0000
0100
1000
0100
0000
0001
0000
0010
0100
1000
0000
0010
0100
0001
0000
,
0100
0010
1000
0000
0001
0100
0001
0010
0100
1000
0100
1000
0000
1000
0001
0100
,
0010
1000
0001
0000
1000
0100
0000
0100
0010
0001
1000
0000
1010
0000
0010
0000
,
0110
0000
0000
0000
0002
0000
1003
0010
0100
0000
0002
0103
0000
1000
0100
0000
,
0001
0000
0010
0000
0100
0000
1000
0100
0001
0100
1000
0000
2010
0000
0000
3010
,
0200
0000
0001
0000
0302
0000
0103
0010
0100
0000
0002
0013
0000
0100
1000
0000
,
0001
0000
0000
0000
0000
0000
0100
0000
0000
0001
0000
0000
0010
0000
0000
0001
0000
0000
1000
0000
0000
0001
0000
0000
0100
0000
0000
0001
0000
0000
1000
0000
0000
0001
0000
0000
1000
0000
0000
0000
0000
0000
0001
0000
0100
0000
0010
0000
,
0100
0000
0110
0000
0000
2002
0000
0000
,
0000
0000
0000
0000
0000
0000
0000
0000
3003
0000
0000
0000
0000
0000
0000
0000
0001
0000
0000
0000
0100
0000
0000
0000
0010
0000
0000
0000
1000
0000
0000
0000
0001
0000
0000
0000
0000
0000
0000
0000
0000
0000
0000
0000
0000
0000
0000
0000
2020
3030
0000
0000
0000
0000
0000
0000
0202
0303
0000
0000
0000
0000
0000
0000
,
2001
3100
0010
2000
3001
0100
2000
3001
,
1000
0000
0100
0000
0001
0000
0200
0320
0032
0000
0103
0000
0020
0000
0031
0000
,
2000
3100
0010
2000
3002
0023
2030
3002
,
0203
0320
0130
1000
0002
0013
2000
3010
,
0002
1003
0100
0002
2003
3020
0032
2003
,
3001
0000
0010
0000
0200
0000
1300
0000
0002
0000
0003
0010
0002
0000
1003
0000
,
0001
0100
0010
0000
1000
0000
0010
0100
0001
0000
2000
0000
3200
0000
0320
0000
,
0031
0000
1000
0000
0010
0100
0010
0000
1000
0010
0100
0000
0001
0010
0100
0000
,
1000
0001
0100
0000
0001
0000
1000
0001
0100
0000
0010
0000
0100
0000
0001
0000
,
0100
0001
1000
0001
0010
0001
1000
0000
2001
0000
0000
3001
0200
0000
0310
0000
,
2000
3100
0001
2000
3010
0100
2000
3010
,
0100
2000
3001
0010
2000
3020
0230
0302
,
1003
0100
1000
0010
1000
0100
0010
0001
0100
0001
0010
0001
1000
0001
0100
0010
,
0100
0000
0000
0010
0100
0000
0001
0000
1000
0010
0100
0001
1000
0000
0000
0000
,
2002
0000
0000
0000
,
3003
0000
0000
0000
;

//--------------- dance-single - Fred-104† ----------------
#NOTES:
     dance-single:
     Fred-104†:
     Challenge:
     18:
     :
0000
0000
0000
0000
,
0000
0000
0000
0000
,
0000
0000
0000
0000
,
0000
0000
0000
0000
,
0000
0000
0000
0000
0000
0000
0000
0000
0000
0000
0000
0000
0000
0000
0000
0000
0000
0000
0000
0000
0000
0000
0000
0000
0000
0000
0000
0000
0000
0000
0000
0000
0000
0000
0000
0000
0000
0000
0000
0000
0110
0000
0000
0000
0000
0000
0000
0000
2002
3003
0000
0000
0000
0000
0000
0000
0000
0000
0000
0000
0000
0000
0000
0000
,
1000
0100
0000
1000
0010
0000
1000
0100
0000
0010
0001
0000
1000
0000
0001
0000
,
0100
0001
0000
0010
0001
0000
1000
0001
0000
0100
0001
0000
0010
0000
0100
0000
,
1000
0001
0000
0010
0100
0000
1000
0001
0000
0100
0010
0000
1000
0000
0100
0000
,
0010
0100
0000
1000
0100
0000
0010
0001
0000
0100
0001
0000
0010
0001
1000
0001
,
1000
0100
0000
0010
1000
0000
0010
0100
0000
1000
0001
0000
0100
0000
0010
0000
,
0100
0001
0000
0010
0100
0000
0010
0001
0000
1000
0001
0000
0100
0000
0010
0000
,
1000
0010
0000
0100
1000
0000
0100
0010
0000
1000
0001
0000
0100
0000
0010
1000
,
0001
0000
0000
0010
0000
0000
0100
0000
0000
1000
0000
0000
0010
0000
0000
0100
0000
0000
0001
0000
0000
0010
0000
0000
0100
0000
0000
0000
0000
0000
1000
0000
0000
0000
0000
0000
0001
0000
0100
0000
0001
0000
0100
0000
0001
0000
0100
0000
,
0001
0000
0010
0000
1000
0000
0001
0100
0000
1000
0001
0000
1000
0000
0100
0010
,
0000
0000
0000
0000
1000
0000
0000
0000
0010
0000
0000
0000
0000
0000
0000
0000
0001
0000
0000
0000
0000
0000
0000
0000
1000
0000
0000
0000
0001
0000
0000
0000
0000
0000
0000
0000
0010
0000
0000
0000
0100
0000
0000
0000
0000
0000
0000
0000
2200
3300
0000
0000
0000
0000
0000
0000
0000
0000
0000
0000
0000
0000
0000
0000
,
1000
0010
0001
0000
0010
0000
0100
0001
0000
1000
0001
0000
0100
0000
1000
0100
,
0000
0000
0000
0010
0000
0000
1000
0000
0000
0000
0000
0000
0100
0000
0000
0000
0000
0000
0010
0000
0000
0001
0000
0000
0000
0000
0000
1000
0000
0000
0001
0000
0000
0000
0000
0000
0100
0000
0001
0000
0100
0000
0001
0000
0100
0000
0001
0000
,
0100
0000
0002
2003
3001
0000
0100
1000
0000
0100
0001
0000
1000
0000
0100
0001
,
0000
0000
0000
0000
0100
0000
0000
0000
1000
0000
0000
0000
0000
0000
0000
0000
0001
0000
0000
0000
0000
0000
0000
0000
0010
0000
0000
0000
1000
0000
0000
0000
0000
0000
0000
0000
0010
0000
0000
0000
0001
0000
0000
0000
0000
0000
0000
0000
2002
3003
0000
0000
0000
0000
0000
0000
0000
0000
0000
0000
0000
0000
0000
0000
,
1000
0010
0100
0000
1000
0000
0100
0001
0000
1000
0100
0000
0010
0000
0001
1000
,
0010
0000
0000
0100
0000
0000
0001
0000
0000
0010
0000
0000
0100
0000
0000
1000
0000
0000
0010
0000
0000
0100
0000
0000
0001
0000
0000
0000
0000
0000
1000
0000
0000
0000
0000
0000
0100
0000
1000
0000
0100
0000
1000
0000
0100
0000
1000
0000
,
0100
0000
0000
1000
0100
0000
0010
0001
0000
1000
0100
0000
0010
0000
0001
0000
,
1000
0010
0000
0100
0001
0000
1000
0010
0000
0100
0001
0000
1000
0000
0100
0000
,
1000
0001
0000
0010
0100
0000
1000
0001
0000
0010
0100
0000
1000
0000
0001
0000
,
0100
0010
0000
1000
0001
0000
0100
0010
0000
1000
0001
0000
1000
0100
0010
0001
,
0100
0001
0000
0010
0100
0000
1000
0010
0000
1000
0100
0000
0010
0000
0001
0100
,
0001
0010
0000
0100
1000
0000
0001
0100
0000
0010
1000
0001
1001
0000
0000
1000
,
0100
0001
0000
0001
0100
1000
0000
1000
0010
0001
0000
0001
0010
1000
0001
0100
,
0001
0000
0000
0010
0000
0000
0100
0000
0000
1000
0000
0000
0010
0000
0000
0100
0000
0000
0001
0000
0000
0010
0000
0000
0100
0000
0000
0000
0000
0000
1000
0000
0000
0000
0000
0000
0001
0000
1000
0000
0001
0000
1000
0000
0001
0000
1000
0000
,
0001
0000
0000
0000
0000
0000
0000
0000
0000
0000
0000
0000
0100
0000
0000
0000
0000
0000
0010
0000
0000
0000
0000
0000
1010
0000
0000
0000
0000
0000
0000
0000
0000
0000
0000
0000
1000
0000
0000
0000
0000
0000
0010
0000
1000
0000
0001
0000
1000
0000
0000
0000
0000
0000
0100
0000
0000
0000
0000
0000
0001
0000
0000
0000
0000
0000
0100
0000
0000
0000
0000
0000
0110
0000
0000
0000
0000
0000
0100
0000
0000
0000
0000
0000
1000
0000
0000
0000
0000
0000
0001
0000
0000
1000
0000
0000
,
0010
0000
0000
0000
0000
0000
1000
0000
0000
0001
0000
0000
0100
0000
0000
0000
0000
0000
0001
0000
0000
0010
0000
0000
0000
0000
0000
0010
0000
0000
1000
0000
0000
0001
0000
0000
1000
0000
0000
0000
0000
0000
0001
0000
0000
0010
0000
0000
0100
0000
0000
0000
0000
0000
1000
0000
0010
0000
0100
0000
0010
0000
0000
0000
0000
0000
1000
0000
0000
0000
0000
0000
0100
0000
0000
0010
0000
0000
0001
0000
0000
0000
0000
0000
2002
0000
0000
0000
0000
0000
0000
0000
0000
0000
0000
0000
,
0000
0000
0000
0000
,
0000
0000
0000
0000
,
0000
0000
3003
0000
2100
0000
0000
3020
0000
0000
0000
0000
0000
0000
0032
0000
,
2003
0000
3200
0000
0302
0000
0000
0023
0000
0000
0000
0000
0000
0000
0000
0000
,
2030
0000
3002
0000
0203
0000
0000
2300
0000
0000
0000
0000
0000
0000
0000
0000
,
3002
0000
2003
0000
3200
0000
0000
0320
0000
0000
0000
0000
0000
0000
0032
0000
,
1003
0001
1000
0001
1000
0000
0000
0000
2100
0000
0000
0000
0000
0000
0000
0000
3010
0000
0000
0000
2000
0000
3001
0000
0100
0000
0000
0000
0000
0000
0000
0000
,
0001
0000
0010
0100
1000
0000
0001
1000
0200
0000
0310
0001
2000
0000
3001
0100
,
2000
0000
3000
0000
2100
0000
0000
0000
3100
0000
0002
0013
0100
0000
0000
0000
,
1000
0000
0100
0010
0001
0000
0100
0010
1000
0000
0001
0100
0020
0130
0001
1000
,
0020
0130
0001
0000
1000
0000
0010
1000
0010
0000
1000
0100
1000
0000
0010
1000
,
0010
0000
0000
0000
0000
0000
1000
0000
0100
0000
0010
0000
0001
0000
0000
0000
0000
0000
0100
0000
0000
0001
0000
0000
0100
0000
0000
0000
0000
0000
0001
0000
0000
0010
0000
0000
0001
0000
0000
0000
0000
0000
0100
0000
0000
0001
0000
0000
,
0100
0000
0000
0000
0000
0000
0001
0000
0100
0000
0010
0000
1000
0000
0000
0000
0000
0000
0001
0000
0000
0000
0000
0000
0100
0000
0000
0000
0000
0000
0010
0000
0000
0000
0000
0000
1000
0000
0000
0001
0000
0000
1000
0000
0000
0001
0000
0000
,
1000
0000
0000
0000
0000
0000
0001
0000
0100
0000
0010
0000
1000
0000
0000
0001
0000
0000
0010
0000
0000
0100
0000
0000
1000
0000
0000
0010
0000
0000
0100
0000
0000
0001
0000
0000
1000
0000
0000
0000
0000
0000
0100
0000
1000
0000
0100
0000
,
0010
0000
0000
0000
0021
0000
0031
1000
0010
0000
2000
0000
3100
0010
0001
0100
,
0010
1000
0100
0010
0200
0000
1000
0010
0300
0010
1000
0000
2100
0000
3010
0000
,
0102
0000
0013
0000
2000
0000
3001
1000
0100
0000
2000
3010
0000
0100
0001
0000
,
1000
0001
0100
1000
0100
0000
0010
1000
0100
0010
0001
0100
0020
0000
0031
0010
,
2000
0000
3001
1000
0020
0000
1030
0001
0100
0000
2000
3100
0000
0010
1000
0000
,
0100
0010
0001
1000
0020
0000
1000
0001
0030
0001
1000
0000
2100
0000
3001
0000
,
0102
0000
1003
0001
0020
0000
0031
1000
0010
0000
2000
3100
0000
0010
1000
0000
,
0010
0000
0100
1000
0001
0000
1000
0000
0210
0000
0301
0000
0120
0000
1030
0000
,
2002
0000
3003
0000
2000
0000
3100
0010
1000
0000
0020
0031
0000
1000
0001
1000
,
0001
0100
0010
1000
0200
0000
1000
0001
0300
0001
1000
0000
0210
0000
0301
0000
,
0120
0000
1030
0001
0200
0301
0010
0100
1000
0010
0200
0301
0000
1000
0100
0010
,
0001
0100
1000
0000
0100
0001
0010
0100
1000
0001
0100
0000
0120
0000
1030
0000
,
0210
0000
0301
1000
0020
0000
1030
0010
0100
0000
2000
3100
0000
0010
1000
0001
,
0100
0000
0001
1000
0020
0000
0100
0001
0030
0001
0100
0000
0120
0000
1030
0000
,
0210
0000
0301
1000
0002
0000
1003
0001
0010
0000
2000
3010
0000
0100
1000
0001
,
1000
0000
0000
0000
0000
0000
0001
0000
0010
0000
0100
0000
0010
0000
0000
0001
0000
0000
0010
0000
0000
0100
0000
0000
2000
0000
0000
3010
0000
0000
0100
0000
0000
0001
0000
0000
2000
0000
0000
0000
0000
0000
3100
0000
0010
0000
0001
0000
,
2000
0000
3000
0000
0001
1000
0001
1000
0001
1000
0001
1000
0010
0100
0010
0100
,
0010
0000
0000
0000
0100
0000
0000
0000
0010
0000
0000
0000
0100
0000
0000
0000
0001
0000
0000
0000
1000
0000
0000
0000
0010
0000
0000
0000
0100
0000
0000
0000
0001
0000
0000
0000
0000
0000
0000
0000
0000
0000
0000
0000
0000
0000
0000
0000
0220
0330
0000
0000
0000
0000
0000
0000
2002
3003
0000
0000
0000
0000
0000
0000
,
0002
1003
0010
0000
0001
0000
0020
0130
0001
0000
1000
0000
0002
1003
0010
0000
,
1000
0000
0100
0010
0001
0000
0200
0320
0032
0000
0013
1000
0002
0000
1003
0000
,
0002
0103
1000
0000
0100
0000
0020
1030
0200
0000
0320
0000
0032
1003
0020
0030
,
1000
0000
0020
0130
2000
0000
3001
0010
2000
0000
3001
1000
0020
0000
0130
0000
,
0002
0013
0100
0000
0001
0000
2000
3010
0002
0000
2003
3001
0200
0000
0302
0000
,
1003
0000
0010
0000
0002
0013
0100
0000
0120
0000
1030
0000
2002
0000
3003
0000
,
0002
1003
0100
1000
0010
0000
1000
0100
0020
0031
0200
0000
0302
1003
0020
0000
,
1030
0000
0100
1000
0002
0000
1003
0100
0020
0130
0001
0100
0020
0000
0000
0000
,
0032
0103
1000
0100
0010
0000
2000
3001
0010
1000
0001
0000
0200
0310
0100
0000
,
1000
0000
0100
0010
0001
0100
0010
1000
0100
0000
0010
0001
1000
0000
0001
0000
,
2000
3100
0010
0000
0100
0000
2000
3010
0100
0000
0010
0000
2000
3010
0001
0000
,
0010
0000
0200
0301
1000
0000
0001
0000
0020
0130
1000
0002
0103
0000
0020
0000
,
1030
0100
0010
0100
1000
0001
0010
0001
1000
0010
1000
0001
0100
0001
1000
0100
,
0010
0000
0000
0001
0100
0000
0010
0000
1000
0100
0001
0100
0010
0000
0000
0000
,
2002
0000
0000
0000
,
3003
0000
0000
0000
;

//--------------- dance-double - Fred-104 ----------------
#NOTES:
     dance-double:
     Fred-104:
     Easy:
     9:
     :
00000000
00000000
00000000
00000000
,
00000000
00000000
00000000
00000000
,
00000000
00000000
00000000
00000000
,
20000000
00000000
00000000
00000000
,
30020000
00000000
00000000
00030000
,
10000000
01000000
10000000
00000000
00000000
00000000
01000000
00000000
,
00010000
00001000
00010000
00000000
00000000
00000000
00001000
00000000
,
00000100
00001000
00000100
00000000
00000000
00000000
00000001
00000000
,
00001000
00000001
00001000
00000000
00000000
00000000
00000010
00000000
,
00000100
00000001
00000100
00000000
00000000
00000000
00000010
00000000
,
00010000
00001000
00010000
00000000
00000000
00000000
00000100
00000000
,
00010000
00000100
00010000
00000000
00000000
00000000
00001000
00000000
,
00100000
00010000
00100000
00010000
00100000
00000000
00010000
00000000
,
10000000
00000000
00010000
00000000
10000000
01000000
10000000
00000000
,
01000000
00000000
00100000
00000000
00001000
00020000
00030000
00000000
,
00001000
00000000
00100000
00000000
00001000
00010000
00001000
00000000
,
01000000
00000000
00001000
00000000
00010000
00001000
00010000
00000000
,
00001000
00000000
00011000
00000000
00000100
00001000
00000100
00000000
,
00000010
00000100
00000010
00000000
00000001
00000020
00000030
00000000
,
00000001
00000100
00001000
00010000
,
00001000
00010000
00001000
00010000
00001000
00000000
00010000
00000000
,
01000000
10000000
00100000
01000000
,
00100000
00100000
10000000
01000000
,
01000000
00100000
00001000
00001000
,
00010000
00000100
00010000
00001000
,
00010000
00000000
00011000
00000000
00010000
00001000
00010000
00000000
,
00001000
00000000
00000100
00000000
00000010
00001000
00000001
00000000
,
00000001
00000010
00000100
00010000
,
00001000
00010000
00001000
00010000
00001000
00000000
00010000
00000000
,
00011000
00001000
00100000
00010000
,
10000000
01000000
00100000
00001000
00010000
00100000
10000000
22000000
,
00000000
00000000
00000000
00000000
,
00000000
00000000
00000000
00000000
,
00000000
00000000
33000000
00000000
20000000
00000000
00000000
32000000
00000000
00000000
00000000
00000000
03000000
00000000
00100000
00000000
,
00001000
00000000
00010000
00000000
00001000
00000000
00000000
02000000
00000000
00000000
00000000
00000000
03000000
00000000
00000000
00000000
,
00001000
00000000
00010000
00000000
00000100
00000000
00000000
00002000
00000000
00000000
00000000
00000000
00003000
00000000
00000000
00000000
,
00000100
00000000
00000010
00000000
00000002
00000000
00000000
00000203
00000000
00000000
00000000
00000000
00000300
00000000
00000010
00000000
,
00010000
00001000
00010000
00000000
00000000
00001000
00000000
00000000
,
00100000
00001000
00020000
02030000
,
23000000
00000000
30010000
00000000
00000000
01000000
00000000
00000000
,
00100000
10000000
01000000
00200000
,
00302000
00013000
00010000
00001000
,
00001000
00000010
00000010
00000001
,
00000001
00000000
00001000
00000010
00001000
00000000
00000001
00000100
,
00000001
00000000
00000100
00000010
00000100
00000010
00000100
00000000
,
00001001
00000000
00000020
00000000
00000000
00000130
00000000
00000000
,
00000001
00000100
00000010
00002000
,
00003200
00000000
00020300
00000000
00000000
00031000
00000000
00000000
,
01000000
00001000
00010000
00002000
,
00203000
00000000
00320000
00000000
00000000
10030000
00000000
00000000
,
01000000
10000000
00010000
20000000
,
32000000
00000000
03200000
00000000
00000000
00301000
00000000
00000000
,
00010000
00000000
00001000
00010000
00001000
00000000
00010000
00000010
,
00010000
00000000
00000010
00000000
00000000
00001000
00000000
00000000
,
00000001
00000000
00001000
00000000
00000100
00000000
00000010
00000001
,
00000010
00000000
00000001
00000000
00000000
00000100
00000000
00000000
,
00000010
00000000
00001000
00000000
00000010
00000000
00010000
00001000
,
00010000
00000000
00001000
00000000
00000000
00100000
00000000
00000000
,
00001000
00000000
00010000
00000000
00001000
00000000
01000000
00100000
,
01000000
00000000
00010000
00000000
00000000
10000000
00000000
00000000
,
00100000
00000000
01000000
00100000
01000000
00100000
01000000
00000000
,
00010000
20020000
00000000
00000000
,
00000000
00000000
00000000
00000000
30030000
00000000
10000000
01000000
,
00010000
00000000
00000000
00001000
00000000
00000000
00000010
00000000
,
00000000
00000001
00000000
00000000
00002000
00000000
00003020
00000000
,
00000230
00000000
00000300
00000000
00000001
00000000
00000000
00000100
,
00000000
00001000
00010000
00001000
,
00000100
00000000
00000000
00000001
00000000
00000000
00000010
00000000
,
00000100
00000010
00001000
00010000
,
01000000
00000000
00000000
00100000
00000000
00000000
00010000
00000000
,
10000000
00100000
01000000
00010000
,
01000000
00000000
00000000
00001000
00000000
00000000
00010000
00000000
,
00000100
00010000
00001000
00010000
,
00000100
00001000
00000100
00001000
,
00000010
00000100
00000001
00000100
,
00000001
00000010
00000100
00000000
00010000
00001000
00000100
00000000
,
00000001
00000000
00001000
00000000
00000100
00000010
00000100
00000000
,
00002002
00000000
00000000
00000000
,
00003003
00000000
00000000
00000000
;

//--------------- dance-double - Fred-104 ----------------
#NOTES:
     dance-double:
     Fred-104:
     Medium:
     13:
     :
00000000
00000000
00000000
00000000
,
00000000
00000000
00000000
00000000
,
00000000
00000000
00000000
00000000
,
00000002
00000000
00000000
00000000
,
00000203
00000000
00000000
00000000
00000000
00000000
00000000
00000000
00000000
00000000
00000000
00000000
00000000
00000000
00000000
00000000
00000000
00000000
00000000
00000000
00000000
00000000
00000000
00000000
00000000
00000000
00000000
00000000
00000000
00000000
00000000
00000000
00000000
00000000
00000000
00000000
00000000
00000000
00000000
00000000
00000310
00000000
00000000
00000000
00000000
00000000
00000000
00000000
00000220
00000330
00000000
00000000
00000000
00000000
00000000
00000000
00000000
00000000
00000000
00000000
00000000
00000000
00000000
00000000
,
00001001
00000000
00000000
00000001
00000100
00000000
00000000
00000010
00001000
00000000
00000000
00000100
00010000
00000000
00000000
00000000
,
00011000
00000000
00000000
00000010
00001000
00000000
00000000
00000100
00010000
00000000
00000000
00001000
00010000
00000000
00000000
00000000
,
00101000
00000000
00000000
00001000
00100000
00000000
00000000
00100000
00010000
00000000
00000000
00010000
10000000
00000000
00000000
00000000
,
11000000
00000000
00000000
01000000
00100000
00000000
00000000
00100000
00001000
00000000
00000000
00001000
00010000
00000000
00000000
00000000
,
00011000
00000000
00000000
00001000
00100000
00000000
00001000
00000000
00010000
00000000
00000100
00000000
00001000
00000000
00000000
00000000
,
00001100
00000000
00000000
00000100
00000010
00000000
00000001
00000000
00001000
00000000
00000001
00000000
00000100
00000000
00000000
00000000
,
00000110
00000000
00000000
00000010
00010000
00000000
00001000
00000000
00100000
00000000
00010000
00000000
01000000
00000000
00000000
00000000
,
00001000
00001000
00010000
00010000
00001000
00010000
00011000
00000000
,
00001000
00010000
01000000
00000000
00010000
00001000
00000100
00000000
,
00001000
00010000
00100000
00000000
00010000
00001000
00000010
00000000
,
00001000
00010000
01000000
00000000
00010000
00001000
00000100
00000000
,
00001000
00010000
00100000
00000000
00010000
00001000
00000010
00000001
,
00001000
00000001
00000100
00000000
00001000
00010000
01000000
00000000
,
10000000
01000000
00010000
00000000
00001000
00010000
00001000
00000000
,
00001000
00010000
00000100
00000000
00001000
00000010
00000100
00000000
,
00000001
00000001
00001000
00001000
00000001
00001000
00001001
00000000
,
00000001
00000100
00001000
00010000
00100000
10000000
00010000
00000000
,
10000000
01000000
00010000
00001000
00000010
00000001
00001000
00000000
,
00000001
00000010
00001000
00010000
01000000
10000000
00010000
00000000
,
10000000
00100000
00010000
00001000
00000100
00000001
00001000
00000010
,
00000000
00000100
00000110
00000000
00000001
00001000
00000001
00000000
,
00000100
00000000
00001000
00000000
01000000
00000000
00010000
00000000
00100000
00000000
00001000
00000000
00010000
00000000
00000000
00001000
,
00010000
00000000
00000000
00010000
00001000
00000000
00000000
00001000
01000000
00000000
00000000
01000000
00100000
00000000
00000000
00100000
,
10000000
10000000
00010000
00010000
10000000
00010000
10010000
00000000
,
01100000
00000000
00000000
00000000
10000000
00000000
00000000
00000000
00010000
10000000
00100000
00000000
01000000
00000000
00010000
10000000
,
01000000
00100000
01000000
00100000
00001000
00010000
00000100
00001000
00000100
00000010
00000001
00001000
00000010
00000100
00000220
00000000
,
00000000
00000000
00000000
00000000
,
00000000
00000000
00000000
00000000
,
00000000
00000000
00000330
00000000
00002000
00000000
00000000
00023000
00000000
00000000
00000000
00000000
00000000
00000000
00032000
00000000
,
02003000
00000000
03020000
00000000
00230000
00000000
00000000
00302000
00000000
00000000
00000000
00000000
00000000
00000000
00000000
00000000
,
00023000
00000000
00032000
00000000
00003020
00000000
00000000
00000230
00000000
00000000
00000000
00000000
00000000
00000000
00000000
00000000
,
00020300
00000000
00030020
00000000
00020030
00000000
00000000
00032000
00000000
00000000
00000000
00000000
00000000
00000000
00023000
00000000
,
00032000
00003020
00000031
00000000
00000100
00000010
00000000
00000000
,
00010000
00001000
00020000
00230000
,
02300000
00000000
03010000
00000000
10000000
10000000
00000000
00000000
,
00100000
10000000
01000000
00200000
,
00302000
00000000
00013000
00000100
00001000
00000100
00010000
00000100
,
00001000
00000000
00000010
00010000
00001000
00010000
00000010
00010000
,
00001000
00000000
00100000
00001000
00010000
01000000
00100000
00001000
,
00010000
00001000
00010000
00010000
00001000
00001000
00010000
00001000
,
00011000
00000000
00010000
00001000
00000100
00000002
00000000
00001003
,
00000010
00000100
00000001
00000100
00000120
00000000
00002030
00000000
,
00003002
00000000
00000103
00000010
00001000
00000200
00000000
00010300
,
00001000
00100000
00010000
01000000
00100000
10000000
21000000
00000000
,
30020000
00000000
10030000
01000000
00100000
00002000
00000000
01003000
,
00100000
10000000
01000000
00010000
00001000
00000100
00000102
00000000
,
00002003
00000000
00003010
00000100
00000010
00002000
00000000
00003001
,
00000010
00000100
00001000
00001000
00000001
00000001
00001000
00000001
,
00001001
00000000
00000001
00000100
00001000
00020000
00000000
01030000
,
00010000
00001000
00000100
00000001
00002001
00000000
00003020
00000000
,
00002030
00000000
00003001
00000010
00001000
00020000
00000000
00130000
,
00010000
00001000
00000010
00000001
00001000
00000010
00000120
00000000
,
00002030
00000000
00003100
00010000
00001000
00020000
00000000
01030000
,
00100000
00010000
10000000
00100000
00010000
00100000
20100000
00000000
,
30020000
00000000
01030000
00100000
10000000
00200000
00000000
01300000
,
00010000
00100000
00001000
00001000
00010000
00010000
00001000
00010000
,
00011000
00000000
00000110
00000000
00000000
00002002
00000000
00000000
,
00000000
00000000
00000000
00000000
00003003
00000000
00001100
00000101
,
00001000
00000100
00000001
00000100
00001000
00000100
00000010
00000000
,
00000001
00000100
00001000
00000100
00000001
00000100
00000010
00000000
,
00001000
00000000
00000001
00000010
00000100
00000010
00001000
00010000
,
01000000
00100000
01000000
10000000
00100000
01000000
00010000
00000000
,
01000000
00000000
00010000
10000000
01000000
00010000
00001000
00010000
,
00100000
00010000
00001000
00010000
00011000
00000000
00101000
00000000
,
00001000
00010000
00100000
01000000
00001000
00010000
01000000
10000000
,
00100000
01000000
00100000
00010000
00001000
00000100
00000010
00000000
,
00001000
00000100
00000001
00000100
00001000
00000001
00000010
00001000
,
00010000
00001000
01000000
00100000
10000000
00010000
10000000
00000000
,
00100000
10000000
01000000
00100000
00001000
00010000
00100000
00010000
,
00001000
00010000
00000100
00001000
00000100
00000010
00000001
00001000
,
00000001
00000010
00001000
00010000
01000000
00100000
00010000
10000000
,
00010000
00000000
00000000
00000000
10000000
00000000
00100000
00000000
01000000
00100000
01000000
00100000
10000000
00000000
00000000
00000000
,
20020000
00000000
00000000
00000000
,
30030000
00000000
00000000
00000000
;

//--------------- dance-double - Fred-104 ----------------
#NOTES:
     dance-double:
     Fred-104:
     Hard:
     17:
     :
00000000
00000000
00000000
00000000
,
00000000
00000000
00000000
00000000
,
00000000
00000000
00000000
00000000
,
00020000
00000000
00000000
00000000
,
00032000
00000000
00000000
00000000
00000000
00000000
00000000
00000000
00000000
00000000
00000000
00000000
00000000
00000000
00000000
00000000
00000000
00000000
00000000
00000000
00000000
00000000
00000000
00000000
00000000
00000000
00000000
00000000
00000000
00000000
00000000
00000000
00000000
00000000
00000000
00000000
00000000
00000000
00000000
00000000
00013000
00000000
00000000
00000000
00000000
00000000
00000000
00000000
00022000
00033000
00000000
00000000
00000000
00000000
00000000
00000000
00000000
00000000
00000000
00000000
00000000
00000000
00000000
00000000
,
00010100
00000000
00000000
00010000
00001000
00000000
00010000
00000100
00000000
00001000
00000100
00000000
00010000
00000000
00000100
00000000
,
00001000
00000010
00000000
00000100
00000010
00000000
00001000
00000010
00000000
00000100
00000010
00000000
00001000
00000000
00000001
00000000
,
00001000
00000100
00000000
00000010
00000100
00000000
00001000
00000100
00000000
00000010
00000100
00000000
00001000
00000000
00000010
00000000
,
00010000
00001000
00000000
00100000
00001000
00000000
00010000
00001000
00000000
00100000
00001000
00000000
00100000
00000000
00010000
10000000
,
00010000
01000000
00000000
00100000
01000000
00000000
00010000
10000000
00000000
10000000
01000000
00000000
00100000
00000000
00001000
00000000
,
00010000
00001000
00000000
00100000
00001000
00000000
00010000
00001000
00000000
00001000
01000000
00000000
00001000
00000000
00010000
00000000
,
00000100
00001000
00000000
00000100
00001000
00000000
00000010
00000100
00000000
00000100
00000001
00000000
00000010
00000000
00000100
00000010
,
00000001
00000010
00000001
00000010
00000001
00000010
00000001
00000010
00000001
00000000
00001000
00000000
00001001
00000000
00000000
00000000
,
00000001
00000000
00000100
00000000
00000010
00000000
00000000
00001000
00000010
00000000
00000100
00000000
00000001
00000000
00000000
00000010
,
00000100
00000000
00000000
00000000
00000000
00000000
00000000
00000000
00010000
00000000
00000000
00000000
00000000
00000000
00000000
00000000
00001000
00000000
00000000
00000000
00000000
00000000
00000000
00000000
00000000
00000000
00000000
00000000
00010000
00000000
00000000
00000000
00001000
00000000
00000000
00000000
00000000
00000000
00000000
00000000
00010000
00000000
00000000
00000000
00000000
00000000
00000000
00000000
00022000
00033000
00000000
00000000
00000000
00000000
00000000
00000000
00000000
00000000
00000000
00000000
00000000
00000000
00000000
00000000
,
00001000
00000000
00010000
00000000
00100000
00000000
00000000
01000000
00001000
00000000
00100000
00000000
00010000
00000000
00000000
01000000
,
00001000
00000000
00010000
00000000
01000000
00000000
00000000
10000000
01000000
00000000
00010000
00000000
00001000
00010000
00001000
00010000
,
00001000
00000000
00000100
00000000
00000010
00000000
00001000
00000001
00000000
00000010
00000100
00000000
00000010
00000000
00000001
00001000
,
00000000
00000000
00000000
00000000
00000010
00000000
00000000
00000000
00000100
00000000
00000000
00000000
00000000
00000000
00000000
00000000
00000010
00000000
00000000
00000000
00000000
00000000
00000000
00000000
00001000
00000000
00000000
00000000
00000010
00000000
00000000
00000000
00000000
00000000
00000000
00000000
00010000
00000000
00000000
00000000
00001000
00000000
00000000
00000000
00000000
00000000
00000000
00000000
00022000
00033000
00000000
00000000
00000000
00000000
00000000
00000000
00000000
00000000
00000000
00000000
00000000
00000000
00000000
00000000
,
00001000
00000000
00010000
00000000
00100000
00000000
10000000
00010000
00000000
01000000
00100000
00000000
10000000
00000000
00010000
00100000
,
01000000
00100000
01000000
00100000
01000000
00100000
01000000
00100000
00010000
00000000
10000000
00000000
10010000
00000000
00000000
00000000
,
00010000
10000000
00000000
01000000
00100000
00000000
00001000
00010000
00000000
00000100
00001000
00000000
00000100
00000000
00010000
00000000
,
00000010
00001000
00000000
00000001
00000100
00000000
00000010
00000100
00000000
00000001
00000010
00000000
00000001
00000000
00001000
00000000
,
00000001
00000010
00000000
00000100
00001000
00000000
00000100
00000010
00000000
00000001
00001000
00000000
00000001
00000000
00000010
00000000
,
00000100
00010000
00000000
00001000
00010000
00000000
00000010
00010000
00000000
00001000
00010000
00000000
00001000
00010000
00000000
00010000
,
00001000
00100000
00000000
00100000
00010000
00000000
10000000
00100000
00000000
01000000
00010000
00000000
10000000
00000000
02000000
00000000
,
03100000
00010000
00000000
00100000
00001000
00000000
00010000
00001000
00010000
00001000
00010000
00000000
00011000
00000000
00000000
00010000
,
00000100
00001000
00000000
00001000
00000010
00000100
00000000
00000100
00000001
00000010
00000000
00000010
00000100
00000010
00000000
00000010
,
00000001
00000100
00000001
00000100
00000010
00000100
00000010
00000100
00000001
00000000
00001000
00000000
00001001
00000000
00000000
00000000
,
00000110
00000000
00000000
00000000
00000001
00000000
00000100
00000000
00000010
00000000
00000000
00000000
00001000
00000000
00000000
00000100
00000010
00000000
00000001
00000000
00001000
00000000
00000010
00000000
00000100
00000000
00000010
00000000
00000000
00000000
00000010
00010000
,
00000010
00000000
00010000
00001000
00000010
00000000
00000100
00010000
00000000
00001000
00000010
00000000
00010000
00000000
00010000
00001000
00100000
00000000
00001000
00010000
01000000
00000000
10000000
00000000
00010000
01000000
00001000
00000000
00022000
00000000
00000000
00000000
,
00000000
00000000
00000000
00000000
,
00000000
00000000
00000000
00000000
,
00000000
00000000
00033000
00000000
00020000
00000000
00000000
00032000
00000000
00000000
00000000
00000000
00000000
00000000
00003020
00000000
,
00000032
00000000
00000203
00000000
00002300
00000000
00000000
00023000
00000000
00000000
00000000
00000000
00000000
00000000
00000000
00000000
,
02030000
00000000
23000000
00000000
30020000
00000000
00000000
20030000
00000000
00000000
00000000
00000000
00000000
00000000
00000000
00000000
,
30200000
00000000
00320000
00000000
00032000
00000000
00000000
00003020
00000000
00000000
00000000
00000000
00000000
00000000
00000032
00000000
,
00000203
00002300
00013000
00000000
01000000
00100000
01100000
00000000
,
00010000
00000000
00000000
00000000
00000000
00000000
00000000
00000000
10000000
00000000
00000000
00000000
00000000
00000000
00000000
00000000
11000000
00000000
00000000
00000000
00000000
00000000
00000000
00000000
00000000
00000000
00000000
00000000
00000000
00000000
00000000
00000000
01200000
00000000
00000000
00000000
00000000
00000000
00000000
00000000
00000000
00000000
00000000
00000000
00000000
00000000
00000000
00300000
00120000
00000000
00000000
00000000
00000000
00000000
00000000
00000000
00000000
00000000
00000000
00000000
00000000
00000000
00000000
00030000
,
00012000
00000000
00013000
00000000
00000010
00001000
00001100
00000000
,
00000010
00000001
00000101
00000100
00000010
00001000
00001010
00000000
,
00000101
00000000
00000001
00000010
00001000
00010000
01000000
10000000
,
00010000
00000000
10000000
00100000
00010000
00001000
00000100
00000001
,
00001000
00000000
00000000
00000000
00000001
00000000
00000100
00000000
00001000
00000000
00010000
00000000
00001000
00010000
00001000
00010000
,
00001000
00000000
00010000
00000000
00001000
01000000
00001000
01000000
00010000
01000000
00010000
01000000
00100000
00000000
10000000
00000000
,
10010000
00000000
00020000
01030000
10000000
00020000
00130000
01000000
,
00010000
00000000
10000000
00000000
00010000
00000000
01000000
00100000
10000000
00000000
01000000
00000000
02100000
00000000
00000000
03100000
,
00002000
00000000
00023000
00031000
00000010
00000002
00001003
00000100
,
00000010
00000000
00000001
00000000
00001000
00000000
00000001
00000100
00000010
00000000
00001000
00000000
00001010
00000000
00000010
00000000
,
00000110
00000100
00000002
00000013
00000100
00020000
00031000
00000100
,
00000001
00000000
00001000
00000000
00000010
00000000
00000100
00000001
00000100
00000000
00000010
00000000
00002010
00000000
00000000
00003010
,
00020000
00000000
00032000
00013000
01000000
00200000
00310000
10000000
,
00100000
10000000
00100000
01000000
01010000
01000000
01001000
00001000
,
00011000
00000000
00000000
00000000
00020000
00000000
00031000
00010000
00000010
00000000
00002000
00003100
00000000
00000010
00000100
00000000
,
00001000
00000000
00000001
00000010
00000100
00000000
00001000
00000000
00000001
00000010
00001000
00000000
00000001
00000100
00001000
00000000
,
00000001
00001000
00000001
00000000
00001000
00000100
00000010
00000001
00000010
00000100
00010000
00001000
00000000
00010000
00001000
01000000
,
00001000
00010000
00001000
00000000
00100000
00010000
00000000
10000000
00100000
01000000
00010000
00000000
10010000
00000000
10000000
00000000
,
11000000
00000000
00000000
00000000
01000000
00000000
00100000
00010000
10000000
00000000
01000000
00010000
00000000
01000000
10000000
00000000
,
00100000
00000000
10000000
00000000
01000000
00000000
00100000
00001000
00010000
00001000
00100000
00000000
00021000
00000000
00000000
00031000
,
00020000
00000000
00030100
00000000
00002000
00000000
00003001
00001000
00000100
00000000
00000020
00000031
00000000
00001000
00000001
00000000
,
00000010
00000000
00000000
00000000
00000000
00000000
00000100
00000000
00000000
00000010
00000000
00000000
00000001
00000000
00000000
00001000
00000000
00000000
00000010
00000000
00000000
00010000
00000000
00000000
00001000
00000000
00000000
00100000
00000000
00000000
00010000
00000000
00000000
10000000
00000000
00000000
00010000
00000000
00000000
00000000
00000000
00000000
01000000
00000000
00100000
00000000
01000000
00000000
,
00100000
00000000
10010000
00000000
00000000
02200000
00000000
00000000
,
03300000
00000000
00000000
00000000
00000000
00000000
00000000
00000000
00000000
00000000
00000000
00000000
00000000
00000000
00000000
00000000
10000000
00000000
00000000
00000000
01000000
00000000
00000000
00000000
00100000
00000000
00000000
00000000
00001000
00000000
00000000
00000000
00010000
00000000
00000000
00000000
00000000
00000000
00000000
00000000
00000000
00000000
00000000
00000000
00000000
00000000
00000000
00000000
02002000
03003000
00000000
00000000
00000000
00000000
00000000
00000000
00020020
00030030
00000000
00000000
00000000
00000000
00000000
00000000
,
00021000
00031000
00000100
00000002
00001003
00000100
00000020
00000031
,
00001000
00000000
00000001
00000000
00000100
00000000
00002000
00023000
02030000
00000000
03100000
00000000
00020000
00000000
10030000
00000000
,
00200000
10300000
01000000
00200000
00302000
00023000
00230000
20300000
,
30010000
00200000
02300000
03001000
00000200
00001300
00000020
00010030
,
00002000
00003010
00000100
00000020
00000032
00000023
00000230
00002300
,
00003001
00000000
00000010
00000000
00002000
00000000
00003010
00000000
00000002
00000000
00000003
00001000
00000002
00000000
00000000
00000000
,
00000103
00000010
00001000
00000000
00000001
00000000
00000010
00001000
00010000
00000000
01000000
00000000
00100000
00000000
00010000
00000000
,
01000000
00000000
00100000
00000000
00010000
00001000
00000100
00000000
00000010
00001000
00000100
00000000
00010000
00001000
00100000
00000000
,
00001000
00100000
00001000
00000000
00010000
00000000
00001000
01000000
00001000
00000000
00100000
00000000
00010000
00000000
10000000
00000000
,
00010000
01000000
00100000
10000000
00010000
10000000
01000000
00000000
01100000
00000000
00000000
00000000
00011000
00000000
00000000
00000000
,
00000120
00001030
00000001
00000020
00000130
00000010
00000002
00000103
,
00001000
00020000
00130000
01000000
00020000
20030000
32000000
23000000
,
30010000
01000000
00100000
10000000
01000000
00100000
00010000
00100000
00001000
00010000
00000100
00001000
00000100
00000010
00000001
00001000
,
00000001
00000000
00000000
00000100
00000010
00000000
00001000
00000000
00000010
00010000
00001000
00100000
00001000
00000000
00000000
00000000
,
00022000
00000000
00000000
00000000
,
00033000
00000000
00000000
00000000
;

//--------------- dance-double - Fred-104† ----------------
#NOTES:
     dance-double:
     Fred-104†:
     Challenge:
     18:
     :
00000000
00000000
00000000
00000000
,
00000000
00000000
00000000
00000000
,
00000000
00000000
00000000
00000000
,
00000000
00000000
00000000
00000000
,
00000000
00000000
00000000
00000000
00000000
00000000
00000000
00000000
00000000
00000000
00000000
00000000
00000000
00000000
00000000
00000000
00000000
00000000
00000000
00000000
00000000
00000000
00000000
00000000
00000000
00000000
00000000
00000000
00000000
00000000
00000000
00000000
00000000
00000000
00000000
00000000
00000000
00000000
00000000
00000000
01100000
00000000
00000000
00000000
00000000
00000000
00000000
00000000
20020000
30030000
00000000
00000000
00000000
00000000
00000000
00000000
00000000
00000000
00000000
00000000
00000000
00000000
00000000
00000000
,
00010000
00100000
00000000
01000000
10000000
00000000
00010000
01000000
00000000
10000000
01000000
00000000
00010000
00000000
10000000
00000000
,
01000000
00100000
00000000
00001000
00010000
00000000
00000100
00000010
00000000
00000001
00001000
00000000
00000010
00000000
00000100
00000000
,
00001000
00000100
00000000
00000010
00001000
00000000
00000001
00001000
00000000
00000001
00000010
00000000
00000100
00000000
00010000
00000000
,
00001000
00100000
00000000
01000000
10000000
00000000
00010000
01000000
00000000
00100000
10000000
00000000
00010000
01000000
00010000
01000000
,
00100000
10000000
00000000
01000000
00100000
00000000
01000000
10000000
00000000
00010000
01000000
00000000
00001000
00000000
00010000
00000000
,
00001000
00000100
00000000
00000010
00001000
00000000
00000010
00000100
00000000
00000001
00001000
00000000
00000100
00000000
00000010
00000000
,
00000001
00001000
00000000
00000010
00000100
00000000
00000010
00010000
00000000
00001000
00100000
00000000
00010000
00000000
10000000
01000000
,
00100000
00000000
00000000
00010000
00000000
00000000
01000000
00000000
00000000
00010000
00000000
00000000
00100000
00000000
00000000
01000000
00000000
00000000
00100000
00000000
00000000
00001000
00000000
00000000
00010000
00000000
00000000
00000000
00000000
00000000
00000100
00000000
00000000
00000000
00000000
00000000
00001000
00000000
00000000
00000001
00000000
00000000
00000100
00000000
00000001
00000000
00001000
00000000
,
00000001
00000000
00000010
00000000
00001000
00000000
00010000
01000000
00000000
00100000
00010000
00000000
10000000
00000000
00100000
00010000
,
00000000
00000000
00000000
00000000
00001000
00000000
00000000
00000000
00000100
00000000
00000000
00000000
00000000
00000000
00000000
00000000
00000010
00000000
00000000
00000000
00000000
00000000
00000000
00000000
00001000
00000000
00000000
00000000
00000001
00000000
00000000
00000000
00000000
00000000
00000000
00000000
00001000
00000000
00000000
00000000
00000100
00000000
00000000
00000000
00000000
00000000
00000000
00000000
00000220
00000330
00000000
00000000
00000000
00000000
00000000
00000000
00000000
00000000
00000000
00000000
00000000
00000000
00000000
00000000
,
00000001
00000100
00001000
00000000
00010000
00000000
00100000
01000000
00000000
00010000
00100000
00000000
01000000
00000000
10000000
01000000
,
00000000
00000000
00000000
00010000
00000000
00000000
00001000
00000000
00000000
00000000
00000000
00000000
00000010
00000000
00000000
00000000
00000000
00000000
00000100
00000000
00000000
00001000
00000000
00000000
00000000
00000000
00000000
00000001
00000000
00000000
00000100
00000000
00000000
00000000
00000000
00000000
00000010
00000000
00000100
00000000
00000010
00000000
00000100
00000000
00000010
00000000
00000100
00000000
,
00000010
00000000
00020000
00032000
00013000
00000000
01000000
00100000
00000000
00010000
10000000
00000000
01000000
00000000
00010000
00001000
,
00000000
00000000
00000000
00000000
00000100
00000000
00000000
00000000
00001000
00000000
00000000
00000000
00000000
00000000
00000000
00000000
00010000
00000000
00000000
00000000
00000000
00000000
00000000
00000000
00100000
00000000
00000000
00000000
01000000
00000000
00000000
00000000
00000000
00000000
00000000
00000000
00010000
00000000
00000000
00000000
10000000
00000000
00000000
00000000
00000000
00000000
00000000
00000000
20020000
30030000
00000000
00000000
00000000
00000000
00000000
00000000
00000000
00000000
00000000
00000000
00000000
00000000
00000000
00000000
,
10000000
00010000
00100000
00000000
01000000
00000000
00100000
00001000
00000000
00010000
00001000
00000000
00100000
00000000
00001000
01000000
,
00010000
00000000
00000000
10000000
00000000
00000000
01000000
00000000
00000000
00100000
00000000
00000000
00010000
00000000
00000000
01000000
00000000
00000000
00010000
00000000
00000000
00100000
00000000
00000000
01000000
00000000
00000000
00000000
00000000
00000000
10000000
00000000
00000000
00000000
00000000
00000000
00010000
00000000
00000000
01000000
00000000
00000000
00100000
00000000
10000000
00000000
00100000
00000000
,
10000000
00000000
00000000
00010000
10000000
00000000
00001000
01000000
00000000
00000010
00010000
00000000
00000001
00000000
00001000
00000000
,
00000001
00000100
00000000
00001000
00010000
00000000
00100000
10000000
00000000
01000000
00010000
00000000
00001000
00000000
00000010
00000000
,
00000001
00001000
00000000
00000010
00010000
00000000
00000100
00100000
00000000
00001000
01000000
00000000
00010000
00000000
10000000
00000000
,
01000000
00100000
00000000
00001000
00010000
00000000
00000100
00000010
00000000
00000001
00001000
00000000
00000001
00001000
00000100
00001000
,
00000001
00000010
00000000
00000010
00001000
00000000
00001000
00010000
00000000
00010000
01000000
00000000
10000000
00000000
10000000
00010000
,
10000000
00100000
00000000
00100000
00010000
00000000
00010000
00001000
00000000
00001000
00000100
00000001
00001000
00000000
00000000
00000001
,
00000010
00000100
00000000
00000100
00010000
00001000
00000000
00001000
01000000
00100000
00000000
00100000
10000000
00010000
00100000
00010000
,
10000000
00000000
00000000
01000000
00000000
00000000
00100000
00000000
00000000
00010000
00000000
00000000
01000000
00000000
00000000
00100000
00000000
00000000
00010000
00000000
00000000
00001000
00000000
00000000
01000000
00000000
00000000
00000000
00000000
00000000
00001000
00000000
00000000
00000000
00000000
00000000
00000100
00000000
00000000
00000010
00000000
00000000
00001000
00000000
00000001
00000000
00001000
00000000
,
00000001
00000000
00000000
00000000
00000000
00000000
00000000
00000000
00000000
00000000
00000000
00000000
00001000
00000000
00000000
00000000
00000000
00000000
00000100
00000000
00000000
00000000
00000000
00000000
00000010
00000000
00000000
00000000
00000000
00000000
00000000
00000000
00000000
00000000
00000000
00000000
00000001
00000000
00000000
00000000
00000000
00000000
00000100
00000000
00000001
00000000
00000100
00000000
00000001
00000000
00000000
00000000
00000000
00000000
00000010
00000000
00000000
00000000
00000000
00000000
00001000
00000000
00000000
00000000
00000000
00000000
00010000
00000000
00000000
00000000
00000000
00000000
01000000
00000000
00000000
00000000
00000000
00000000
00100000
00000000
00000000
00000000
00000000
00000000
00010000
00000000
00000000
00000000
00000000
00000000
01000000
00000000
00000000
00001000
00000000
00000000
,
00010000
00000000
00000000
00000000
00000000
00000000
00001000
00000000
00000000
00010000
00000000
00000000
00001000
00000000
00000000
00000000
00000000
00000000
00010000
00000000
00000000
00000100
00000000
00000000
00000000
00000000
00000000
00001000
00000000
00000000
00000010
00000000
00000000
00000100
00000000
00000000
00000001
00000000
00000000
00000000
00000000
00000000
00001000
00000000
00000100
00000000
00000010
00000000
00000001
00000000
00000000
00000000
00000000
00000000
00000100
00000000
00000000
00001000
00000000
00000000
00010000
00000000
00000000
00000000
00000000
00000000
00100000
00000000
00000000
00000000
00000000
00000000
10000000
00000000
00000000
01000000
00000000
00000000
00010000
00000000
00000000
00000000
00000000
00000000
00022000
00000000
00000000
00000000
00000000
00000000
00000000
00000000
00000000
00000000
00000000
00000000
,
00000000
00000000
00000000
00000000
,
00000000
00000000
00000000
00000000
,
00000000
00000000
00033000
00000000
00020010
00000000
00000000
00032000
00000000
00000000
00000000
00000000
00000000
00000000
00203000
00000000
,
00320000
00000000
20030000
00000000
30200000
00000000
00000000
02300000
00000000
00000000
00000000
00000000
00000000
00000000
00000000
00000000
,
03020000
00000000
20030000
00000000
32000000
00000000
00000000
03020000
00000000
00000000
00000000
00000000
00000000
00000000
00000000
00000000
,
00032000
00000000
00003020
00000000
00000032
00000000
00000000
00000203
00000000
00000000
00000000
00000000
00000000
00000000
00002300
00000000
,
00013000
00001000
00010000
00001000
00010000
00000000
00000000
00000000
00012000
00000000
00000000
00000000
00000000
00000000
00000000
00000000
00103000
00000000
00000000
00000000
00020000
00000000
10030000
00000000
00100000
00000000
00000000
00000000
00000000
00000000
00000000
00000000
,
10000000
00000000
00010000
00100000
01000000
00000000
10000000
00100000
02000000
00000000
03100000
00000000
20000000
00000000
31000000
00100000
,
00002000
00000000
00013000
00000000
00012000
00000000
00000000
00000000
00013000
00000000
00000020
00001030
00000100
00000000
00000000
00000000
,
00010000
00000000
00000100
00001000
00000001
00000000
00000010
00000100
00001000
00000000
00000001
00000000
00000200
00000000
00000310
00000000
,
00002010
00000000
00000000
00000000
00003001
00000000
00000100
00001000
00010000
00000000
01000000
00010000
00001000
00000000
00000100
00001000
,
00010000
00000000
00000000
00000000
00000000
00000000
01000000
00000000
10000000
00000000
01000000
00000000
10000000
00000000
00000000
00000000
00000000
00000000
00100000
00000000
00000000
00010000
00000000
00000000
00001000
00000000
00000000
00000000
00000000
00000000
00000010
00000000
00000000
00001000
00000000
00000000
00010000
00000000
00000000
00000000
00000000
00000000
00100000
00000000
00000000
00010000
00000000
00000000
,
00001000
00000000
00000000
00000000
00000000
00000000
00000010
00000000
00000001
00000000
00000010
00000000
00000001
00000000
00000000
00000000
00000000
00000000
00000100
00000000
00000000
00000000
00000000
00000000
00001000
00000000
00000000
00000000
00000000
00000000
00010000
00000000
00000000
00000000
00000000
00000000
00001000
00000000
00000000
00010000
00000000
00000000
00001000
00000000
00000000
00010000
00000000
00000000
,
00100000
00000000
00000000
00000000
00000000
00000000
10000000
00000000
00000000
00010000
00000000
00000000
10000000
00000000
00000000
01000000
00000000
00000000
00100000
00000000
00000000
00010000
00000000
00000000
01000000
00000000
00000000
00100000
00000000
00000000
00010000
00000000
00000000
00001000
00000000
00000000
00100000
00000000
00000000
00000000
00000000
00000000
00001000
00000000
00010000
00000000
00001000
00000000
,
00010000
00000000
00000000
00000000
00012000
00000000
00013000
00000100
00001000
00000000
00000020
00000130
00000000
00000001
00001000
00000000
,
00000100
00000010
00000001
00001000
00000020
00000000
00001000
00000001
00000030
00000001
00001000
00000000
00002100
00000000
00003010
00000000
,
00000102
00000000
00000013
00000000
00002000
00000000
00003001
00000010
00000100
00000000
00020000
00031000
00000000
00100000
00001000
00000000
,
00010000
00001000
01000000
00100000
10000000
00000000
00010000
01000000
00001000
00010000
00001000
00000000
00012000
00000000
01003000
00000000
,
00021000
00000000
00030100
00001000
00000200
00000000
00010300
00000010
00001000
00000000
00000002
00000103
00000000
00001000
00000100
00000000
,
00000001
00001000
00000100
00000010
00000200
00000000
00001000
00000001
00000300
00000001
00001000
00000000
00002100
00000000
00003100
00000000
,
00021000
00000000
00031000
00100000
00002000
00000000
00103000
00010000
10000000
00000000
00020000
00130000
00000000
01000000
00010000
00000000
,
01000000
00000000
00100000
00010000
10000000
00000000
01000000
00000000
02100000
00000000
03100000
00000000
00012000
00000000
00013000
00000000
,
00000220
00000000
00000330
00000000
00002001
00000000
00003001
00000010
00000100
00000000
00020000
00031000
00000000
00000100
00000001
00001000
,
00000001
00000000
00000100
00000010
00001000
00000000
00000100
00000010
00002000
00013000
01000000
00100000
00020000
00000000
10030000
00000000
,
20020000
00000000
30030000
00000000
00020000
00130000
01000000
10000000
00010000
00100000
02000000
13000000
01000000
00100000
00010000
01000000
,
00001000
00010000
00000100
00001000
00000001
00000010
00000100
00001000
00000010
00000100
00001000
00010000
00200000
00000000
10300000
00000000
,
20020000
00000000
30030000
00000000
20000000
00000000
30010000
00100000
01000000
00000000
00020000
01030000
00000000
00100000
00010000
10000000
,
00010000
00000000
01000000
00001000
00010000
00000000
00001000
00000010
00000001
00001000
00000001
00000000
00000200
00000000
00001300
00010000
,
00002000
00000000
00013000
00000000
00200000
00000000
10300000
00010000
00100000
00000000
02000000
13000000
00000000
00100000
10000000
01000000
,
00100000
00000000
00000000
00000000
00000000
00000000
00010000
00000000
00000000
01000000
00000000
00000000
00001000
00000000
00000000
00010000
00000000
00000000
00000010
00000000
00000000
00001000
00000000
00000000
00000200
00000000
00000000
00010300
00000000
00000000
00000100
00000000
00000000
00001000
00000000
00000000
00000002
00000000
00000000
00000000
00000000
00000000
00000103
00000000
00000010
00000000
00001000
00000000
,
00000002
00000000
00000000
00000000
00001003
00000001
00001000
00000001
00001000
00000001
00001000
00000001
00000010
00000100
00000010
00000100
,
00000010
00000000
00000000
00000000
00000100
00000000
00000000
00000000
00000010
00000000
00000000
00000000
00000100
00000000
00000000
00000000
00001000
00000000
00000000
00000000
00000001
00000000
00000000
00000000
00000100
00000000
00000000
00000000
00001000
00000000
00000000
00000000
00010000
00000000
00000000
00000000
00000000
00000000
00000000
00000000
00000000
00000000
00000000
00000000
00000000
00000000
00000000
00000000
00022000
00033000
00000000
00000000
00000000
00000000
00000000
00000000
02200000
03300000
00000000
00000000
00000000
00000000
00000000
00000000
,
20000000
31000000
00100000
00000000
10000000
00000000
00200000
01300000
10000000
00000000
00010000
00000000
20000000
31000000
00010000
00000000
,
00001000
00000000
00000010
00000001
00001000
00000000
00000002
00002003
00003020
00000000
00000130
00000000
00000002
00000000
00000000
00000000
,
00002003
00000000
00003100
00000000
00010000
00000000
00000020
00001030
00000200
00000000
00020300
00000000
00032000
01003000
00020000
00000000
,
00130000
00000000
00002000
01003000
00020000
00000000
00130000
00000000
00002000
00000000
00013000
00000010
00002000
00000000
00003100
00000000
,
00020000
00000000
00031000
00100000
00010000
00000000
20000000
30010000
02000000
00000000
23000000
00000000
32000000
00000000
03200000
00000000
,
10300000
00000000
02000000
03100000
00020000
00000000
01030000
00001000
00020000
00000000
00031000
00000000
00022000
00000000
00033000
00000000
,
00020000
00031000
00000010
00000000
00000100
00000000
00001000
00000001
00000200
00000000
00000302
00000000
00002003
00003100
00000020
00000000
,
00000031
00000000
00000100
00001000
00020000
00000000
01030000
00010000
00002000
00000000
00013000
00000000
00200000
00000000
00310000
00000000
,
00002000
00003010
00001000
00000000
00010000
00000000
00200000
00310000
00001000
00000000
00000100
00000000
00002000
00013000
00001000
00000000
,
00010000
00000000
01000000
10000000
00010000
10000000
00100000
00010000
00100000
00000000
01000000
00000000
10010000
00000000
00000000
00000000
,
00020000
00130000
01000000
10000000
00010000
00000000
00020000
01030000
00100000
01000000
00001000
00000000
00002000
00013000
00000010
00001000
,
00000100
00000000
00000200
00000310
00000001
00001000
00000010
00000100
00000002
00001003
00000100
00000020
00000031
00000000
00002000
00000000
,
00003001
00000010
00000100
00001000
00000010
00000100
00001000
00010000
00000100
00001000
00010000
00100000
00001000
00010000
00100000
10000000
,
00010000
00000000
00000000
10000000
01000000
00000000
00010000
00000000
00001000
00000010
00000100
00001000
00000001
00000000
00000000
00000000
,
00000022
00000000
00000000
00000000
,
00000033
00000000
00000000
00000000
;
