#TITLE:夢幻ノ光;
#ARTIST:TЁЯRA;
#TITLETRANSLIT:Mugen no hikari;
#ARTISTTRANSLIT:TERRA;
#GENRE:HYPER JAPANESQUE;
#BANNER:Mugen no hikari.png;
#BACKGROUND:Mugen no hikari-bg.png;
#CDTITLE:./CDTitles/pnm 12 Iroha.png;
#MUSIC:Mugen no hikari.ogg;
#SAMPLESTART:47.72;
#SAMPLELENGTH:15;
#BPMS:0=171,200=85.5,216=171;
#STAGE:15;

//--------------- dance-single - Fred-104 ----------------
#NOTES:
     dance-single:
     Fred-104:
     Beginner:
     2:
     :
0000
0000
0000
0000
,
0000
0000
0000
0000
,
0000
0000
0000
0000
,
0000
0000
0000
0000
,
0000
0000
0000
0000
,
0000
0000
0000
0000
,
0000
0000
0000
0000
,
0000
0000
0000
0000
,
1000
0000
0000
0000
,
0002
0000
0003
0000
,
1000
0000
0000
0000
,
0001
0000
0000
0000
,
0100
0000
0000
0000
,
0100
0000
0000
0000
,
0010
0000
0000
0000
,
1000
0000
0000
0000
,
0001
0000
0000
0000
,
1000
0000
1000
0000
,
0001
0000
0000
0000
,
1000
0000
0000
0000
,
0010
0000
0010
0000
,
0010
0000
0100
0000
,
0100
0000
0000
0000
,
0001
0000
0000
0000
,
1000
0000
1000
0000
,
0001
0000
1000
0000
,
1000
0000
0000
0000
,
0001
0000
0000
0000
,
1000
0000
0000
0000
,
0001
0000
0100
0000
,
0100
0000
0000
0000
,
0010
0000
0010
0000
,
1000
0000
0000
0000
,
2002
0000
3003
0000
,
1000
0000
0010
0000
,
1000
0000
1000
0000
,
0002
0000
0003
0000
,
2000
0000
3000
0000
,
0001
0000
0001
0000
,
1000
0000
0001
0000
,
1000
0000
0001
0000
,
2000
0000
3000
0000
,
0001
0000
1000
0000
,
0002
0000
0003
0000
,
0100
0000
0100
0000
,
0010
0000
0010
0000
,
1000
0000
0000
0000
,
0002
0000
0003
0000
,
1000
0000
1000
0000
,
0001
0000
0001
0000
,
1000
0000
0000
0000
,
0001
0000
0000
0100
,
0100
0000
0010
0000
,
2000
0000
0000
3000
,
0001
0000
1000
0000
,
0001
0000
1000
0000
,
0001
0000
1000
0000
,
1000
0000
0001
0000
,
0100
0000
0000
0000
,
0100
0000
0000
0000
,
0010
0000
0000
0000
,
1000
0000
0000
0000
,
0001
0000
0000
0000
,
1000
0000
0001
0000
,
1000
0000
0001
0000
,
1000
0000
1000
0000
,
1001
0000
0000
0000
,
1000
0000
0000
0000
,
0001
0000
0000
0000
,
0100
0000
0000
0000
,
0100
0000
0000
0000
,
0010
0000
0000
0000
,
1001
0000
0000
0000
,
0000
0000
0000
0000
,
0100
0000
0000
0000
;

//--------------- dance-single - Fred-104 ----------------
#NOTES:
     dance-single:
     Fred-104:
     Easy:
     7:
     :
0000
0000
0000
0000
,
0000
0000
0000
0000
,
0000
0000
0000
0000
,
0000
0000
0000
0000
,
0000
0000
0000
0000
,
0000
0000
0000
0000
,
0000
0000
0000
0000
,
0000
0000
0000
0000
,
1000
0000
0010
0010
,
0220
0330
0010
0100
,
0001
1000
1000
0010
,
0100
0010
1000
1000
,
0002
0000
1003
0010
,
0100
0010
1000
0100
,
0020
0000
0031
0100
,
2000
0000
3100
0001
,
1000
0000
0000
0001
0000
0000
0100
0000
,
0010
0010
1000
0100
,
2000
0000
0000
0000
3001
0001
0000
0000
,
0100
0100
0010
1000
,
0200
0000
0000
0000
0310
0010
0000
0000
,
0001
1000
0001
0100
,
0001
0000
0000
0011
0000
0000
1000
0000
,
0010
0000
0100
0010
0100
0000
0001
0000
,
1000
0000
0001
0010
,
0200
0000
2300
0000
,
3001
0000
0001
0100
0000
0000
0010
0000
,
1000
0000
1000
0100
0000
0000
0010
0000
,
0001
0000
0001
0100
0000
0000
0010
0000
,
1000
0100
0100
0010
,
0002
0000
0003
1000
0001
1000
0000
0001
,
0000
0100
0010
1000
,
0001
0000
0000
0001
1000
0000
0000
1000
,
0010
0100
2002
3003
,
1000
1000
0010
0100
,
0002
0000
2003
0000
,
3010
0000
0000
1000
0000
0001
0000
0000
,
0100
0100
0010
1000
,
0100
0000
0000
1000
0000
0000
0001
0000
,
0100
0010
0010
1000
,
0001
0000
0000
0010
0000
0000
1000
0000
,
0001
0100
0220
0330
,
0010
0010
1000
0001
,
0200
0000
0320
0000
,
1030
0000
0000
1010
0000
0000
0001
0000
,
0200
0000
0310
0010
,
1000
0000
0000
1100
0000
0000
0001
0000
,
0010
0000
0100
1000
,
0001
0001
1000
0010
,
0100
0100
0001
1000
,
0001
0000
0000
1000
0000
0000
0010
0000
0100
0000
0000
0000
0001
0000
0000
0000
,
1000
0000
0000
0100
0000
0000
0010
0000
0001
0000
0000
0000
0110
0000
0100
0000
,
0010
0000
0000
1000
0000
0000
0001
0000
0100
0000
0000
0000
0010
0000
0010
0000
,
2000
0000
3002
0000
0203
0000
0310
1000
,
0001
0001
0100
0010
,
1010
0000
0010
0010
,
0100
0000
0000
0001
0000
0000
1000
0000
,
0001
0001
1000
0010
,
0100
0000
0000
0001
0000
0000
0100
0000
,
0110
0000
1000
0010
,
0100
0000
0000
0010
0000
0000
1000
0000
,
1001
0000
1000
0100
,
0001
0000
0000
0100
0000
0000
0010
0000
,
1010
0000
0101
0001
,
1000
0010
0200
0000
,
0301
1000
1001
0000
,
2000
0000
3000
0002
0000
0003
0200
0000
,
0320
0000
0000
0030
2000
0000
0000
3000
,
0001
0000
0000
1000
0000
0000
0001
0000
,
0100
0010
0110
0100
,
0001
0010
0010
1000
,
0100
0100
0001
0010
,
0001
0100
0010
1000
,
0001
0000
0010
0000
1000
0010
0100
0000
,
0001
0000
0000
0000
;

//--------------- dance-single - Fred-104 ----------------
#NOTES:
     dance-single:
     Fred-104:
     Medium:
     11:
     :
0000
0000
0000
0000
,
0000
0000
0000
0000
,
0000
0000
0000
0000
,
0000
0000
0000
0000
,
0000
0000
0000
0000
,
0000
0000
0000
0000
,
0000
0000
0000
0000
,
0000
0000
0000
0000
,
1000
0010
0000
0100
0100
0000
0110
0000
,
2002
0000
0000
3003
0100
0000
0010
0000
,
2000
0000
0000
0000
3001
0001
0000
0100
,
0001
1000
0001
0000
0100
0010
1000
0000
,
0020
0000
1000
0000
0100
0100
0000
0130
,
0010
0000
0001
1000
0001
0100
0010
0000
,
1200
0000
0310
0001
,
0201
0000
0310
1000
,
1001
0100
0010
0010
,
0001
1000
0010
0000
1100
0000
0011
0000
,
1001
0000
1000
0000
0010
0100
0000
0100
,
0010
0000
1000
0010
0100
0010
1000
0000
,
1100
0000
0010
0000
0001
1000
0000
1000
,
0001
0100
0001
0000
1000
0010
0100
0000
,
0002
0000
0003
2000
0000
3000
1001
0000
,
1010
0000
0001
1000
0100
0000
0100
0000
,
0010
0100
0010
0100
0010
1000
0001
0000
,
1000
0100
0010
0000
0001
0000
1001
0000
,
1100
0000
0010
0100
0000
0010
0001
0000
,
0101
0000
0010
0100
0000
0010
1000
0000
,
1001
0000
0100
0010
0000
1000
0001
0000
,
1000
0010
1000
0000
0001
1000
0100
0000
,
0020
0000
0030
1000
0001
0100
0000
0100
,
0020
0000
1030
0001
0100
0010
1000
0000
,
1000
0000
0000
1010
0000
0000
0100
0000
0001
0000
0000
0011
0000
0000
0100
0000
,
2000
0000
0002
3003
,
0001
0001
0100
0020
0000
1030
0010
0100
,
0010
0000
1000
0100
0002
0000
0103
1000
,
0010
0000
0100
0001
0000
1000
0000
0001
,
0010
0000
0100
0010
0100
0000
1000
0001
,
0010
0000
0001
0100
0000
0010
0100
0000
,
0010
0000
1000
0010
0100
0000
0010
0100
,
0001
0000
1000
0010
0000
0100
0010
0000
,
0001
1000
2002
3003
,
0010
1000
1000
0200
0000
0310
0001
1000
,
0001
0000
1000
0001
0100
0000
0001
0010
,
0001
0000
0102
0003
1000
0000
2100
3000
,
0001
1000
0001
0100
0000
0010
0100
0000
,
0020
0000
1030
2000
0000
3100
0100
0000
,
0010
0000
0001
0000
0100
0010
1000
0000
,
0001
0100
0001
0100
0001
1000
0010
0000
,
1000
0100
1000
0100
1000
0001
0100
0000
,
0020
0000
0000
2030
0000
0000
3002
0000
0103
0000
0100
0000
0020
0000
1000
0000
,
0032
0000
0000
0203
0000
0000
2300
0000
3001
0000
0100
0000
0110
0000
0020
0000
,
2030
0000
0000
3200
0000
0000
0320
0000
2030
0000
3010
0000
0001
0000
1000
1000
,
0001
0000
0100
0000
1000
0000
0010
0000
0001
0000
0100
0000
1000
0000
0010
0000
0001
0000
0100
0000
0000
0110
0000
0000
,
0010
0000
1000
0100
0000
1000
0010
0000
,
0100
0001
1000
0000
0001
0010
0100
1000
,
0001
0000
0102
0003
1000
0000
2100
3000
,
0001
0100
1000
0000
0001
0010
1000
0000
,
0002
0000
0103
0020
0000
1000
1030
0000
,
0001
0000
0100
0000
0010
0000
1000
0010
,
0200
0000
0301
2000
0000
0100
3100
0000
,
1000
0000
0010
0000
0001
0000
0100
0001
,
0200
0000
0320
1000
0000
1000
1030
0000
,
0002
0100
2003
0010
,
3001
0100
0001
0000
1000
0100
1000
0000
,
0001
1000
0010
0000
0100
0000
0100
0000
,
0020
0000
0030
2000
0000
3000
0002
0000
,
2003
3000
2002
3003
,
0120
0000
0000
2030
0000
0000
3001
0000
,
0100
0010
1001
0100
,
1000
0100
1000
0010
1000
0001
1000
0000
,
0001
0100
0001
0010
0001
1000
0001
0000
,
1000
0100
0001
0010
,
1000
0100
0001
0010
,
1001
0000
0000
0000
;

//--------------- dance-single - Fred-104 ----------------
#NOTES:
     dance-single:
     Fred-104:
     Hard:
     14:
     :
0000
0000
0000
0000
,
0000
0000
0000
0000
,
0000
0000
0000
0000
,
0000
0000
0000
0000
,
0000
0000
0000
0000
,
0000
0000
0000
0000
,
0000
0000
0000
0000
,
0000
0000
0000
0000
,
0100
0010
0100
0010
0010
0000
0110
0000
,
2002
0000
0000
3003
0002
0000
0203
0000
,
0320
0000
1000
0000
0001
0001
0000
1030
,
0001
0000
0100
0001
1000
0001
0100
0000
,
0020
0000
1000
0000
0001
0001
0000
1030
,
0010
0100
0010
1000
1100
0000
0101
0000
,
2002
0003
3010
0100
,
0022
0030
1003
0010
,
0210
0000
0001
0001
0000
1000
1300
0000
,
0001
0010
0100
1000
1010
0000
0101
0000
,
1000
0000
0010
0000
0100
0000
0001
0010
0001
0000
0010
0000
0100
0000
1000
0000
,
0001
0100
1000
0100
0001
0010
1000
0010
,
0001
0000
1000
0000
0010
0000
0100
0001
0100
0000
0010
0000
1000
0000
0100
0000
,
1000
0100
1000
0010
0100
0001
1000
0100
,
2200
0000
3300
0202
0000
0303
2002
3003
,
2000
0000
3100
0100
0002
0000
0010
0003
,
1000
0100
1000
0001
0100
0010
1000
0100
,
0010
0001
1000
0001
0100
0010
0110
0000
,
1100
1000
0100
0110
0010
0001
0101
0000
,
0011
0001
0100
0110
0010
1000
1010
0000
,
1100
0100
0010
0110
0100
0001
1001
0000
,
0010
0010
1000
0001
0100
0010
0100
0001
,
2000
0000
0000
3010
1001
1000
0000
0001
,
0100
0000
0010
1000
0010
0100
0001
1000
,
1100
0000
0000
0101
0000
0000
1010
0000
0011
0000
0000
1100
0000
0000
0101
0000
,
0220
0330
2002
3003
,
0001
0000
0100
0010
0001
0000
2000
0000
0000
0000
3010
0000
0100
0000
1000
0000
,
0001
0000
0100
0010
1000
0000
0100
0000
0010
0000
0001
0000
1000
0000
0001
0100
,
0020
0000
1000
1000
0000
0031
0100
0010
,
1000
0000
0100
0000
0010
0000
0001
1000
0010
0000
0100
0000
0001
0000
1000
0001
,
0200
0010
0310
0002
1000
1003
1001
0000
,
1100
0000
0000
0000
1000
0000
0010
0000
0100
0000
0001
0000
1000
0001
1000
0001
,
2000
0100
3100
0020
0001
0031
1000
0010
,
0100
0000
0001
0000
1000
0000
0001
0000
1000
0010
0100
0000
0001
1000
0001
0000
,
1000
0000
0010
0100
1000
0000
0002
0000
0000
0000
0103
0000
0010
0000
0001
0000
,
1000
0000
0010
0000
0100
0000
0010
1000
0010
0000
0100
0000
0001
1000
0001
1000
,
0001
0100
1000
0001
0010
1000
1001
0000
,
0100
0000
0000
0000
0010
0000
0110
0000
0000
0000
0100
0000
0001
1000
0001
1000
,
0002
0000
0100
0000
0103
0000
0020
0000
1000
0000
1030
0001
1000
0000
0001
0000
,
1000
0000
0100
0000
0001
0000
0010
0000
0200
0000
0000
0000
1300
0000
0001
1000
,
0100
0000
0010
0000
0001
0000
1000
0010
0100
0000
0010
0000
0001
0000
1000
0001
,
1000
0100
0010
0001
0100
0010
0100
0100
,
2000
0000
0000
3020
0000
0000
0230
0000
0301
0000
1000
0001
0200
0000
0010
0000
,
2300
0000
0000
3020
0000
0000
0032
0000
1003
0000
0001
0100
0110
0010
2000
0000
,
3002
0000
1003
0200
0000
0310
0002
0000
2003
0000
3010
0100
0001
1000
0100
0100
,
0010
0000
0000
0000
0000
0000
0000
0000
1100
0000
0000
0000
0000
0000
0000
0000
0101
0000
0000
0000
0000
0000
0000
0000
0010
0000
0000
0000
0000
0000
0000
0000
0101
0000
0000
0000
0000
0000
0000
0000
1100
0000
0000
0000
0000
0000
0000
0000
0001
0000
0000
0000
0000
0000
0000
0000
0100
0000
0000
0000
0000
0000
0000
0000
0100
0000
0000
0000
0000
0000
0000
0000
0010
0000
0000
0000
0000
0000
0000
0000
0000
0000
0000
0000
0100
0000
0000
0010
0000
0000
0100
0000
0000
0010
0000
0000
,
0100
0000
0001
0000
1000
0000
0100
1000
0100
0000
0010
0000
0001
0000
1000
0001
,
1000
0000
0010
0000
0100
0000
0001
0010
0001
0000
0010
0000
0100
0010
0100
0010
,
0100
0000
1010
1000
0001
0100
0110
0000
,
0001
0000
1000
0000
0010
0000
0100
0000
0001
0010
0001
1000
0100
0000
0000
0000
,
1000
0100
0100
0010
0100
0100
1001
0000
,
0200
0000
1000
0000
0320
0000
0130
0001
,
1000
0010
0010
0100
0010
0010
1001
0000
,
1000
0000
0100
0000
0001
0000
1000
0000
0010
0000
0001
0000
1000
0010
0100
0000
,
0001
0000
0100
0000
0100
0000
0010
0000
1000
0100
1000
0000
0100
0000
0010
0000
,
0002
0100
2003
3200
,
0301
0100
0100
0001
0100
0010
1000
0100
,
0010
0000
0001
0000
1000
0000
0010
0000
0100
0001
1000
0000
0100
0000
0010
0000
,
0220
0000
0330
0202
0000
0303
2200
3300
,
0022
0033
2002
3003
,
1020
0000
0001
0001
0000
1000
1030
0000
,
0100
0000
1000
0100
0110
0010
0001
0000
,
1000
0100
0010
0100
0001
0100
0010
0100
,
1000
0010
0100
0010
0001
0010
0100
0010
,
1000
0000
0001
0010
0100
0000
1000
0000
0001
0000
0100
0000
0010
0000
0100
0000
,
1000
0000
0100
0000
0001
0000
1000
0010
0100
0000
0010
0000
0001
0000
1000
0000
,
1001
0000
0000
0000
;

//--------------- dance-double - Fred-104 ----------------
#NOTES:
     dance-double:
     Fred-104:
     Easy:
     7:
     :
00000000
00000000
00000000
00000000
,
00000000
00000000
00000000
00000000
,
00000000
00000000
00000000
00000000
,
00000000
00000000
00000000
00000000
,
00000000
00000000
00000000
00000000
,
00000000
00000000
00000000
00000000
,
00000000
00000000
00000000
00000000
,
00000000
00000000
00000000
00000000
,
00010000
01000000
10000000
00010000
,
20020000
30030000
01000000
01000000
,
00200000
00000000
10300000
10000000
,
01000000
00100000
00001000
00001000
,
00020000
00000000
00030100
00000100
,
00001000
00000001
00000100
00000010
,
00002000
00000000
00003010
00001000
,
00020000
00000000
00130000
00010000
,
00001000
00000000
00000000
00000100
00000000
00000000
00000001
00000000
,
00001000
00000010
00000100
00000001
,
00001000
00000000
00000100
00000000
00000010
00000010
00000000
00000000
,
00000001
00000100
00000010
00001000
,
00000010
00000000
00000100
00000000
00001000
00001000
00000000
00000000
,
00010000
01000000
10000000
00010000
,
01000000
00000000
00000000
10100000
00000000
00000000
01000000
00000000
,
00100000
00001000
00001000
00010000
,
00000100
00000000
00000010
00000100
00000010
00000000
00000001
00000000
,
00002000
00000000
00000000
00003000
,
00000001
00000000
00000100
00000010
00000000
00000000
00001000
00000000
,
00000100
00000000
00000010
00000001
00000000
00000000
00001000
00000000
,
00000010
00000000
00010000
00001000
00000000
00000000
00010000
00000000
,
00100000
01000000
10000000
00010000
,
02000000
00000000
03000000
00100000
01000000
00100000
00000000
10000000
,
00000000
01000000
00100000
00001000
,
00010000
00000000
00000000
00010000
00001000
00000000
00000000
00001000
,
00000010
00000000
00002002
00003003
,
00000001
00000000
00000000
00000100
00000000
00000000
00000010
00000000
,
00001000
00000100
00000010
00000100
,
00000020
00000000
00000000
00001000
00000000
00001030
00000000
00000000
,
00010000
00001000
00001000
00100000
,
00010000
00000000
00000000
10000000
00000000
00000000
00100000
00000000
,
01100000
00000000
00100000
10000000
,
01000000
00000000
00000000
01010000
00000000
00000000
00010000
00000000
,
00001000
00000000
00000000
00010000
00001000
00000000
00000000
00000000
,
00000100
00000000
00000000
00000010
00000000
00000000
00000100
00000000
,
00000001
00000000
00000100
00001000
,
00010000
00000000
00000000
00001000
00000000
00000000
00010000
00000000
,
00022000
00000000
00000000
00033000
,
00001000
00000000
00100000
00010000
00000000
00000000
01000000
00000000
,
00100000
00000000
10000000
10000000
,
01000000
00100000
01000000
00000000
00100000
00000000
00001000
00000000
,
00010000
00000000
00010000
00000000
00000010
00001000
00000010
00000000
,
00000100
00000000
00000000
00000100
00000000
00000000
00000010
00000000
00001000
00000000
00000001
00000000
00000010
00000000
00000100
00000000
,
00010000
00000000
00000000
00010000
00000000
00000000
00001000
00000000
00100000
00000000
00010000
00000000
10000000
00000000
00010000
00000000
,
01000000
00000000
00000000
01000000
00000000
00000000
00100000
00000000
10000000
00000000
00000000
00000000
00010000
00000000
10000000
00000000
,
00020000
00000000
20030000
00000000
30200000
00000000
01300000
00100000
,
10000000
00000000
00100000
10000000
00000000
00000000
00100000
00000000
,
01000000
01000000
00100000
00001000
,
00010000
00000000
00001000
00100000
00000000
00001000
00010000
00000000
,
00002000
00000000
00003010
00000100
,
00000101
00000000
00000000
00000100
00000000
00000000
00000010
00000000
,
00001000
00000000
00000100
00010000
,
00011000
00000000
00000000
00001000
00000000
00000000
00100000
00000000
,
00010000
10000000
00100000
00100000
,
01100000
00000000
00000000
10000000
00000000
00000000
00100000
00000000
,
00010000
00000000
00001000
00010000
,
00001000
00001000
00000010
00000100
,
00000001
00001000
00001001
00000000
,
00000020
00000000
00000030
00002000
00000000
00003000
00000200
00000000
,
00020300
00030000
00022000
00033000
,
00002000
00000000
00003000
00020000
00000000
00030000
02000000
00000000
,
03100000
10000000
10100000
00010000
,
01000000
00100000
00010000
00001000
,
00000100
00000001
00001000
00000010
,
00000001
00000100
00000001
00000100
,
00001000
00010000
01000000
10000000
,
10010000
00000000
00000000
00000000
;

//--------------- dance-double - Fred-104 ----------------
#NOTES:
     dance-double:
     Fred-104:
     Medium:
     10:
     :
00000000
00000000
00000000
00000000
,
00000000
00000000
00000000
00000000
,
00000000
00000000
00000000
00000000
,
00000000
00000000
00000000
00000000
,
00000000
00000000
00000000
00000000
,
00000000
00000000
00000000
00000000
,
00000000
00000000
00000000
00000000
,
00000000
00000000
00000000
00000000
,
00001000
00000000
00000000
00010000
01000000
00000000
00001000
00000000
,
00022000
00033000
00001000
00100000
,
00020000
00000000
00000000
00000000
10030000
10000000
00000000
00100000
,
01000000
00000000
00100000
00000000
10000000
00000000
01000000
00100000
,
00002000
00000000
00000000
00000000
00010000
00013000
00000000
00001000
,
00010000
00000000
00000100
00000000
00001000
00000010
00000100
00000000
,
00000110
00000000
00001000
00010000
,
01100000
00000000
10000000
00100000
,
01100000
00000000
00000000
10000000
00000000
00010000
01000000
00000000
,
00100000
10000000
01000000
00000000
01100000
00000000
00101000
00000000
,
00011000
00000000
00010000
00000000
00000100
00001000
00000000
00000010
,
00001000
00000000
00000001
00000000
00000100
00000010
00001000
00000010
,
00000100
00000000
00000001
00000000
00001000
00000010
00000100
00000000
,
00000020
00002030
00023000
00230000
,
01300000
00000000
10000000
00100000
00000000
01000000
00100000
00000000
,
01100000
00000000
00010000
10000000
00100000
00000000
01000000
00000000
,
00010000
00100000
00010000
00000000
00100000
00001000
00100000
00000000
,
00001000
00010000
00000010
00000000
00001000
00000100
00000010
00000000
,
00000101
00000000
00000010
00000100
00000010
00000000
00001000
00000000
,
00000100
00000000
00010000
00001000
01000000
00000000
00001000
00000000
,
00011000
00000000
00010000
00100000
01000000
00000000
10000000
00000000
,
00010000
00000000
01000000
00000000
00100000
10000000
00010000
00000000
,
10010000
00000000
00000000
01000000
00100000
01000000
00000000
00100000
,
00001000
00010000
00001000
00000100
,
00000010
00000000
00000000
00000010
00000000
00000000
00001000
00000000
00010000
00000000
00000000
00010000
00000000
00000000
00100000
00000000
,
02000000
00000000
00200000
03300000
,
10000000
01000000
00010000
02000000
00000000
13000000
00100000
01000000
,
00100000
00000000
00010000
00000000
00001000
00000000
00010000
00001000
,
00010000
00000000
00000100
00001000
00000000
00000010
00000000
00000100
,
00000001
00000000
00001000
00000000
00000001
00000000
00000100
00000010
,
00001000
00000000
00000100
00001000
00000000
00010000
01000000
00000000
,
00100000
00000000
10000000
00000000
00010000
00000000
01000000
00100000
,
01000000
00000000
00000000
01100000
00000000
00000000
00100000
00000000
,
10000000
00000000
00010000
01000000
00200000
00000000
00300000
00000000
,
01000000
00100000
01000000
00010000
00000000
00010000
00100000
00001000
,
00010000
00001000
00010000
00000010
,
00001000
00001010
00000001
00000011
,
00001000
00000010
00001000
00000001
00000000
00001000
00000100
00000000
,
00002000
00000000
00000000
00003020
00000000
00000000
00000230
00000000
,
00000301
00000000
00000010
00000000
00000100
00000000
00010000
00001000
,
00010000
00000000
00001000
00000000
00100000
00010000
10000000
00000000
,
00100000
01000000
00010000
00000000
01000000
00000000
00001000
00000000
,
00020000
00000000
00000000
00032000
00000000
00000000
00203000
00000000
00310000
00000000
10000000
00000000
10000000
00000000
00100000
00000000
,
02000000
00000000
00000000
03020000
00000000
00000000
00032000
00000000
00013000
00000000
00001000
00000000
00000100
00000000
00000001
00000000
,
00002000
00000000
00000000
00003020
00000000
00000000
00000230
00000000
00000301
00000000
00000010
00000000
00001000
00000000
00010000
00000000
,
00001000
00000000
00000010
00000000
00000100
00000000
00000001
00000000
00001000
00000000
00000010
00000000
00000100
00000000
00000010
00000000
00001000
00000000
00000100
00000000
00000000
00010000
00000000
00000000
,
00001000
00000000
00010000
00001000
00000000
00100000
00001000
00000000
,
00021000
00000000
00000000
00100000
00130000
00000000
00001000
00000000
,
00010000
00000000
00000010
00001000
00000000
00000100
00010000
00000000
,
00011000
00100000
00011000
00000010
,
00020000
00000000
00031000
00020000
00000000
00001000
00031000
00000000
,
00010000
00000000
00100000
00000000
01000000
00000000
00001000
00010000
,
00002000
00000000
00013000
00002000
00000000
00010000
00013000
00000000
,
00001000
00000000
00000100
00000000
00000010
00000000
00001000
00000010
,
00000200
00000000
00000301
00000200
00000000
00000010
00000310
00000000
,
00001001
00000000
00000010
00001000
,
00010000
00100000
01000000
00000000
10000000
00000000
00010000
00000000
,
01000000
00100000
10000000
00000000
00100000
00000000
00010000
00000000
,
00012000
00000000
00000000
00003020
00000000
00000000
00000230
00000000
,
00000302
00000000
00002000
00003003
,
00000001
00000000
00000100
00000010
00000000
00001000
00000010
00000000
,
00000100
00000010
00000001
00000010
,
00001000
00010000
00001000
00000000
00100000
00010000
01000000
00000000
,
00010000
10000000
00010000
00000000
01000000
00100000
10000000
00000000
,
00100000
00010000
00001000
00000000
00010000
00000100
00001000
00000000
,
00000100
00000010
00000001
00000000
00000100
00001000
00010000
00000000
,
00011000
00000000
00000000
00000000
;

//--------------- dance-double - Fred-104 ----------------
#NOTES:
     dance-double:
     Fred-104:
     Hard:
     13:
     :
00000000
00000000
00000000
00000000
,
00000000
00000000
00000000
00000000
,
00000000
00000000
00000000
00000000
,
00000000
00000000
00000000
00000000
,
00000000
00000000
00000000
00000000
,
00000000
00000000
00000000
00000000
,
00000000
00000000
00000000
00000000
,
00000000
00000000
00000000
00000000
,
00010000
00000010
00001000
00000100
00010000
00000010
00001000
00000010
,
00000220
00000000
00000000
00000330
00000002
00000000
00002003
00000000
,
00003020
00000000
00000000
00000000
00001030
00001000
00000000
00000100
,
00010000
00000000
00001000
01000000
00010000
00100000
00001000
00010000
,
00000200
00000000
00000000
00000000
00000310
00000010
00000000
00001000
,
00000100
00000010
00000001
00001000
00001010
00000000
00000101
00000000
,
00000210
00000000
00001300
00000100
,
00000210
00000000
00000301
00000100
,
00001000
00000010
00000100
00000001
00000000
00001000
00000100
00000000
,
00010000
00001000
00010000
00000000
00101000
00000000
00010010
00000000
,
00010000
00001000
00100000
00100000
00010000
01000000
00100000
10000000
,
02000000
10000000
03010000
01000000
,
00100000
01000000
00100000
00001000
00010000
00001000
00000100
00000010
,
00002000
00000010
00003001
00001001
,
00000010
00000000
00000100
00000010
00000000
00000100
00000001
00000000
,
00000100
00000100
00010000
00001000
00010000
00100000
01000000
00000000
,
10000000
00100000
10000000
00100000
01000000
00100000
10000000
00100000
,
00010000
00001000
00000010
00000001
00001000
00000010
00000100
00000000
,
00000101
00000100
00000010
00001000
00000100
00000010
00000011
00000000
,
00001100
00001000
00000010
00010000
00001000
00100000
00110000
00000000
,
10010000
10000000
01000000
00100000
00010000
01000000
01100000
00000000
,
00100000
01000000
00010000
00100000
00010000
00001000
00000100
00000010
,
00002000
00000000
00000000
00013000
00001000
00010000
00000000
00001000
,
00100000
00000000
00010000
00000000
10000000
00100000
01000000
00000000
,
00010000
00000000
00000000
10000000
00000000
00000000
01000000
00000000
00010000
00000000
00000000
00001000
00000000
00000000
00000100
00000000
,
00000002
00000000
00002000
00003003
,
00001000
00000000
00000010
00000100
00000010
00000000
00002000
00000000
00000000
00000000
00003001
00000000
00000100
00000000
00000010
00000000
,
00001000
00000000
00000000
00000000
00000001
00000000
00000010
00000000
00000100
00000000
00000000
00000000
00010000
00001000
00010000
00001000
,
00010000
00001000
00100000
00010000
00000000
00100000
01000000
00000000
,
00100000
10000000
00100000
01000000
00010000
10000000
01000000
00010000
,
00001000
00000000
00100000
00001000
00000000
00010000
00000100
00000000
,
00001000
00000010
00010000
00001000
00100000
01000000
00010000
00100000
,
00001000
00010000
00100000
00001000
00010000
00000010
00001000
00000000
,
00000001
00000100
00001000
00000100
00000001
00000100
00000010
00001000
,
00000100
00000000
00010000
00001000
00010000
00000000
00002000
00000000
00000000
00000000
00013000
00000000
00001000
00000000
00001000
00000000
,
00100000
00000000
00010000
00000000
10000000
00000000
00010000
00000000
00010000
00000000
01000000
00000000
00100000
00000000
10000000
00100000
,
01000000
00000000
00100000
00110000
00000000
00001000
00011000
00000000
,
00010000
00000000
00001000
00000010
00000000
00000010
00000001
00000000
,
00001000
00000000
00000010
00000100
00001000
00000001
00000100
00000000
,
00000010
00000000
00001000
00000001
00000100
00000010
00001000
00000000
,
00010000
00001000
00100000
00001000
00010000
00001000
00100000
00010000
,
00100000
01000000
10000000
00010000
01000000
10000000
01000000
00100000
,
01000000
00000000
00000000
00020000
00000000
00000000
20030000
00000000
31000000
00000000
00100000
01000000
01200000
00000000
00301000
00000000
,
00020000
00000000
00000000
00030200
00000000
00000000
00002300
00000000
00003100
00000000
00000010
00000001
00001001
00000000
00000200
00000000
,
00000320
00000000
00000000
00002030
00000000
00000000
00023000
00000000
00130000
00000000
10000000
01000000
10000000
00100000
01000000
01000000
,
00010000
00000000
01000000
00000000
10000000
00000000
00100000
00000000
00010000
00000000
00001000
00000000
00000010
00000000
00000001
00000000
00000100
00000000
00001000
00000000
00000000
00011000
00000000
00000000
,
00010000
00000000
01000000
00000000
00100000
00000000
10000000
01000000
10000000
00000000
01000000
00000000
00100000
00000000
00010000
00100000
,
00010000
01000000
00001000
00010000
00000100
00001000
00000100
00000010
,
00002000
00000000
00000100
00000100
00000000
00010000
00013000
00000000
,
00001000
00100000
00010000
10000000
00010000
01000000
00100000
10000000
,
01000000
00100000
00100000
00001000
00010000
00010000
00001000
00000000
,
00012000
00000000
00000010
00000000
00100000
00000000
00003010
00010000
,
00001000
00000000
00010000
00001000
00000000
00010000
00100000
00000000
,
01100000
00000000
01000000
00100000
00100000
00001000
00010000
00001000
,
00000200
00000000
00001000
00001000
00000000
00000001
00000301
00000000
,
00000101
00000010
00002000
00003200
,
00010300
00001000
00100000
00010000
10000000
00100000
01000000
00100000
,
10000000
00000000
00000000
01000000
00000000
00000000
00100000
00000000
00000000
01000000
00000000
00000000
00010000
00000000
10000000
00000000
00010000
00000000
01000000
00000000
00000000
00000000
00000000
00000000
,
20200000
00000000
30300000
02200000
00000000
03300000
02020000
03030000
,
00022000
00033000
00020200
00030300
,
00002020
00000000
00003030
00000202
00000000
00000303
00001001
00000000
,
00000001
00000100
00000010
00000000
00001000
00000100
00010000
00000000
,
00000010
00001000
00000100
00010000
00001000
00100000
00010000
00100000
,
01000000
00010000
00100000
00010000
00001000
00000100
00000010
00010000
,
00001000
00000000
00010000
00001000
00010000
00000000
00100000
00000000
10000000
00000000
00010000
00000000
01000000
00000000
10000000
00000000
,
00100000
00000000
01000000
00000000
00010000
00000000
10000000
00100000
01000000
00000000
00100000
00000000
00001000
00000000
00010000
00000000
,
00011000
00000000
00000000
00000000
;
