#VERSION:0.83;
#TITLE:Monkey Business (lapix Remix);
#ARTIST:lapix;
#BANNER:Monkey Business (lapix Remix).png;
#BACKGROUND:Monkey Business (lapix Remix)-bg.png;
#CDTITLE:./CDTitles/SDVX II -infinite infection-.png;
#MUSIC:Monkey Business (lapix Remix).ogg;
#SAMPLESTART:87.724;
#SAMPLELENGTH:15;
#BPMS:0=145;
#BGSTAGE:29;

//--------------- dance-single - Fred-104 ----------------
#NOTEDATA:;
#STEPSTYPE:dance-single;
#DESCRIPTION:Fred-104;
#DIFFICULTY:Beginner;
#METER:3;
#CREDIT:Fred-104;
#NOTES:
0000
0000
0000
0000
,
0000
0000
0000
0000
,
0000
0000
0000
0000
,
0000
0000
0000
0000
,
0000
0000
0000
0000
,
1000
0000
1000
0000
,
0001
0000
0001
0000
,
1000
0000
0001
0000
,
1000
0000
0000
0000
,
0020
0000
0000
0030
,
0020
0000
0000
0030
,
0020
0000
0000
0030
,
0020
0000
0030
0000
,
1000
0000
1000
0000
,
0001
0000
0001
0000
,
2000
0000
0000
0000
,
3000
0000
0000
0000
,
0001
0000
0001
0000
,
0010
0000
0010
0000
,
1000
0000
1000
0000
,
0100
0000
0100
0000
,
0001
0000
0001
0000
,
1000
0000
1000
0000
,
0100
0000
0100
0000
,
0010
0000
0020
0030
,
0001
0000
0001
0000
,
1000
0000
0010
0000
,
1000
0000
1000
0000
,
0100
0000
0010
0000
,
0001
0000
0001
0000
,
1000
0000
1000
0000
,
0010
0000
0010
0000
,
1001
0000
0000
0000
,
2000
0000
0000
0000
,
3000
0000
0000
0000
,
0002
0000
0000
0000
,
0003
0000
0000
0000
,
2000
0000
0000
0000
,
3000
0000
0000
0000
,
0001
0000
0001
0000
,
0002
0000
0000
0003
,
0000
1000
0000
1000
,
0000
0010
0000
0010
,
0000
0100
0000
0001
,
1000
0000
1000
0000
,
0000
0001
0000
0001
,
0000
0010
0000
0010
,
0000
0100
0000
0100
,
1000
0000
1000
0000
,
0001
0000
0001
0000
,
1001
0000
0000
0000
,
1000
0000
1000
0000
,
1001
0000
0000
0000
,
0001
0000
0001
0000
,
1000
0000
1000
0000
,
0001
0000
0001
0000
,
0100
0000
0100
0000
,
0001
0000
0001
0000
,
1000
0000
1000
0000
,
0100
0000
0100
0000
,
0010
0000
0010
0000
,
0001
0001
0001
0000
,
1000
0000
0001
0000
,
0100
0100
0100
0000
,
0001
0000
1000
0000
,
0010
0010
0010
0000
,
0100
0000
0010
0000
,
1000
0000
0001
0000
,
1000
1000
1000
0000
,
0001
0001
0001
0000
,
2002
0000
0000
0000
,
0000
3003
0000
0000
0000
0000
0000
0000
;

//--------------- dance-single - Fred-104 ----------------
#NOTEDATA:;
#STEPSTYPE:dance-single;
#DESCRIPTION:Fred-104;
#DIFFICULTY:Easy;
#METER:7;
#CREDIT:Fred-104;
#NOTES:
0000
0000
0000
0000
,
0000
0000
0000
0000
,
0000
0000
0000
0000
,
0000
0000
0000
0000
,
0000
0000
0000
0000
,
1000
0100
0001
0000
,
0001
0010
1000
0000
,
0001
0010
0100
0000
,
1000
0000
0000
1000
0000
0000
0001
0000
,
2002
0000
0000
3003
,
0220
0000
0000
0330
,
2002
0000
0000
3003
,
0220
0000
0000
0330
,
1000
0100
1000
0100
,
0001
0010
0001
0010
,
1000
0001
1000
0001
,
0010
0100
1001
0000
,
0010
0100
0010
0100
,
1001
0110
1001
0000
,
0100
0010
0100
0010
,
1001
0110
1001
0000
,
1000
0100
0010
0001
,
1001
0110
1001
0000
,
0001
0100
0010
0100
,
0001
1000
2002
3003
,
1001
0110
1001
0001
,
0100
0010
0100
0000
,
1001
0110
1001
1000
,
0100
0010
0001
0000
,
1001
0110
1001
0001
,
0100
0010
1000
0001
,
1001
0110
1001
1000
,
0100
1000
1000
0001
,
0200
0000
0000
0000
0320
0000
0000
0230
,
0000
0000
0000
0000
,
0302
0000
0000
0000
2003
0000
0000
3200
,
0000
0000
0000
0000
,
0320
0000
0000
0000
0032
0000
0000
2003
,
0000
0000
3002
0000
,
0103
0010
0100
0001
,
0010
0100
1000
1001
,
0100
1000
0100
1000
,
0001
0100
0001
0001
,
1001
0020
0100
0130
,
0010
0000
0001
0000
1000
0010
1000
0000
,
0001
1000
0010
1000
,
0001
0010
0001
0001
,
1001
0200
0010
0310
,
0100
0000
0001
0000
1000
0100
1000
0000
,
0001
0000
0010
0000
0100
0000
2000
3000
,
0001
0000
0000
1000
0000
0000
0001
0000
,
0100
0000
0000
0010
0000
0000
0100
0000
,
0001
1000
2002
3003
,
1000
0000
0000
0100
0000
0000
0010
0000
,
0001
0000
0000
1000
0000
0000
0010
0000
,
0100
0000
0000
0010
0000
0000
1000
0000
,
0001
0000
0000
0010
0000
0000
0100
0000
,
0010
0000
0000
0001
0000
0000
0100
0000
,
0010
0000
0000
1000
0000
0000
0010
0000
,
1000
0000
0000
0001
0000
0000
1000
0000
,
0000
0001
0000
0000
0200
0000
0320
0000
,
0130
0000
0000
0001
0000
0000
1000
0000
,
0100
0000
0000
0010
0000
0000
0001
0000
,
1000
0000
0000
0001
0000
0000
0100
0000
,
0001
0000
0000
1000
0000
0000
0100
0000
,
0010
0000
0000
0100
0000
0000
1000
0000
,
0001
0000
0000
0100
0000
0000
0001
0000
,
0010
0000
0000
0100
0000
0000
1000
0000
,
0000
0010
0000
0000
0100
0000
0001
0000
,
1001
0110
1001
1000
,
0100
0000
0000
0110
0000
0000
0010
0000
,
2002
3003
0000
0000
0000
0000
0000
0000
;

//--------------- dance-single - Fred-104 ----------------
#NOTEDATA:;
#STEPSTYPE:dance-single;
#DESCRIPTION:Fred-104;
#DIFFICULTY:Medium;
#METER:11;
#CREDIT:Fred-104;
#NOTES:
0000
0000
0000
0000
,
0000
0000
0000
0000
,
0000
0000
0000
0000
,
0000
0000
0000
0000
,
0000
0000
0000
0000
,
1000
0000
0000
0000
0001
0000
0000
0000
0010
0000
0000
0010
0000
0000
0010
0000
,
0100
0000
0000
0000
0010
0000
0000
0000
0001
0000
0000
0001
0000
0000
0001
0000
,
1000
0000
0000
0000
0010
0000
0000
0000
0100
0000
0000
0100
0000
0000
0100
0000
,
0001
0000
0000
0001
0000
0000
1000
0000
0000
1000
0000
0000
0100
0000
0010
0000
,
0012
0000
0000
0000
0000
0000
1003
1000
,
2000
0000
0000
0000
3001
0100
0001
0000
,
0020
0000
0000
0000
0000
0000
0130
0100
,
2000
0000
0000
3001
1000
0010
1000
0000
,
0001
0010
0100
0000
1000
0010
0100
0000
,
0001
0100
0010
0000
1000
0100
0010
0000
,
0001
0010
0001
1000
0010
1000
0001
0000
,
0010
0100
0220
0330
,
1010
0000
1010
0000
0001
1000
0001
0000
,
0101
0000
0101
0000
1000
0001
1000
0000
,
1100
0000
1100
0000
0001
1000
0001
0000
,
0010
0000
0000
0010
0000
0000
0010
0000
0100
0000
0100
0000
0100
0000
0000
0000
,
0011
0000
0011
0000
1000
0001
1000
0000
,
0101
0000
0101
0000
1000
0100
1000
0000
,
0110
0000
0110
0000
0001
1000
0001
0000
,
0010
0000
0000
0010
0000
0000
0010
0000
0100
0000
0100
0000
0110
0000
0000
0000
,
1100
0000
1100
0000
0001
0100
1000
0000
,
0011
0000
0011
0000
1000
0010
0001
0000
,
0110
0000
0110
0000
1000
0100
0010
0000
,
0001
0100
0100
0010
1000
0100
0110
0000
,
1100
0000
0101
0000
1000
0100
0010
0000
,
0011
0000
1010
0000
0001
0010
0100
0000
,
0110
0000
1001
0000
0001
1000
0010
0000
,
0100
0001
1000
1000
0100
0010
0001
1000
,
0002
0000
0000
0000
0103
0000
0010
0200
,
0000
0000
0000
0000
0000
0000
0301
1000
,
0200
0000
0000
0000
0310
0000
0010
0002
,
0000
0000
0000
0000
0000
0000
1003
0001
,
0100
0000
0100
0000
0010
1000
0010
0100
,
0001
0000
1000
0000
0100
0010
0001
0000
,
1000
0100
0001
0000
0001
0100
1000
0000
,
1000
0010
0001
0000
0001
0010
1000
0000
,
1000
0100
0001
0100
0001
0100
1000
0000
,
0001
0100
1000
0100
1000
0100
0001
0000
,
1000
0100
0010
0001
0010
0100
1000
0000
,
0001
0100
0010
1000
0010
0100
0001
0000
,
1000
0010
0001
0010
0001
0010
1000
0000
,
0001
0010
1000
0010
1000
0010
0001
0000
,
1000
0010
0100
0001
0100
0010
1000
0000
,
0001
0010
0100
1000
0001
0100
0010
0000
,
1000
0100
0010
0001
1000
0100
0010
0011
,
0001
0000
0000
1000
0000
0000
0010
0000
0000
0100
0000
0000
0001
0000
1000
0000
,
0100
0010
0001
0100
0010
1000
0100
0100
,
0010
0001
0000
0010
0001
0000
1000
0000
0010
1000
0010
0000
1001
0000
0000
0000
,
0001
0000
0000
0010
0000
0000
0100
0000
1000
0000
0001
0000
0100
0000
0010
0000
,
1000
0000
0000
0100
0000
0000
0010
0000
0100
0000
1000
0000
0001
0000
0100
0000
,
0010
0000
0000
1000
0000
0000
0010
0000
0100
0000
0001
0000
1000
0000
0100
0000
,
0020
0000
0000
0032
0000
0000
2003
0000
0000
3002
0000
0000
0103
0000
0010
0000
,
1000
0000
0000
0100
0000
0000
0010
0000
0001
0000
0100
0000
0010
0000
1000
0000
,
0010
0000
0000
0100
0000
0000
0001
0000
1000
0000
0100
0000
0001
0000
0100
0000
,
2000
0000
0000
3020
0000
0000
0032
0000
0000
0203
0000
0000
2300
0000
0000
3020
,
0000
0000
0032
0000
0000
0203
0000
0000
1300
0000
0001
0000
0001
0000
0001
0000
,
0100
0000
0000
0010
0000
0000
1000
0000
0001
0010
0001
0000
1000
0000
0000
0000
,
0100
0000
0000
0010
0000
0000
0001
0000
1000
0010
1000
0000
0001
0000
0000
0000
,
0100
0000
0000
0010
0000
0000
1000
0000
0001
0010
0001
0000
1000
0000
0000
0000
,
0200
0000
0000
0320
0000
0000
0032
0000
0000
0203
0000
0000
0310
0000
1000
0000
,
0001
0000
0000
0010
0000
0000
0100
0000
1000
0010
1000
0000
0001
0000
0000
0000
,
1000
0000
0000
0010
0000
0000
0100
0000
0001
0010
0001
0000
1000
0000
0000
0000
,
0001
0010
0100
1000
0010
0100
0001
1000
,
0100
0010
0001
1000
0010
0010
0100
0100
,
0101
0000
0101
0000
0001
1000
0100
0010
,
0011
0000
0000
0001
0000
0000
1010
0000
0000
1000
0000
0000
0001
0000
0100
0000
,
0010
1001
0000
0000
0000
0000
0000
0000
;

//--------------- dance-single - Fred-104 ----------------
#NOTEDATA:;
#STEPSTYPE:dance-single;
#DESCRIPTION:Fred-104;
#DIFFICULTY:Hard;
#METER:14;
#BPMS:0=145,98=290,99.5=145,99.75=72.5,100=145,199.5=290,200=145,203.5=290,204=145;
#STOPS:98=0.103,98.5=0.104,199.5=0.103,203.5=0.052,203.75=0.052;
#CREDIT:Fred-104;
#NOTES:
0000
0000
0000
0000
,
0000
0000
0000
0000
,
0000
0000
0000
0000
,
0000
0000
0000
0000
,
0000
0000
0000
0000
,
0001
0000
0000
0000
1000
0100
1000
0000
0001
0000
0000
0100
0000
0000
0010
0000
,
1000
0000
0000
0000
0001
0010
0100
0000
1000
0001
1000
0001
1000
0000
0001
0000
,
0100
0000
0000
0000
0010
0100
0010
0000
1000
0000
0000
0001
0000
0000
0010
0000
,
0100
0000
0000
1100
0000
0000
1001
0000
0000
0101
0000
0100
0001
0000
1000
0000
,
0020
0000
0000
0000
0000
0000
0130
0001
,
0020
0000
0000
0000
0000
0000
0000
0000
0130
1000
0000
0100
1000
0000
0010
0100
,
0002
0000
0000
0000
0000
0000
0000
0000
0000
0000
0000
0000
1003
0000
0100
0010
,
0002
0000
0000
0000
0000
0000
0000
1003
0001
1000
0001
1000
0001
0000
0000
0000
,
0001
0010
0100
1000
0001
0100
0010
1000
,
0001
1000
0100
0010
0001
1000
0010
0100
,
0001
0010
0001
0000
1000
0100
1000
0000
0001
0100
0001
0100
0010
1000
0010
1000
,
0001
0000
1000
0001
0010
0000
0100
1000
0002
0000
0000
0000
0103
0001
0100
0000
,
0101
0000
0101
0000
1000
0100
0010
0001
,
0011
0000
0011
0000
0001
0100
0010
1000
,
1010
0000
1010
0000
0001
0100
0010
1000
,
0001
0000
0010
0100
0000
0100
1000
0000
0010
0100
0010
0100
0010
0000
1000
0000
,
1100
0000
1100
0000
0001
1000
0100
0010
,
0011
0000
0011
0000
0001
1000
0010
0100
,
0101
0000
0101
0000
0001
1000
0010
1000
,
0100
0000
0000
0000
0000
0000
0000
0000
0010
0000
0000
0000
0001
0000
0000
0000
0000
0000
0000
0000
0001
0000
0000
0000
1000
0000
0000
0000
0000
0000
0000
0000
0002
0003
0000
0000
0000
0000
0000
0000
0002
0003
0000
0000
0000
0000
0000
0000
2002
0000
0000
0000
0000
0000
0000
0000
0000
0000
0000
0000
3003
0000
0000
0000
,
1010
0000
0000
0010
0100
0000
0000
0100
0001
0000
1000
0000
0100
0000
0010
0000
,
0011
0000
0000
0001
1000
0000
0000
1000
0001
0000
0100
0000
0010
0000
1000
0000
,
1100
0000
0000
0100
0010
0000
0000
0010
0001
0000
1000
0000
0010
0000
0100
0000
,
0001
0000
0000
0000
0000
0000
1000
0000
0000
0100
0000
0000
1000
0000
0000
0000
0000
0000
1100
0000
0000
0000
0000
0000
0001
0000
0000
0000
0000
0000
0100
0000
0000
0000
0000
0000
0010
0000
0000
0000
0100
0000
0010
0000
0000
0000
0000
0000
,
1010
0000
0000
1000
0100
0000
0000
0100
0010
0000
0001
0000
1000
0000
0001
0100
,
0001
0000
0000
0001
0010
0000
0000
0010
0100
0000
1000
0000
0001
0100
0001
0000
,
0100
0000
0000
0100
0010
0000
0000
0010
1000
0000
0001
0010
0100
0000
1000
0000
,
0001
0000
1000
0000
0010
1000
0010
0000
0100
0001
0100
0000
0001
1000
0001
1000
,
0002
0000
0010
0000
0013
0100
1000
0001
,
0200
0000
1000
0000
0010
0000
0301
1000
,
0020
0000
0100
0000
0130
0001
1000
0100
,
0020
0001
0100
1000
,
0032
0000
1000
0000
1003
0001
0100
0010
,
0100
1000
0100
0010
0100
0001
1000
0100
,
0010
0001
1000
0010
0100
0001
1000
0100
,
0010
0001
0010
0000
0100
1000
0100
0000
1000
0001
1000
0001
1000
0001
1000
0000
,
0001
0010
0010
0010
0100
1000
0002
0000
,
1003
0010
0010
0010
0100
0001
2000
0000
,
3001
1000
1000
1000
0010
0100
0001
1000
,
0100
0000
0010
0000
0001
0000
1000
0000
0001
1000
0001
1000
0002
0000
0000
0000
,
1003
0001
0001
0001
0100
0010
0200
0000
,
0301
1000
1000
1000
0100
0010
0100
1000
,
0001
0100
0010
0001
0010
0100
1000
0100
,
0010
0000
0100
0000
0001
0000
1000
0000
0100
1000
0100
1000
0100
0000
0010
0000
,
0001
0000
0000
0000
0000
0000
0000
0000
1000
0000
0000
0000
0000
0000
0000
0000
0001
0000
0000
0000
0000
0000
0000
0000
1000
0000
0000
0000
0000
0000
0000
0000
0010
0000
0000
0000
0000
0000
0000
0000
0100
0000
0000
0000
0000
0000
0000
0000
0010
0000
0000
0000
0000
0000
0000
0000
0200
0300
0000
0000
0000
0000
0000
0000
,
0001
0000
0000
0000
0000
0000
0000
0000
1000
0000
0000
0000
0100
0000
0000
0000
0000
0000
0000
0000
0100
0000
0000
0000
0010
0000
0000
0000
0000
0000
0000
0000
0010
0000
0000
0000
0001
0000
0000
0000
0000
0000
0000
0000
0001
0000
0000
0000
1000
0000
0000
0000
0000
0000
0000
0000
0002
0003
0000
0000
2000
3000
0000
0000
,
0001
0000
0100
0001
0100
0000
0010
1000
0001
0100
0010
0000
1000
0000
0000
0000
,
0100
0010
0000
0010
0100
1000
0001
1000
0001
0100
0010
0100
0002
0000
0000
0000
,
1003
0000
0000
0001
0000
0000
0100
0000
0010
1000
0010
0000
0100
0000
0001
0000
,
1000
0000
0000
0100
0000
0000
0010
0000
0001
1000
0001
0000
0100
0000
0010
0000
,
0100
0000
0000
0001
0000
0000
1000
0000
0100
0010
0100
0000
0010
0000
0001
0000
,
2000
0000
0000
3020
0000
0000
0230
0000
0000
0302
0000
0000
0013
0000
0100
0000
,
1000
0000
0000
0001
0000
0000
0100
0000
0010
1000
0010
0000
0100
0000
0001
0000
,
0010
0000
0000
0100
0000
0000
1000
0000
0001
0100
0001
0000
1000
0000
0100
0000
,
0110
0000
0000
0001
0000
0000
1000
0000
0000
0001
0000
0000
0100
0000
0000
0010
,
0000
0000
1000
0000
0000
0100
0000
0000
0010
0000
0001
1000
0001
1000
0001
0000
,
1000
0000
0001
0100
0000
0010
1000
0000
0001
0010
0000
0100
1000
0000
0001
0000
,
0100
0000
0010
1000
0000
0010
0100
0000
0010
1000
0000
0001
1000
0000
0100
0000
,
0010
0000
0001
1000
0000
0001
0100
0000
0001
1000
0000
0001
0010
0000
0100
0000
,
2000
0000
0000
3002
0000
0000
0203
0000
0000
0320
0000
0000
1030
0000
0001
0000
,
0010
0000
0100
1000
0000
0001
0100
0000
0010
1000
0000
0001
1000
0000
0100
0000
,
0010
0000
0001
1000
0000
0010
1000
0000
0001
1000
0000
0100
1000
0000
0001
0000
,
0100
0010
1000
0010
0100
0001
1000
0100
,
0010
0001
0010
0000
0001
1000
0001
0000
0100
0000
0100
0000
0001
1000
0001
0000
,
1001
0000
0000
0000
1001
0000
0000
0000
1000
0001
1000
0001
0100
0000
0010
0000
,
1010
0000
0000
0101
0000
0000
1100
0000
0000
0011
0000
0001
1000
0000
0001
0000
,
0100
0110
0000
0000
0000
0000
0000
0000
;

//--------------- dance-single - Fred-104† ----------------
#NOTEDATA:;
#STEPSTYPE:dance-single;
#DESCRIPTION:Fred-104†;
#DIFFICULTY:Challenge;
#METER:17;
#DISPLAYBPM:72.5:290;
#BPMS:0=145,66.5=72.5,67=145,97=290,98=435,98.75=362.5,99.375=217.5,99.75=145,115=290,115.5=217.5,115.75=145,115.916667=72.5,116=145,128=72.5,130=145,162=72.5,178=145,181.5=290,182=145,185.5=290,186=145,192=72.5,192.5=145,255=72.5,256=145;
#STOPS:66=0.207,97=0.103,97.5=0.104,115=0.069,115.333333=0.034,181.5=0.103,185.5=0.052,185.75=0.052,192.5=0.207;
#TIMESIGNATURES:0=4=4,64=3=4,67=4=4,95=5=4,100=4=4,128=2=4,130=4=4,190=3=4,193=4=4,253=3=4,256=4=4;
#CREDIT:Fred-104†;
#NOTES:
0000
0000
0000
0000
,
0000
0000
0000
0000
,
0000
0000
0000
0000
,
0000
0000
0000
0000
,
0000
0000
0000
0000
,
0001
0000
0000
0000
1000
0001
0010
0000
0011
0000
0000
1010
0000
0000
0101
0000
,
1100
0000
0000
0000
0001
1000
0010
0000
1000
0001
0010
0001
2000
3000
0002
0003
,
1001
0000
0000
0000
0001
1000
0010
0000
1010
0000
0000
0101
0000
0000
1000
0100
,
0110
0000
0000
0011
0000
0000
1010
0000
0000
0001
0010
0100
1100
0000
0001
0000
,
2001
0000
0000
0000
0000
0000
3100
0010
,
0012
0000
0000
0000
0000
0000
0000
0000
1003
0001
0000
0100
0010
0000
1000
0001
,
0020
0000
0000
0000
0000
0000
0000
0000
0000
0000
0000
0000
0130
0000
1000
0001
,
2000
0000
0000
0000
0000
0000
0000
3010
0100
0001
1000
0100
0010
0001
0100
0000
,
0001
0010
0001
0010
0100
1000
0100
1000
0001
0100
0001
0100
0010
1000
0010
1000
,
0001
0010
0100
1000
0001
0010
0100
1000
0001
0100
0010
1000
0001
0100
0010
1000
,
0001
0000
0000
0010
0000
0000
0100
0000
0000
1000
0000
0000
0001
0000
0000
0100
0000
0000
0010
0000
0000
1000
0000
0000
0010
0000
0100
0000
0001
0000
0100
0000
0010
0000
1000
0000
0001
0000
0010
0000
0100
0000
1000
0000
0100
0000
0010
0000
,
0001
0000
0000
0000
1000
0000
0001
0000
0100
0000
0000
0000
0010
0000
1000
0000
0002
0000
0000
0000
1003
0100
1000
0000
2200
0000
0000
0000
3300
0000
0000
0000
,
2200
0000
3300
0000
1000
0001
0100
0010
1000
0000
0001
0000
0022
0000
0033
0000
,
0022
0000
0033
0000
0001
1000
0010
0100
0001
0000
1000
0000
2020
0000
3030
0000
,
2020
0000
3030
0000
1000
0001
0010
0100
1000
0000
0001
0000
0200
0000
0001
1000
,
0300
1000
0001
0000
0010
0100
1000
0001
0100
0000
0010
0000
0220
0000
0330
0000
,
0220
0000
0330
0000
1000
0100
0010
0001
1000
0000
0010
0000
0220
0000
0330
0000
,
0220
0000
0330
0000
0001
0100
0001
1000
0100
0000
0010
0000
2002
0000
3003
0000
,
2002
0000
3003
0000
0001
1000
0100
1000
0001
0000
0100
0000
0020
0000
1000
0001
,
0030
0000
0000
0000
0001
0000
0000
0000
1000
0000
0000
0000
0000
0000
0000
0000
0200
0300
0000
0000
0000
0000
0000
0000
0200
0300
0000
0000
0000
0000
0000
0000
0220
0000
0000
0000
0000
0000
0000
0000
0000
0000
0000
0000
0000
0000
0000
0000
0000
0000
0000
0000
0000
0000
0000
0000
0000
0000
0000
0000
0330
0000
0000
0000
,
0002
0000
0010
0000
2003
0000
0100
0000
3001
1000
0100
0010
0001
1000
0010
0000
,
2000
0000
0100
0000
3002
0000
0010
0000
1003
0001
0010
0100
1000
0000
0001
0000
,
2000
0000
0010
0000
3002
0000
0100
0000
1003
0001
0010
0100
1000
0001
0100
0000
,
0001
0000
0000
0000
0000
0000
0000
0000
0000
0000
0000
0000
1000
0000
0000
0000
0000
0000
0000
0000
0000
0000
0000
0000
0100
0000
0000
0000
0000
0000
0000
0000
0000
0000
0000
0000
0010
0000
0000
0000
0000
0000
0000
0000
0000
0000
0000
0000
0001
0000
0000
0000
0000
0000
0000
0000
0000
0000
0000
0000
0000
0000
0000
0000
0000
0000
0000
0000
0000
0000
0000
0000
0011
0000
0000
0000
0000
0000
0000
0000
0000
0000
0000
0000
0000
0000
0000
0000
0000
0000
0000
0000
0000
0000
0000
0000
0001
0000
0000
0000
0000
0000
0000
0000
0000
0000
0000
0000
1000
0000
0000
0000
0000
0000
0000
0000
0000
0000
0000
0000
0010
0000
0000
0000
0000
0000
0000
0000
0000
0000
0000
0000
1000
0000
0000
0000
0000
0000
0000
0000
0000
0000
0000
0000
0200
0000
0000
0300
0000
0000
0000
0000
0000
0000
0000
0000
0000
0000
0000
0000
0200
0000
0000
0300
0000
0000
0000
0000
0001
0000
0000
0000
0000
0000
0000
0000
0000
0000
0000
0000
0000
0000
0000
0000
0000
0000
0000
0000
0000
0000
0000
0000
,
2000
0000
0100
0000
3002
0000
0010
0000
1003
0001
0100
0001
1000
0100
0010
0001
,
2000
0000
0010
0000
3002
0000
0100
0000
1003
0001
0010
0100
0010
0001
1000
0001
,
0020
0000
0001
0000
0230
0000
1000
0000
0310
0001
1000
0010
0100
0001
1000
0000
,
1001
0000
1000
0000
0100
0100
0100
0000
0010
0001
1000
0001
0100
0010
1000
0001
1000
0000
0000
0000
0001
0000
0100
0000
0001
0000
0000
0000
1000
0000
0000
0000
,
0100
0000
0010
0001
0010
0000
0100
0000
1000
0000
0001
1000
0000
0010
0100
0000
,
0001
1000
0100
0010
0001
0000
1000
0010
0100
0000
0010
1000
0001
0000
0010
0000
,
0100
0000
1000
0001
0100
0000
0010
0000
1000
0001
0010
0100
1000
0100
0010
0001
,
0100
0000
0010
0000
1000
0001
1000
0000
0001
0000
0010
0100
1000
0000
0001
1000
,
0010
0000
1000
0001
0010
0100
1000
0000
0001
0000
1000
0001
0100
0000
0010
1000
,
0001
0000
0010
0100
1000
0000
0001
0000
0100
0000
0100
0000
0010
0000
0010
0000
,
1000
0000
1000
0000
0001
0000
0001
0000
0010
0100
1000
0001
0100
0010
1000
0010
,
0100
0000
0001
0000
1000
0000
0100
0000
0010
0000
0001
0000
0100
0000
0010
0000
1000
0000
0001
0010
0100
0010
0001
0010
0100
1000
0001
0100
0020
0000
1030
0001
,
1000
0000
0001
1000
0100
1000
0001
1000
0100
1000
0001
0100
0020
0000
1030
0001
1000
0000
0001
0100
0010
0100
0001
1000
0100
0010
0001
1000
0010
0000
1000
0001
,
0020
0000
0230
0000
2300
0000
3002
0000
0103
0010
0100
0010
0200
0000
0302
0003
1001
0000
1000
0100
0001
0100
1000
0100
0001
0100
1000
0001
2000
0000
3010
0100
,
0001
0000
0000
0000
0000
0000
1000
0000
0000
0010
0000
0000
0001
0000
0000
0010
0000
0000
1000
0000
0000
0001
0000
0000
1000
0000
0010
0000
1000
0000
0001
0000
1000
0000
0001
0000
0020
0000
0000
0000
0000
0000
0130
0000
0000
1000
0000
0000
0001
0000
0000
0000
0000
0000
1000
0000
0000
0100
0000
0000
0010
0000
0000
0100
0000
0000
0001
0000
0000
0100
0000
0000
0010
0000
0000
0100
0000
0000
1000
0000
0000
0001
0000
0000
2000
0000
0000
0000
0000
0000
3001
0000
0000
1000
0000
0000
,
0010
0000
0001
0010
0100
0010
1000
0001
0010
0100
0010
0100
1000
0001
0100
0001
1000
0000
0000
0000
0100
0000
0000
0000
0010
0000
0000
0000
0001
0000
0000
0000
,
1000
0000
0000
0000
0000
0000
0000
0000
0100
0000
0000
0000
0000
0000
0000
0000
0010
0000
0000
0000
0000
0000
0000
0000
0022
0033
0000
0000
0000
0000
0000
0000
1000
0000
0000
0000
0000
0000
0000
0000
0001
0000
0000
0000
0010
0000
0000
0000
0000
0000
0000
0000
1000
0000
0000
0000
0010
0000
0000
0000
0000
0000
0000
0000
,
0100
0000
0000
0000
0001
0000
0000
0000
0000
0000
0000
0000
0100
0000
0000
0000
1000
0000
0000
0000
0000
0000
0000
0000
0002
0003
0000
0000
2000
3000
0000
0000
0001
0000
0000
0000
0010
0000
0000
0000
0100
0000
0000
0000
1000
0000
0000
0000
0100
0000
0000
0000
0010
0000
0000
0000
0001
0000
0000
0000
1000
0000
0000
0000
,
0001
0000
0000
0000
0000
0000
0000
0000
0100
0000
0000
0000
0000
0000
0000
0000
0010
0000
0000
0000
0000
0000
0000
0000
1000
0000
0000
0000
0000
0000
0000
0000
0000
0000
0000
0000
0001
0000
0000
0000
0000
0000
0000
0000
0000
0000
0000
0000
0010
0000
0000
0000
0000
0000
0000
0000
0000
0000
0000
0000
0100
0000
0000
0000
0000
0000
0000
0000
0000
0000
0000
0000
1000
0000
0000
0000
0000
0000
0000
0000
0000
0000
0000
0000
0001
0000
0000
0000
0000
0000
0000
0000
0000
0000
0000
0000
1000
0000
0000
0000
0000
0000
0000
0000
0000
0000
0000
0000
0200
0000
0000
0300
0000
0000
0000
0000
0000
0000
0000
0000
0000
0000
0000
0000
0000
0000
0000
0000
0000
0000
0000
0000
0200
0000
0000
0300
0000
0000
0000
0000
0000
0000
0000
0000
0001
0000
0000
0000
0000
0000
0000
0000
0000
0000
0000
0000
1000
0000
0000
0000
0000
0000
0000
0000
0000
0000
0000
0000
0001
0000
0000
0000
0000
0000
0000
0000
0000
0000
0000
0000
0010
0000
0000
0000
0000
0000
0000
0000
0000
0000
0000
0000
,
0100
0000
0010
0000
0100
0000
1000
0000
0002
0003
0000
0000
0000
0000
0000
0000
1001
0000
0000
0000
0000
0000
0000
0000
0001
0000
0000
0000
0100
0000
0000
0000
0000
0000
0000
0000
0010
0000
0000
0000
1000
0000
0000
0000
0000
0000
0000
0000
0001
0000
0000
0000
0010
0000
0000
0000
0000
0000
0000
0000
0100
0000
0000
0000
,
0010
0000
0001
0000
1000
0000
0010
0100
0000
0010
1000
0000
0001
0010
0000
0100
,
1000
0000
0001
0000
0100
0000
0010
1000
0000
0010
0100
0000
0010
1000
0000
0001
,
0010
0000
0100
0000
2000
0000
0000
3002
0000
0000
0203
0000
0000
0320
0000
0000
,
1030
0000
0001
0000
0010
0000
0100
1000
0000
0001
0100
0000
1000
0100
0000
0010
,
0100
0000
0001
0000
1000
0000
0100
0010
0000
0001
1000
0000
0010
0001
0000
0010
,
0100
0000
0010
0000
1000
0000
0001
0010
0000
0010
0100
0000
0100
1000
0000
1000
,
0001
0000
0001
0100
0000
0100
0010
0000
0010
1000
0000
1000
0001
0000
1000
0001
,
0010
0100
0010
0100
0010
0000
0001
1000
0000
0010
1000
0000
0001
0010
0100
1000
,
0001
0000
0100
0000
0010
0000
1000
0001
0000
0100
0001
0000
1000
0100
0010
0001
,
1000
0000
0010
0100
0001
0000
1000
0100
0000
0010
0100
0000
1000
0001
0100
0001
,
1000
0000
0100
0010
0001
0000
1000
0010
0000
0001
0010
0000
1000
0010
0000
0001
,
0010
0100
0001
0000
1001
0000
1000
0100
0000
0010
0001
0000
1000
0010
0100
0001
,
1000
0001
0010
0000
0100
0000
1000
0001
0000
0100
0010
0000
1000
0001
0010
0100
,
0010
0001
1000
0000
0010
0000
0010
0000
0100
0000
0100
0000
0001
1000
0100
1000
,
0001
0000
0000
0100
0000
0000
0010
0000
0000
1000
0000
0000
0001
0000
0010
0000
0100
0000
1000
0000
0001
0000
1000
0000
0010
0000
0000
0100
0000
0000
0001
0000
0000
2000
0000
0000
0001
0000
0000
0001
0000
0000
0100
0000
0000
3100
0000
0000
,
0202
0000
0303
0000
2002
0000
3003
0000
1000
0100
0010
0001
1000
0000
0001
0000
,
0011
0000
0000
1010
0000
0000
1100
0000
0000
0101
0001
1000
1100
0000
0110
0000
,
0011
1001
0000
0000
0000
0000
0000
0000
;

//--------------- dance-double - Fred-104 ----------------
#NOTEDATA:;
#STEPSTYPE:dance-double;
#DESCRIPTION:Fred-104;
#DIFFICULTY:Easy;
#METER:7;
#CREDIT:Fred-104;
#NOTES:
00000000
00000000
00000000
00000000
,
00000000
00000000
00000000
00000000
,
00000000
00000000
00000000
00000000
,
00000000
00000000
00000000
00000000
,
00000000
00000000
00000000
00000000
,
00010000
00001000
00010000
00000000
,
00000010
00001000
00000010
00000000
,
00010000
00001000
00100000
00000000
,
00010000
00000000
00000000
10000000
00000000
00000000
00010000
00000000
,
02200000
00000000
00000000
03300000
,
20020000
00000000
00000000
30030000
,
22000000
00000000
00000000
33000000
,
00220000
00000000
00000000
00330000
,
10000000
01000000
00010000
00010000
,
00001000
00000010
00000001
00000001
,
00000100
00001000
00010000
00100000
,
01000000
00010000
10010000
00000000
,
10000000
01000000
00100000
00010000
,
00100000
00001000
00011000
00000000
,
00010000
00001000
00000100
00000001
,
00000010
00000100
00001100
00000000
,
00000001
00000100
00000001
00000100
,
00001000
00010000
00011000
00000000
,
00001000
00100000
00001000
00010000
,
00001000
01000000
20020000
30030000
,
10010000
01100000
10010000
10000000
,
01000000
00010000
00001000
00000000
,
00011000
00010010
00011000
00010000
,
00000100
00001000
00000001
00000000
,
00000110
00001001
00000110
00001000
,
00000001
00000100
00001000
00000000
,
00011000
01001000
00011000
00001000
,
00100000
00010000
10000000
00100000
,
02000000
00000000
00000000
00000000
03020000
00000000
00000000
20030000
,
00000000
00000000
00000000
00000000
,
32000000
00000000
00000000
00000000
03200000
00000000
00000000
00302000
,
00000000
00000000
00000000
00000000
,
00023000
00000000
00000000
00000000
00030020
00000000
00000000
00002030
,
00000000
00000000
00003002
00000000
,
00000013
00000100
00001000
00000100
,
00010000
00001000
01000000
00001000
,
00011000
00010000
00001000
00010000
,
00000100
00000010
00000001
00001000
,
00000010
00000100
00001000
00010000
,
00001000
01000000
00010000
10000000
,
01000000
00100000
01000000
00010000
,
00001000
00000010
00000100
00000010
,
00000001
00001000
00000010
00000100
,
00001000
00000000
00010000
00000000
00001000
00010000
00001000
00000000
,
01000000
00000000
00010000
00000000
00100000
00000000
02000000
03000000
,
10000000
00000000
00000000
10000000
00000000
00000000
10000000
00000000
,
00010000
00000000
00000000
01000000
00000000
00000000
00001000
00000000
,
00010000
00001000
00022000
00033000
,
00010000
00000000
00000000
00001000
00000000
00000000
00000100
00000000
,
00000001
00000000
00000000
00001000
00000000
00000000
00000100
00000000
,
00000010
00000000
00000000
00000100
00000000
00000000
00001000
00000000
,
00000001
00000000
00000000
00000100
00000000
00000000
00001000
00000000
,
00010000
00000000
00000000
00001000
00000000
00000000
01000000
00000000
,
00001000
00000000
00000000
00100000
00000000
00000000
00010000
00000000
,
00100000
00000000
00000000
01000000
00000000
00000000
10000000
00000000
,
00000000
00100000
00000000
00000000
00010000
00000000
00001000
00000000
,
00010000
00000000
00000000
00000010
00000000
00000000
00001000
00000000
,
00000001
00000000
00000000
00001000
00000000
00000000
00000100
00000000
,
00000010
00000000
00000000
00001000
00000000
00000000
00010000
00000000
,
00001000
00000000
00000000
00100000
00000000
00000000
00010000
00000000
,
00100000
00000000
00000000
01000000
00000000
00000000
00100000
00000000
,
00010000
00000000
00000000
10000000
00000000
00000000
00100000
00000000
,
00010000
00000000
00000000
00001000
00000000
00000000
00010000
00000000
,
00000000
00000100
00000000
00000000
00010000
00000000
00001000
00000000
,
00011000
00011000
00001000
01000000
,
00010000
00000000
00000000
10000000
00000000
00000000
00100000
00000000
,
00022000
00033000
00000000
00000000
00000000
00000000
00000000
00000000
;

//--------------- dance-double - Fred-104 ----------------
#NOTEDATA:;
#STEPSTYPE:dance-double;
#DESCRIPTION:Fred-104;
#DIFFICULTY:Medium;
#METER:11;
#CREDIT:Fred-104;
#NOTES:
00000000
00000000
00000000
00000000
,
00000000
00000000
00000000
00000000
,
00000000
00000000
00000000
00000000
,
00000000
00000000
00000000
00000000
,
00000000
00000000
00000000
00000000
,
00001000
00000000
00000000
00000000
00010000
00000000
00000000
00000000
00001000
00000000
00000000
01000000
00000000
00000000
00001000
00000000
,
00010000
00000000
00000000
00000000
00001000
00000000
00000000
00000000
00000100
00000000
00000000
00000001
00000000
00000000
00001000
00000000
,
00000100
00000000
00000000
00000000
00000010
00000000
00000000
00000000
00000001
00000000
00000000
00000001
00000000
00000000
00000001
00000000
,
00000100
00000000
00000000
00001000
00000000
00000000
00010000
00000000
00000000
01000000
00000000
00000000
10000000
00000000
00100000
00000000
,
02100000
00000000
00000000
00000000
00000000
00000000
03010000
10000000
,
00200000
00000000
00000000
00000000
00310000
00001000
00010000
00000000
,
00002000
00000000
00000000
00000000
00000000
00000000
00013000
00000100
,
00000020
00000000
00000000
00000031
00001000
00000100
00000010
00000000
,
00000001
00000100
00000010
00000000
00000100
00001000
00010000
00000000
,
00100000
01000000
00010000
00000000
00100000
01000000
10000000
00000000
,
00010000
01000000
00100000
10000000
00100000
01000000
00010000
00000000
,
10000000
01000000
02200000
03300000
,
00011000
00000000
00011000
00000000
00010000
00001000
00000100
00000000
,
00000101
00000000
00000101
00000000
00000010
00001000
00000001
00000000
,
00000110
00000000
00000110
00000000
00001000
00000001
00000100
00000000
,
00001000
00010000
00001000
01000000
00010000
00100000
01000000
00000000
,
11000000
00000000
11000000
00000000
00010000
10000000
00100000
00000000
,
00110000
00000000
00110000
00000000
00010000
00001000
00010000
00000000
,
00001010
00000000
00001010
00000000
00010000
00000100
00001000
00000000
,
00000100
00000000
00000000
00000100
00000000
00000000
00000100
00000000
00000010
00000000
00000010
00000000
00000011
00000000
00000000
00000000
,
00000110
00000000
00000110
00000000
00000001
00000100
00001000
00000000
,
00011000
00000000
00011000
00000000
00010000
00100000
10000000
00000000
,
01100000
00000000
01100000
00000000
10000000
01000000
00100000
00000000
,
00001000
00001000
00010000
00010000
00000010
00001000
00001001
00000000
,
00001100
00000000
00000101
00000000
00001000
00000100
00000010
00000000
,
00000011
00000000
00001010
00000000
00010000
00001000
01000000
00000000
,
10100000
00000000
01010000
00000000
10000000
01000000
00100000
00000000
,
00001000
00001000
00010000
00010000
00000010
00001000
00000100
00000010
,
00000200
00000000
00000000
00000000
00001300
00000000
00000001
00000200
,
00000000
00000000
00000000
00000000
00000000
00000000
00001300
00010000
,
00002000
00000000
00000000
00000000
01003000
00000000
00010000
00200000
,
00000000
00000000
00000000
00000000
00000000
00000000
01300000
10000000
,
00010000
00000000
00010000
00000000
10000000
00100000
01000000
00100000
,
00010000
00000000
00001000
00000000
00010000
00000100
00000010
00000000
,
00000001
00000100
00001000
00000000
00010000
00100000
10000000
00000000
,
10000000
01000000
00010000
00000000
00001000
00000010
00000001
00000000
,
00001000
00000100
00000001
00000100
00000001
00000100
00001000
00000000
,
00000001
00000100
00001000
00000100
00001000
00000100
00000001
00000000
,
00001000
00000100
00000010
00000000
00000001
00001000
00000010
00000000
,
00000100
00001000
00010000
00000000
00100000
01000000
00010000
00000000
,
10000000
00100000
00010000
00100000
00010000
00100000
10000000
00000000
,
00010000
00100000
10000000
00100000
10000000
00100000
00010000
00000000
,
10000000
01000000
00100000
00001000
00010000
00000100
00001000
00000000
,
00000100
00000010
00000001
00000100
00000010
00010000
00001000
00000000
,
00010000
00001000
00100000
00001000
00010000
00001000
01000000
01010000
,
00010000
00000000
00000000
10000000
00000000
00000000
01000000
00000000
00000000
00010000
00000000
00000000
00000100
00000000
00001000
00000000
,
00000001
00000100
00000010
00001000
00000001
00000010
00000100
00010000
,
00001000
00010000
00000000
00001000
01000000
00000000
00000000
00000000
01100000
00000000
00000000
00000000
10010000
00000000
00000000
00000000
,
10000000
00000000
00000000
00100000
00000000
00000000
01000000
00000000
00000000
00100000
00000000
00000000
00010000
00000000
00000000
00000000
,
00001000
00000000
00000000
00010000
00000000
00000000
00000100
00000000
00000000
00001000
00000000
00000000
00000001
00000000
00000000
00000000
,
00000100
00000000
00000000
00000010
00000000
00000000
00000100
00000000
00000000
00000001
00000000
00000000
00001000
00000000
00000000
00000000
,
00000200
00000000
00000000
00000320
00000000
00000000
00000032
00000000
00000000
00000203
00000000
00000000
00001300
00000000
00010000
00000000
,
00001000
00000000
00000000
01000000
00000000
00000000
00001000
00000000
00000000
00100000
00000000
00000000
00010000
00000000
00000000
00000000
,
00100000
00000000
00000000
01000000
00000000
00000000
10000000
00000000
00000000
00100000
00000000
00000000
01000000
00000000
00000000
00000000
,
00020000
00000000
00000000
20030000
00000000
00000000
32000000
00000000
00000000
03020000
00000000
00000000
00032000
00000000
00000000
00003020
,
00000000
00000000
00000032
00000000
00000000
00002003
00000000
00000000
00003001
00000000
00000100
00000000
00001000
00000000
00010000
00000000
,
00001000
00000000
00000000
01000000
00000000
00000000
00010000
00000000
10000000
01000000
10000000
00000000
00010000
00000000
00000000
00000000
,
10000000
00000000
00000000
00100000
00000000
00000000
00010000
00000000
00001000
00010000
00001000
00000000
00010000
00000000
00000000
00000000
,
00000010
00000000
00000000
00010000
00000000
00000000
00001000
00000000
00000100
00000010
00000100
00000000
00000001
00000000
00000000
00000000
,
00002000
00000000
00000000
00003020
00000000
00000000
00000230
00000000
00000000
00000302
00000000
00000000
00000013
00000000
00000100
00000000
,
00001000
00000000
00000000
00000001
00000000
00000000
00000100
00000000
00001000
00010000
00001000
00000000
01000000
00000000
00000000
00000000
,
00010000
00000000
00000000
00100000
00000000
00000000
01000000
00000000
10000000
00100000
10000000
00000000
00010000
00000000
00000000
00000000
,
10000000
01000000
00100000
00010000
01000000
00001000
00010000
00000100
,
00000010
00000001
00001000
00000010
00000100
00000100
00000001
00000001
,
00000011
00000000
00001100
00000000
00000001
00000100
00001000
00010000
,
00011000
00000000
00000000
00000010
00000000
00000000
00011000
00000000
00000000
00100000
00000000
00000000
00001000
00000000
00010000
00000000
,
00001000
00011000
00000000
00000000
00000000
00000000
00000000
00000000
;

//--------------- dance-double - Fred-104 ----------------
#NOTEDATA:;
#STEPSTYPE:dance-double;
#DESCRIPTION:Fred-104;
#DIFFICULTY:Hard;
#METER:14;
#BPMS:0=145,98=290,99.5=145,99.75=72.5,100=145,199.5=290,200=145,203.5=290,204=145;
#STOPS:98=0.103,98.5=0.104,199.5=0.103,203.5=0.052,203.75=0.052;
#CREDIT:Fred-104;
#NOTES:
00000000
00000000
00000000
00000000
,
00000000
00000000
00000000
00000000
,
00000000
00000000
00000000
00000000
,
00000000
00000000
00000000
00000000
,
00000000
00000000
00000000
00000000
,
00010000
00000000
00000000
00000000
00001000
00100000
00001000
00000000
00010000
00000000
00000000
00001000
00000000
00000000
00000100
00000000
,
00000010
00000000
00000000
00000000
00001000
00000100
00001000
00000000
00000001
00000100
00000001
00000100
00001000
00000000
00010000
00000000
,
00001000
00000000
00000000
00000000
00100000
00010000
00100000
00000000
01000000
00000000
00000000
10000000
00000000
00000000
00010000
00000000
,
10000000
00000000
00000000
10100000
00000000
00000000
00010000
00000000
00000000
00011000
00000000
00010000
00001000
00000000
00000100
00000000
,
00000002
00000000
00000000
00000000
00000000
00000000
00000013
00000010
,
00000200
00000000
00000000
00000000
00000000
00000000
00000000
00000000
00010300
00001000
00000000
00001000
00010000
00000000
00001000
01000000
,
00020000
00000000
00000000
00000000
00000000
00000000
00000000
00000000
00000000
00000000
00000000
00000000
00130000
00000000
01000000
10000000
,
00200000
00000000
00000000
00000000
00000000
00000000
00000000
01300000
00010000
10000000
00010000
10000000
00010000
00000000
00000000
00000000
,
10000000
00100000
10000000
00100000
00010000
00001000
00010000
00001000
,
00000010
00000001
00000010
00000001
00000100
00001000
00010000
00001000
,
01000000
00010000
01000000
00000000
00001000
00010000
00001000
00000000
00100000
00010000
00100000
00000000
00001000
00010000
00001000
00000000
,
00010000
00000000
00000010
00001000
00000010
00000000
00010000
00001000
00010000
00000000
00000000
00000000
00001000
00000000
00001000
00000000
,
00011000
00000000
00011000
00000000
00001000
00010000
00100000
10000000
,
11000000
00000000
11000000
00000000
00010000
10000000
00010000
00100000
,
00101000
00000000
00101000
00000000
00001000
00010000
00000010
00001000
,
00000100
00000000
00000010
00000001
00000000
00000001
00001000
00000000
00000010
00000100
00000010
00000100
00001000
00000000
00010000
00000000
,
00011000
00000000
00011000
00000000
00001000
00010000
01000000
00010000
,
00011000
00000000
00011000
00000000
00010000
00001000
00000100
00001000
,
00011000
00000000
00011000
00000000
00001000
00010000
00100000
10000000
,
01000000
00000000
00000000
00000000
00000000
00000000
00000000
00000000
00100000
00000000
00000000
00000000
00010000
00000000
00000000
00000000
00000000
00000000
00000000
00000000
00010000
00000000
00000000
00000000
01000000
00000000
00000000
00000000
00000000
00000000
00000000
00000000
00002000
00003000
00000000
00000000
00000000
00000000
00000000
00000000
00002000
00003000
00000000
00000000
00000000
00000000
00000000
00000000
00022000
00000000
00000000
00000000
00000000
00000000
00000000
00000000
00000000
00000000
00000000
00000000
00033000
00000000
00000000
00000000
,
00010000
00001000
00000000
00000000
00001000
00010000
00000000
00000000
00010000
00000000
00001000
00000000
00000100
00000000
00000001
00000000
,
00000010
00000100
00000000
00000000
00000100
00001000
00000000
00000000
00001000
00000000
00000001
00000000
00000100
00000000
00001000
00000000
,
00010000
00001000
00000000
00000000
00001000
01000000
00000000
00000000
01000000
00000000
00001000
00000000
00010000
00000000
01000000
00000000
,
00100000
00000000
00000000
00000000
00000000
00000000
00010000
00000000
00000000
10000000
00000000
00000000
00010000
00000000
00000000
00000000
00000000
00000000
01010000
00000000
00000000
00000000
00000000
00000000
10000000
00000000
00000000
00000000
00000000
00000000
10000000
00000000
00000000
00000000
00000000
00000000
01000000
00000000
00000000
00000000
01000000
00000000
00100000
00000000
00000000
00000000
00000000
00000000
,
00001000
00010000
00000000
00000000
00010000
00001000
00000000
00000000
00001000
00000000
00000100
00000000
00000001
00000000
00001000
00000000
,
00000100
00000010
00000000
00000000
00000010
00000001
00000000
00000000
00000001
00000000
00000100
00000000
00001000
00010000
00001000
00000000
,
00100000
00010000
00000000
00000000
00010000
01000000
00000000
00000000
01000000
00000000
00010000
10000000
01000000
00000000
00100000
00000000
,
00001000
00000000
00010000
00000000
00001000
01000000
00001000
00000000
00010000
00000100
00010000
00000000
00000100
00001000
00000001
00000100
,
00000002
00000000
00000010
00000000
00000013
00000001
00000100
00001000
,
00020000
00000000
00001000
00000000
01000000
00000000
00031000
01000000
,
00200000
00000000
10000000
00000000
10300000
01000000
00010000
00001000
,
00020000
00001000
00100000
00000010
,
00031000
00010000
00001000
00010000
01000000
00100000
01000000
00100000
,
00010000
01000000
00100000
00010000
00001000
00000100
00000010
00001000
,
00000100
00000010
00001000
00010000
01000000
00100000
00010000
01000000
,
00001000
01000000
00001000
00000000
00010000
00000100
00010000
00000000
00001000
00100000
00001000
00000000
00010000
00000010
00010000
00000000
,
00001000
00010000
00010000
00010000
00001000
00010000
02000000
00000000
,
13000000
00010000
00010000
00010000
10000000
00100000
00020000
00000000
,
00031000
00010000
00010000
00010000
00001000
00000100
00000001
00000010
,
00000100
00000000
00001000
00000000
00000010
00000000
00000100
00000000
00001000
00010000
00001000
00010000
00002000
00000000
00000000
00000000
,
00013000
00001000
00001000
00001000
00010000
01000000
00200000
00000000
,
00310000
01000000
00010000
01000000
00100000
00010000
00001000
00010000
,
00000010
00001000
00000100
00001000
00010000
00100000
00001000
00010000
,
01000000
00000000
00001000
00000000
00000100
00000000
00010000
00000000
00001000
00010000
00001000
00010000
00001000
00000000
00000000
00000000
,
00010000
00000000
00000000
00000000
00000000
00000000
00000000
00000000
00010000
00000000
00000000
00000000
00000000
00000000
00000000
00000000
00001000
00000000
00000000
00000000
00000000
00000000
00000000
00000000
00001000
00000000
00000000
00000000
00000000
00000000
00000000
00000000
00000100
00000000
00000000
00000000
00000000
00000000
00000000
00000000
00000100
00000000
00000000
00000000
00000000
00000000
00000000
00000000
00000001
00000000
00000000
00000000
00000000
00000000
00000000
00000000
00000002
00000003
00000000
00000000
00000000
00000000
00000000
00000000
,
00001000
00000000
00000000
00000000
00000000
00000000
00000000
00000000
00000001
00000000
00000000
00000000
00000010
00000000
00000000
00000000
00000000
00000000
00000000
00000000
00000100
00000000
00000000
00000000
00010000
00000000
00000000
00000000
00000000
00000000
00000000
00000000
00001000
00000000
00000000
00000000
01000000
00000000
00000000
00000000
00000000
00000000
00000000
00000000
00010000
00000000
00000000
00000000
01000000
00000000
00000000
00000000
00000000
00000000
00000000
00000000
00002000
00003000
00000000
00000000
00020000
00030000
00000000
00000000
,
00001000
00000000
00100000
00010000
00100000
00000000
00001000
00010000
00001000
00000000
00010000
00000000
01000000
00000000
10000000
00000000
,
00010000
00100000
00000000
00100000
01000000
10000000
00010000
00000000
01000000
00001000
01000000
00001000
00020000
00000000
00000000
00000000
,
00031000
00000000
00000000
00010000
00000000
00000000
00100000
00000000
10000000
01000000
10000000
00000000
01000000
00000000
00100000
00000000
,
00001000
00000000
00000000
00000010
00000000
00000000
00000100
00000000
00010000
00001000
00010000
00000000
00100000
00000000
01000000
00000000
,
00001000
00000000
00000000
00010000
00000000
00000000
01000000
00000000
00100000
00010000
10000000
00000000
00010000
00000000
01000000
00000000
,
00200000
00000000
00000000
00320000
00000000
00000000
00032000
00000000
00000000
00003200
00000000
00000000
00000301
00000000
00001000
00000000
,
00000100
00000000
00000000
00000010
00000000
00000000
00000001
00000000
00001000
00000010
00001000
00000000
00000100
00000000
00000010
00000000
,
00001000
00000000
00000000
00010000
00000000
00000000
00001000
00000000
01000000
00010000
01000000
00000000
00001000
00000000
00010000
00000000
,
00011000
00000000
00000000
00001000
00000000
00000000
00010000
00000000
00000000
00100000
00000000
00000000
10000000
00000000
00000000
01000000
,
00000000
00000000
00010000
00000000
00000000
00001000
00000000
00000000
00010000
00000000
00001000
00010000
00001000
00010000
00001000
00000000
,
00010000
00000000
00001000
01000000
00000000
00001000
00010000
00000000
00001000
00100000
00000000
00010000
00100000
00000000
00001000
00000000
,
00010000
00000000
00000010
00001000
00000000
00000010
00010000
00000000
00000100
00001000
00000000
00000100
00010000
00000000
00001000
00000000
,
01000000
00000000
00001000
00010000
00000000
00100000
01000000
00000000
00010000
00100000
00000000
01000000
10000000
00000000
00010000
00000000
,
02000000
00000000
00000000
03200000
00000000
00000000
00320000
00000000
00000000
00032000
00000000
00000000
00003010
00000000
00000001
00000000
,
00001000
00000000
00000001
00000010
00000000
00000100
00001000
00000000
00000100
00010000
00000000
00001000
01000000
00000000
00010000
00000000
,
00100000
00000000
00001000
00010000
00000000
00100000
10000000
00000000
01000000
00100000
00000000
00001000
00010000
00000000
00000010
00000000
,
00010000
00001000
00000010
00001000
00010000
00001000
01000000
00001000
,
00010000
00001000
00010000
00000000
00000100
00001000
00000100
00000000
00000010
00000000
00000010
00000000
00000001
00001000
00000001
00000000
,
00000101
00000000
00000000
00000000
00000101
00000000
00000000
00000000
00000001
00000010
00000001
00000010
00000100
00000000
00010000
00000000
,
00011000
00000000
00000000
00001000
00000000
00000000
00101000
00000000
00000000
00010000
00000000
10000000
00100000
00000000
01000000
00000000
,
00001000
00011000
00000000
00000000
00000000
00000000
00000000
00000000
;

//--------------- dance-double - Fred-104† ----------------
#NOTEDATA:;
#STEPSTYPE:dance-double;
#DESCRIPTION:Fred-104†;
#DIFFICULTY:Challenge;
#METER:17;
#DISPLAYBPM:72.5:290;
#BPMS:0=145,66.5=72.5,67=145,97=290,98=435,98.75=362.5,99.375=217.5,99.75=145,115=290,115.5=217.5,115.75=145,115.916667=72.5,116=145,128=72.5,130=145,162=72.5,178=145,181.5=290,182=145,185.5=290,186=145,192=72.5,192.5=145,255=72.5,256=145;
#STOPS:66=0.207,97=0.103,97.5=0.104,115=0.069,115.333333=0.034,181.5=0.103,185.5=0.052,185.75=0.052,192.5=0.207;
#TIMESIGNATURES:0=4=4,64=3=4,67=4=4,95=5=4,100=4=4,128=2=4,130=4=4,190=3=4,193=4=4,253=3=4,256=4=4;
#CREDIT:Fred-104†;
#NOTES:
00000000
00000000
00000000
00000000
,
00000000
00000000
00000000
00000000
,
00000000
00000000
00000000
00000000
,
00000000
00000000
00000000
00000000
,
00000000
00000000
00000000
00000000
,
00001000
00000000
00010000
00000000
00100000
10000000
01000000
00000000
01100000
00000000
00000000
00011000
00000000
00000000
00000110
00000000
,
00000001
00000000
00001000
00000000
00000010
00000100
00001000
00000000
00010000
00001000
01000000
00001000
00020000
00000000
00230000
00000000
,
10300000
00000000
01000000
00000000
00100000
00001000
00010000
00000000
00011000
00000000
00000000
00010010
00000000
00000000
00001000
00000100
,
00000110
00000000
00000000
00000011
00000000
00000000
00001010
00000000
00000000
00010000
00001000
00010000
00001000
00000000
01000000
00000000
,
01200000
00000000
00000000
00000000
00000000
00000000
10300000
00010000
,
00210000
00000000
00000000
00000000
00000000
00000000
00000000
00300000
00001000
00100000
00000000
00001000
00010000
00000000
00000010
00001000
,
00000200
00000000
00000000
00000000
00000000
00000000
00000000
00000000
00000000
00000000
00000000
00000000
00000310
00000000
00000001
00000100
,
00002000
00000000
00000000
00000000
00000000
00000000
00000000
00013000
00001000
01000000
00010000
01000000
00001000
00010000
00001000
00000000
,
00010000
00001000
00010000
00001000
00000010
00000100
00000010
00000100
00010000
00001000
00010000
00001000
00100000
01000000
00100000
01000000
,
00010000
00001000
00010000
00001000
00000100
00000010
00000100
00000010
00010000
00001000
00010000
00001000
01000000
00100000
01000000
00100000
,
00010000
00000000
00000000
00001000
00000000
00000000
00000100
00000000
00000000
00000010
00000000
00000000
00000100
00000000
00000000
00001000
00000000
00000000
00010000
00000000
00000000
00001000
00000000
00000000
00100000
00000000
00000000
00010000
00000000
00000000
01000000
00000000
00000000
00001000
00000000
00000000
00010000
00000000
00001000
00000000
00010000
00000000
00001000
00000000
00010000
00000000
00001000
00000000
,
00010000
00000000
00000000
00000000
00001000
00000000
00010000
00000000
00000100
00000000
00000000
00000000
00001000
00000000
00000010
00000000
00000200
00000000
00000000
00000000
00000310
00001000
00000001
00000000
00000022
00000000
00000000
00000000
00000033
00000000
00000000
00000000
,
00000022
00000000
00000033
00000000
00000001
00000100
00000010
00000100
00001000
00000000
00010000
00000000
00022000
00000000
00033000
00000000
,
00022000
00000000
00033000
00000000
00001000
00010000
01000000
00100000
00010000
00000000
01000000
00000000
02002000
00000000
03003000
00000000
,
02002000
00000000
03003000
00000000
00001000
01000000
00010000
00100000
01000000
00000000
10000000
00000000
00200000
00000000
10000000
00010000
,
00300000
00010000
10000000
00000000
01000000
00100000
00010000
00100000
00001000
00000000
00001000
00000000
00022000
00000000
00033000
00000000
,
00022000
00000000
00033000
00000000
00010000
00001000
00000100
00000010
00000100
00000000
00000001
00000000
00002002
00000000
00003003
00000000
,
00002002
00000000
00003003
00000000
00000001
00001000
00000010
00010000
00001000
00000000
00100000
00000000
00220000
00000000
00330000
00000000
,
00220000
00000000
00330000
00000000
00001000
01000000
00010000
01000000
00100000
00000000
00010000
00000000
00002000
00000000
00010000
00000010
,
00003000
00000000
00000000
00000000
00000010
00000000
00000000
00000000
00010000
00000000
00000000
00000000
00000000
00000000
00000000
00000000
00002000
00003000
00000000
00000000
00000000
00000000
00000000
00000000
00002000
00003000
00000000
00000000
00000000
00000000
00000000
00000000
00022000
00000000
00000000
00000000
00000000
00000000
00000000
00000000
00000000
00000000
00000000
00000000
00000000
00000000
00000000
00000000
00000000
00000000
00000000
00000000
00000000
00000000
00000000
00000000
00000000
00000000
00000000
00000000
00033000
00000000
00000000
00000000
,
00020000
00000000
00001000
00000000
00030020
00000000
00001000
00000000
00010030
00001000
00100000
00001000
00010000
00000010
00001000
00000000
,
00000200
00000000
00000010
00000000
00002300
00000000
00000001
00000000
00003010
00000100
00000001
00001000
00000100
00000000
00010000
00000000
,
00002000
00000000
00010000
00000000
02003000
00000000
00100000
00000000
03010000
10000000
01000000
00100000
01000000
00010000
00001000
00000000
,
00010000
00000000
00000000
00000000
00000000
00000000
00000000
00000000
00000000
00000000
00000000
00000000
00001000
00000000
00000000
00000000
00000000
00000000
00000000
00000000
00000000
00000000
00000000
00000000
00000100
00000000
00000000
00000000
00000000
00000000
00000000
00000000
00000000
00000000
00000000
00000000
00000001
00000000
00000000
00000000
00000000
00000000
00000000
00000000
00000000
00000000
00000000
00000000
00000100
00000000
00000000
00000000
00000000
00000000
00000000
00000000
00000000
00000000
00000000
00000000
00000000
00000000
00000000
00000000
00000000
00000000
00000000
00000000
00000000
00000000
00000000
00000000
00000101
00000000
00000000
00000000
00000000
00000000
00000000
00000000
00000000
00000000
00000000
00000000
00000000
00000000
00000000
00000000
00000000
00000000
00000000
00000000
00000000
00000000
00000000
00000000
00001000
00000000
00000000
00000000
00000000
00000000
00000000
00000000
00000000
00000000
00000000
00000000
00000100
00000000
00000000
00000000
00000000
00000000
00000000
00000000
00000000
00000000
00000000
00000000
00001000
00000000
00000000
00000000
00000000
00000000
00000000
00000000
00000000
00000000
00000000
00000000
00000001
00000000
00000000
00000000
00000000
00000000
00000000
00000000
00000000
00000000
00000000
00000000
00000200
00000000
00000000
00000300
00000000
00000000
00000000
00000000
00000000
00000000
00000000
00000000
00000000
00000000
00000000
00000000
00000200
00000000
00000000
00000300
00000000
00000000
00000000
00000000
00010000
00000000
00000000
00000000
00000000
00000000
00000000
00000000
00000000
00000000
00000000
00000000
00000000
00000000
00000000
00000000
00000000
00000000
00000000
00000000
00000000
00000000
00000000
00000000
,
00002000
00000000
00100000
00000000
00023000
00000000
00001000
00000000
00030010
00001000
00000010
00000100
00000010
00001000
00000001
00000000
,
00002000
00000000
00000100
00000000
00003002
00000000
00000010
00000000
00000103
00000001
00001000
00000100
00010000
00001000
01000000
00000000
,
00020000
00000000
00100000
00000000
20030000
00000000
01000000
00000000
30010000
10000000
00100000
01000000
00100000
00010000
00001000
00000000
,
00011000
00000000
00010000
00000000
00001000
00001000
00001000
00000000
00010000
00001000
00010000
00001000
00000010
00000001
00000010
00000001
00001000
00000000
00000000
00000000
00000010
00000000
00000000
00000000
00010000
00000000
00000000
00000000
00100000
00000000
00000000
00000000
,
02000000
00000000
03002000
00000000
00003200
00000000
00000320
00000000
00010030
00000000
00001000
01000000
00000000
00010000
00100000
00000000
,
00010000
00001000
00000000
00000100
00010000
00000000
00001000
00010000
00001000
00000000
01000000
00000000
00010000
00000000
00001000
00000000
,
00000200
00000000
00020300
00000000
00032000
00000000
00023000
00000000
00130000
01000000
00100000
01000000
00001000
00010000
00001000
00010000
,
00000100
00000000
00000010
00000000
00001000
00010000
00001000
00000000
00010000
00000000
00000010
00000000
00001000
00000000
00100000
00000000
,
00020000
00030020
00002030
00203000
00310000
00001000
00000100
00000010
,
00010000
01000000
00100000
00001000
00010000
00010000
00001000
00001000
,
00000100
00000000
00000100
00000000
00000010
00000000
00000010
00000000
00010000
00001000
00010000
00001000
00000010
00000100
00000010
00000100
,
00010000
00000000
00001000
00000000
00010000
00000000
00001000
00000000
01000000
00000000
00100000
00000000
01000000
00000000
00100000
00000000
00010000
00000000
00001000
01000000
00010000
01000000
00001000
01000000
00010000
01000000
00001000
01000000
00020000
00000000
10030000
00010000
,
10000000
00000000
01000000
00100000
00010000
00100000
01000000
00100000
00010000
00100000
01000000
00100000
00020000
00000000
10030000
00100000
00010000
00000000
00001000
00010000
00000010
00010000
00001000
00010000
00000010
00010000
00001000
00010000
00000010
00000000
00001000
00000001
,
00000020
00000000
00001030
00000000
00010000
00000000
00100000
00000000
01000000
00010000
01000000
00001000
00020000
00000000
00032000
00003000
00011000
00000000
00010000
00001000
00000010
00001000
00010000
00001000
00000010
00001000
00010000
00001000
00020000
00000000
00031000
01000000
,
00001000
00000000
00000000
00000000
00000000
00000000
00010000
00000000
00000000
00001000
00000000
00000000
00000100
00000000
00000000
00001000
00000000
00000000
00010000
00000000
00000000
00001000
00000000
00000000
00010000
00000000
00001000
00000000
00100000
00000000
00001000
00000000
00000000
00010000
00000000
00000000
00002000
00000000
00000000
00000000
00000000
00000000
00013000
00000000
00000000
00100000
00000000
00000000
01000000
00000000
00000000
00000000
00000000
00000000
00010000
00000000
00000000
00100000
00000000
00000000
01000000
00000000
00000000
00100000
00000000
00000000
10000000
00000000
00000000
00100000
00000000
00000000
01000000
00000000
00000000
00100000
00000000
00000000
00010000
00000000
00000000
10000000
00000000
00000000
00200000
00000000
00000000
00000000
00000000
00000000
00310000
00000000
00000000
00001000
00000000
00000000
,
00010000
00000000
00001000
00000100
00000001
00000100
00000001
00001000
00000100
00000001
00000100
00001000
00000001
00000100
00000010
00001000
00000001
00000000
00000000
00000000
00000010
00000000
00000000
00000000
00000100
00000000
00000000
00000000
00001000
00000000
00000000
00000000
,
00010000
00000000
00000000
00000000
00000000
00000000
00000000
00000000
00100000
00000000
00000000
00000000
00000000
00000000
00000000
00000000
01000000
00000000
00000000
00000000
00000000
00000000
00000000
00000000
22000000
33000000
00000000
00000000
00000000
00000000
00000000
00000000
00010000
00000000
00000000
00000000
00000000
00000000
00000000
00000000
10000000
00000000
00000000
00000000
01000000
00000000
00000000
00000000
00000000
00000000
00000000
00000000
00010000
00000000
00000000
00000000
00001000
00000000
00000000
00000000
00000000
00000000
00000000
00000000
,
00010000
00000000
00000000
00000000
01000000
00000000
00000000
00000000
00000000
00000000
00000000
00000000
10000000
00000000
00000000
00000000
00100000
00000000
00000000
00000000
00000000
00000000
00000000
00000000
20000000
30000000
00000000
00000000
00020000
00030000
00000000
00000000
10000000
00000000
00000000
00000000
01000000
00000000
00000000
00000000
10000000
00000000
00000000
00000000
01000000
00000000
00000000
00000000
00010000
00000000
00000000
00000000
00001000
00000000
00000000
00000000
00010000
00000000
00000000
00000000
00001000
00000000
00000000
00000000
,
00000100
00000000
00000000
00000000
00000000
00000000
00000000
00000000
00000000
00000000
00000000
00000000
00000001
00000000
00000000
00000000
00000000
00000000
00000000
00000000
00000000
00000000
00000000
00000000
00001000
00000000
00000000
00000000
00000000
00000000
00000000
00000000
00000000
00000000
00000000
00000000
00000100
00000000
00000000
00000000
00000000
00000000
00000000
00000000
00000000
00000000
00000000
00000000
00000010
00000000
00000000
00000000
00000000
00000000
00000000
00000000
00000001
00000000
00000000
00000000
00000000
00000000
00000000
00000000
00001000
00000000
00000000
00000000
00000000
00000000
00000000
00000000
00000010
00000000
00000000
00000000
00000000
00000000
00000000
00000000
00000000
00000000
00000000
00000000
00001000
00000000
00000000
00000000
00000000
00000000
00000000
00000000
00000000
00000000
00000000
00000000
00000001
00000000
00000000
00000000
00000000
00000000
00000000
00000000
00000000
00000000
00000000
00000000
00000200
00000000
00000000
00000300
00000000
00000000
00000000
00000000
00000000
00000000
00000000
00000000
00000000
00000000
00000000
00000000
00000000
00000000
00000000
00000000
00000000
00000000
00000000
00000000
00000200
00000000
00000000
00000300
00000000
00000000
00000000
00000000
00000000
00000000
00000000
00000000
00001000
00000000
00000000
00000000
00000000
00000000
00000000
00000000
00000000
00000000
00000000
00000000
00000001
00000000
00000000
00000000
00000000
00000000
00000000
00000000
00000000
00000000
00000000
00000000
00000100
00000000
00000000
00000000
00000000
00000000
00000000
00000000
00000000
00000000
00000000
00000000
00001000
00000000
00000000
00000000
00000000
00000000
00000000
00000000
00000000
00000000
00000000
00000000
,
00010000
00000000
00001000
00000000
01000000
00000000
00001000
00000000
00020000
00030000
00000000
00000000
00000000
00000000
00000000
00000000
00011000
00000000
00000000
00000000
00000000
00000000
00000000
00000000
00001000
00000000
00000000
00000000
00010000
00000000
00000000
00000000
00000000
00000000
00000000
00000000
00010000
00000000
00000000
00000000
00100000
00000000
00000000
00000000
00000000
00000000
00000000
00000000
00100000
00000000
00000000
00000000
01000000
00000000
00000000
00000000
00000000
00000000
00000000
00000000
01000000
00000000
00000000
00000000
,
00010000
00000000
10000000
00000000
00010000
00000000
10000000
01000000
00000000
01000000
00010000
00000000
00010000
00001000
00000000
00001000
,
00000100
00000000
00000010
00000000
00001000
00000000
00000001
00000100
00000000
00000100
00001000
00000000
00001000
00010000
00000000
00010000
,
00001000
00000000
01000000
00000000
00002000
00000000
00000000
00023000
00000000
00000000
02030000
00000000
00000000
03020000
00000000
00000000
,
00031000
00000000
01000000
00000000
00001000
00000000
00010000
00001000
00000000
00000100
00001000
00000000
00010000
00000100
00000000
00001000
,
00010000
00000000
00001000
00000000
00000100
00000000
00010000
00001000
00000000
00000010
00001000
00000000
00010000
00000010
00000000
00001000
,
00010000
00000000
00001000
00000000
00000010
00000000
00010000
00001000
00000000
00001000
00000010
00000000
00000010
00000001
00000000
00000001
,
00000100
00000000
00000100
00001000
00000000
00001000
00010000
00000000
00010000
00100000
00000000
00100000
10000000
00000000
01000000
00100000
,
01000000
00100000
00010000
00100000
00001000
00000000
00010000
00001000
00000000
00000100
00000001
00000000
00001000
00000100
00000010
00000001
,
00001000
00000000
00000001
00000000
00000100
00000000
00000010
00000100
00000000
00001000
00010000
00000000
00001000
01000000
00010000
00100000
,
00001000
00000000
00100000
00000000
00010000
00000000
01000000
00001000
00000000
00010000
01000000
00000000
10000000
00010000
01000000
00010000
,
10000000
00000000
00100000
00010000
00001000
00000000
00010000
00001000
00000000
00000010
00001000
00000000
00010000
00001000
00000000
00000100
,
00001000
00000000
00010000
00000000
00011000
00000000
00010000
00001000
00000000
00000100
00000001
00000000
00001000
00000100
00000010
00000001
,
00001000
00000000
00000001
00000100
00000010
00000000
00000100
00001000
00000000
00010000
00100000
00000000
01000000
10000000
01000000
00010000
,
10000000
00000000
01000000
00100000
00001000
00000000
00001000
00000000
00010000
00000000
00010000
00000000
00001000
00010000
00001000
00010000
,
00000010
00000000
00000000
00000000
00000000
00000000
00001000
00000000
00000000
00000000
00000000
00000000
00000010
00000000
00000000
00000000
00000000
00000000
00001000
00000000
00000000
00000000
00000000
00000000
00000100
00000000
00000000
00000000
00000010
00000000
00000000
00000000
00000001
00000000
00000000
00000000
00001000
00000000
00000000
00000000
00000000
00000000
00000010
00000000
00000000
00000000
00000000
00000000
00010000
00000000
00000000
00000000
00001000
00000000
00000000
00000000
00010000
00000000
00000000
00000000
00000100
00000000
00000000
00000000
00000000
00000000
00001000
00000000
00000000
00000000
00000000
00000000
00000002
00000000
00000000
00000003
00000000
00000000
00000200
00000000
00000000
00000300
00000000
00000000
00002000
00000000
00000000
00003000
00000000
00000000
00020000
00000000
00000000
00030000
00000000
00000000
,
00022000
00000000
00033000
00000000
00022000
00000000
00033000
00000000
00010000
00001000
00000100
00000001
00000010
00000000
00000001
00000000
,
00000011
00000000
00000000
00001010
00000000
00000000
00011000
00000000
00000000
00010000
01000000
10000000
11000000
00000000
10100000
00000000
,
00110000
00011000
00000000
00000000
00000000
00000000
00000000
00000000
;
