#TITLE:魅惑のYUMMYスイーツ;
#ARTIST:BEMANI Sound Team "TATSUYA";
#TITLETRANSLIT:Miwaku no YUMMY sweets;
#ARTISTTRANSLIT:TATSUYA;
#GENRE:TWINKLE POP;
#BANNER:Miwaku no YUMMY sweets.png;
#BACKGROUND:Miwaku no YUMMY sweets-bg.png;
#CDTITLE:./CDTitles/bm IIDX 27 HEROIC VERSE.png;
#MUSIC:Miwaku no YUMMY sweets.ogg;
#SAMPLESTART:72.68;
#SAMPLELENGTH:15;
#BPMS:0=208;

//--------------- dance-single - Fred-104 ----------------
#NOTES:
     dance-single:
     Fred-104:
     Beginner:
     4:
     :
0000
0000
0000
0000
,
0000
0000
0000
0000
,
0000
0000
0000
0000
,
0000
0000
0000
0000
,
0000
0000
0000
0000
,
0000
0000
0000
0000
,
0000
0000
0000
0000
,
0001
0000
0000
0000
,
0001
0000
0000
0000
,
0010
0000
0000
0000
,
0100
0000
0000
0000
,
0100
0000
0000
0000
,
1000
0000
0000
0000
,
0001
0000
0000
0000
,
1000
0000
0000
0000
,
1000
0000
0010
0000
,
1000
0000
1000
0000
,
0001
0000
0000
0000
,
0001
0000
0001
0000
,
1000
0000
0100
0000
,
1000
0000
0000
0000
,
0001
0000
0000
0000
,
0001
0000
0000
0000
,
2000
0000
0000
0000
,
3002
0000
0000
0000
,
2003
0000
0000
0000
,
3002
0000
0000
0000
,
2003
0000
3000
0000
,
2000
0000
3000
0000
,
0200
0000
0300
0000
,
0020
0000
0030
0000
,
0001
0000
1000
0000
,
0001
0000
0001
0000
,
1000
0000
0000
0000
,
1000
0000
1000
0000
,
0001
0000
0010
0000
,
0001
0000
0000
0000
,
1000
0000
0000
0000
,
0001
0000
0000
0000
,
1001
0000
0000
0000
,
0002
0003
0000
0000
,
1000
0000
0000
0000
,
0002
0003
0002
0003
,
1001
0000
0000
0000
,
2000
3000
0000
0000
,
0002
0000
0003
0000
,
2000
3000
0002
0003
,
2000
0000
0000
0000
,
3002
0000
0000
0000
,
2003
0000
0000
0000
,
3002
0000
0000
0000
,
2003
0000
0000
0000
,
3002
0000
0000
0000
,
1003
0000
0000
0000
,
0001
0000
0000
0000
,
1000
0000
0000
0000
,
0002
0000
0003
0000
,
2000
0000
0000
0000
,
3002
0000
0003
0000
,
1001
0000
0000
0000
,
0000
0000
0000
0000
,
0000
0000
0000
0000
,
0000
0000
0000
0000
,
1000
0000
0001
0000
,
1000
0000
0100
0000
,
0200
0300
0020
0030
,
0002
0003
2000
3000
,
0001
0000
1000
0000
,
0001
0000
0010
0000
,
2000
3000
0200
0300
,
0002
0003
2000
3000
,
0001
0000
1000
0000
,
0001
0000
1000
0000
,
0002
0003
0200
0300
,
2000
3000
0020
0030
,
0001
0000
1000
0000
,
0001
0000
1000
0000
,
0010
0010
0010
0000
,
0100
0000
0100
0000
,
0001
0000
1000
0000
,
0001
0000
1000
0000
,
0002
0003
0020
0030
,
0200
0300
2000
3001
,
1000
0000
0001
0000
,
0100
0000
0010
0000
,
0200
0300
0002
0003
,
2000
3000
0002
1003
,
0001
0000
0001
0000
,
0010
0000
0010
0000
,
0200
0300
2000
3000
,
0002
0003
2000
3001
,
1000
0000
0001
0000
,
1000
0000
0010
0000
,
1000
0000
0001
0000
,
1000
0000
1001
0000
,
0001
0000
1000
0000
,
0001
0000
1001
0000
,
1000
0000
0001
0000
,
1000
0000
1001
0000
,
0001
0000
1000
0000
,
0001
0000
2002
0000
,
0000
0000
0000
0000
,
0000
0000
3003
0000
;

//--------------- dance-single - Fred-104 ----------------
#NOTES:
     dance-single:
     Fred-104:
     Easy:
     8:
     :
0000
0000
0000
0000
,
0000
0000
0000
0000
,
0000
0000
0000
0000
,
0000
0000
0000
0000
,
0000
0000
0000
0000
,
0000
0000
0000
0000
,
0000
0000
0000
0000
,
1000
0000
0000
0100
0000
0000
1000
0000
,
0001
0000
0000
0010
0000
0000
0100
0000
,
1000
0000
0000
0001
0000
0000
1000
0000
,
0010
0000
0000
0100
0000
0000
0001
0000
,
1000
0000
0000
0100
0000
0000
0010
0000
,
0001
0000
0000
1000
0000
0000
0001
0000
,
2000
3000
0002
0003
,
2000
3200
0320
0032
,
1003
0100
1000
1000
,
0001
0100
0010
1000
,
0100
0010
0001
1000
,
0001
0100
0110
0000
,
1000
0001
1000
1000
,
0001
0010
0100
1000
,
0002
0003
2000
3000
,
0002
0203
0320
2030
,
3002
0000
0023
0000
,
0130
1000
0002
0000
,
0203
0000
0320
0000
,
1030
0000
0001
0000
1000
0100
1000
0100
,
2000
0000
3002
0000
,
0103
0010
0200
0000
,
0302
0000
2003
0000
,
3100
0010
0001
1000
,
0001
0001
0100
0010
,
0100
0001
0010
0100
,
0010
0100
1000
0001
,
0100
0010
0110
0000
,
1000
1000
0100
1000
,
0001
0100
0010
1000
,
0002
0003
2000
3000
,
0200
0000
0320
0000
0032
0000
2003
3000
,
1001
0000
0000
0000
,
0220
0330
0000
0000
,
1001
0000
0000
0000
,
2020
3030
0202
0303
,
1100
0000
0000
0000
,
0022
0033
0000
0000
,
0200
0000
0020
0330
,
0220
0330
2002
3003
,
2000
0000
0000
0000
,
3200
0000
0000
0000
,
0320
0000
0000
0000
,
0032
0000
0000
0000
,
2003
0000
0000
0000
,
3002
0000
0000
0000
,
1003
1000
1000
1000
,
0001
0001
0001
0001
,
0100
0100
0010
0010
,
0100
0100
0110
0000
,
0001
1000
0001
0000
1000
0001
1000
0000
,
0001
0000
1000
0000
,
1001
0000
0000
0000
,
0000
0000
0000
0000
,
0000
0000
0000
0000
,
0000
0000
0000
0000
,
0001
0000
0010
0000
0010
0000
0000
0010
,
0000
0100
2000
3000
,
0002
0003
2000
3000
,
0010
0010
0100
0100
,
0001
0000
1000
0000
0100
0000
0000
0100
,
0000
0010
0002
0003
,
1000
0020
1030
0020
,
0031
0200
0302
0203
,
1300
0000
0001
0000
1000
0000
0000
0100
,
0000
0100
0020
0030
,
0002
0003
2000
3000
,
0020
0230
0302
2003
,
3100
0000
0010
0000
0001
0000
0000
0001
,
0000
0100
0020
0030
,
1000
0000
1000
0000
1000
0000
0000
0001
,
0000
0100
0220
0330
,
0001
0010
0001
0010
,
1000
0100
1000
0100
,
0001
0020
0130
0020
,
0031
2000
3002
2003
,
3100
1000
0100
0001
,
0010
0001
0010
1000
,
0001
0200
0310
0200
,
0301
2000
3200
0320
,
0031
0000
1000
0000
0001
0000
0000
0100
,
0000
0010
0100
0001
,
1000
0200
0310
0200
,
1300
0002
0203
0320
,
0130
0000
0001
0000
1000
0000
0000
0100
,
0000
0000
0010
0000
0001
1000
0001
0000
,
0100
0000
0100
0000
0100
0000
0000
0010
,
0000
0010
0220
0330
,
1000
0000
1000
0000
1000
0000
0000
0001
,
0000
0001
2002
3003
,
1000
0000
0100
0000
1000
0000
0000
0100
,
0000
0010
0022
0033
,
0001
0000
0100
0000
0010
0000
0000
1000
,
0000
0001
2002
0000
,
0000
0000
0000
0000
,
0000
0000
3003
0000
;

//--------------- dance-single - Fred-104 ----------------
#NOTES:
     dance-single:
     Fred-104:
     Medium:
     12:
     :
0000
0000
0000
0000
,
0000
0000
0000
0000
,
0000
0000
0000
0000
,
0000
0000
0000
0000
,
0000
0000
0000
0000
,
0000
0000
0000
0000
,
0000
0000
0000
0000
,
0001
0000
1000
0100
0000
1000
0100
0000
,
0010
0001
0000
1000
0000
0001
0100
0000
,
0010
0000
1000
0001
0000
1000
0001
0000
,
0010
0000
0100
1000
0000
0001
1000
0000
,
0010
0000
0100
0001
0000
1000
0100
0000
,
0010
0001
0000
1000
0000
0001
0100
0000
,
0002
0013
2000
3010
,
0001
0100
1000
0000
0001
0010
1000
0000
,
0001
1000
0100
0000
0100
1000
0001
0000
,
1000
0100
0010
0001
,
1000
0010
1000
0000
1000
0001
1000
0000
,
0001
0000
0010
0000
0100
0010
0001
0000
,
1000
0001
0100
0000
0100
0001
1000
0000
,
0001
0010
0100
1000
,
0002
0103
2000
3100
,
0001
0100
1000
0000
0001
0010
1000
0000
,
0001
0010
1000
0000
1000
0010
0001
0000
,
1000
0010
0001
0000
0001
0010
1000
0000
,
0001
0100
1000
0000
1000
0100
0001
0000
,
1000
0000
1000
0000
0002
2003
3002
2003
,
3001
0100
1000
0000
0001
0010
1000
0000
,
0001
0010
1000
0000
0001
0100
1000
0000
,
0001
0010
0001
0000
1000
0010
1000
0000
,
0001
0010
0001
0010
0100
1000
0010
0100
,
0001
1000
0100
0000
0100
1000
0001
0000
,
0100
0010
1000
1000
,
0100
0010
0001
0000
0010
0001
1000
0000
,
0001
0000
0100
0000
0010
1000
0010
0000
,
0100
0001
1000
0000
0001
0010
0100
0000
,
1000
0000
0001
0000
0100
0010
0100
0000
,
0002
1003
0200
0310
,
0001
1000
0010
0000
0100
0001
0010
0000
,
0110
0000
0000
0000
,
2002
3003
0000
0000
,
1100
0000
0000
0000
,
0202
0303
2020
3030
,
0011
0000
0000
0000
,
0220
0330
0000
0000
,
2000
0000
3002
0003
,
0220
0330
1001
0000
,
0002
0000
0000
0000
,
0023
0000
0000
0000
,
0230
0000
0000
0000
,
2300
0000
0000
0000
,
3002
0000
0000
0000
,
2003
0000
0000
0000
,
3001
0001
0001
0001
,
1000
0100
1000
0000
0001
0100
0001
0000
,
1000
0010
1000
0000
0001
0010
0001
0000
,
1000
0100
1000
0100
1000
0000
0000
0000
,
0001
1000
0001
1000
0001
1000
0001
1000
,
0001
0000
0001
0000
0001
0000
0001
0000
0000
0000
0000
0000
,
1001
0000
0000
0000
,
0000
0000
0000
0000
,
2002
0000
0000
0000
0000
0000
0000
0000
0000
0000
0000
0000
0000
0000
0000
0000
0000
0000
0000
0000
0000
0000
0000
0000
0000
0000
0000
0000
0000
0000
0000
0000
0000
0000
0000
0000
0000
0000
0000
0000
0000
0000
0000
0000
0000
0000
0000
0000
0000
0000
0000
0000
0000
3003
0000
0000
0000
0000
0000
0000
0000
0000
0000
0000
,
0000
0000
0000
0000
,
1000
0000
0100
0000
0010
0010
0000
0001
,
0000
1000
0001
0000
0100
0010
0100
0100
,
0001
0101
1000
1100
,
0001
0011
1000
1010
,
0001
0000
1000
0000
0100
0100
0000
0010
,
0000
0100
1000
0000
0001
0100
0010
0000
,
1000
1100
0001
0101
,
1000
1010
0001
0011
,
1000
0000
0001
0000
0100
1000
0000
0100
,
0000
0001
1000
0000
0100
0010
0001
0001
,
1000
1010
0010
0011
,
0001
0101
0100
1100
,
1000
0000
0001
0000
0100
0010
0000
1000
,
0000
0010
0100
0000
0001
1000
0100
0000
,
0110
0000
0110
0000
0010
0010
0000
0001
,
0000
1000
1000
0000
2002
0000
3003
0000
,
0001
0000
0100
0000
1000
0100
0000
0001
,
0000
1000
0100
0000
0010
0001
0100
0010
,
1000
0210
0301
0120
,
1030
0120
0031
0210
,
1300
0000
0001
0000
0010
1000
0000
0010
,
0000
0100
1000
0000
0001
0100
0010
1000
,
0001
0110
1000
0110
,
0001
0010
1000
0000
0001
0100
1000
0000
,
0001
0000
1000
0000
0010
0100
0010
1000
,
0000
0100
0010
0000
0001
1000
0001
0000
,
1000
0100
0001
0000
1000
0010
0001
0000
,
0001
0010
1000
0000
0001
0100
1000
0000
,
0001
0100
0001
0000
1000
0100
1000
0000
,
0001
0010
0100
1000
0010
0100
0001
0010
,
0110
0000
0110
0000
0100
0100
1000
1000
,
0000
0001
0001
0000
2002
0000
3003
0000
,
1100
0000
1100
0000
0001
0001
0100
0100
,
0000
0100
0010
0000
2002
0000
3003
0000
,
1010
0000
1010
0000
0001
0001
1000
1000
,
0000
0010
0100
0000
0202
0000
0303
0000
,
1001
0000
0110
0000
0001
0001
1000
1000
,
0000
0100
0010
0000
2002
0000
0000
0000
,
0000
0000
0000
0000
,
0000
0000
3003
0000
;

//--------------- dance-single - Fred-104 ----------------
#NOTES:
     dance-single:
     Fred-104:
     Hard:
     16:
     :
0000
0000
0000
0000
,
0000
0000
0000
0000
,
0000
0000
0000
0000
,
0000
0000
0000
0000
,
0000
0000
0000
0000
,
0000
0000
0000
0000
,
0000
0000
0000
0000
,
0001
0010
0100
1000
0010
0100
0001
0000
,
1000
0000
1000
0000
0100
0000
0010
0000
0001
0000
1000
0010
1000
0000
0000
0000
,
0001
0100
0010
1000
0100
0010
0001
0000
,
1000
0100
0010
0001
0010
0100
1000
0000
,
0001
0100
0010
0100
0001
0010
0100
1000
,
0001
0000
0001
0000
0010
0000
1000
0000
0000
0000
0010
0100
0010
0000
0000
0000
,
0001
0010
0001
0010
0100
1000
0100
1000
,
0001
0000
0100
0000
0010
0000
1000
0000
0001
1000
0001
1000
0001
0000
0000
0000
,
1000
0000
0001
0100
0001
0000
1000
0100
1000
0000
0001
0100
0001
0000
1000
0000
,
0001
0010
0100
1000
0001
0100
0010
1000
,
0001
0000
1000
0010
1000
0000
0001
0010
0001
0000
1000
0010
1000
0000
0001
0000
,
0010
0000
0100
1000
0100
0000
1000
0000
0001
1000
0001
1000
0001
0000
1000
0000
,
0010
0000
0100
0001
0100
0000
0001
1000
0001
0000
0010
0001
0010
0000
0100
0000
,
1000
0001
0100
0010
1000
0010
0100
0001
,
1000
0100
1000
0100
0010
0001
0010
0001
,
1000
0000
0010
0000
0100
0000
0001
0000
1000
0001
1000
0001
1000
0000
0000
0000
,
0001
0100
0001
0100
0010
1000
0010
1000
,
0001
0010
0001
0010
0100
1000
0100
1000
,
0001
0100
0010
1000
0010
0100
0001
1000
,
0001
0010
0100
1000
0200
0320
0032
2003
,
3010
0000
0100
0000
0001
0000
1000
0000
0100
0010
0100
0000
0010
0000
0001
0000
,
1000
0000
0001
0000
0100
0000
0010
0000
1000
0001
1000
0000
0100
0000
0010
0000
,
0001
1000
0010
0100
0001
1000
0010
0100
,
0001
0000
1000
0100
1000
0000
0001
0100
0001
0000
1000
0001
1000
0000
0000
0000
,
0001
0000
1000
0010
1000
0000
0001
0010
0001
0000
1000
0001
1000
0000
0001
0000
,
1000
0010
0100
0010
0001
1000
0100
0001
,
1000
0000
0001
0010
0001
0000
1000
0010
1000
0000
0001
0100
0001
0000
1000
0000
,
0001
0000
0010
0100
0010
0000
0100
0000
1000
0100
1000
0100
1000
0000
0001
0000
,
0100
0000
0010
1000
0010
0000
1000
0001
1000
0000
0001
0010
0001
0000
1000
0000
,
0100
0010
0100
0001
1000
0010
0001
1000
,
0010
0100
0001
1000
0010
0100
0001
1000
,
0100
0000
0010
0000
0001
0000
1000
0000
0010
0100
0010
0100
0010
0000
0000
0000
,
1001
0000
0000
0000
,
0022
0033
0000
0000
,
1001
0000
0000
0000
,
0220
0330
2002
3003
,
1010
0000
0000
0000
,
0022
0033
0000
0000
,
2000
0000
3002
0003
,
2002
3003
0110
0000
,
2001
0000
0000
0000
,
3002
0000
0000
0000
0000
0000
0000
0000
0000
0000
0000
0000
0000
0000
0103
0001
,
2000
0000
0000
0000
0000
0000
0000
0000
0000
0000
0000
0000
0000
0000
3100
0010
,
0002
0000
0000
0003
0000
0002
0000
0000
0000
0000
0000
0000
0000
0000
1003
0001
,
0200
0000
0000
0000
0000
0000
0000
0000
0000
0000
0000
0000
0000
0000
0310
1000
,
0002
0000
0000
0000
0000
0000
0000
0000
0000
0000
0000
0000
0000
0000
0013
0100
,
1000
1000
1000
1000
,
0001
0010
0100
1000
0001
0100
0010
1000
,
0001
1000
0100
0010
0001
1000
0010
0100
,
0001
0100
0001
0100
0001
0100
0001
0100
0001
0000
0000
0000
0000
0000
0000
0000
,
1000
0100
1000
0100
1000
0100
1000
0100
1000
0100
1000
0100
1000
0100
1000
0100
,
1000
0000
1000
0000
1000
0000
0001
0000
0000
0000
0000
0000
,
0110
0000
0000
0000
,
0000
0000
0000
0000
,
2002
0000
0000
0000
0000
0000
0000
0000
0000
0000
0000
0000
0000
0000
0000
0000
0000
0000
0000
0000
0000
0000
0000
0000
3003
0000
0000
0000
0000
0000
0000
0000
0100
0000
0000
0000
0000
0000
0000
0000
0000
0000
0000
0000
0000
0000
0100
0000
0000
0000
0000
0000
0000
0001
0000
0000
0000
0000
0000
0000
0000
0000
0000
0000
,
0000
0000
0000
0000
,
1000
0001
0010
0100
0001
0100
1000
0001
,
0000
0000
1000
0000
0010
0000
0000
0000
0100
0001
0100
0000
0001
1000
0001
0000
,
1000
0010
0200
0310
1000
0001
0020
1030
,
0000
0000
0010
0000
0200
0000
0310
0000
0002
1003
0001
1000
0002
0000
0013
0000
,
0001
1000
0010
0001
0010
0100
0010
1000
,
0000
0000
0001
0000
1000
0000
0100
0000
0010
0001
0010
0001
0010
0000
0100
0000
,
1000
0001
0200
0310
1000
0001
0020
0130
,
1000
0000
0001
0000
0200
0000
0310
0000
2000
3001
1000
0001
2000
0000
3001
0000
,
1000
0100
0010
0100
0001
0100
1000
0001
,
0000
0000
0100
0000
1000
0000
0100
0000
0001
1000
0001
0000
0010
0100
0010
0000
,
0001
1000
0001
1000
0002
0000
0003
0000
1000
0100
1000
0100
2000
0000
3000
0000
,
0001
0100
0001
0100
0002
0000
0003
0000
2000
3010
1000
0010
2000
0000
3000
0000
,
0001
0010
0001
1000
0010
0001
0010
0100
,
0000
0000
0010
0000
1000
0000
0001
0000
0010
0100
0010
0000
0100
1000
0100
0000
,
1100
0000
0101
0000
1010
1010
0000
0011
,
0000
0110
0110
0000
2002
0000
3003
0000
,
0001
0100
0010
0001
0010
0100
1000
0100
,
0001
0000
1000
0000
0100
0000
0010
0000
0100
1000
0100
1000
0001
0000
0100
0000
,
0010
1000
0002
0013
0100
0001
0200
1300
,
0001
0000
0100
0000
2000
0000
3100
0000
0002
1003
0001
1000
0200
0000
0310
0000
,
0001
1000
0010
0100
0010
0001
0010
1000
,
0001
0000
0010
0000
1000
0000
0010
0000
0100
1000
0100
1000
0001
0000
1000
0000
,
1010
0000
0102
0103
0001
1000
0200
0320
,
0000
0000
0031
0000
0200
0000
0310
0000
2000
3001
1000
0001
2000
0000
0000
0000
,
3001
0010
0100
0001
0100
0010
1000
0010
,
0001
0000
1000
0000
0010
0000
0001
0000
0010
0100
0010
0000
1000
0001
1000
0000
,
0001
0010
0001
0010
0002
0000
0003
0000
1000
0010
1000
0010
2000
0000
3000
0000
,
0001
0100
0001
0100
0002
0000
0003
0000
2000
3100
1000
0100
2000
0000
3000
0000
,
0001
0100
0001
0100
0010
1000
0010
1000
,
0001
0000
0010
0000
0001
0000
0010
0000
0100
1000
0100
1000
0100
1000
0100
1000
,
0100
0000
1100
0000
1001
1001
0000
0101
,
0000
1010
1010
0000
0022
0000
0033
0000
,
0110
0000
1001
0000
1100
1100
0000
0011
,
0000
1010
1010
0000
0202
0000
0303
0000
,
0110
0000
1001
0000
1010
1010
0000
0011
,
0000
1100
1100
0000
0202
0000
0303
0000
,
1100
0000
0101
0000
1010
1010
0000
0011
,
0000
0110
0110
0000
2002
0000
0000
0000
,
0000
0000
0000
0000
,
0000
0000
3003
0000
;

//--------------- dance-single - Fred-104† ----------------
#NOTES:
     dance-single:
     Fred-104†:
     Challenge:
     18:
     :
0000
0000
0000
0000
,
0000
0000
0000
0000
,
0000
0000
0000
0000
,
2002
3003
0000
0000
,
0220
0000
0330
0000
0220
0000
0330
0000
0000
0000
0000
0000
0001
1000
0001
1000
,
0002
0000
0000
0000
0003
0000
0000
0000
1000
0000
0000
0000
0001
1000
0001
1000
,
0001
0000
0000
0000
0000
0000
0000
0000
0000
0000
0000
0000
1000
0001
1000
0001
,
1000
0000
0100
0000
0100
0000
0001
0000
0010
0000
0010
0000
1000
0001
1000
0000
,
0001
0100
1000
0001
0010
1000
0001
0000
,
0001
0000
0100
0000
0100
0000
1000
0000
0010
0000
0010
0000
0001
1000
0001
0000
,
1000
0000
0100
0000
0100
0000
0001
0000
0010
0000
0010
0000
1000
0001
1000
0001
,
1000
0010
0100
1000
0001
0010
0100
0001
,
0010
0100
0001
1000
0010
0100
1000
0001
,
0100
0100
0100
0100
0010
0010
0010
0010
,
1000
0001
1000
0001
0010
0100
0010
0100
1000
0001
1000
0001
0100
0010
0100
0010
,
1000
0000
0001
0010
0100
0000
0010
0100
1000
0000
0100
1000
0001
0000
0100
0001
,
1000
0000
0001
1000
0010
0000
1000
0001
0010
0000
0001
1000
0010
0000
0100
0000
,
0001
0000
1000
0100
0010
0000
0100
0010
0001
0000
0010
0001
1000
0000
0010
1000
,
0001
0000
0010
0100
1000
0000
0001
0100
0010
1000
0010
1000
0001
0000
0010
0000
,
0100
0000
1000
0001
0100
0000
0001
1000
0100
0000
0010
0001
1000
0000
0010
1000
,
0001
0000
0010
0100
1000
0000
0001
0010
0100
0000
1000
0001
0100
0000
0010
0000
,
0100
0100
0100
0100
0010
0010
0010
0010
,
1000
0001
1000
0001
0010
0100
0010
0100
1000
0001
1000
0001
0100
0010
0100
0010
,
1000
0000
0001
0100
0001
0000
1000
0100
0010
0001
1000
0000
0001
0100
0001
0000
,
1000
0000
0001
0100
0010
0000
1000
0001
0010
0100
1000
0000
0001
1000
0001
0000
,
0100
0000
0010
1000
0001
0000
0010
0100
1000
0100
0010
0000
0001
1000
0010
0000
,
0100
0000
0001
1000
0100
0000
1000
0001
0100
0001
1000
0100
0010
0001
1000
0001
,
0100
0000
0010
1000
0010
0100
0010
1000
0001
0010
0100
1000
0001
0000
1000
0000
,
0100
0000
1000
0001
0100
0001
1000
0100
0010
0001
0010
0100
1000
0001
1000
0001
,
1000
1000
1000
1000
0001
0001
0001
0001
,
1000
0000
0100
0010
0001
0000
1000
0001
0100
0001
1000
0100
0010
0001
1000
0001
,
0200
0000
0001
1300
0200
0000
1000
0301
0200
0000
0001
1300
0200
0000
1000
0301
,
0100
0000
0010
1000
0001
0000
0010
0100
1000
0000
0001
1000
0001
0000
1000
0000
,
0020
0000
1000
0031
0020
0000
0001
1030
0020
0000
1000
0031
0020
0000
0001
1030
,
0010
0000
1000
0001
1000
0000
0100
0010
0001
1000
0001
1000
0001
0000
1000
0000
,
0200
0000
1000
0301
0200
0000
0001
1300
0200
0000
1000
0301
0200
0000
0001
1300
,
0100
0000
0010
0001
1000
0000
0001
0010
0100
0000
1000
0001
0100
0000
0010
0000
,
1000
1000
0100
0100
0010
0010
0001
0001
,
1000
0001
0100
0001
1000
0100
1000
0001
0010
0001
1000
0010
0100
0001
1000
0100
,
0010
0000
0000
0000
,
0022
0033
0000
0000
,
1010
0000
0000
0000
,
0202
0303
2200
3300
,
0110
0000
0000
0000
,
2002
3003
0000
0000
,
0002
0000
0203
0300
,
0220
0330
2002
3003
,
1002
0000
0000
0000
,
2003
0000
0000
0000
0000
0000
0000
0000
0000
0000
0000
0000
0000
0000
3100
0010
,
0002
0000
0000
0000
0000
0000
0000
0000
0000
0000
0000
0000
0000
0000
0103
0010
,
2000
0000
0000
0000
0000
3002
0000
0000
0000
0000
0000
0000
0000
0000
0013
1000
,
0020
0000
0000
0000
0000
0000
0000
0000
0000
0000
0000
0000
0000
0000
0031
0100
,
2000
0000
0000
0000
0000
0000
0000
0000
0000
0000
0000
0000
0000
0000
3100
0001
,
0010
0010
0010
0010
,
0100
1000
0010
0100
1000
0001
0010
0100
,
0001
0010
0100
0001
1000
0010
0100
1000
,
0001
0010
0100
1000
0001
0010
0100
1000
0001
0000
0000
0000
0000
0000
0000
0000
,
1000
0010
0100
0001
1000
0010
0100
0001
1000
0100
0010
0001
1000
0100
0010
0001
,
1000
0000
1100
0000
0101
0000
0011
0000
0000
0000
0000
0000
,
1010
0000
0000
0000
,
0000
0000
0000
0000
,
2002
0000
0000
0000
0000
0000
0000
0000
0000
0000
0000
0000
0000
0000
0000
0000
0000
0000
0000
0000
0000
0000
0000
0000
3003
0000
0000
0000
0000
0000
0000
0000
0100
0000
0000
0000
0000
0000
0000
0000
0000
0000
0000
0000
0000
0000
0100
0000
0000
0000
0000
0000
0000
0002
0000
0000
0000
0000
0000
0000
0000
0000
0000
0000
,
0000
0000
0000
0000
,
1003
0100
0010
1000
0001
0100
0010
0002
,
0000
0000
1003
0000
0100
0000
0010
0000
0001
0010
0100
0010
0001
1000
0010
0100
,
0001
1000
0100
0010
0002
0000
0003
0000
1000
0010
0100
0001
2000
0000
3000
0000
,
0001
0010
0100
0010
0002
0000
0003
0000
2000
3001
0100
0001
2000
3100
0010
0001
,
1000
0001
0010
1000
0001
0100
0010
0200
,
0000
0000
1300
0000
0001
0000
0100
0000
0010
1000
0010
0100
0001
1000
0100
0010
,
0001
1000
0010
0001
1000
0100
0010
1000
,
0100
0000
0010
0000
0001
0000
1000
0000
0010
0100
0010
1000
0001
0010
0100
1000
,
0001
0100
0010
0001
1000
0100
0001
2000
,
0000
0000
3100
0000
0001
0000
0100
0000
0010
0001
1000
0010
0100
0010
1000
0001
,
1000
0100
0010
0001
2000
0000
3000
0000
0001
0100
0010
1000
0002
0000
0003
0000
,
1000
0001
0100
0010
2000
0000
3000
0000
0002
1003
0100
0010
0002
1003
0010
0100
,
0010
1000
0001
0010
1000
0010
0100
0020
,
0000
0000
0031
0100
0010
0000
1000
0001
0100
0001
1000
0100
0010
0001
1000
0010
,
0100
0000
0110
0000
1010
0101
0000
1100
,
0000
0011
0110
0000
2002
0000
3003
0000
,
1000
0001
0010
1000
0010
0100
0001
1000
,
0010
0000
0001
0000
1000
0000
0010
0000
0100
0001
1000
0001
0010
0100
1000
0001
,
1000
0100
0002
1003
0010
0100
0002
0103
,
1000
0000
0001
0000
0200
0000
1300
0000
0200
0310
1000
0001
2000
3100
0010
0001
,
1000
0010
0001
1000
0100
0010
0100
0001
,
1000
0000
0001
0000
0010
0000
1000
0000
0010
0100
0010
0001
1000
0010
0100
0001
,
1000
0001
0020
0130
0001
0100
2000
3002
,
0000
0000
0103
1000
0200
0000
0310
0000
0200
0301
1000
0100
0020
0031
0010
0100
,
1000
0001
0100
1000
0001
0010
0100
0001
,
1000
0000
0100
0000
0001
0000
0100
0000
1000
0001
0100
0001
1000
0100
0010
0001
,
1000
0010
0100
0001
2000
0000
3000
0000
0001
0010
0100
1000
0002
0000
0003
0000
,
1000
0001
0100
0010
2000
0000
3000
0000
0002
1003
0100
0010
0002
0013
0100
1000
,
0001
0100
1000
0100
0010
0001
0010
1000
,
0001
0000
0010
0000
1000
0000
0010
0100
1000
0001
0100
0010
1000
0001
0010
0100
,
1000
0000
1100
0000
0101
0101
0000
0011
,
0000
1010
1010
0000
2002
0000
3003
0000
,
1010
0000
0011
0000
0101
0101
0000
1100
,
0000
0110
0110
0000
2002
0000
3003
0000
,
0011
0000
1010
0000
1100
1100
0000
0101
,
0000
0110
0110
0000
2002
0000
3003
0000
,
1100
0000
1000
0100
0010
0000
0001
0100
0010
0000
1000
0010
0100
0000
0001
0010
,
1000
0000
0010
0001
0100
0000
0000
0000
2002
0000
0000
0000
0000
0000
0000
0000
,
0000
0000
0000
0000
,
0000
0000
3003
0000
;

//--------------- dance-double - Fred-104 ----------------
#NOTES:
     dance-double:
     Fred-104:
     Easy:
     8:
     :
00000000
00000000
00000000
00000000
,
00000000
00000000
00000000
00000000
,
00000000
00000000
00000000
00000000
,
00000000
00000000
00000000
00000000
,
00000000
00000000
00000000
00000000
,
00000000
00000000
00000000
00000000
,
00000000
00000000
00000000
00000000
,
00001000
00000000
00000000
00010000
00000000
00000000
00001000
00000000
,
00100000
00000000
00000000
00010000
00000000
00000000
00100000
00000000
,
00010000
00000000
00000000
00100000
00000000
00000000
01000000
00000000
,
10000000
00000000
00000000
00010000
00000000
00000000
10000000
00000000
,
01000000
00000000
00000000
00100000
00000000
00000000
00001000
00000000
,
00010000
00000000
00000000
00000100
00000000
00000000
00010000
00000000
,
00002000
00003000
00020000
00030000
,
00002000
00003200
00000320
00002030
,
00003001
00000100
00000001
00000001
,
00000010
00000100
00010000
00000000
,
00001000
00010000
00100000
10000000
,
00010000
01000000
01100000
00000000
,
10000000
01000000
01000000
00100000
,
00001000
00010000
00001000
00000000
,
00020000
00030000
00002000
00003000
,
00020000
00032000
00003020
00000032
,
00002003
00000000
00003002
00000000
,
00000013
00000100
00002000
00000000
,
00023000
00000000
00032000
00000000
,
00013000
00000000
00001000
00000000
00000100
00000001
00000100
00000001
,
00000020
00000000
00000230
00000000
,
00010300
00001000
02000000
00000000
,
03020000
00000000
20030000
00000000
,
31000000
00100000
00001000
00010000
,
00001000
00001000
00010000
00100000
,
10000000
01000000
00100000
00000000
,
00010000
00100000
00001000
00010000
,
00001000
00000100
00000101
00000000
,
00001000
00001000
00000100
00000010
,
00000001
00000100
00001000
00000000
,
00020000
00030000
00002000
00003000
,
00020000
00000000
00032000
00000000
00003200
00000000
00000302
00000003
,
00001001
00000000
00000000
00000000
,
00000220
00000330
00000000
00000000
,
00011000
00000000
00000000
00000000
,
00022000
00033000
00022000
00033000
,
01100000
00000000
00000000
00000000
,
20020000
30030000
00000000
00000000
,
20000000
00000000
30200000
00300000
,
00220000
00330000
00022000
00033000
,
00002000
00000000
00000000
00000000
,
00023000
00000000
00000000
00000000
,
00032000
00000000
00000000
00000000
,
00023000
00000000
00000000
00000000
,
00032000
00000000
00000000
00000000
,
00023000
00000000
00000000
00000000
,
00031000
00001000
00010000
00010000
,
01000000
01000000
00100000
00100000
,
00010000
10000000
01000000
00100000
,
00001000
00010000
00011000
00000000
,
00001000
00010000
00100000
00000000
10000000
00010000
10000000
00000000
,
01000000
00000000
00100000
00000000
,
10010000
00000000
00000000
00000000
,
00000000
00000000
00000000
00000000
,
00000000
00000000
00000000
00000000
,
00000000
00000000
00000000
00000000
,
00000001
00000000
00000100
00000000
00000100
00000000
00000000
00000010
,
00000000
00000100
00002000
00003000
,
00020000
00030000
00002000
00003000
,
00010000
00100000
10000000
00010000
,
00100000
00000000
01000000
00000000
10000000
00000000
00000000
00100000
,
00000000
10000000
02000000
03000000
,
00100000
00002000
00013000
00002000
,
01003000
00002000
00023000
00032000
,
00103000
00000000
00001000
00000000
00010000
00000000
00000000
00001000
,
00000000
00000100
00000020
00000030
,
00002000
00003000
00000002
00000003
,
00000020
00000230
00020300
00032000
,
01003000
00000000
00001000
00000000
00010000
00000000
00000000
00001000
,
00000000
01000000
00020000
00030000
,
10000000
00000000
01000000
00000000
00010000
00000000
00000000
00001000
,
00000000
00010000
00022000
00033000
,
00010000
00001000
00010000
00001000
,
00000010
00000001
00000010
00000001
,
00000100
00002000
00013000
00200000
,
10300000
02000000
03200000
00320000
,
10030000
00100000
10000000
00100000
,
00010000
00001000
00010000
00001000
,
00000100
00000002
00000013
00000200
,
00010300
00002000
00023000
00032000
,
00013000
00000000
00100000
00000000
01000000
00000000
00000000
00010000
,
00000000
00100000
01000000
10000000
,
00010000
20000000
30100000
02000000
,
03010000
00200000
00302000
00023000
,
00031000
00000000
00000100
00000000
00000010
00000000
00000000
00001000
,
00000000
00000000
00000100
00000000
00000010
00000001
00000010
00000000
,
00000001
00000000
00000100
00000000
00001000
00000000
00000000
00010000
,
00000000
00001000
00022000
00033000
,
00001000
00000000
00010000
00000000
01000000
00000000
00000000
00100000
,
00000000
00010000
20020000
30030000
,
10000000
00000000
00100000
00000000
00010000
00000000
00000000
00001000
,
00000000
00010000
00022000
00033000
,
00010000
00000000
00001000
00000000
00000010
00000000
00000000
00000100
,
00000000
00001000
00002002
00000000
,
00000000
00000000
00000000
00000000
,
00000000
00000000
00003003
00000000
;

//--------------- dance-double - Fred-104 ----------------
#NOTES:
     dance-double:
     Fred-104:
     Medium:
     12:
     :
00000000
00000000
00000000
00000000
,
00000000
00000000
00000000
00000000
,
00000000
00000000
00000000
00000000
,
00000000
00000000
00000000
00000000
,
00000000
00000000
00000000
00000000
,
00000000
00000000
00000000
00000000
,
00000000
00000000
00000000
00000000
,
00001000
00000000
00010000
00000100
00000000
00001000
00000100
00000000
,
00000010
00000001
00000000
00001000
00000000
00000010
00000100
00000000
,
00001000
00000000
00010000
00001000
00000000
01000000
00010000
00000000
,
10000000
00000000
00010000
00100000
00000000
01000000
10000000
00000000
,
00010000
00000000
00100000
01000000
00000000
00010000
00001000
00000000
,
00010000
00001000
00000000
00000100
00000000
00000001
00000010
00000000
,
00000200
00010300
00002000
01003000
,
00010000
00100000
10000000
00000000
00010000
01000000
10000000
00000000
,
01000000
00100000
00001000
00010000
,
00001000
00000000
00000100
00000000
00000001
00001000
00000100
00000000
,
00000010
00000001
00000100
00001000
,
00010000
00000000
00001000
00000000
01000000
00010000
00100000
00000000
,
00001000
00010000
00000100
00001000
,
00000010
00000000
00010000
00000000
00001000
00010000
00100000
00000000
,
02000000
03010000
00200000
01300000
,
10000000
01000000
00010000
00000000
00001000
00000010
00000001
00000000
,
00001000
00000010
00000100
00000000
00000001
00000010
00000100
00000000
,
00010000
00001000
00100000
00000000
00010000
10000000
00100000
00000000
,
01000000
00010000
10000000
00000000
00100000
00010000
00001000
00000000
,
00010000
00000000
00001000
00000000
00020000
00032000
00023000
00032000
,
00013000
00001000
00000100
00000000
00000001
00001000
00000100
00000000
,
00000010
00000001
00000100
00000000
00001000
00010000
00001000
00000000
,
01000000
00010000
10000000
00000000
01000000
00100000
00010000
00000000
,
00100000
00001000
00100000
00001000
00010000
00000010
00010000
00000000
,
00001000
00010000
00000100
00000000
00000100
00010000
00001000
00000000
,
00010000
00000000
00001000
00000000
00000100
00000010
00001000
00000000
,
00000001
00000010
00000100
00000000
00000100
00000010
00000001
00000000
,
00000100
00000000
00001000
00000000
00010000
00100000
01000000
00000000
,
00010000
00100000
01000000
00000000
01000000
10000000
00010000
00000000
,
01000000
00000000
00100000
00000000
10000000
01000000
00100000
00000000
,
00002000
00013000
00200000
00310000
,
00001000
00010000
00001000
00100000
00010000
00100000
01000000
00000000
,
10010000
00000000
00000000
00000000
,
22000000
33000000
00000000
00000000
,
00110000
00000000
00000000
00000000
,
00022000
00033000
00020020
00030030
,
00001001
00000000
00000000
00000000
,
00000220
00000330
00000000
00000000
,
00020000
00000000
00002000
00033000
,
02020000
03030000
22000000
33000000
,
20000000
00000000
00000000
00000000
,
32000000
00000000
00000000
00000000
,
03200000
00000000
00000000
00000000
,
00302000
00000000
00000000
00000000
,
00023000
00000000
00000000
00000000
,
00030200
00000000
00000000
00000000
,
00001300
00001000
00001000
00001000
,
00000001
00000010
00000100
00000000
00001000
00000100
00010000
00000000
,
00001000
00100000
00010000
00000000
00100000
01000000
10000000
00000000
,
00010000
01000000
00010000
01000000
00010000
00000000
00000000
00000000
,
10000000
01000000
00100000
00001000
00010000
00000100
00000010
00000001
,
00001000
00000000
00001000
00000000
00001000
00000000
00000010
00000000
00000000
00000000
00000000
00000000
,
00011000
00000000
00000000
00000000
,
00000000
00000000
00000000
00000000
,
00000000
00000000
00000000
00000000
,
00000000
00000000
00000000
00000000
,
00010000
00000000
00001000
00000000
00000100
00000100
00000000
00001000
,
00000000
00010000
00000100
00000000
00001000
00000001
00000010
00000000
,
00000100
00011000
01000000
10010000
,
00100000
00011000
00000100
00001001
,
00000001
00000000
00000100
00000000
00001000
00001000
00000000
00010000
,
00000000
00100000
01000000
00000000
00010000
00100000
01000000
00000000
,
10000000
00110000
01000000
00011000
,
00000100
00001001
00000010
00001001
,
00000001
00000000
00000100
00000000
00001000
00010000
00001000
00010000
,
00000000
01000000
10000000
00000000
01000000
00100000
00001000
00000000
,
00010000
00001000
00000010
00000000
00001000
00010000
00001000
00000000
,
00010000
00100000
00010000
00000000
00001000
00010000
00001000
00000000
,
00010000
00000000
00001000
00000000
00000100
00000001
00000000
00001000
,
00000000
00000100
00000010
00000000
00000001
00000100
00001000
00000000
,
00011000
00000000
00011000
00000000
00001000
00002000
00003000
00010000
,
00000000
00100000
10000000
00000000
02200000
00000000
03300000
00000000
,
00001000
00000000
00010000
00000000
00001000
00010000
00000000
00000100
,
00001000
00000001
00001000
00000000
00000100
00000010
00000001
00001000
,
00000100
00011000
01000000
00011000
,
00000010
00011000
00100000
00011000
,
00001000
00000000
00010000
00000000
00100000
01000000
00000000
00010000
,
00100000
01000000
10000000
00000000
01000000
00100000
00001000
00010000
,
00001000
00010010
00001000
00010100
,
00001000
00010000
00001000
00000000
00010000
00000100
00001000
00000000
,
00000010
00000000
00000100
00000000
00000001
00001000
00000000
00000100
,
00000010
00001000
00010000
00000000
00001000
00010000
00100000
00000000
,
01000000
01000000
01000000
00000000
00010000
00010000
00010000
00000000
,
10000000
10000000
10000000
00000000
01100000
00000000
00011000
00000000
,
00010000
00001000
00010000
00000000
00001000
00000100
00000001
00000000
,
00001000
00000100
00000010
00000001
00000100
00001000
00010000
00000000
,
00011000
00000000
00011000
00000000
00001000
00010000
00100000
10000000
,
00000000
10000000
01000000
00000000
02200000
00000000
03300000
00000000
,
00011000
00000000
00011000
00000000
00010000
00001000
00000100
00000001
,
00000000
00000001
00000010
00000000
00000220
00000000
00000330
00000000
,
00011000
00000000
00011000
00000000
00001000
00010000
01000000
10000000
,
00000000
10000000
00100000
00000000
02200000
00000000
03300000
00000000
,
00011000
00000000
00011000
00000000
00010000
00001000
00000010
00000001
,
00000000
00000001
00000100
00000000
00000220
00000000
00000000
00000000
,
00000000
00000000
00000000
00000000
,
00000000
00000000
00000330
00000000
;

//--------------- dance-double - Fred-104 ----------------
#NOTES:
     dance-double:
     Fred-104:
     Hard:
     16:
     :
00000000
00000000
00000000
00000000
,
00000000
00000000
00000000
00000000
,
00000000
00000000
00000000
00000000
,
00000000
00000000
00000000
00000000
,
00000000
00000000
00000000
00000000
,
00000000
00000000
00000000
00000000
,
00000000
00000000
00000000
00000000
,
00010000
00001000
00000100
00000001
00000000
00001000
00000100
00000000
,
00000010
00000000
00000001
00000000
00000100
00000000
00001000
00000000
00000000
00000000
00001000
00010000
00001000
00000000
00000000
00000000
,
00010000
00001000
00010000
01000000
00000000
00100000
00010000
00000000
,
10000000
00100000
00010000
00001000
00010000
01000000
00010000
00000000
,
00001000
00000010
00001000
00010000
00001000
00000100
00000001
00000000
,
00001000
00000000
00001000
00000000
00000100
00000000
00000010
00000000
00000000
00000000
00001000
00010000
00001000
00000000
00000000
00000000
,
00010000
00001000
00010000
00001000
00000100
00000010
00000100
00000001
,
00001000
00000100
00000010
00001000
00010000
00000000
00011000
00000000
,
00001000
00000000
00010000
00000000
00100000
00000000
10000000
00010000
10000000
00000000
00010000
01000000
00010000
00000000
10000000
00000000
,
01000000
00100000
00001000
00010000
00001000
00000100
00000010
00001000
,
00000001
00000000
00000010
00000000
00000100
00000000
00001000
00000100
00001000
00000000
00000100
00010000
00000100
00000000
00010000
00000000
,
00001000
00000000
01000000
00000000
00010000
00000000
10000000
00000000
00010000
00100000
00010000
00100000
00010000
00000000
10000000
00000000
,
00010000
00000000
01000000
00000000
00001000
00000000
00010000
00000010
00010000
00000000
00000010
00001000
00000010
00000000
00010000
00000000
,
00001000
00010000
01000000
00100000
00010000
10000000
00100000
00010000
,
00001000
00000100
00000010
00001000
00000100
00000010
00000001
00000100
,
00001000
00010000
00100000
01000000
10000000
01000000
00010000
00000000
,
10000000
01000000
00100000
00010000
10000000
00100000
00010000
00001000
,
01000000
00010000
00001000
00000010
00010000
00001000
00000100
00000001
,
00001000
00000100
00000010
00001000
00010000
01000000
00010000
00001000
,
00010000
00100000
10000000
00010000
00200000
02300000
03200000
02300000
,
03100000
00010000
10000000
00100000
00010000
00001000
00000100
00000010
,
00010000
00001000
00000010
00000100
00000001
00000100
00001000
00000001
,
00000010
00000100
00001000
00000001
00000100
00000010
00000100
00001000
,
00010000
00000000
00001000
01000000
00001000
00000000
00100000
00010000
00100000
00000000
00010000
10000000
00010000
10000000
00010000
00000000
,
10000000
00000000
00100000
01000000
00100000
00000000
10000000
00010000
10000000
00000000
00010000
00100000
00010000
00000000
10000000
00000000
,
00100000
01000000
00100000
00010000
00001000
00000100
00000010
00001000
,
00000001
00000000
00000010
00000001
00000010
00000000
00000100
00001000
00000100
00000000
00010000
00000100
00010000
00000000
00001000
00000000
,
00010000
00000000
01000000
00000000
00100000
00000000
01000000
00000000
10000000
00010000
10000000
00010000
01000000
00000000
00100000
00000000
,
10000000
00000000
00010000
00100000
00010000
00000000
00100000
00001000
00100000
00000000
00001000
00010000
00001000
00000000
00000100
00000000
,
00000010
00000100
00000010
00001000
00000100
00000010
00001000
00010000
,
00001000
00010000
01000000
00100000
00010000
01000000
00100000
01000000
,
00100000
00000000
00010000
00000000
00001000
00000000
01000000
00000000
00001000
00010000
00001000
00010000
00001000
00000000
00000000
00000000
,
00011000
00000000
00000000
00000000
,
00002002
00003003
00000000
00000000
,
00000011
00000000
00000000
00000000
,
00002020
00003030
00022000
00033000
,
00101000
00000000
00000000
00000000
,
02002000
03003000
00000000
00000000
,
20000000
00000000
32000000
03000000
,
02200000
03300000
00011000
00000000
,
00002001
00000000
00000000
00000000
,
00003002
00000000
00000000
00000000
00000000
00000000
00000000
00000000
00000000
00000000
00000000
00000000
00000000
00000000
00001003
00000100
,
00020000
00000000
00000000
00000000
00000000
00000000
00000000
00000000
00000000
00000000
00000000
00000000
00000000
00000000
00031000
01000000
,
00010000
00000000
00000000
00000000
00000000
00020000
00000000
00000000
00000000
00000000
00000000
00000000
00000000
00000000
10030000
01000000
,
00200000
00000000
00000000
00000000
00000000
00000000
00000000
00000000
00000000
00000000
00000000
00000000
00000000
00000000
00301000
00010000
,
00002000
00000000
00000000
00000000
00000000
00000000
00000000
00000000
00000000
00000000
00000000
00000000
00000000
00000000
00013000
00001000
,
00010000
00010000
00010000
00010000
,
00001000
00000100
00000001
00001000
00000100
00000010
00000001
00001000
,
00000010
00000100
00001000
00010000
00100000
10000000
01000000
00100000
,
00001000
00010000
00001000
00010000
00001000
00010000
00001000
00010000
00001000
00000000
00000000
00000000
00000000
00000000
00000000
00000000
,
00010000
00001000
00010000
00001000
00010000
00001000
00010000
00001000
00010000
00001000
00010000
00001000
00010000
00001000
00010000
00001000
,
00010000
00000000
00010000
00000000
00010000
00000000
00001000
00000000
00000000
00000000
00000000
00000000
,
00011000
00000000
00000000
00000000
,
00000000
00000000
00000000
00000000
,
00002002
00000000
00000000
00000000
00000000
00000000
00000000
00000000
00000000
00000000
00000000
00000000
00000000
00000000
00000000
00000000
00000000
00000000
00000000
00000000
00000000
00000000
00000000
00000000
00003003
00000000
00000000
00000000
00000000
00000000
00000000
00000000
00000100
00000000
00000000
00000000
00000000
00000000
00000000
00000000
00000000
00000000
00000000
00000000
00000000
00000000
00000100
00000000
00000000
00000000
00000000
00000000
00000000
00000002
00000000
00000000
00000000
00000000
00000000
00000000
00000000
00000000
00000000
00000000
,
00000000
00000000
00000000
00000000
,
00001003
00000001
00000100
00000010
00000100
00001000
00010000
00100000
,
00000000
01000000
10000000
01000000
00010000
00100000
01000000
00100000
,
00001000
00010000
00002000
00003100
00000001
00001000
00000200
00000310
,
00000000
00000000
00001000
00000000
00020000
00000000
01030000
00000000
00200000
00310000
00100000
00010000
00200000
00000000
00301000
00000000
,
00010000
00001000
00010000
00100000
10000000
00010000
00100000
01000000
,
00000000
00010000
00001000
00010000
00001000
00000100
00000001
00001000
,
00000100
00001000
00000020
00000130
00001000
00010000
00200000
01300000
,
00010000
00000000
10000000
00000000
02000000
00000000
03010000
00000000
00002000
00013000
00001000
00010000
00002000
00000000
00003000
00000000
,
00010000
00001000
00000010
00000100
00000001
00000100
00001000
00000010
,
00000000
00000100
00001000
00010000
00100000
10000000
00010000
00100000
,
01000000
10000000
01000000
10000000
02000000
00000000
03000000
00000000
00100000
00010000
00100000
00010000
00200000
00000000
00300000
00000000
,
00001000
00010000
00001000
00010000
00002000
00000000
00003000
00000000
00020000
00030010
00010000
00000010
00020000
00000000
00030000
00000000
,
00001000
00010000
01000000
00100000
00010000
10000000
00100000
00010000
,
00000000
00001000
00010000
01000000
00010000
00001000
00000010
00000001
,
00000011
00000000
00001010
00000000
00011000
00011000
00000000
01010000
,
00000000
11000000
11000000
00000000
20020000
00000000
30030000
00000000
,
10000000
00100000
01000000
10000000
01000000
00100000
00010000
00001000
,
00000100
00000000
00000001
00000000
00001000
00000000
00000100
00000000
00000010
00000001
00000010
00000001
00000010
00000000
00000001
00000000
,
00001000
00000010
00000200
00001300
00010000
00100000
02000000
13000000
,
01000000
00000000
00010000
00000000
00200000
00000000
01300000
00000000
00020000
00031000
00010000
00001000
00020000
00000000
00030010
00000000
,
00010000
00001000
00010000
00100000
01000000
00100000
10000000
00010000
,
00100000
00000000
01000000
00000000
00010000
00000000
00001000
00000000
00000010
00000001
00000010
00000001
00000010
00000000
00000100
00000000
,
00001100
00000000
00020100
00030100
00010000
00001000
00020000
00230000
,
00000000
00000000
01300000
00000000
00200000
00000000
10300000
00000000
00020000
00130000
00010000
00100000
00020000
00000000
00000000
00000000
,
01030000
00100000
00010000
00001000
00000100
00000010
00000100
00001000
,
00010000
00000000
00001000
00000000
00100000
00000000
00001000
00000000
00010000
00000010
00001000
00000010
00010000
00000000
00001000
00000000
,
00010000
00001000
00010000
00001000
00020000
00000000
00030000
00000000
00000010
00001000
00000010
00001000
00000020
00000000
00000030
00000000
,
00010000
00001000
00010000
00001000
00020000
00000000
00030000
00000000
00002000
00103000
00001000
00100000
00002000
00000000
00003000
00000000
,
00010000
00001000
00000100
00000001
00001000
00000100
00000010
00000001
,
00001000
00000000
00000010
00000000
00000100
00000000
00001000
00000000
00010000
00001000
00010000
00001000
00010000
00001000
00010000
00001000
,
00010000
00000000
00011000
00000000
00101000
00101000
00000000
00010010
,
00000000
01001000
01001000
00000000
00022000
00000000
00033000
00000000
,
00101000
00000000
00010010
00000000
01001000
01001000
00000000
00010100
,
00000000
00011000
00011000
00000000
02200000
00000000
03300000
00000000
,
01001000
00000000
00010100
00000000
00101000
00101000
00000000
00010010
,
00000000
00011000
00011000
00000000
00000220
00000000
00000330
00000000
,
00000101
00000000
00001100
00000000
00011000
00011000
00000000
00110000
,
00000000
10100000
01100000
00000000
20020000
00000000
00000000
00000000
,
00000000
00000000
00000000
00000000
,
00000000
00000000
30030000
00000000
;

//--------------- dance-double - Fred-104† ----------------
#NOTES:
     dance-double:
     Fred-104†:
     Challenge:
     18:
     :
00000000
00000000
00000000
00000000
,
00000000
00000000
00000000
00000000
,
00000000
00000000
00000000
00000000
,
00022000
00033000
00000000
00000000
,
00002002
00000000
00003003
00000000
00022000
00000000
00033000
00000000
00000000
00000000
00000000
00000000
10000000
00010000
10000000
00010000
,
20000000
00000000
00000000
00000000
30000000
00000000
00000000
00000000
00001000
00000000
00000000
00000000
00010000
00001000
00010000
00001000
,
00010000
00000000
00000000
00000000
00000000
00000000
00000000
00000000
00000000
00000000
00000000
00000000
00001000
00010000
00001000
00010000
,
00001000
00010000
00100000
10000000
00010000
00100000
01000000
00000000
,
10000000
00000000
00100000
00000000
00010000
00000000
00001000
00000000
00000100
00000000
00000001
00000000
00000010
00000100
00000010
00000000
,
00000001
00001000
00000010
00000100
00001000
00010000
00001000
00000000
,
00010000
00000000
00001000
00000000
00000100
00000000
00000010
00000000
00001000
00000000
00000100
00000000
00000010
00000001
00000010
00000001
,
00001000
00000010
00000100
00001000
00010000
00100000
10000000
00010000
,
00100000
01000000
00100000
00010000
00001000
00000100
00000010
00000001
,
00001000
00001000
00000001
00000001
00000100
00000100
00001000
00001000
,
00010000
00001000
00010000
00001000
01000000
00010000
01000000
00010000
10000000
01000000
10000000
01000000
00100000
00000000
00001000
00000000
,
00010000
00000000
00000010
00001000
00000001
00000000
00000010
00000100
00001000
00000000
00000100
00010000
00001000
00000000
00100000
00010000
,
10000000
00000000
00010000
00100000
01000000
00000000
10000000
00010000
01000000
00000000
00100000
10000000
00010000
00000000
00100000
00000000
,
01000000
00000000
00100000
00001000
00010000
00000000
00001000
00000100
00000010
00000000
00001000
00000001
00000010
00000000
00000100
00001000
,
00000001
00000000
00000100
00000010
00000100
00000000
00001000
00010000
00001000
00010000
01000000
00100000
00010000
00000000
10000000
00000000
,
00010000
00000000
01000000
00010000
10000000
00000000
01000000
00010000
00001000
00000000
00010000
00001000
00000100
00000000
00000010
00001000
,
00000001
00000000
00000010
00000100
00001000
00000000
00000100
00010000
00001000
00000000
01000000
00001000
00010000
00000000
00001000
00000000
,
00010000
00001000
00000100
00000010
00001000
00000100
00000010
00001000
,
00010000
00001000
00010000
00001000
01000000
00010000
01000000
00010000
01000000
00001000
00010000
00000100
00001000
00000000
00000100
00000000
,
00010000
00000000
00001000
00000000
00010000
00000000
00100000
00000000
01000000
00010000
10000000
01000000
00100000
00001000
00010000
00000000
,
00001000
00000000
00000100
00000000
00000010
00000000
00010000
00000000
00001000
00000100
00000010
00001000
00000001
00000010
00000100
00000000
,
00010000
00000000
00001000
00000000
00010000
00000000
01000000
00000000
10000000
00010000
01000000
00001000
00010000
00000100
00010000
00000000
,
00001000
00000000
00100000
00000000
00010000
00000000
10000000
00000000
00100000
01000000
00100000
00010000
00001000
00010000
00000010
00000000
,
00001000
00000000
00000001
00000000
00000010
00000000
00000100
00001000
00000001
00000100
00000010
00000100
00001000
00010000
00001000
00000000
,
01000000
00000000
00010000
00000000
10000000
00000000
00010000
00100000
01000000
00100000
00010000
10000000
00100000
00010000
00001000
00000000
,
00010000
00010000
00001000
00001000
00000100
00000100
00000001
00000001
,
00001000
00000000
00000001
00000010
00000100
00000000
00010000
00001000
00100000
00001000
00010000
00001000
01000000
00001000
00010000
00000000
,
00002000
00000000
00010000
00003100
00002000
00000000
00000100
00013000
00002000
00000000
00010000
00003100
00002000
00000000
00000100
00013000
,
00001000
00000000
01000000
00010000
10000000
00000000
01000000
00100000
00001000
00000000
00010000
00000100
00000010
00000000
00000001
00000000
,
00002000
00000000
00000010
00013000
00002000
00000000
00010000
00003010
00002000
00000000
00000010
00013000
00002000
00000000
00010000
00003010
,
00001000
00000000
00000001
00000010
00000100
00000000
00010000
00001000
00010000
00100000
01000000
00100000
10000000
00000000
00010000
00000000
,
00200000
00000000
00010000
10300000
00200000
00000000
10000000
00310000
00200000
00000000
00010000
10300000
00200000
00000000
10000000
00310000
,
00100000
00000000
01000000
00100000
00001000
00000000
00010000
00001000
00000100
00000000
00000010
00001000
00000001
00000000
00000010
00000000
,
00000100
00001000
00000001
00000100
00001000
00010000
00001000
01000000
,
00010000
10000000
01000000
00000000
00100000
00010000
01000000
00000000
00001000
00010000
00001000
00010000
00000010
00010000
00000010
00010000
,
00001000
00000000
00000000
00000000
,
22000000
33000000
00000000
00000000
,
00011000
00000000
00000000
00000000
,
00000202
00000303
00002002
00003003
,
00000110
00000000
00000000
00000000
,
00022000
00033000
00000000
00000000
,
02000000
00000000
03200000
00300000
,
20020000
30030000
00022000
00033000
,
00001002
00000000
00000000
00000000
,
00002003
00000000
00000000
00000000
00000000
00000000
00000000
00000000
00000000
00000000
00000000
00000000
00000000
00000000
00003001
00000100
,
00002000
00000000
00000000
00000000
00000000
00000000
00000000
00000000
00000000
00000000
00000000
00000000
00000000
00000000
00013000
00100000
,
10000000
00000000
00000000
00000000
00000000
20000000
00000000
00000000
00000000
00000000
00000000
00000000
00000000
00000000
31000000
00010000
,
00002000
00000000
00000000
00000000
00000000
00000000
00000000
00000000
00000000
00000000
00000000
00000000
00000000
00000000
00003010
00000001
,
00002000
00000000
00000000
00000000
00000000
00000000
00000000
00000000
00000000
00000000
00000000
00000000
00000000
00000000
00003010
00010000
,
00001000
00010000
00001000
00010000
,
00001000
00010000
00100000
01000000
10000000
01000000
00010000
10000000
,
01000000
00010000
00001000
00000010
00000100
00001000
00000001
00000100
,
00000010
00001000
00000010
00001000
00000001
00000010
00000001
00000010
00000100
00000000
00000000
00000000
00000000
00000000
00000000
00000000
,
00010000
00001000
00010000
00001000
00100000
00010000
00100000
00010000
00100000
00001000
00010000
00001000
00010000
00001000
01000000
00010000
,
01000000
00000000
00001000
00000000
00010000
00000000
00011000
00000000
00000000
00000000
00000000
00000000
,
00001001
00000000
00000000
00000000
,
00000000
00000000
00000000
00000000
,
20020000
00000000
00000000
00000000
00000000
00000000
00000000
00000000
00000000
00000000
00000000
00000000
00000000
00000000
00000000
00000000
00000000
00000000
00000000
00000000
00000000
00000000
00000000
00000000
30030000
00000000
00000000
00000000
00000000
00000000
00000000
00000000
01000000
00000000
00000000
00000000
00000000
00000000
00000000
00000000
00000000
00000000
00000000
00000000
00000000
00000000
01000000
00000000
00000000
00000000
00000000
00000000
00000000
00020000
00000000
00000000
00000000
00000000
00000000
00000000
00000000
00000000
00000000
00000000
,
00000000
00000000
00000000
00000000
,
10030000
01000000
00010000
00001000
00010000
00100000
00010000
00002000
,
00000000
00000000
00013000
00000000
00000100
00000000
00001000
00000000
00000100
00000010
00000001
00001000
00000010
00010000
00001000
00100000
,
00001000
00010000
00000010
00010000
00002000
00000000
00003000
00000000
00010000
00001000
01000000
00001000
00020000
00000000
00030000
00000000
,
00001000
00010000
00000100
00010000
00002000
00000000
00003000
00000000
00020000
00030010
00001000
00000001
00002000
00003100
00000010
00000001
,
00000010
00000001
00001000
00000010
00000100
00001000
00010000
02000000
,
00000000
00000000
13000000
00000000
00010000
00000000
01000000
00000000
00010000
10000000
00010000
00100000
01000000
10000000
00010000
10000000
,
00010000
01000000
00200000
00310000
00001000
00000100
00000020
00020030
,
00000000
00000000
00031000
00000000
00000200
00000000
00000301
00000000
00000020
00000130
00001000
00000100
00000020
00000031
00001000
00000010
,
00010000
00001000
00010000
00100000
01000000
00010000
10000000
02000000
,
00000000
00000000
13000000
00000000
00100000
00000000
00010000
00000000
00001000
00010000
00000100
00001000
00000100
00000010
00000001
00001000
,
00000001
00000100
00000010
00000100
00002000
00000000
00003000
00000000
00010000
00100000
01000000
00100000
20000000
00000000
30000000
00000000
,
00010000
00100000
01000000
10000000
00020000
00000000
00030000
00000000
02000000
03100000
10000000
00010000
00200000
00301000
00010000
00000010
,
00010000
00001000
00000010
00000100
00000010
00000001
00001000
00000020
,
00000000
00000000
00000130
00000000
00001000
00000000
00010000
00000000
00100000
01000000
00100000
10000000
00010000
00100000
01000000
10000000
,
00010000
00000000
11000000
00000000
01010000
00011000
00000000
00001010
,
00000000
00000011
00000110
00000000
00002002
00000000
00003003
00000000
,
00000001
00000100
00010000
01000000
00001000
00010000
00100000
10000000
,
00010000
00000000
00100000
00000000
01000000
00000000
00100000
00000000
00010000
00100000
00001000
00010000
00001000
00000100
00000010
00001000
,
00000100
00000010
00000002
00000103
00000010
00000100
00002000
00013000
,
01000000
00000000
00010000
00000000
00002000
00000000
00013000
00000000
00200000
01300000
00010000
10000000
02000000
03100000
00010000
00100000
,
00001000
00010000
00100000
00010000
00001000
00100000
00010000
00001000
,
00010000
00000000
00100000
00000000
00001000
00000000
00010000
00000000
00000010
00001000
00000010
00000100
00000010
00001000
00000100
00010000
,
00001000
00010000
00002000
00003100
00000001
00001000
00000200
00000320
,
00000000
00000000
00000031
00000000
00002000
00000000
00003010
00000000
00020000
00031000
00100000
00001000
00020000
00031000
01000000
00010000
,
00100000
01000000
10000000
00100000
00010000
00100000
01000000
00100000
,
10000000
00000000
01000000
00000000
00010000
00000000
00001000
00000000
00000100
00000001
00000100
00000001
00001000
00000100
00000010
00000001
,
00001000
00000010
00010000
00001000
00020000
00000000
00030000
00000000
00001000
00100000
00010000
00100000
02000000
00000000
03000000
00000000
,
10000000
00100000
01000000
00010000
20000000
00000000
30000000
00000000
02000000
03100000
00010000
00100000
00002000
00013000
00000010
00001000
,
00000001
00000010
00000100
00001000
00000100
00010000
00001000
01000000
,
00001000
00000000
00010000
00000000
00000100
00000000
00010000
00001000
00100000
00010000
00100000
01000000
10000000
00010000
01000000
00010000
,
10000000
00000000
11000000
00000000
01010000
01010000
00000000
00011000
,
00000000
00001010
00001010
00000000
00000022
00000000
00000033
00000000
,
00000101
00000000
00001100
00000000
00011000
00011000
00000000
00110000
,
00000000
10100000
10100000
00000000
20020000
00000000
30030000
00000000
,
10100000
00000000
00110000
00000000
00011000
00011000
00000000
00001100
,
00000000
00000101
00000101
00000000
00002002
00000000
00003003
00000000
,
00000110
00000000
00000001
00000010
00000100
00000000
00001000
00000100
00010000
00000000
00001000
00100000
00010000
00000000
10000000
00100000
,
01000000
00000000
10000000
01000000
00010000
00000000
00000000
00000000
00022000
00000000
00000000
00000000
00000000
00000000
00000000
00000000
,
00000000
00000000
00000000
00000000
,
00000000
00000000
00033000
00000000
;
