#TITLE:禊;
#ARTIST:Nhato;
#TITLETRANSLIT:Misogi;
#GENRE:HARD PSY TRANCE;
#BANNER:Misogi.png;
#BACKGROUND:Misogi-bg.png;
#CDTITLE:./CDTitles/bm IIDX 29 CastHour.png;
#MUSIC:Misogi.ogg;
#SAMPLESTART:91.008;
#SAMPLELENGTH:15;
#BPMS:0=160,168=120,171=80,173=160,202=80,204=160;
#STOPS:173=1.125;
#TIMESIGNATURES:0=4=4,168=3=4,171=2=4,173=1=4,174=4=4,202=2=4,204=4=4;

//--------------- dance-single - Fred-104 ----------------
#NOTES:
     dance-single:
     Fred-104:
     Beginner:
     2:
     :
0000
0000
0000
0000
,
0000
0000
0000
0000
,
0000
0000
0000
0000
,
0000
0000
0000
0000
,
0000
0000
0000
0000
,
2000
0000
0000
0000
,
3000
0000
0000
0000
,
0002
0000
0000
0000
,
0003
0000
0000
0000
,
1000
0000
0000
0000
,
0001
0000
0000
0000
,
1000
0000
0000
0000
,
0010
0000
0000
0000
,
1000
0000
0000
0000
,
0100
0000
0000
0000
,
0010
0000
0000
0000
,
1001
0000
0000
0000
,
0002
0000
0000
0003
,
2000
0000
0000
3000
,
0001
0000
0000
0000
,
0100
0000
0000
0000
,
0002
0000
0000
0000
,
0003
0000
0000
0000
,
2000
0000
0000
0000
,
3000
0000
0000
0000
,
0001
0000
0000
0000
,
1000
0000
0000
0000
,
0001
0000
0000
0000
,
0100
0000
0000
0000
,
0001
0000
0000
0000
,
1000
0000
0000
0000
,
0001
0000
0000
0000
,
0100
0000
0000
0000
,
0002
0000
0003
0000
,
2000
0000
3000
0000
,
0002
0000
0003
0000
,
2000
0000
3000
0000
,
0002
0003
0002
0003
,
2000
3000
2000
3000
,
0002
0003
0002
0003
,
2000
3000
2000
3000
,
2002
0000
0000
0000
,
0000
0000
0000
3003
,
0000
0000
2000
0000
,
3000
0000
0002
0000
,
0003
0000
2000
0000
,
3000
0000
0002
0000
,
0003
0000
0000
0000
2000
0000
0000
3000
,
0000
0000
0002
0000
0000
0003
0000
0000
,
2000
3000
0002
0000
,
0000
0000
0003
0000
,
1000
0000
0010
0000
,
2000
0000
3000
0000
,
0001
0000
0100
0000
,
0002
0000
0003
0000
,
0100
0000
0010
0000
,
0200
0000
0300
0000
,
0010
0000
1000
0000
,
0002
0000
0003
0000
,
1000
0000
0010
0000
,
1000
0000
0100
0000
,
1000
0000
0001
0000
,
1000
0000
0001
0000
,
2000
0000
3000
0000
,
0002
0000
0003
0000
,
2000
0000
0000
3000
,
0001
0000
0000
0000
,
1001
0000
0000
0000
,
1001
0000
0000
0000
,
1001
0000
0000
0000
,
1001
0000
0000
0000
,
0001
0000
0001
0000
,
1000
0000
1000
0000
,
0001
0000
0001
0000
,
2000
3000
0002
0003
,
2002
0000
0000
0000
,
0000
0000
0000
0000
,
3003
0000
0000
0000
;

//--------------- dance-single - Fred-104 ----------------
#NOTES:
     dance-single:
     Fred-104:
     Easy:
     7:
     :
0000
0000
0000
0000
,
0000
0000
0000
0000
,
0000
0000
0000
0000
,
0000
0000
0000
0000
,
0000
0000
0000
0000
,
1000
0000
0000
2000
0000
0000
3000
0000
,
0001
0000
0000
0002
0000
0000
0003
0000
,
0100
0000
0000
0010
0000
0000
1000
0000
,
0001
1000
0001
1001
,
1100
0000
0010
0000
,
1000
0100
0010
0001
,
0100
0000
0001
0000
,
0010
0001
1000
0001
,
0100
0000
0001
0000
,
1000
0010
0001
0100
,
1000
0000
0001
0000
,
1000
0001
1000
1001
,
0001
0000
0100
0000
,
0001
0010
0100
0010
,
0001
0000
1000
0000
,
0010
1000
0100
0010
,
0002
0000
2003
0000
,
3020
0000
0230
0000
,
0302
2003
3002
2003
,
3001
0100
0010
1010
,
1001
0000
0001
0100
,
0010
0000
1000
0001
,
0010
0000
0001
1000
,
0100
0000
1000
0010
,
0100
0000
0001
0010
,
1000
0000
0010
0001
,
1000
0000
0001
1000
,
0001
0100
0010
1000
,
0001
0001
0100
0010
,
0100
0001
1000
0000
,
0001
0001
1000
0010
,
1000
0100
0010
0000
,
1001
0000
0110
0000
,
1001
0000
0110
0000
,
1001
0000
0110
0000
,
0001
1000
0010
0100
,
2002
0000
0000
0000
,
0000
0000
0000
0000
,
0000
0000
3003
0000
1000
0000
0000
1000
,
0000
0000
0010
0000
0100
0000
0000
0100
,
0000
0000
0001
0000
0010
0000
0000
0010
,
0000
0000
0001
0000
1000
0000
0000
0001
,
0000
0000
1000
0000
0001
0000
0000
0010
,
0000
0000
1000
0000
0000
0100
0000
0000
,
0001
1000
0001
0100
,
0010
0000
1000
0000
2002
0000
0000
3003
,
0001
0010
0001
1000
,
0020
0000
0230
0000
,
0301
0010
0100
1000
,
0200
0000
2300
0000
,
3010
1000
0001
0100
,
0020
0000
2030
3002
,
1003
0100
0010
0001
,
2000
0000
0000
0000
0000
0000
0000
0000
3001
0000
0000
0001
0000
0000
0001
0000
,
0100
0010
1000
0001
,
0020
0000
0032
0000
,
1003
0001
0100
0010
,
2000
0000
3002
0000
,
1003
1000
0010
0010
,
0100
0100
0001
0001
,
1000
0001
0100
0010
,
1000
0100
0010
0001
,
1001
0000
0000
0110
0000
0000
0001
0000
,
0010
0000
0000
0011
0000
0000
0001
0000
,
0100
0000
0000
0110
0000
0000
0010
0000
,
1000
0000
0000
1010
0000
0000
0010
0000
,
1000
0000
0100
0000
0010
0010
0010
0000
,
0001
0000
0100
0000
0010
0010
0010
0000
,
1000
0100
1000
0010
,
0100
0000
0001
0000
2000
0000
3002
0003
,
2002
0000
0000
0000
,
0000
0000
0000
0000
,
3003
0000
0000
0000
;

//--------------- dance-single - Fred-104 ----------------
#NOTES:
     dance-single:
     Fred-104:
     Medium:
     11:
     :
0000
0000
0000
0000
,
0000
0000
0000
0000
,
0000
0000
0000
0000
,
0000
0000
0000
0000
,
0000
0000
0000
0000
,
0001
0000
0000
0101
0000
0000
0001
0000
,
1000
0000
0000
1100
0000
0000
1000
0000
,
0001
0000
0000
1000
0000
0000
0001
0000
0000
0100
0000
0000
0010
0000
0000
1000
,
0100
1000
0001
0000
0100
0010
0110
0000
,
1000
0000
0010
1000
0100
0000
0010
0001
,
1000
0000
0001
0100
0010
0000
0100
0000
,
0001
0010
0100
0000
1000
0000
0010
0100
,
0001
0000
1000
0000
0100
0010
0001
0000
,
1000
0010
0100
0000
0010
0000
1000
0001
,
0010
0000
0001
0000
1000
0001
0100
0000
,
0001
0010
0100
0000
1000
0001
0100
0000
,
0001
0000
0000
1000
0000
0000
0001
0000
0100
0000
0010
0000
1010
0000
0000
0000
,
1000
0100
0010
0001
0100
0010
0100
0000
,
0001
0010
0001
1000
0001
0100
0010
0000
,
1000
0010
1000
0100
1000
0001
0010
0000
,
0001
0000
0100
0000
0010
0000
1000
0000
0100
0000
0000
1100
0000
0000
1000
0000
,
0001
0100
0010
0100
0001
0010
0200
0000
,
1300
0010
0100
0001
1000
0100
0020
0000
,
0031
0100
0001
0100
0010
1000
0010
1000
,
0001
0100
0010
0000
1000
0100
0220
0330
,
2001
0000
3002
0000
0203
0000
0310
1000
,
0200
0000
0320
0000
0032
0000
0103
1000
,
0200
0000
0302
0000
2003
0000
3001
0010
,
2000
0000
3020
0000
0032
0000
0103
0010
,
2000
0000
3200
0000
0320
0000
1030
0010
,
0002
0000
2003
0000
3002
0000
0103
0010
,
0002
0000
0023
0000
2030
0000
3001
1000
,
0100
1000
0010
0100
0001
1000
1001
0000
,
0001
0010
0100
1000
0010
0100
0001
0000
,
1000
0100
1000
0001
0010
0001
0100
0000
,
0001
0100
0001
1000
0010
1000
0100
0000
,
0010
0001
0100
0010
1000
0100
0010
0100
,
2100
3010
0102
0013
,
2001
3100
1002
0103
,
2001
3010
1002
0013
,
1000
0000
0000
0010
0100
0000
0010
0000
1000
0000
0001
0000
0100
0000
0000
0000
,
0220
0000
0000
0000
,
0000
0000
0000
0000
,
0000
0000
0000
0000
0330
0000
0000
0000
1100
0000
0000
1010
0000
0000
2200
0000
,
0000
0000
0000
0000
3300
0000
0000
0000
0101
0000
0000
0011
0000
0000
0202
0000
,
0000
0000
0000
0000
0303
0000
0000
0000
0110
0000
0000
1010
0000
0000
0202
0000
,
0000
0000
0000
0000
0303
0000
0000
0000
1001
0000
0000
0110
0000
0000
2002
0000
,
0000
0000
0000
0000
3003
0000
0000
0000
1000
0000
0000
1000
0000
0000
0100
0000
,
0000
0100
0000
0000
0001
0000
0000
0001
0000
0000
0010
0000
0000
0010
0000
0000
,
1000
0000
0000
0001
0000
0000
0100
0000
0010
0000
1000
0000
0100
0000
0000
0000
,
0010
0001
1000
0000
2002
0000
0000
3003
,
1000
0100
0010
0000
0001
1000
0010
0000
,
0100
0001
0010
0000
0001
1000
0100
0000
,
1000
0010
0001
0000
1000
0100
0001
0000
,
1000
0010
0100
0001
0010
0001
0100
0000
,
0001
0100
0010
0000
1000
0001
0010
0000
,
0001
0100
1000
0000
0100
0001
0010
0000
,
0100
1000
0001
0000
0100
0010
1000
0000
,
0001
0000
0010
0000
0100
0000
1000
0000
0001
0000
0000
1000
0000
0000
0010
0000
,
1000
0100
0010
0100
1000
0001
0100
0000
,
0001
0010
0001
1000
0010
0100
0010
0000
,
1000
0100
0010
0001
0010
0100
1000
0000
,
0001
0100
0010
1000
0002
0023
0230
2300
,
3001
0100
0001
0100
0010
1000
0010
1000
,
0100
0010
0100
0010
0001
0100
0010
1000
,
0001
0010
0001
0000
1000
0010
1000
0000
0001
1000
0001
1000
0001
0000
0000
0000
,
1000
0000
0000
1010
0000
0000
0100
0000
0001
0000
1000
0000
0001
0000
0000
0000
,
0101
0000
0000
0001
0000
0000
0011
0000
0000
0001
0000
0000
0100
0000
0000
0000
,
1010
0000
0000
1000
0000
0000
1100
0000
0000
1000
0000
0000
0001
0000
0100
0000
,
0110
0000
0000
0010
0000
0000
1010
0000
0000
1000
0000
0000
0001
0000
0010
0000
,
0011
0000
0000
0000
0000
0000
1001
0000
0000
0001
0000
0000
1000
0000
0010
0000
,
0100
0000
1001
0000
0001
0010
0100
0000
,
1100
0000
0101
0000
1000
0010
0001
0000
,
0110
0000
0100
0001
1000
0001
0100
0010
,
1000
0000
0010
0000
0001
0100
2000
3000
,
2002
0000
0000
0000
,
0000
0000
0000
0000
,
3003
0000
0000
0000
;

//--------------- dance-single - Fred-104 ----------------
#NOTES:
     dance-single:
     Fred-104:
     Hard:
     16:
     :
0000
0000
0000
0000
,
0000
0000
0000
0000
,
0000
0000
0000
0000
,
0000
0000
0000
0000
,
0000
0000
0000
0000
,
1100
0000
0000
0110
0000
0000
1000
0000
,
1010
0000
0000
0101
0000
0000
0001
0000
,
0110
0000
0000
0100
0000
0000
0110
0000
0000
0010
0000
0000
1000
0000
0000
0001
,
0100
0010
0100
0001
1000
0100
0110
0000
,
1001
0000
0000
0000
0001
0000
0010
0100
0010
0000
0001
0100
0001
0000
0010
0000
,
0100
0000
1000
0100
1000
0000
0010
1000
0010
0000
1000
0000
0001
0010
0001
0000
,
0100
0001
0100
0000
0010
0000
1000
0100
1000
0000
0001
0000
0010
0100
0010
0000
,
0001
1000
0001
1000
0001
0000
0100
0000
0010
0000
1000
0000
0100
0000
0010
0000
,
0001
0010
0100
0000
1000
0000
0001
0010
0100
0000
1000
0000
0001
0010
0100
0000
,
1000
0010
0100
0000
0001
0000
1000
0010
0100
0000
0001
0000
1000
0010
0100
0000
,
0001
1000
0100
0000
0010
0000
0001
1000
0100
0000
0010
0000
0001
1000
0100
1000
,
0001
0000
0100
0010
0000
1000
0010
0000
0100
0000
0001
0000
1001
0000
0000
0000
,
0001
0000
0010
0000
0100
0000
1000
0001
0010
0000
0100
0000
1000
0000
0010
0100
,
0001
0000
1000
0000
0001
0000
0010
0100
1000
0000
0010
0000
0100
0000
0001
1000
,
0010
0000
0100
0000
0001
0000
1000
0100
0010
0000
0001
0000
1000
0000
0010
1000
,
0001
0000
0010
0000
0100
0000
0010
0001
1000
0100
0010
0001
0000
0100
0010
0000
,
1000
0000
0010
0100
0010
0000
1000
0010
0100
0010
1000
0010
0100
0000
0002
0000
,
1003
0000
0001
0100
0001
0000
1000
0001
0100
0001
1000
0001
0100
0000
0010
0000
,
1000
0100
1000
0000
0001
0100
0001
0000
1000
0010
1000
0000
0001
0010
0001
0000
,
1000
0010
1000
0100
0001
0100
0220
0330
,
1001
0000
0000
0001
0010
0000
0000
0010
0100
0000
0000
0100
1000
0000
0010
0000
,
0100
0000
0000
0100
0001
0000
0000
0001
1000
0000
0000
1000
0100
0000
0010
0000
,
0001
0000
0000
0001
0100
0000
0000
0100
0010
0000
0000
0010
0100
0000
0001
0000
,
1000
0000
0000
1000
0001
0000
0000
0001
0010
0000
0000
0010
0100
0000
1000
0000
,
0001
0000
0000
0001
0010
0000
0000
0010
1000
0000
0000
1000
0001
0000
0100
0000
,
1000
0000
0000
1000
0001
0000
0000
0001
0100
0000
0000
0100
0010
0000
1000
0000
,
0001
0000
0000
0001
0010
0000
0000
0010
0100
0000
0000
0100
1000
0000
0001
0000
,
1000
0000
0010
1000
0010
0100
0001
0000
1000
0001
0010
0001
2000
0000
3001
1000
,
0001
0000
0010
0001
1000
0000
0010
0000
0100
0000
0001
0010
0100
0000
1000
0000
,
0001
0000
1000
0100
1000
0000
0001
0000
1000
0000
0001
0010
0001
0000
1000
0000
,
0001
0000
0100
0010
0100
0000
0001
0000
0010
0000
0100
1000
0100
0000
0010
0000
,
0001
0000
1000
0010
0100
0000
0010
0000
1000
0000
0001
0010
0100
0000
1000
0000
,
2100
0000
3020
0030
0102
0000
0023
0030
,
2010
0000
3200
0300
0012
0000
0203
0300
,
1100
0010
0002
0003
0101
0010
2000
3000
,
0110
0000
0000
0001
0100
0000
0020
0000
1030
0000
0100
0010
0001
1000
0001
0000
,
2002
0000
0000
0000
,
0000
0000
0000
0000
,
0000
0000
0000
0000
3003
0000
0000
0000
1010
0000
0000
0101
0000
0000
1010
0000
,
0001
1000
0001
0100
0010
1000
0100
0000
0110
0000
0000
0011
0000
0000
1001
0000
,
0001
1000
0100
1000
0001
0100
0001
0000
0011
0000
0000
1001
0000
0000
1010
0000
,
1000
0010
1000
0001
0100
0001
0010
0000
0110
0000
0000
1100
0000
0000
1001
0000
,
1000
0010
0100
0010
1000
0001
0010
0000
0011
0000
0000
1010
0000
0000
0101
0000
,
0000
1100
0000
0000
0011
0000
0000
1100
0000
0000
0101
0000
0000
1010
0000
0000
,
0011
0000
0000
0110
0000
0000
0001
1000
0001
0000
0100
0000
0010
0000
1000
0000
,
0100
0000
0000
0000
0010
0000
0000
0000
0001
0000
0000
0000
1000
0000
0000
0000
0001
1000
0001
1000
0010
0100
0010
0100
0001
1000
0001
1000
0001
0000
0000
0000
,
1100
1000
0010
0100
0101
0001
0010
0100
,
0110
0010
0001
1000
1001
0001
0100
0010
,
1010
1000
0001
1000
1100
0100
0010
0001
,
0011
0100
1000
0010
1010
0100
0001
0010
,
0210
1300
0001
0100
1002
0013
0100
1000
,
1200
0310
0001
1000
0201
0310
0100
1000
,
1020
0130
0001
0010
0210
1300
0001
0010
,
0012
0000
1003
0000
0001
0000
0100
0000
0110
0000
0000
1010
0000
0000
1001
0000
,
0001
0000
0100
0001
0100
0000
0010
0100
0010
0000
1000
0100
1000
0000
0001
0000
,
1000
0000
0010
1000
0010
0000
0100
0010
0100
0000
0001
0010
0001
0000
1000
0000
,
0001
0000
0010
0100
0010
0000
0001
1000
0001
0000
1000
0010
1000
0000
0010
0000
,
0100
0000
0001
0010
0001
0000
1000
0010
2000
0000
3200
0000
0320
0000
0032
0000
,
1003
0010
1000
0000
0010
0100
0010
0000
0100
0001
0100
0000
0001
0010
0001
0000
,
0100
0010
0100
0000
0010
1000
0010
0000
1000
0100
1000
0000
0001
0100
0001
0000
,
1000
0010
1000
0010
0100
0001
0100
0001
1000
0100
1000
0100
0010
0001
0010
0001
,
1000
0000
0001
0010
0000
0100
0010
0000
0001
1000
0010
1000
0001
0000
0000
0000
,
1100
0000
0000
0100
0000
0000
0110
0000
0000
0010
0000
0000
0011
0000
0000
0000
,
0101
0000
0000
0100
0000
0000
0110
0000
0000
0010
0000
0000
1010
0000
1000
0000
,
1100
0000
0000
1000
0000
0000
1001
0000
0000
0001
0000
0000
0100
0000
0000
0000
,
0110
0000
0000
0000
0000
0000
1001
0000
0000
0001
0000
0010
0001
0000
1000
0000
,
1100
0000
0000
0000
1000
0000
0010
0000
0001
0000
0010
0001
0010
0000
0000
0000
,
1010
0000
0000
0000
0000
0000
0000
0000
0000
0000
0000
0000
1000
0000
0000
0000
0000
0000
0100
0000
0000
0000
0000
0000
0001
0000
0000
0000
0000
0000
0100
0000
0000
1000
0000
0000
0100
0000
0000
0000
0000
0000
1000
0000
0001
0000
1000
0000
,
0001
0000
0000
0000
1000
0000
0001
0010
0001
0000
1000
0000
0001
1000
0001
1000
,
0100
0010
0000
0010
0001
0000
1000
0000
0010
0100
0010
0100
0002
0000
1003
0000
,
2002
0000
0000
0000
,
0000
0000
0000
0000
,
3003
0000
0000
0000
;

//--------------- dance-single - Fred-104† ----------------
#NOTES:
     dance-single:
     Fred-104†:
     Challenge:
     18:
     :
0000
0000
0000
0000
,
0000
0000
0000
0000
,
0000
0000
0000
0000
,
0000
0000
0000
0000
,
0000
0000
0000
0000
,
0110
0000
0000
1001
0000
0000
0010
0000
,
1100
0000
0000
0101
0000
0000
0010
0000
,
1010
0000
0000
1000
0000
0000
0101
0000
0000
0001
0000
0000
1000
0000
0000
0001
,
0100
0000
0000
0000
0000
0000
0010
0000
0000
0000
0000
0000
0100
0000
0000
0001
0000
0000
0100
0000
0000
0000
0000
0000
0001
0000
0000
0000
0000
0000
1000
0000
0000
0010
0000
0000
0100
0000
0000
0000
0000
0000
0001
0000
1000
0000
0001
0000
,
1000
0000
0001
0010
0100
0000
1000
0001
0100
0000
0010
1000
0001
0000
1000
0001
,
0010
0000
0100
1000
0001
0000
0100
0001
1000
0000
0100
0010
0001
1000
0001
0000
,
1000
0100
0010
0001
1000
0100
0010
0001
1000
0000
0001
0100
0010
0100
0001
0000
,
1000
0010
0100
0001
1000
0010
0100
0001
1000
0000
0001
1000
0100
0000
0010
0000
,
0001
1000
0100
1000
0001
1000
0010
1000
0001
1000
0100
1000
0010
1000
0001
0010
,
0001
1000
0010
0100
0001
0010
0001
1000
0010
0100
0001
1000
0100
0010
0001
1000
,
0001
0100
0001
1000
0001
0100
0010
1000
0001
0010
0100
0010
0001
1000
0100
1000
,
0001
0000
0100
0010
0000
0001
0010
0100
0001
0100
0010
0000
1000
0000
0001
1000
,
0001
0000
0010
0000
0100
0000
1000
0010
1000
0000
0001
0000
0100
0000
0010
0100
,
0010
0000
0000
0000
0000
0000
1000
0000
0000
0010
0000
0000
0100
0000
0000
0000
0000
0000
0001
0000
0000
1000
0000
0000
0100
0000
0000
0000
0000
0000
1000
0000
0000
0000
0000
0000
0001
0000
1000
0000
0001
0000
1000
0000
0001
0000
1000
0000
,
0001
0000
0010
0001
1000
0000
0010
1000
0001
0000
0010
0100
1000
0000
0001
0000
,
0120
0000
1030
0000
0210
0000
0301
0000
1000
0100
0010
0001
0010
0100
1000
0000
,
0001
0000
0000
0100
0000
0000
0001
0000
0000
0100
0000
0000
0010
0000
0000
1000
0000
0000
0010
0000
0000
1000
0000
0000
0001
0000
0000
1000
0000
0000
0001
0000
0000
1000
0000
0000
0100
0000
0000
0010
0000
0000
0001
0000
1000
0000
0001
0000
,
1000
0100
1000
0100
0010
0001
0010
0001
1000
0001
0010
0100
1000
0100
1000
0001
,
1000
0010
1000
0001
0010
0001
0010
0100
1000
0001
0100
0001
1000
0100
1000
0001
,
0100
0000
1000
0000
0100
0010
0100
0010
1000
0000
0001
1000
0002
0000
0000
0003
,
0011
0000
0010
0001
1000
0000
0010
0000
0100
0000
0001
0010
1000
0000
0010
0001
,
0100
0000
0001
1000
0100
0000
0010
0000
0001
0000
1000
0100
0001
0000
0100
1000
,
0010
0000
0100
0001
1000
0000
0100
0000
0010
0000
0001
0010
0100
0000
0001
0100
,
0010
0000
0001
1000
0100
0000
0010
0000
0001
0000
0100
1000
0100
0000
0001
1000
,
0001
0000
1000
0100
0010
0000
0100
0000
1000
0000
0010
0001
0010
0000
0100
0001
,
1000
0000
0001
1000
0010
0000
0100
0000
0001
0000
0010
1000
0010
0000
0001
0100
,
0001
0000
1000
0001
0010
0000
0100
0000
1000
0000
0010
0100
1000
0000
0100
0001
,
1000
0000
0001
0010
0001
1000
0001
0100
0010
1000
0010
0100
0002
2003
3002
2003
,
3001
0000
0100
1000
0100
0000
0001
0000
1000
0000
0100
0001
0100
0000
1000
0000
,
0001
0000
0010
1000
0010
0000
0001
0000
1000
0000
0010
0001
0010
0000
1000
0000
,
1001
0000
1000
0010
0001
0000
0010
0000
0110
0000
0100
0001
1000
0000
0100
0000
,
1100
0000
1000
0010
0001
0000
0010
0000
1010
0000
1000
0100
0001
0000
0100
0000
,
1100
0000
1000
0000
0001
0000
0200
0300
0110
0000
0010
0000
1000
0000
0002
0003
,
0101
0000
0010
0000
1000
0000
0200
0300
1100
0000
0010
0000
0001
0000
2000
3000
,
1002
0000
0103
0000
0010
0000
2000
3000
2001
0000
3100
0000
0010
0000
0002
0000
,
1003
0100
0000
0100
0010
0000
0200
0000
1300
0001
0100
0001
1000
0000
0001
0000
,
2002
0000
0000
0000
,
0000
0000
0000
0000
,
0000
0000
0000
0000
3003
0000
0000
0000
1001
0000
0001
0100
0000
0010
0100
0000
,
0001
0000
1000
0000
0001
0000
0010
0000
0000
0001
0000
0000
1000
0000
0000
0010
0000
0000
0100
0000
0000
0010
0000
0000
0110
0000
0000
0000
0000
0000
0010
0000
0000
1000
0000
0000
0000
0000
0000
0010
0000
0000
0100
0000
0000
0000
0000
0000
,
0001
0000
1000
0000
0001
0000
1000
0000
0000
0100
0000
0000
0010
0000
0000
0001
0000
0000
1000
0000
0000
0100
0000
0000
1100
0000
0000
0000
0000
0000
1000
0000
0000
0100
0000
0000
0000
0000
0000
0010
0000
0000
0100
0000
0000
0000
0000
0000
,
1000
0000
0001
0000
1000
0000
0100
0000
0000
0010
0000
0000
0100
0000
0000
1000
0000
0000
0001
0000
0000
0100
0000
0000
0101
0000
0000
0000
0000
0000
1000
0000
0000
0001
0000
0000
0000
0000
0000
0100
0000
0000
0001
0000
0000
0000
0000
0000
,
1000
0001
0100
0001
1000
0100
1000
0001
1001
0000
1000
0100
0000
0100
0001
0000
,
1000
0010
0000
0010
0001
0000
1000
0100
0000
0100
0001
0000
1000
0010
0000
0010
,
0001
0000
0000
0000
0000
0000
1000
0000
0000
0010
0000
0000
0000
0000
0000
0100
0000
0000
0001
0000
1000
0000
0001
0000
1000
0000
0000
0000
0000
0000
0010
0000
1000
0000
0001
0000
1000
0000
0000
0000
0000
0000
0100
0000
0010
0000
0001
0000
,
0010
0000
0000
0000
0000
0000
0000
0000
0000
0000
0000
0000
0001
0000
0000
0000
1000
0000
0000
0000
0010
0000
0000
0000
1000
0000
0000
0000
0000
0000
0000
0000
0000
0000
0000
0000
0001
0000
0000
0000
0000
0000
0000
0000
0000
0000
0000
0000
1000
0000
0000
0010
0000
0000
1000
0000
0000
0010
0000
0000
0100
0000
0000
0001
0000
0000
0100
0000
0000
0001
0000
0000
1000
0000
0000
0100
0000
0000
0010
0000
0000
0001
0000
0000
2000
0000
0000
0000
0000
0000
0000
0000
0000
0000
0000
0000
,
3001
0100
0010
1000
0001
0010
0100
1000
0001
1000
0001
0010
0100
1000
0100
1000
,
0001
1000
0001
0100
0010
1000
0001
0010
0100
0010
0001
1000
0001
0100
0001
0100
,
0010
1000
0001
1000
0100
0010
0100
1000
0001
1000
0001
0010
0100
0010
0100
0010
,
0001
1000
0001
0010
0100
1000
0001
1000
0100
1000
0001
0100
0001
1000
0001
0000
,
1000
0100
1000
0001
0100
0001
1000
0001
0010
0100
0010
0001
1000
0010
1000
0010
,
1000
0001
0010
0100
1000
0001
0100
0001
1000
0010
0100
0001
1000
0100
1000
0100
,
0010
0100
1000
0001
0100
0001
1000
0001
0010
0001
1000
0001
0100
0001
0100
0001
,
1000
0100
0010
0001
0010
0100
1000
0001
0100
0000
0000
0110
0000
0000
1010
0000
,
1000
0001
0100
0001
1000
0001
0010
0100
1000
0001
1000
0100
1000
0001
0100
0010
,
1000
0001
0010
0001
1000
0001
0100
0010
0100
0001
1000
0001
1000
0010
0100
0001
,
1000
0010
1000
0001
1000
0100
1000
0001
0010
0100
1000
0001
0100
0001
1000
0100
,
0010
0100
1000
0001
0100
0001
1000
0100
2000
0000
0010
0000
3002
0000
0100
0000
,
1003
0100
1000
0001
1000
0010
0100
0001
0100
0010
1000
0001
0010
0001
1000
0100
,
1000
0001
0100
0001
1000
0100
0010
0001
0010
0100
1000
0001
0100
0010
1000
0001
,
1000
0100
0010
0001
0000
0000
1000
0010
0100
0001
0000
0000
0100
0001
1000
0001
0000
0000
1000
0001
1000
0001
1000
0001
,
1000
0000
0001
0100
0000
0010
0100
0010
1000
0001
1000
0100
0010
0001
1000
0010
,
1010
0000
0000
0101
0000
0000
1100
0000
0000
0011
0000
0000
1001
0000
0000
0000
,
1100
0000
0000
0101
0000
0000
1010
0000
0000
0011
0000
0000
1001
0000
0100
0000
,
0110
0000
0000
0011
0000
0000
1010
0000
0000
0101
0000
0000
1100
0000
0000
0000
,
1001
0000
0000
0000
0000
0000
0110
0000
0000
0001
0000
1000
0010
0000
0100
0000
,
0101
0000
0000
0000
0011
0000
1001
0000
1010
0000
1000
0100
0110
0000
0000
0000
,
0011
0000
0000
0000
0000
0000
0000
0000
0000
0000
0000
0000
1100
0000
0000
0000
0000
0000
0101
0000
0000
0000
0000
0000
1100
0000
0000
0000
0000
0000
0001
0000
0000
0100
0000
0000
0110
0000
0000
0000
0000
0000
0010
0000
1000
0000
0001
0000
,
1000
0000
0000
0000
1100
0000
0110
0000
0011
0000
1001
0000
1000
0010
0100
0001
,
1000
0000
0000
0000
0000
0000
0000
0000
0000
0000
0000
0000
0200
0300
0000
0000
0000
0000
0000
0000
0000
0000
0000
0000
0000
0000
0000
0000
0000
0000
0000
0000
0000
0000
0000
0000
0200
0300
0000
0000
0000
0000
0000
0000
0000
0000
0000
0000
0001
0000
0000
0000
0000
0000
0000
0000
0000
0000
0000
0000
1000
0000
0000
0000
0000
0000
0000
0000
0000
0000
0000
0000
0010
0000
0000
0000
0000
0000
0000
0000
0000
0000
0000
0000
0100
0000
0000
0000
0000
0000
0000
0000
0000
0000
0000
0000
1000
0000
0000
0000
0000
0000
0000
0000
0000
0000
0000
0000
0100
0000
0000
0000
0000
0000
0000
0000
0000
0000
0000
0000
0010
0000
0000
0000
0000
0000
0000
0000
0000
0000
0000
0000
1000
0000
0000
0000
0000
0000
0000
0000
0000
0000
0000
0000
0001
0000
0000
0000
0000
0000
0000
0000
0000
0000
0000
0000
0010
0000
0000
0000
0000
0000
0000
0000
0000
0000
0000
0000
0100
0000
0000
0000
0000
0000
0000
0000
0000
0000
0000
0000
1000
0000
0000
0000
0000
0000
0000
0000
0000
0000
0000
0000
,
2002
0000
0000
0000
,
0000
0000
0000
0000
,
3003
0000
0000
0000
;

//--------------- dance-double - Fred-104 ----------------
#NOTES:
     dance-double:
     Fred-104:
     Easy:
     7:
     :
00000000
00000000
00000000
00000000
,
00000000
00000000
00000000
00000000
,
00000000
00000000
00000000
00000000
,
00000000
00000000
00000000
00000000
,
00000000
00000000
00000000
00000000
,
00010000
00000000
00000000
02000000
00000000
00000000
03000000
00000000
,
10000000
00000000
00000000
02000000
00000000
00000000
03000000
00000000
,
00010000
00000000
00000000
00100000
00000000
00000000
00010000
00000000
,
00100000
00001000
00010000
00011000
,
00010010
00000000
00000010
00000000
,
00001000
00000100
00000010
00000001
,
00001000
00000000
00000001
00000000
,
00000100
00000010
00001000
00000010
,
00000100
00000000
00000001
00000000
,
00000010
00001000
00010000
01000000
,
00100000
00000000
00010000
00000000
,
10000000
01000000
00100000
00110000
,
00010000
00000000
00100000
00000000
,
00001000
00010000
00000010
00001000
,
00000010
00000000
00001000
00000000
,
00000010
00010000
00001000
00100000
,
00002000
00000000
00023000
00000000
,
00230000
00000000
20300000
00000000
,
30020000
20030000
32000000
03200000
,
00301000
00010000
00001000
00011000
,
00010010
00000000
00001000
00010000
,
00001000
00000000
00100000
00010000
,
10000000
00000000
00010000
10000000
,
00100000
00000000
10000000
01000000
,
00100000
00000000
00001000
00010000
,
00001000
00000000
01000000
00001000
,
00010000
00000000
00000010
00001000
,
00000100
00010000
00001000
00010000
,
00001000
00001000
00010000
00000010
,
00001000
00000001
00000100
00000000
,
00000001
00000001
00000010
00000100
,
00010000
00001000
00010000
00000000
,
00011000
00000000
01100000
00000000
,
10010000
00000000
01100000
00000000
,
00011000
00000000
00000110
00000000
,
00000001
00001000
00000001
00001000
,
00002002
00000000
00000000
00000000
,
00000000
00000000
00000000
00000000
,
00000000
00000000
00003003
00000000
00000001
00000000
00000000
00000100
,
00000000
00000000
00000010
00000000
00001000
00000000
00000000
00000100
,
00000000
00000000
00010000
00000000
00001000
00000000
00000000
00010000
,
00000000
00000000
00000010
00000000
00010000
00000000
00000000
00001000
,
00000000
00000000
01000000
00000000
00001000
00000000
00000000
00100000
,
00000000
00000000
00010000
00000000
00000000
10000000
00000000
00000000
,
01000000
00100000
00010000
01000000
,
00001000
00000000
00010000
00000000
00022000
00000000
00000000
00033000
,
00010000
00000100
00010000
00001000
,
00020000
00000000
00030020
00000000
,
00010030
00001000
01000000
00001000
,
00020000
00000000
00032000
00000000
,
00103000
00010000
01000000
00010000
,
00200000
00000000
00302000
00023000
,
00030100
00001000
00000001
00000100
,
00000020
00000000
00000000
00000000
00000000
00000000
00000000
00000000
00000130
00000000
00000000
00000100
00000000
00000000
00000100
00000000
,
00000001
00000010
00001000
00010000
,
00002000
00000000
00003200
00000000
,
00000301
00000010
00001000
00010000
,
00002000
00000000
00023000
00000000
,
00130000
00100000
10000000
10000000
,
00010000
00010000
01000000
01000000
,
00100000
10000000
00100000
01000000
,
00010000
00100000
00001000
00010000
,
00011000
00000000
00000000
00010100
00000000
00000000
00000100
00000000
,
00001000
00000000
00000000
00001001
00000000
00000000
00000001
00000000
,
00000100
00000000
00000000
00000110
00000000
00000000
00010000
00000000
,
00001000
00000000
00000000
00011000
00000000
00000000
00001000
00000000
,
00100000
00000000
00010000
00000000
10000000
10000000
10000000
00000000
,
00010000
00000000
01000000
00000000
00001000
00001000
00001000
00000000
,
00010000
00000100
00001000
00000100
,
00010000
00000000
00001000
00000000
02000000
00000000
03200000
00300000
,
20020000
00000000
00000000
00000000
,
00000000
00000000
00000000
00000000
,
30030000
00000000
00000000
00000000
;

//--------------- dance-double - Fred-104 ----------------
#NOTES:
     dance-double:
     Fred-104:
     Medium:
     11:
     :
00000000
00000000
00000000
00000000
,
00000000
00000000
00000000
00000000
,
00000000
00000000
00000000
00000000
,
00000000
00000000
00000000
00000000
,
00000000
00000000
00000000
00000000
,
01000000
00000000
00000000
01010000
00000000
00000000
00001000
00000000
,
00010000
00000000
00000000
00001010
00000000
00000000
00000010
00000000
,
00001000
00000000
00000000
00000001
00000000
00000000
00000100
00000000
00000000
00000001
00000000
00000000
00001000
00000000
00000000
00000010
,
00000100
00000001
00001000
00000000
00000100
00010000
00011000
00000000
,
00001000
00000000
00010000
00001000
00100000
00000000
00010000
10000000
,
00100000
00000000
10000000
01000000
00010000
00000000
01000000
00000000
,
10000000
00100000
00010000
00000000
00100000
00000000
01000000
00010000
,
10000000
00000000
01000000
00000000
00100000
00001000
00010000
00000000
,
00001000
00000010
00000100
00000000
00000001
00000000
00001000
00000100
,
00000010
00000000
00000001
00000000
00000010
00000100
00010000
00000000
,
00001000
00000010
00001000
00000000
00010000
00001000
00010000
00000000
,
00001000
00000000
00000000
00010000
00000000
00000000
00000010
00000000
00001000
00000000
00000010
00000000
00000110
00000000
00000000
00000000
,
00000001
00001000
00000001
00001000
00000100
00000010
00000100
00000000
,
00000010
00000001
00001000
00000100
00010000
00001000
00100000
00000000
,
00010000
10000000
00100000
01000000
00010000
10000000
01000000
00000000
,
00100000
00000000
00010000
00000000
10000000
00000000
00100000
00000000
01000000
00000000
00000000
01100000
00000000
00000000
00100000
00000000
,
10000000
01000000
00100000
00001000
00010000
00100000
20000000
00000000
,
30010000
01000000
10000000
01000000
00010000
00100000
00002000
00000000
,
00013000
00001000
00010000
00000100
00001000
00000100
00000001
00000100
,
00001000
00000100
00010000
00000000
00001000
00010000
00022000
00033000
,
00012000
00000000
00023000
00000000
00230000
00000000
10300000
00010000
,
20000000
00000000
32000000
00000000
03020000
00000000
00031000
00010000
,
00002000
00000000
00003020
00000000
00000032
00000000
00000103
00001000
,
00020000
00000000
00230000
00000000
20300000
00000000
31000000
00010000
,
00002000
00000000
00003020
00000000
00000032
00000000
00000103
00001000
,
00020000
00000000
00230000
00000000
20300000
00000000
30010000
10000000
,
00020000
00000000
20030000
00000000
32000000
00000000
03010000
00001000
,
00000010
00000100
00001000
00000001
00000100
00000010
00000110
00000000
,
00010000
00001000
00000010
00001000
00010000
00001000
00010000
00000000
,
00001000
00010000
00100000
00010000
00001000
00010000
00001000
00000000
,
00010000
00001000
00010000
00100000
00010000
00001000
00010000
00000000
,
00001000
00010000
01000000
00010000
00001000
00000100
00001000
00010000
,
00012000
01003000
00021000
00030010
,
00012000
00103000
00021000
00030100
,
00012000
00003010
00021000
01030000
,
00001000
00000000
00000000
00010000
00001000
00000000
00100000
00000000
00010000
00000000
10000000
00000000
01000000
00000000
00000000
00000000
,
20020000
00000000
00000000
00000000
,
00000000
00000000
00000000
00000000
,
00000000
00000000
00000000
00000000
30030000
00000000
00000000
00000000
11000000
00000000
00000000
01100000
00000000
00000000
00220000
00000000
,
00000000
00000000
00000000
00000000
00330000
00000000
00000000
00000000
00101000
00000000
00000000
00010010
00000000
00000000
00002020
00000000
,
00000000
00000000
00000000
00000000
00003030
00000000
00000000
00000000
00000101
00000000
00000000
00001010
00000000
00000000
00000220
00000000
,
00000000
00000000
00000000
00000000
00000330
00000000
00000000
00000000
00010010
00000000
00000000
00011000
00000000
00000000
02002000
00000000
,
00000000
00000000
00000000
00000000
03003000
00000000
00000000
00000000
00010000
00000000
00000000
01000000
00000000
00000000
00001000
00000000
,
00000000
00010000
00000000
00000000
00000010
00000000
00000000
00001000
00000000
00000000
00000010
00000000
00000000
00010000
00000000
00000000
,
00001000
00000000
00000000
00100000
00000000
00000000
00001000
00000000
00010000
00000000
00001000
00000000
00100000
00000000
00000000
00000000
,
00001000
00010000
00000010
00000000
00022000
00000000
00000000
00033000
,
00001000
00010000
01000000
00000000
10000000
00010000
10000000
00000000
,
00010000
01000000
00100000
00000000
10000000
01000000
00010000
00000000
,
01000000
10000000
00100000
00000000
01000000
00001000
00010000
00000000
,
00001000
00010000
00001000
00000100
00000010
00001000
00000001
00000000
,
00001000
00000010
00000001
00000000
00000010
00000100
00000001
00000000
,
00001000
00000010
00010000
00000000
00001000
00100000
00010000
00000000
,
10000000
01000000
00100000
00000000
00010000
00100000
01000000
00000000
,
10000000
00000000
01000000
00000000
00010000
00000000
00001000
00000000
00010000
00000000
00000000
00001000
00000000
00000000
00010000
00000000
,
00001000
00000100
00000001
00001000
00000100
00000010
00000001
00000000
,
00000100
00001000
00010000
00100000
01000000
00010000
10000000
00000000
,
01000000
00010000
00001000
00010000
00100000
00010000
00001000
00000000
,
00010000
00001000
00010000
00000100
00020000
00032000
00023000
00032000
,
00013000
00001000
00100000
00010000
10000000
00100000
01000000
00010000
,
00100000
01000000
00010000
00001000
00000010
00000100
00001000
00000001
,
00000100
00000010
00001000
00000000
00000100
00010000
00001000
00000000
00100000
00010000
10000000
00010000
10000000
00000000
00000000
00000000
,
00010000
00000000
00000000
01010000
00000000
00000000
01000000
00000000
00100000
00000000
10000000
00000000
00010000
00000000
00000000
00000000
,
01100000
00000000
00000000
00100000
00000000
00000000
00101000
00000000
00000000
00001000
00000000
00000000
00010000
00000000
00000000
00000000
,
00011000
00000000
00000000
00000010
00000000
00000000
00011000
00000000
00000000
00000010
00000000
00000000
00010000
00000000
00001000
00000000
,
00011000
00000000
00000000
00100000
00000000
00000000
00011000
00000000
00000000
00100000
00000000
00000000
00001000
00000000
00010000
00000000
,
00011000
00000000
00000000
00000000
00000000
00000000
00010010
00000000
00000000
00000010
00000000
00000000
00001000
00000000
00000001
00000000
,
00000100
00000000
00001001
00000000
00001000
00000100
00000010
00000000
,
00000110
00000000
00000001
00000100
00001000
00000000
00011000
00000000
,
01100000
00000000
00010000
10000000
01000000
00010000
00001000
00010000
,
00100000
00000000
10000000
00000000
01000000
00010000
00002000
00003000
,
00022000
00000000
00000000
00000000
,
00000000
00000000
00000000
00000000
,
00033000
00000000
00000000
00000000
;

//--------------- dance-double - Fred-104 ----------------
#NOTES:
     dance-double:
     Fred-104:
     Hard:
     16:
     :
00000000
00000000
00000000
00000000
,
00000000
00000000
00000000
00000000
,
00000000
00000000
00000000
00000000
,
00000000
00000000
00000000
00000000
,
00000000
00000000
00000000
00000000
,
00101000
00000000
00000000
00010010
00000000
00000000
00001000
00000000
,
00010100
00000000
00000000
01001000
00000000
00000000
00010000
00000000
,
00011000
00000000
00000000
00001000
00000000
00000000
00110000
00000000
00000000
00100000
00000000
00000000
00010000
00000000
00000000
01000000
,
00100000
10000000
01000000
00010000
00001000
00000010
00001001
00000000
,
00000110
00000000
00000000
00000000
00000001
00000000
00000100
00000010
00000100
00000000
00000001
00000000
00000010
00000000
00000100
00000000
,
00010000
00001000
00010000
00000000
00001000
00000000
00100000
00010000
00100000
00000000
01000000
00000000
10000000
00100000
10000000
00000000
,
00010000
01000000
00010000
00000000
10000000
00000000
01000000
00100000
01000000
00000000
00100000
00000000
00001000
00010000
00001000
00000000
,
00010000
00000100
00001000
00000100
00000010
00000000
00000001
00000000
00001000
00000000
00000001
00000000
00000100
00000000
00000010
00000000
,
00001000
00000100
00000010
00000000
00000001
00000000
00001000
00000100
00000010
00000000
00000001
00000000
00000100
00000000
00000010
00000000
,
00001000
00000100
00010000
00000000
00001000
00000000
00100000
00010000
01000000
00000000
00100000
00000000
10000000
00000000
00010000
00000000
,
10000000
01000000
00100000
00000000
00010000
00000000
10000000
01000000
00100000
00000000
00010000
00000000
10000000
00010000
01000000
00010000
,
10000000
00000000
00010000
01000000
00000000
00100000
01000000
00000000
00010000
00000000
00100000
00000000
00101000
00000000
00000000
00000000
,
00001000
00000000
00010000
00000000
00001000
00000000
00000100
00000010
00001000
00000000
00000010
00000000
00000100
00000000
00000001
00000010
,
00000100
00000000
00010000
00000000
00001000
00000000
00010000
00001000
01000000
00000000
00010000
00000000
00100000
00000000
01000000
10000000
,
00010000
00000000
01000000
00000000
10000000
00000000
01000000
00100000
10000000
00000000
01000000
00000000
00100000
00000000
00001000
00010000
,
00001000
00000000
00010000
00000000
00000010
00000000
00001000
00000010
00000100
00000001
00001000
00000100
00000000
00000100
00000010
00000000
,
00000001
00000000
00000100
00001000
00000100
00000000
00000001
00000010
00000001
00000000
00000010
00000100
00010000
00000000
00001000
00000000
,
00010000
00000000
00000010
00001000
00000010
00000000
00010000
00001000
00010000
00000000
00001000
00100000
00010000
00000000
10000000
00000000
,
00010000
01000000
00010000
00000000
10000000
01000000
10000000
00000000
00010000
00100000
00010000
00100000
01000000
10000000
01000000
10000000
,
01000000
10000000
00010000
01000000
00010000
00100000
00220000
00330000
,
00101000
00001000
00010000
00000010
00000100
00000001
00001000
00000010
,
00000100
00000000
00001000
00000000
00010000
00000000
00100000
00000000
01000000
00000000
00010000
10000000
00010000
00000000
00100000
00000000
,
00010000
10000000
00100000
01000000
00100000
10000000
01000000
00010000
,
00001000
00000000
00010000
00000000
00100000
00000000
00010000
00000000
00001000
00000000
00000010
00000001
00001000
00000000
00000010
00000000
,
00000100
00000001
00001000
00000100
00000010
00000001
00000010
00000100
,
00000010
00000000
00001000
00000000
00010000
00000000
01000000
00000000
00100000
00000000
00010000
10000000
00100000
00000000
01000000
00000000
,
00010000
10000000
01000000
00100000
00010000
10000000
01000000
00010000
,
00001000
00000000
00010000
00000100
00001000
00000100
00000010
00000000
00000001
00000010
00000100
00001000
00000002
00000000
00001003
00000001
,
00000010
00000000
00000010
00000100
00000010
00000000
00000001
00000100
00000001
00000000
00000010
00000100
00001000
00000000
00000100
00000000
,
00010000
00000000
00000010
00001000
00000010
00000000
00010000
00001000
00010000
00000000
00001000
01000000
00001000
00000000
00100000
00000000
,
00010000
00000000
01000000
00100000
10000000
00000000
00010000
00100000
01000000
00000000
10000000
00010000
00100000
00000000
00010000
00000000
,
01000000
00000000
00010000
00100000
00001000
00000000
00010000
00000100
00001000
00000000
00000001
00000100
00000010
00000000
00001000
00000000
,
00001001
00000010
00011000
01000000
,
10010000
00100000
00011000
00000100
,
00001001
00001000
00000100
00000000
00001001
00000001
00000100
00000000
,
00000001
00000000
00000000
00000010
00000100
00000000
00010000
00000000
00001000
00000000
00100000
00010000
10000000
00000000
00100000
00000000
,
02200000
00000000
00000000
00000000
,
00000000
00000000
00000000
00000000
,
00000000
00000000
00000000
00000000
03300000
00000000
00000000
00000000
01001000
00000000
00000000
00011000
00000000
00000000
00101000
00000000
,
00001000
00010000
00000100
00001000
00000001
00000100
00000010
00000000
00001010
00000000
00000000
00000101
00000000
00000000
00001100
00000000
,
00001000
00000100
00000010
00000001
00000100
00000010
00000100
00000000
00000110
00000000
00000000
00001010
00000000
00000000
00001100
00000000
,
00000100
00010000
00001000
00100000
00010000
10000000
00010000
00000000
10010000
00000000
00000000
01100000
00000000
00000000
10010000
00000000
,
00010000
00100000
01000000
10000000
00100000
01000000
00010000
00000000
10010000
00000000
00000000
11000000
00000000
00000000
01010000
00000000
,
00000000
00011000
00000000
00000000
00001010
00000000
00000000
00000011
00000000
00000000
00000101
00000000
00000000
00001100
00000000
00000000
,
00011000
00000000
00000000
00110000
00000000
00000000
10100000
00000000
10000000
00000000
00010000
00000000
01000000
00000000
00100000
00000000
,
10000000
00000000
00000000
00000000
01000000
00000000
00000000
00000000
00100000
00000000
00000000
00000000
00010000
00000000
00000000
00000000
10000000
01000000
10000000
01000000
00100000
00010000
00100000
00010000
10000000
01000000
00100000
00010000
01000000
00000000
00000000
00000000
,
02010000
03010000
10000000
01000000
02100000
03100000
00001000
00010000
,
00010020
00001030
00010000
00000100
00002100
00003001
00000100
00000010
,
00002010
00003100
00000001
00000010
00000012
00000103
00001000
00000010
,
00002001
00000000
00003001
00000000
00000100
00000000
00001000
00000000
00010000
00000000
00001000
00010000
00001000
00000000
00100000
00000000
,
00120000
00130000
01000000
10000000
10020000
01030000
00100000
10000000
,
01200000
10300000
01000000
00010000
00021000
00031000
00000010
00000001
,
00002001
00003100
00001000
00000010
00000210
00000301
00001000
00000100
,
00000120
00000000
00000031
00000000
00000100
00000000
00001000
00000000
00011000
00000000
00000000
00101000
00000000
00000000
00110000
00000000
,
00010000
01000000
00010000
01000000
00010000
00000000
10000000
00000000
01000000
10000000
01000000
10000000
01000000
00000000
00100000
00000000
,
00001000
00010000
00001000
00010000
00001000
00000000
00010000
00000000
00000100
00001000
00000001
00000100
00000010
00001000
00000001
00000000
,
00001000
00000100
00001000
00000100
00000010
00000000
00000001
00000000
00001000
00000001
00001000
00000001
00000010
00000000
00000100
00000000
,
00001000
00000010
00000100
00000001
00001000
00000100
00000010
00000000
00000002
00000000
00000023
00000000
00002030
00000000
00003200
00000000
,
00000301
00000100
00000001
00000000
00000100
00000010
00000100
00000000
00000010
00001000
00000010
00000000
00001000
00000100
00001000
00000000
,
00000100
00010000
00000100
00010000
00001000
00010000
00001000
00000000
00100000
00010000
00100000
00010000
10000000
00010000
01000000
00000000
,
00010000
01000000
00010000
01000000
00100000
10000000
00100000
10000000
01000000
00100000
01000000
00100000
00001000
00010000
00001000
00010000
,
00001000
00000000
00010000
00000010
00000000
00001000
00000010
00000000
00000100
00000001
00000010
00000001
00001000
00000000
00000000
00000000
,
00001100
00000000
00000000
00000010
00000000
00000000
00000101
00000000
00000000
00000010
00000000
00000000
00011000
00000000
00000000
00000000
,
00010100
00000000
00000000
00001000
00000000
00000000
01001000
00000000
00000000
00010000
00000000
00000000
00001000
00000000
00100000
00000000
,
00110000
00000000
00000000
01000000
00000000
00000000
10100000
00000000
00000000
01000000
00000000
00000000
10010000
00000000
00000000
00000000
,
11000000
00000000
00000000
00000000
00000000
00000000
00110000
00000000
00000000
00001000
00000000
00010000
00000010
00000000
00001000
00000000
,
00001100
00000000
00000000
00000000
00000100
00000000
00000010
00000000
00000001
00000000
00000100
00001000
00000100
00000000
00000000
00000000
,
00000101
00000000
00000000
00000000
00000000
00000000
00000000
00000000
00000000
00000000
00000000
00000000
00000001
00000000
00000000
00000000
00000000
00000000
00000010
00000000
00000000
00000000
00000000
00000000
00001000
00000000
00000000
00000000
00000000
00000000
00010000
00000000
00000000
00001000
00000000
00000000
00010000
00000000
00000000
00000000
00000000
00000000
00001000
00000000
00010000
00000000
00001000
00000000
,
00010000
00000000
00000000
00000000
00011000
00000000
00001000
00000000
00100000
00000000
00010000
00000000
10000000
00100000
01000000
00000000
,
00010000
01000000
00000000
00001000
00010000
00000000
00001000
00000000
00010000
00001000
00010000
00001000
00020000
00000000
00031000
00000000
,
00022000
00000000
00000000
00000000
,
00000000
00000000
00000000
00000000
,
00033000
00000000
00000000
00000000
;

//--------------- dance-double - Fred-104† ----------------
#NOTES:
     dance-double:
     Fred-104†:
     Challenge:
     18:
     :
00000000
00000000
00000000
00000000
,
00000000
00000000
00000000
00000000
,
00000000
00000000
00000000
00000000
,
00000000
00000000
00000000
00000000
,
00000000
00000000
00000000
00000000
,
00001001
00000000
00000000
00011000
00000000
00000000
00010000
00000000
,
10010000
00000000
00000000
00011000
00000000
00000000
00001000
00000000
,
00001001
00000000
00000000
00001000
00000000
00000000
00000101
00000000
00000000
00000001
00000000
00000000
00000100
00000000
00000000
00000010
,
00001000
00000000
00000000
00000000
00000000
00000000
00000100
00000000
00000000
00000000
00000000
00000000
00010000
00000000
00000000
00001000
00000000
00000000
00010000
00000000
00000000
00000000
00000000
00000000
00001000
00000000
00000000
00000000
00000000
00000000
00100000
00000000
00000000
00010000
00000000
00000000
10000000
00000000
00000000
00000000
00000000
00000000
00010000
00000000
01000000
00000000
00100000
00000000
,
10000000
00000000
00010000
01000000
00010000
00000000
10000000
01000000
00100000
00000000
00010000
10000000
00010000
00000000
10000000
01000000
,
10000000
00000000
01000000
00100000
01000000
00000000
00100000
00001000
00100000
00000000
00001000
00010000
00001000
00010000
00000100
00000000
,
00001000
00000001
00000100
00000010
00001000
00000000
00000001
00000010
00000100
00000010
00000001
00001000
00000001
00000010
00000100
00000000
,
00001000
00000100
00010000
00001000
00100000
00010000
10000000
00010000
01000000
00000000
00010000
10000000
01000000
00000000
00100000
00000000
,
00010000
10000000
01000000
10000000
00010000
10000000
00100000
10000000
01000000
00100000
00010000
00100000
00001000
00010000
00000100
00001000
,
00000100
00000010
00000100
00000010
00000100
00001000
00000001
00000100
00000001
00000010
00000100
00001000
00000001
00001000
00000010
00000100
,
00000001
00000010
00000100
00001000
00000010
00000100
00000010
00001000
00000100
00010000
00001000
00100000
00010000
10000000
00010000
01000000
,
00100000
00000000
10000000
00100000
00000000
00010000
00100000
01000000
00010000
10000000
00010000
00000000
10000000
00000000
01000000
00100000
,
00001000
00000000
00010000
00000010
00001000
00000000
00000100
00000000
00001000
00000000
00000001
00000010
00001000
00000010
00000001
00000000
,
00001000
00000000
00000000
00000000
00000000
00000000
00000001
00000000
00000000
00000010
00000000
00000000
00000100
00000000
00000000
00000000
00000000
00000000
00010000
00000000
00000000
00001000
00000000
00000000
00100000
00000000
00000000
00000000
00000000
00000000
00001000
00000000
00000000
00100000
00000000
00000000
00010000
00000000
00000000
00000000
00000000
00000000
01000000
00000000
00100000
00000000
10000000
00000000
,
00100000
00000000
10000000
01000000
00010000
00000000
01000000
00000000
10000000
00000000
00100000
01000000
00010000
00000000
00100000
00000000
,
00201000
00000000
00301000
00000000
00010020
00000000
00010030
00000000
00001000
00010000
00000010
00001000
00000010
00010000
00001000
00000000
,
00100000
00010000
10000000
00010000
01000000
00010000
10000000
00010000
01000000
00100000
10000000
01000000
00100000
00010000
00100000
00001000
,
00010000
00000100
00001000
00000100
00001000
00000100
00000010
00000001
00001000
00000001
00000100
00000010
00001000
00000001
00000010
00000001
,
00001000
00000010
00001000
00000100
00010000
00001000
00100000
00010000
00100000
00001000
00010000
00001000
00100000
00010000
10000000
01000000
,
00010000
00000000
01000000
00000000
00100000
00010000
00100000
00010000
10000000
00000000
01000000
00100000
00002000
00000000
00000000
00000000
,
00013000
00000000
00000100
00001000
00000001
00000000
00001000
00000000
00000001
00000000
00000100
00001000
00000100
00000000
00000001
00000000
,
00001000
00000000
00000001
00001000
00000010
00000000
00010000
00000000
00001000
00000000
00100000
00001000
00010000
00000000
00000010
00000000
,
00001000
00000000
00000100
00010000
00001000
00000000
00100000
00000000
00010000
00000000
00100000
01000000
00010000
00000000
01000000
00000000
,
00100000
00000000
00010000
01000000
10000000
00000000
01000000
00000000
00100000
00000000
10000000
01000000
00100000
00000000
00010000
00000000
,
01000000
00000000
00001000
00010000
00001000
00000000
00000010
00000000
00000100
00000000
00010000
00001000
00010000
00000000
00100000
00000000
,
01000000
00000000
00001000
00010000
00001000
00000000
00000010
00000000
00000100
00000000
00010000
00001000
00010000
00000000
00100000
00000000
,
01000000
00000000
00001000
00010000
00001000
00000000
00000100
00000000
00000010
00000000
00010000
00001000
00010000
00000000
00100000
00000000
,
01000000
00000000
00010000
10000000
00100000
01000000
00010000
10000000
01000000
00100000
00001000
00010000
00002000
00023000
00032000
00023000
,
00030010
00000000
00001000
00000001
00000100
00000000
00000110
00000000
00000100
00000000
00000001
00000010
00000100
00000000
00001100
00000000
,
00001000
00000000
00000100
00010000
00001000
00000000
01001000
00000000
01000000
00000000
00010000
00100000
01000000
00000000
11000000
00000000
,
10010000
00000000
10000000
01000000
00010000
00000000
00001000
00000000
00011000
00000000
00010000
00001000
00000010
00000000
00000001
00000000
,
00001001
00000000
00000001
00000100
00001000
00000000
00010000
00000000
00011000
00000000
00001000
00010000
00100000
00000000
10000000
00000000
,
20010000
00000000
31000000
00000000
00100000
00000000
00002000
00003000
00021000
00000000
00030010
00000000
00001000
00000000
00000200
00000300
,
00000120
00000000
00000031
00000000
00001000
00000000
00000200
00000300
00000120
00000000
00000031
00000000
00001000
00000000
00000002
00000003
,
00000012
00000000
00000103
00000000
00000010
00000000
00002000
00003000
00002100
00000000
00003100
00000000
00010000
00000000
00002000
00000000
,
00013000
00001000
00000000
00100000
00010000
00000000
10000000
00000000
00100000
01000000
00100000
00010000
00001000
00000000
00010000
00000000
,
00022000
00000000
00000000
00000000
,
00000000
00000000
00000000
00000000
,
00000000
00000000
00000000
00000000
00033000
00000000
00000000
00000000
00011000
00000000
00001000
00100000
00000000
00010000
10000000
00000000
,
00010000
00000000
00100000
00000000
01000000
00000000
10000000
00000000
00000000
00010000
00000000
00000000
01000000
00000000
00000000
00010000
00000000
00000000
10000000
00000000
00000000
01000000
00000000
00000000
01100000
00000000
00000000
00000000
00000000
00000000
00100000
00000000
00000000
00001000
00000000
00000000
00000000
00000000
00000000
00010000
00000000
00000000
00000010
00000000
00000000
00000000
00000000
00000000
,
00001000
00000000
00000010
00000000
00000100
00000000
00000010
00000000
00000000
00001000
00000000
00000000
00000001
00000000
00000000
00000010
00000000
00000000
00000001
00000000
00000000
00001000
00000000
00000000
00001001
00000000
00000000
00000000
00000000
00000000
00000001
00000000
00000000
00000010
00000000
00000000
00000000
00000000
00000000
00000100
00000000
00000000
00000010
00000000
00000000
00000000
00000000
00000000
,
00000001
00000000
00000010
00000000
00000001
00000000
00001000
00000000
00000000
00000010
00000000
00000000
00010000
00000000
00000000
00001000
00000000
00000000
00010000
00000000
00000000
00001000
00000000
00000000
00011000
00000000
00000000
00000000
00000000
00000000
00001000
00000000
00000000
00100000
00000000
00000000
00000000
00000000
00000000
00010000
00000000
00000000
10000000
00000000
00000000
00000000
00000000
00000000
,
00010000
00100000
01000000
10000000
00010000
01000000
00100000
10000000
10010000
00000000
10000000
01000000
00000000
00010000
00001000
00000000
,
00000010
00000001
00000000
00001000
00000001
00000000
00000100
00000010
00000000
00000100
00001000
00000000
00010000
00100000
00000000
01000000
,
00010000
00000000
00000000
00000000
00000000
00000000
10000000
00000000
00000000
01000000
00000000
00000000
00000000
00000000
00000000
00100000
00000000
00000000
00010000
00000000
10000000
00000000
00010000
00000000
10000000
00000000
00000000
00000000
00000000
00000000
10000000
00000000
00000000
01000000
00000000
00000000
00010000
00000000
00000000
00000000
00000000
00000000
00001000
00000000
00000000
00000010
00000000
00000000
,
00000001
00000000
00000000
00000000
00001000
00000000
00000000
00000000
00000010
00000000
00000000
00000000
00000100
00000000
00000000
00000000
00000010
00001000
00000010
00001000
00000001
00001000
00000001
00001000
00000100
00000010
00000001
00001000
00000002
00000000
00000000
00000000
,
00001003
00000001
00000010
00000001
00001000
00000010
00010000
00001000
00100000
00010000
10000000
00100000
01000000
00010000
01000000
00010000
,
10000000
01000000
00100000
01000000
10000000
00010000
01000000
00001000
00010000
00000100
00001000
00000100
00000010
00000001
00000010
00000001
,
00001000
00000001
00000010
00000100
00000010
00000001
00001000
00000010
00001000
00000001
00000010
00000001
00001000
00000100
00001000
00000100
,
00010000
00001000
01000000
00001000
00010000
00001000
00100000
00010000
10000000
00010000
01000000
00100000
02000000
00000000
03020000
00000000
,
10030000
00010000
01000000
00010000
10000000
01000000
00100000
00010000
10000000
00010000
01000000
00001000
00010000
00001000
00010000
00001000
,
00000010
00000100
00001000
00000001
00000100
00000010
00001000
00000010
00000100
00000001
00001000
00000100
00010000
00001000
00010000
00001000
,
00100000
00001000
00010000
00001000
01000000
00010000
10000000
00010000
00100000
01000000
10000000
01000000
00100000
00010000
00100000
00010000
,
10000000
00100000
01000000
00010000
01000000
00001000
00010000
00000010
00001000
00000000
00000000
00001010
00000000
00000000
00001001
00000000
,
00000001
00000010
00000100
00001000
00000100
00000010
00000001
00001000
00000010
00010000
00001000
00010000
00000100
00001000
00000100
00010000
,
00001000
00100000
00010000
10000000
00100000
01000000
00001000
00010000
00001000
00000010
00000100
00001000
00000100
00010000
00001000
01000000
,
00010000
01000000
00001000
00010000
00001000
00000010
00000100
00001000
00000100
00000010
00000100
00001000
00000001
00001000
00000010
00001000
,
00000010
00010000
00001000
00100000
00010000
00100000
01000000
10000000
00020000
00000000
02030000
00000000
23000000
00000000
30200000
00000000
,
00310000
01000000
00100000
10000000
00010000
00100000
01000000
10000000
00010000
01000000
00100000
10000000
00010000
01000000
00010000
00100000
,
00001000
00010000
00000010
00001000
00000001
00000100
00000010
00001000
00000010
00000100
00000001
00001000
00000001
00000010
00000100
00001000
,
00000001
00000100
00000010
00001000
00000000
00000000
00000010
00010000
00001000
00010000
00000000
00000000
00001000
00100000
00010000
10000000
00000000
00000000
00100000
01000000
00100000
01000000
00100000
01000000
,
00100000
00000000
10000000
00100000
00000000
01000000
00010000
10000000
01000000
00100000
00010000
00100000
00001000
00010000
00001000
00000010
,
00000110
00000000
00000000
00001100
00000000
00000000
00000101
00000000
00000000
00001010
00000000
00000000
00000011
00000000
00000001
00000000
,
00001001
00000000
00000000
00001010
00000000
00000000
00010010
00000000
00000000
00101000
00000000
00000000
00011000
00000000
00001000
00000000
,
01001000
00000000
00000000
00010010
00000000
00000000
00101000
00000000
00000000
00010100
00000000
00000000
00011000
00000000
00100000
00000000
,
01100000
00000000
00000000
00000000
00000000
00000000
11000000
00000000
00000000
00010000
00000000
10000000
00100000
00000000
01000000
00000000
,
01100000
00000000
00000000
00000000
00011000
00000000
00000100
00000000
00001100
00000000
00000100
00000010
00000011
00000000
00000000
00000000
,
00000011
00000000
00000000
00000000
00000000
00000000
00000000
00000000
00000000
00000000
00000000
00000000
00001100
00000000
00000000
00000000
00000000
00000000
00010000
00000000
00000000
00000000
00000000
00000000
00001000
00000000
00000000
00000000
00000000
00000000
00100000
00000000
00000000
00010000
00000000
00000000
10010000
00000000
00000000
00000000
00000000
00000000
00010000
00000000
01000000
00000000
00010000
00000000
,
01000000
00000000
00000000
00000000
01100000
00000000
10100000
00000000
01100000
00000000
10010000
00000000
00010000
00100000
01000000
10000000
,
00010000
01000000
00000000
00001000
00010000
00000100
00001000
00000001
00000100
00000010
00000001
00000010
00000100
00000001
00000100
00000000
,
00000220
00000000
00000000
00000000
,
00000000
00000000
00000000
00000000
,
00000330
00000000
00000000
00000000
;
