#TITLE:Miseria;
#ARTIST:MAX MAXIMIZER;
#BANNER:Miseria.png;
#BACKGROUND:Miseria-bg.png;
#CDTITLE:./CDTitles/RB groovin'!! Upper.png;
#MUSIC:Miseria.ogg;
#SAMPLESTART:66.514;
#SAMPLELENGTH:15;
#DISPLAYBPM:46:184;
#BPMS:0=184,35=368,36=184,228=92,230=184,258=92,260=184,293=172.5,293.25=161,293.5=149.5,293.75=138,294=126.5,294.1875=120.75,294.375=115,294.5625=109.25,294.75=103.5,294.9375=97.75,295.125=92,295.25=80.5,295.375=69,295.5=63.25,295.625=57.5,295.8125=46,296=184;
#STOPS:35=0.163,49.5=0.326,112.5=0.326,127.5=0.326,159.5=0.326,295.979167=0.444;
#TIMESIGNATURES:0=4=4,48=3=4,51=4=4,111=3=4,114=4=4,126=3=4,129=4=4,157=3=4,160=4=4,228=2=4,230=4=4,258=2=4,260=4=4;
#BGSTAGE:27;

//--------------- dance-single - Fred-104 ----------------
#NOTES:
     dance-single:
     Fred-104:
     Beginner:
     5:
     :
0000
0000
0000
0000
,
0000
0000
0000
0000
,
0000
0000
0000
0000
,
0000
0000
0000
0000
,
0000
0000
0000
0000
,
0000
0000
0000
0000
,
0000
0000
0000
0000
,
0000
0000
0000
0000
,
0000
0000
0000
0000
,
1000
0000
0000
1000
0000
0000
0000
0000
,
0001
0000
0000
0001
0000
0000
0000
0000
,
0100
0000
0000
0100
0000
0000
0000
0000
,
0010
0000
0000
0010
0000
0000
1000
0000
,
0000
1000
1000
1000
,
0000
0001
0001
0010
,
0000
0100
0100
0220
,
0000
0000
0330
1000
,
0000
0010
0000
1000
,
1000
0010
0000
0100
,
0000
0010
0000
0100
,
0100
0010
0000
0100
,
0000
0001
0000
0010
,
0010
0001
0000
1000
,
0000
0001
0000
1000
,
1000
1000
1000
1000
,
0000
0001
0000
0100
,
0100
0001
0000
0010
,
0000
0001
0000
1000
,
0000
1001
0000
0000
0001
0000
0000
0000
,
0100
0000
0100
0010
,
0010
0000
1000
0000
,
0100
0000
0000
0000
1000
0000
0000
1001
,
0000
1000
0000
0100
,
0000
0100
0100
0010
,
0000
0001
0000
1000
,
0000
0010
0010
1000
,
0000
0001
0000
1000
,
0000
0100
0001
0100
,
0000
1000
0000
1000
,
0000
0001
0000
1001
,
1000
0000
0010
0000
,
1000
1000
0010
0000
,
0001
0000
0010
0000
,
0001
0001
0010
0000
,
1000
0000
1000
0000
,
0100
0001
0100
0000
,
1000
0000
1000
0000
,
0001
0001
1000
1000
,
0001
0000
0000
0001
0000
0000
1000
0000
,
0000
1000
0000
0000
0002
0000
0003
0000
,
2000
0000
0000
3000
,
0020
0000
0000
0030
,
0200
0000
0000
0300
,
0002
0000
0000
0003
,
2000
0000
0000
3000
,
0200
0000
0000
0300
,
0020
0000
0000
0030
,
0001
1000
0002
0000
,
0000
0003
0020
0000
,
0000
0030
0200
0000
,
0000
0300
2000
0000
,
0000
3000
0020
0000
,
0000
0030
0200
0000
,
0000
0300
0002
0000
,
0000
0003
1000
0001
,
1000
1000
1000
0000
,
0100
0010
0001
0000
,
0100
0010
0100
0000
,
0001
0100
0010
0000
,
1000
0100
0010
0000
,
0001
1000
0010
0000
,
1000
0001
0010
0000
,
0001
0001
1000
1000
,
2002
0000
0000
0000
,
3003
0000
0000
0000
;

//--------------- dance-single - Fred-104 ----------------
#NOTES:
     dance-single:
     Fred-104:
     Easy:
     10:
     :
0000
0000
0000
0000
,
0000
0000
0000
0000
,
0000
0000
0000
0000
,
0000
0000
0000
0000
,
0000
0000
0000
0000
,
0000
0000
0000
0000
,
0000
0000
0000
0000
,
0000
0000
0000
0000
,
0000
0000
0000
0000
,
1000
0100
1000
0100
0000
0010
0000
0000
,
0001
0100
0001
0100
0000
0010
0000
0000
,
1000
0010
1000
0010
0000
0100
0000
0000
,
0001
0010
0001
0010
0000
0000
0001
0010
,
0001
0100
0000
0010
0000
0000
1000
0100
,
1000
0010
0000
0100
0000
0000
0001
1000
,
0001
0100
0000
0010
0000
0000
0200
0000
,
0300
0200
0000
0300
0200
0000
0301
0000
,
0011
0010
0001
1000
,
1010
0010
0100
0100
,
0110
0001
1000
0001
,
1001
2002
3003
1000
,
1000
0100
1000
0010
,
0010
1000
0100
0001
,
0100
0000
1000
0000
0001
0000
1000
0010
,
0100
0000
0001
1000
0001
0000
0100
0000
,
0001
0000
0001
0000
0100
0010
1000
0000
,
0010
0000
1000
0000
0100
0010
0001
0000
,
1000
0000
0010
0000
0100
0010
0100
0000
,
0001
1000
0000
0000
1000
0010
1000
0010
,
0000
0000
1000
0000
0001
0010
0001
0010
,
0000
0000
0100
0000
1000
0100
1000
0100
,
0000
0000
1000
0000
0001
0000
0000
1001
,
0000
0000
1000
0000
0000
0100
0000
0000
,
1000
0000
0010
1000
0010
0000
0100
0001
,
0100
0000
0001
0000
0000
0100
0000
0000
,
0010
0000
1000
0010
1000
0000
0001
0010
,
0001
0000
1000
0000
0000
0001
0000
0000
,
0010
0000
0100
0010
0100
0000
1000
0001
,
1000
0001
0100
0100
,
0010
0000
1000
0000
0001
1000
0000
1001
,
0002
0000
0003
2000
0000
3000
0002
0000
,
0103
0010
0100
0000
0001
0100
0010
0000
,
2000
0000
3000
0200
0000
0300
0020
0000
,
0031
1000
0010
0000
0100
0010
1000
0000
,
0002
0000
0003
0200
0000
0300
0020
0000
,
1030
0010
1000
0000
0010
0100
0001
0000
,
1000
0100
0010
0001
,
1000
0010
1000
0010
0100
0001
1000
0000
,
0002
0000
0003
2000
0000
3000
0020
0000
,
0030
0200
0000
0300
0001
0000
1000
0000
,
0010
1000
0100
0100
,
0010
0010
0001
1000
,
0010
0010
0100
0010
,
1000
0001
1000
0000
0001
0100
0001
0000
,
1000
1000
0100
0010
,
0001
1000
0010
0100
,
0001
0010
0001
0000
1000
0010
1000
0000
,
0001
0000
1000
0000
0001
1000
0001
0000
,
1000
0100
1000
0000
0001
0100
0001
0000
,
0010
0001
0010
0000
0001
1000
0001
0000
,
0100
0010
0100
0000
0001
1000
0001
0000
,
0100
0010
0100
0000
0010
1000
0010
0000
,
1000
0001
0010
0000
0100
0010
0100
0000
,
1000
0001
0100
0000
0010
0100
0010
0100
,
0001
1000
0100
0010
0001
0000
1000
0000
,
2200
0000
0000
3300
,
2002
0000
0000
3003
,
0202
0000
0000
0303
,
2002
0000
0000
3003
,
2020
0000
0000
3030
,
2002
0000
0000
3003
,
0022
0000
0000
0033
,
0220
0000
0000
0330
,
2002
0000
0000
0000
,
3003
0000
0000
0000
;

//--------------- dance-single - Fred-104 ----------------
#NOTES:
     dance-single:
     Fred-104:
     Medium:
     15:
     :
0000
0000
0000
0000
,
0000
0000
0000
0000
,
0000
0000
0000
0000
,
0000
0000
0000
0000
,
0000
0000
0000
0000
,
0000
0000
0000
0000
,
0000
0000
0000
0000
,
0000
0000
0000
0000
,
0000
0000
0000
0000
,
1000
0010
1000
0000
0010
0000
0100
0000
0000
0000
0100
0000
0000
0000
0100
0000
,
0001
0010
0001
0000
0010
0000
0100
0000
0000
0000
1000
0000
0000
0000
0100
0000
,
1000
0100
1000
0000
0010
0000
0100
0000
0000
0000
0100
0000
0000
0000
0100
0000
,
0001
0100
0001
0000
0010
0000
0220
0000
0330
0000
0000
0000
1000
0010
0100
0000
,
0010
0000
1000
0000
0000
0000
0100
0000
0000
0000
0100
0000
0010
0001
1000
0000
,
0010
0000
0200
0000
0000
0000
0310
0000
0000
0000
0100
0000
0010
1000
0100
0000
,
1000
0001
0000
1000
0000
0100
2200
0000
,
3300
0000
0202
0000
0000
0000
0303
0000
2002
0000
3003
0000
0001
0010
0001
0000
,
1000
0000
0010
0000
0100
0000
0010
0000
1000
0000
0100
0000
1000
0010
1000
0000
,
0001
0000
1000
0000
0100
0000
0010
0000
0100
0000
1000
0000
0001
0100
0010
0000
,
1000
0000
0010
0000
0100
0000
0010
0000
1000
0000
0001
0000
1000
0100
0010
0000
,
0001
0000
1000
0000
0001
0100
0010
0000
2000
0000
0000
0000
3001
0010
0100
0000
,
0010
0000
0001
0000
1000
0000
0001
0000
1000
0000
0100
0000
0010
0100
1000
0000
,
0010
0000
0100
0000
0001
0000
0100
0000
1000
0000
0100
0000
0001
0100
0001
0100
,
0010
1010
0000
0101
0000
1000
0001
0100
,
1000
0001
0010
1000
1001
0000
0001
0100
,
0010
0000
1000
0000
0010
0000
0100
0000
0001
0000
0010
0001
1000
0000
0100
0000
,
0010
0000
0001
0000
1000
0000
0010
0000
1000
0000
0001
0100
0010
0000
0100
0000
,
0001
0000
0010
0000
0100
0000
1000
0000
0001
0000
0100
0010
1000
0000
0100
0000
,
0010
0000
0220
0000
0330
0000
0000
0000
0100
0010
0100
0000
0001
0000
2000
0000
,
0000
0000
0001
0000
0000
0000
3001
0000
0010
0100
0010
0000
0100
0000
2000
0000
,
0000
0000
3001
0000
1000
0000
0100
0000
0010
0001
0010
0000
0100
0000
2000
0000
,
0000
0000
0001
0000
0000
0000
3001
0000
0100
0001
0100
0000
0010
0000
2020
0000
,
3030
0000
0001
0000
1000
1001
0000
0001
,
0100
0000
0010
0000
1000
0010
0000
0000
0010
0001
0000
0000
0001
0100
0000
0000
,
0100
1000
0000
0000
1000
0000
0000
0000
0001
0000
0101
0000
0000
0000
0100
0000
,
0010
0000
1000
0000
0001
0010
0000
0000
0010
0100
0000
0000
0100
1000
0000
0000
,
1000
0001
0000
0000
0001
0000
0000
0000
0100
0000
0110
0000
0000
0000
0010
0000
,
0100
0000
0010
0000
1000
0100
1000
0000
0010
0000
0100
0000
0001
0100
0001
0000
,
0010
0000
0100
0000
1000
0000
0010
0100
0010
0000
1000
0000
0001
0000
0010
0100
,
0010
0000
0000
0000
0000
0000
0000
0000
0001
0000
0000
0000
0000
0000
0000
0000
1000
0000
0000
0000
0000
0000
0000
0000
0001
0000
0000
0000
0000
0000
0000
0000
0100
0000
0000
0000
0000
0000
0000
0000
0010
0000
0000
0000
0000
0000
0000
0000
0000
0000
0000
0000
0000
0000
0000
0000
0220
0330
0000
0000
0000
0000
0000
0000
,
1000
0100
1000
0100
0000
0000
0010
0001
0010
0001
0000
0000
,
1000
0010
0100
0001
0000
0000
1000
0100
0010
0001
0000
0000
,
0100
0010
1000
0010
0000
0000
0100
0001
1000
0010
0000
0000
,
1000
0100
0010
0001
0010
0100
1000
0001
0100
0010
0000
0000
,
1000
0010
0100
0001
0000
0000
0010
0100
1000
0001
0000
0000
,
0100
0010
1000
0001
0000
0000
1000
0100
0010
0001
0000
0000
,
1000
0100
0001
0100
0000
0000
1000
0010
0001
0010
0000
0000
,
1000
0010
1000
0001
0010
0001
1000
0100
1000
0001
0100
0010
,
2000
0000
3000
0020
0000
0030
0002
0000
,
0003
0200
0000
1300
0001
0000
1000
0010
,
1000
0100
1000
0000
0001
0100
0001
0000
0100
0010
0100
0000
0001
0010
0001
0000
,
1000
0100
0010
0001
1000
0010
0100
0001
,
1000
0010
1000
0000
0001
0010
0001
0000
1000
0100
1000
0000
0001
0100
0001
0000
,
1000
0001
1000
0010
0100
0001
0100
0010
,
1000
0010
1000
0000
0001
0010
0001
0000
0100
0010
0100
0000
0001
0100
0001
0000
,
1000
0010
0100
0010
1000
0001
0010
0100
,
1000
0100
1000
0100
1000
0001
0100
0000
0001
0100
0001
0100
0001
1000
0100
0000
,
0010
0000
0000
0000
1001
0000
0000
0000
1000
0100
1000
0000
0001
0100
0001
0000
,
1000
0010
1000
0000
0001
0010
0001
0000
1000
0001
1000
0000
0010
0100
0010
0000
,
1000
0010
1000
0000
0001
0010
0001
0000
1000
0100
1000
0000
0100
0010
0100
0000
,
0010
0001
0010
0000
0001
1000
0001
0000
1000
0100
1000
0100
1000
0001
0100
0000
,
0001
0100
0001
0100
0001
1000
0100
0000
1000
0010
1000
0000
0001
0010
0001
0000
,
1000
0100
1000
0000
0001
0100
0001
0000
1000
0001
1000
0000
0010
0100
0010
0000
,
1000
0100
1000
0000
0001
0100
0001
0000
1000
0010
1000
0010
1000
0010
0100
0000
,
0001
0010
0001
0010
0001
0010
0100
0000
1000
0000
0000
0000
0001
0000
0000
0000
,
1000
0000
0000
0010
0000
0000
1000
0100
1000
0100
0010
0100
,
0010
0000
0000
0001
0000
0000
0100
0001
0100
0001
0100
0010
,
0100
0000
0000
0001
0000
0000
0010
0001
0010
0001
1000
0001
,
0100
0000
0000
0010
0000
0000
0100
0010
0100
0010
1000
0010
,
0100
0110
0001
0011
,
0100
0110
1000
1100
,
0010
1001
0100
1001
,
0100
0000
0000
0110
0000
0000
0001
0100
0010
1000
0100
0010
,
0002
0000
0000
0000
,
0003
0000
0000
0000
;

//--------------- dance-single - Fred-104 ----------------
#NOTES:
     dance-single:
     Fred-104:
     Hard:
     18:
     :
0000
0000
0000
0000
,
0000
0000
0000
0000
,
0000
0000
0000
0000
,
0000
0000
0000
0000
,
0000
0000
0000
0000
,
0000
0000
0000
0000
,
0000
0000
0000
0000
,
0000
0000
0000
0000
,
0000
0000
0000
0000
,
1000
0100
1000
0000
0100
0000
0010
0000
0000
0000
0001
0000
0000
0000
0100
0000
,
0001
0100
0001
0000
1000
0000
0200
0000
0000
0000
0301
0000
0000
0000
0100
0000
,
1000
0010
1000
0000
0010
0000
0001
0000
0000
0000
0010
0000
0000
0000
1000
0000
,
0001
0010
0100
0000
1000
0000
2200
0000
3300
0000
0000
0000
1000
0010
0100
0000
,
0101
0000
0101
0000
0000
0000
1100
0000
0000
0000
0101
0000
0001
0010
0100
0000
,
1100
0000
1020
0000
0000
0000
0031
0000
0000
0000
1010
0000
1000
0001
0100
0000
,
0110
0101
0000
1100
0000
0110
1200
0000
,
0000
0000
0000
0000
0000
0000
0000
0300
0201
0000
0000
0000
0000
0000
0000
0000
0000
0000
0000
0000
0000
0000
0000
0000
0000
0000
0000
0000
0000
0000
0000
0300
0210
0000
0000
0000
0000
0000
0000
0000
0000
0000
0000
0000
0000
0000
0000
0000
0310
0000
0000
0000
1000
0000
0000
0000
0001
0000
0000
0000
0100
0000
0000
0000
,
0001
0000
0100
0000
0010
0000
1000
0000
0010
0000
0100
0000
0001
0010
0100
1000
,
0001
0000
0100
0000
1000
0000
0100
0000
0001
0000
1000
0000
0100
0010
0001
0100
,
0001
0000
0100
0000
0010
0000
1000
0000
0100
0000
0010
0000
0001
0010
0100
1000
,
0001
0000
0001
0000
0100
0010
0100
0000
0002
0000
0000
0000
0103
0001
1000
0001
,
0100
0000
0010
1000
0001
0000
0010
0000
0100
0010
0001
0000
0100
0001
1000
0100
,
1000
0000
0100
0010
0100
0000
1000
0000
0010
0100
0001
0000
1000
0100
1000
0100
,
1000
1100
0000
1001
0000
0101
1001
1010
,
1010
0000
1001
0000
0110
0000
0110
0000
1001
0000
0000
0000
1000
0100
0001
0100
,
1000
0000
0001
0000
1000
0000
0010
0000
0100
0000
0100
0000
0001
0100
1000
0100
,
0001
0000
1000
0000
0100
0000
0010
0000
0001
0000
0001
0000
1000
0100
0010
0100
,
0001
0000
0100
0000
0010
0000
0001
0000
1000
0001
1000
0000
0001
0000
0100
0000
,
0010
0000
2020
0000
3030
0000
0000
0000
1000
0100
0001
0000
0100
0000
1200
0000
,
0000
0000
1000
0000
0000
0000
1300
0000
0001
0100
1000
0000
0100
0000
0102
0000
,
0000
0000
2003
0000
3001
0000
1000
0000
0001
0100
0010
0000
1010
0000
1010
0000
,
0000
0000
0101
0000
0000
0000
1100
0000
1000
0100
0010
0000
0011
0000
2002
0000
,
3003
0000
1000
0010
0100
0001
0000
0100
,
0010
0000
1000
0000
0001
0000
0010
0001
1000
0000
0010
0100
0001
0000
1000
0000
,
0100
1000
0001
1000
0010
0100
0000
0010
,
1000
0000
0001
0000
1000
0000
0001
0010
0100
0000
0001
0100
1000
0000
0001
0000
,
0100
0010
1000
0010
0100
0102
0000
0103
,
0010
0000
0100
0000
0001
1000
0100
0010
0001
0000
0100
0010
0001
0000
0010
0000
,
1000
0001
0100
0100
1000
0100
0100
0001
,
0010
0000
0000
0000
0000
0000
0000
0000
0100
0000
0000
0000
0000
0000
0000
0000
1000
0000
0000
0000
0000
0000
0000
0000
0001
0000
0000
0000
0000
0000
0000
0000
0100
0000
0000
0000
0000
0000
0000
0000
0010
0000
0000
0000
0000
0000
0000
0000
0000
0000
0000
0000
0000
0000
0000
0000
0220
0330
0000
0000
0000
0000
0000
0000
,
0001
0010
0001
0010
0001
0010
0100
1000
0100
1000
0100
1000
,
0001
0100
0001
0100
0001
0100
0010
1000
0010
1000
0010
1000
,
0001
0010
1000
0010
0001
0100
0010
1000
0100
0001
0100
1000
,
0010
0100
0001
0100
0010
1000
0100
0001
0100
1000
0010
0100
,
0001
1000
0100
0010
1000
0010
0001
0100
0010
0001
0010
0100
,
0001
1000
0100
0010
1000
0010
0001
0100
0010
1000
0001
1000
,
0001
0100
0010
0001
1000
0100
0001
1000
0100
0001
1000
0010
,
0100
0000
0000
0000
1000
0000
0000
0000
0001
0000
0000
0000
0010
0000
0000
0000
1000
0000
0000
0000
0001
0000
0000
0000
0100
0000
0000
1000
0000
0000
0001
0000
0000
0100
0000
0000
0010
0000
0000
0100
0000
0000
0001
0000
0000
1000
0000
0000
,
0002
0000
0000
0023
0000
0000
2030
0000
,
0000
3200
0000
0001
0301
0000
1000
0001
,
1000
0100
1000
0100
1000
0100
1000
0100
1000
0100
1000
0100
1000
0100
1000
0001
,
0100
0001
0100
0001
0100
0001
0100
0001
0100
0001
0100
0001
0100
0001
1000
0001
,
0010
0100
1000
0100
1000
0100
1000
0100
1000
0001
0100
0001
0100
0001
0100
0001
,
1000
0100
1000
0100
1000
0100
1000
0100
0010
0001
0010
0001
0010
0100
1000
0001
,
1000
0100
1000
0100
0010
0001
0010
0001
1000
0010
1000
0010
0100
0001
0100
0001
,
1000
0100
0010
0001
0010
0100
1000
0001
0100
0010
1000
0001
0010
0100
0010
0001
,
1000
0010
0100
0001
1000
0001
0100
0010
0100
0001
1000
0100
0010
0100
1000
0001
,
1000
0000
0000
0000
1001
0000
0000
0000
0001
0100
0001
0100
0010
1000
0010
1000
,
0001
1000
0100
0010
0001
0100
0010
1000
0100
1000
0100
1000
0001
0100
0001
0100
,
0010
1000
0010
0100
0001
0010
0100
0010
0001
1000
0100
0010
0001
0100
0010
1000
,
0100
0010
0001
0100
0010
1000
0010
0100
0001
0010
0001
1000
0010
1000
0001
0100
,
0001
1000
0100
0010
0001
1000
0001
1000
0010
0100
0010
1000
0010
0100
0001
0010
,
0001
0100
0001
0010
0100
1000
0010
1000
0001
0010
0001
1000
0001
0100
0001
1000
,
0010
1000
0010
0100
0001
0010
0100
1000
0100
0010
0001
0100
0010
1000
0100
1000
,
0010
0000
0000
0100
0000
0000
0001
0000
0000
0010
0000
0000
0001
0000
0000
1000
0000
0000
0010
0000
0000
1000
0000
0000
0001
0000
0000
0000
0001
0000
0100
0000
0010
0000
1000
0000
0010
0000
0000
0100
0000
0000
0100
0000
0000
0100
0000
0000
,
0001
0010
0001
1000
0010
0100
0010
1000
0100
0010
0001
1000
,
0001
0010
1000
0010
0001
0010
0100
1000
0010
0100
0001
1000
,
0100
1000
0010
0100
0010
1000
0001
0010
0100
1000
0100
0010
,
0001
0010
0100
0001
0100
0010
0001
0100
0010
0001
0010
0100
,
0001
0100
1000
0001
0010
1000
0001
0010
1000
0001
0100
1000
,
0001
0100
1000
0100
0010
1000
0001
0010
1000
0010
0100
1000
,
0001
0100
0100
1000
0010
0010
0001
0010
0010
1000
0100
0100
,
0001
0010
1000
0001
0100
0010
0001
1000
0010
0001
0010
1000
,
2002
0000
0000
0000
,
3003
0000
0000
0000
;

//--------------- dance-double - Fred-104 ----------------
#NOTES:
     dance-double:
     Fred-104:
     Easy:
     10:
     :
00000000
00000000
00000000
00000000
,
00000000
00000000
00000000
00000000
,
00000000
00000000
00000000
00000000
,
00000000
00000000
00000000
00000000
,
00000000
00000000
00000000
00000000
,
00000000
00000000
00000000
00000000
,
00000000
00000000
00000000
00000000
,
00000000
00000000
00000000
00000000
,
00000000
00000000
00000000
00000000
,
00010000
00000010
00001000
00000010
00000000
00010000
00000000
00000000
,
00001000
00100000
00010000
10000000
00000000
00100000
00000000
00000000
,
01000000
00100000
00010000
00001000
00000000
00000100
00000000
00000000
,
00000001
00000010
00000100
00001000
00000000
00000000
01000000
00100000
,
00010000
01000000
00000000
00010000
00000000
00000000
10000000
01000000
,
00010000
00001000
00000000
00000100
00000000
00000000
00000001
00001000
,
00000010
00010000
00000000
00001000
00000000
00000000
02000000
00000000
,
03000000
02000000
00000000
03000000
02000000
00000000
03010000
00000000
,
00110000
10000000
00100000
01000000
,
01100000
00001000
00010000
00000100
,
00000110
00000001
00000100
00001000
,
00010000
00022000
00033000
00001000
,
01000000
00100000
10000000
00100000
,
00010000
00001000
00000010
00000001
,
00000000
00000100
00000000
00001000
00010000
00000000
01000000
00100000
,
01000000
00000000
10000000
00010000
10000000
00000000
01000000
00000000
,
00010000
00000000
00001000
00000000
00000100
00000001
00000100
00000000
,
00000010
00000000
00001000
00000000
00000001
00000010
00000100
00000000
,
00010000
00000000
00001000
00000000
01000000
00010000
10000000
00000000
,
00010000
10000000
00000000
00000000
10000000
01000000
00010000
00001000
,
00000000
00000000
00000100
00000000
00000001
00000010
00001000
00010000
,
00000000
00000000
00100000
00000000
10000000
01000000
00010000
01000000
,
00000000
00000000
10000000
00000000
00010000
00000000
00000000
00011000
,
00000000
00000000
00001000
00000000
00000000
00000100
00000000
00000000
,
00000001
00000000
00000010
00000100
00000010
00000000
00000001
00000100
,
00000001
00000000
00001000
00000000
00000000
00000010
00000000
00000000
,
00010000
00000000
00001000
00100000
00010000
00000000
10000000
00100000
,
10000000
00000000
01000000
00000000
00000000
00010000
00000000
00000000
,
00001000
00000000
00010000
00000100
00000010
00000000
00000001
00001000
,
00000010
00000100
00001000
00010000
,
00100000
00000000
01000000
00000000
00010000
10000000
00000000
10010000
,
20000000
00000000
30000000
02000000
00000000
03000000
00020000
00000000
,
00031000
00010000
00001000
00000000
00000100
00000001
00001000
00000000
,
00000002
00000000
00000003
00000200
00000000
00000300
00002000
00000000
,
00013000
01000000
10000000
00000000
00010000
10000000
00100000
00000000
,
02000000
00000000
03000000
00020000
00000000
00030000
20000000
00000000
,
31000000
00100000
00001000
00000000
00010000
00000010
00001000
00000000
,
00000001
00000010
00000100
00001000
,
00000001
00000100
00000010
00000100
00001000
00010000
00001000
00000000
,
00002000
00000000
00003000
00020000
00000000
00030000
02000000
00000000
,
03000000
20000000
00000000
30000000
00100000
00000000
01000000
00000000
,
00010000
10000000
01000000
00100000
,
00001000
00010000
00001000
00000010
,
00000001
00001000
00000100
00000010
,
00000100
00001000
00000001
00000000
00000100
00000010
00001000
00000000
,
00000010
00000100
00010000
00001000
,
01000000
00100000
10000000
01000000
,
00100000
00010000
00100000
00000000
00001000
00010000
00000010
00000000
,
00000100
00000000
00000100
00000000
00000001
00000010
00000100
00000000
,
00000010
00000100
00001000
00000000
00000100
00010000
00001000
00000000
,
00010000
00001000
00100000
00000000
00010000
00100000
01000000
00000000
,
00100000
01000000
10000000
00000000
00010000
10000000
00010000
00000000
,
01000000
00100000
01000000
00000000
00010000
10000000
01000000
00000000
,
00010000
00001000
00000100
00000000
00000001
00001000
00000001
00000000
,
00000010
00001000
00010000
00000000
00100000
10000000
00100000
10000000
,
00100000
10000000
00010000
00100000
01000000
00000000
10000000
00000000
,
22000000
00000000
00000000
33000000
,
02020000
00000000
00000000
03030000
,
00022000
00000000
00000000
00033000
,
00002200
00000000
00000000
00003300
,
00000202
00000000
00000000
00000303
,
00000022
00000000
00000000
00000033
,
00002020
00000000
00000000
00003030
,
00022000
00000000
00000000
00033000
,
20020000
00000000
00000000
00000000
,
30030000
00000000
00000000
00000000
;

//--------------- dance-double - Fred-104 ----------------
#NOTES:
     dance-double:
     Fred-104:
     Medium:
     15:
     :
00000000
00000000
00000000
00000000
,
00000000
00000000
00000000
00000000
,
00000000
00000000
00000000
00000000
,
00000000
00000000
00000000
00000000
,
00000000
00000000
00000000
00000000
,
00000000
00000000
00000000
00000000
,
00000000
00000000
00000000
00000000
,
00000000
00000000
00000000
00000000
,
00000000
00000000
00000000
00000000
,
00001000
00010000
00001000
00000000
01000000
00000000
00100000
00000000
00000000
00000000
00100000
00000000
00000000
00000000
00100000
00000000
,
10000000
00010000
10000000
00000000
01000000
00000000
00010000
00000000
00000000
00000000
00010000
00000000
00000000
00000000
00010000
00000000
,
00001000
00010000
00001000
00000000
00000100
00000000
00000010
00000000
00000000
00000000
00000010
00000000
00000000
00000000
00000010
00000000
,
00001000
00000001
00001000
00000000
00000100
00000000
00000220
00000000
00000330
00000000
00000000
00000000
00010000
00001000
00010000
00000000
,
00001000
00000000
00100000
00000000
00000000
00000000
00001000
00000000
00000000
00000000
00010000
00000000
00000010
00001000
00000010
00000000
,
00000100
00000000
00000102
00000000
00000000
00000000
00000103
00000000
00000000
00000000
00000001
00000000
00001000
00000100
00001000
00000000
,
00000010
00010000
00000000
00010000
00000000
00010000
00022000
00000000
,
00033000
02200000
00000000
03300000
20020000
30030000
10000000
00100000
,
01000000
00100000
00010000
00001000
00000100
00000001
00001000
00000100
,
00000010
00000001
00000010
00000100
00010000
00001000
00000100
00000001
,
00000010
00000100
00001000
00000010
00000100
00001000
00010000
00100000
,
01000000
00010000
00100000
01000000
10010000
00000000
10000000
00010000
,
01000000
00100000
00010000
00001000
00100000
00010000
00001000
00000100
,
00010000
00000000
00001000
00000000
00000100
00000000
00000010
00000000
00001000
00000000
00000100
00000000
00000010
00000001
00000010
00000001
,
00001000
00001010
00000000
00000101
00000000
00001001
00000001
00000010
,
00001000
00000000
00010000
00000000
01000000
00000000
10000000
00000000
10010000
00000000
00000000
00000000
00100000
10000000
00100000
00000000
,
10000000
01000000
10000000
01000000
00010000
00001000
00010000
00001000
,
00000100
00000000
00000001
00000000
00001000
00000000
00000100
00000000
00000010
00000000
00000001
00000000
00001000
00000001
00001000
00000000
,
00000001
00000000
00000010
00000000
00001000
00000000
00010000
00000000
00100000
00000000
10000000
00000000
00010000
01000000
00010000
00000000
,
01000000
00000000
02200000
00000000
03300000
00000000
00000000
00000000
10000000
01000000
10000000
00000000
00100000
00000000
00010000
00000000
,
00000000
00000000
00001000
00000000
00000000
00000000
00000010
00000000
00000001
00001000
00000001
00000000
00000100
00000000
00002000
00000000
,
00000000
00000000
00013000
00000000
01000000
00000000
00100000
00000000
00010000
01000000
00010000
00000000
00100000
00000000
01000000
00000000
,
00000000
00000000
10000000
00000000
00000000
00000000
01000000
00000000
00100000
00001000
00100000
00000000
00001000
00000000
00022000
00000000
,
00033000
00000000
00010000
00001000
00000100
00000001
00000000
00001000
,
00000100
00000010
00000100
00001000
00000001
00000000
00000100
00001000
,
00010000
00000000
01000000
00100000
00010000
01000000
00000000
00100000
,
00010000
00001000
01000000
00100000
10000000
00000000
01000000
00010000
,
00001000
00000000
00010000
00001000
00000010
00000100
00000000
00001000
,
00000100
00000010
00000001
00000100
00001000
00000000
00010000
00001000
,
00000100
00000000
00000010
00001000
00000001
00000010
00000100
00000010
,
00001000
00000000
00000000
00000000
00000000
00000000
00000000
00000000
00010000
00000000
00000000
00000000
00000000
00000000
00000000
00000000
00001000
00000000
00000000
00000000
00000000
00000000
00000000
00000000
00000100
00000000
00000000
00000000
00000000
00000000
00000000
00000000
00000001
00000000
00000000
00000000
00000000
00000000
00000000
00000000
00001000
00000000
00000000
00000000
00000000
00000000
00000000
00000000
00000000
00000000
00000000
00000000
00000000
00000000
00000000
00000000
00002002
00003003
00000000
00000000
00000000
00000000
00000000
00000000
,
00000001
00000010
00001000
00010000
00000000
00100000
10000000
00010000
,
01000000
00100000
00010000
00001000
00000100
00000010
00010000
00001000
,
00100000
00001000
00010000
00000100
00000000
00000010
00000001
00001000
,
00000010
00000100
00001000
00010000
00100000
10000000
00100000
01000000
,
00010000
10000000
01000000
00100000
00000000
00001000
00010000
00100000
,
01000000
00001000
00010000
00001000
00000010
00000001
00000010
00000100
,
00001000
00000001
00000100
00000001
00001000
00000100
00000010
00001000
,
00010000
00100000
01000000
00010000
10000000
01000000
00100000
00010000
,
00200000
00000000
00300000
00000020
00000000
00000030
00200000
00000000
,
00300000
00000020
00000000
00010030
00010000
00000000
00001000
00001000
,
00010000
00001000
00010000
00000000
00000100
00001000
00000100
00000000
00000010
00000100
00000010
00000000
00000001
00001000
00000001
00000000
,
00000100
00000010
00000100
00000001
00001000
00000010
00010000
00001000
,
00010000
00000100
00010000
00000000
00001000
00100000
00001000
00000000
00100000
00010000
00100000
00000000
01000000
10000000
01000000
00000000
,
10000000
00100000
00010000
00001000
00010000
00100000
01000000
00010000
,
10000000
01000000
10000000
00000000
00010000
01000000
00010000
00000000
00100000
00001000
00100000
00000000
00001000
00010000
00001000
00000000
,
00010000
00000100
00000010
00000001
00000100
00001000
00010000
00100000
,
10000000
00010000
10000000
00000000
00010000
01000000
00010000
00000000
00100000
00001000
00100000
00000000
00001000
00010000
00001000
00000000
,
00010000
00000000
00000000
00000000
00011000
00000000
00000000
00000000
00010000
00001000
00010000
00000000
00001000
00100000
00001000
00000000
,
00100000
00010000
00100000
00000000
00010000
10000000
00010000
00000000
10000000
01000000
10000000
00000000
00010000
01000000
00010000
00000000
,
00100000
00001000
00100000
00000000
00001000
00010000
00001000
00000000
00010000
00000100
00010000
00000000
00000010
00000100
00000010
00000000
,
00001000
00000001
00001000
00000000
00000001
00000010
00000001
00000000
00001000
00000010
00001000
00000000
00000100
00010000
00000100
00000000
,
00010000
00001000
00010000
00000000
00001000
01000000
00001000
00000000
01000000
00010000
01000000
00000000
00010000
10000000
00010000
00000000
,
10000000
01000000
10000000
00000000
00010000
01000000
00010000
00000000
00100000
00001000
00100000
00000000
00001000
00010000
00001000
00000000
,
00010000
00000010
00010000
00000000
00001000
01000000
00001000
00000000
00010000
00000100
00010000
00000100
00010000
00001000
00010000
00000000
,
00001000
01000000
00001000
01000000
00001000
00010000
00001000
00000000
00010000
00000000
00000000
00000000
10010000
00000000
00000000
00000000
,
10000000
00000000
10000000
01000000
00000000
01000000
00100000
00000000
00100000
00001000
00000000
00001000
,
00010000
00000000
00010000
00000100
00000000
00000100
00000010
00000000
00000010
00000001
00000000
00000001
,
00000100
00000000
00000100
00001000
00000000
00001000
00010000
00000000
00010000
00100000
00000000
00100000
,
10000000
00000000
10000000
01000000
00000000
01000000
00010000
00000000
00010000
00001000
00000000
00001000
,
00000100
00000000
00000100
00000001
00000000
00000001
00000010
00000000
00000010
00000001
00000000
00000001
,
00000100
00000000
00000100
00001000
00000000
00001000
00010000
00000000
00010000
00001000
00000000
00001000
,
00100000
00000000
00100000
00010000
00000000
00010000
10000000
00000000
10000000
00100000
00000000
00100000
,
01000000
00000000
01000000
00001000
00000000
00001000
00010000
00000010
00001000
00000100
00000010
00000001
,
00002000
00000000
00000000
00000000
,
00003000
00000000
00000000
00000000
;

//--------------- dance-double - Fred-104 ----------------
#NOTES:
     dance-double:
     Fred-104:
     Hard:
     18:
     :
00000000
00000000
00000000
00000000
,
00000000
00000000
00000000
00000000
,
00000000
00000000
00000000
00000000
,
00000000
00000000
00000000
00000000
,
00000000
00000000
00000000
00000000
,
00000000
00000000
00000000
00000000
,
00000000
00000000
00000000
00000000
,
00000000
00000000
00000000
00000000
,
00000000
00000000
00000000
00000000
,
00010000
00001000
00010000
00000000
00000010
00000000
00001000
00000000
00000000
00000000
00001000
00000000
00000000
00000000
00001000
00000000
,
00000010
00010000
00000010
00000000
00010000
00000000
00002000
00000000
00000000
00000000
00100000
00000000
00000000
00000000
00103000
00000000
,
00001000
00010000
00001000
00000000
00010000
00000000
00000100
00000000
00000000
00000000
00000100
00000000
00000000
00000000
00000100
00000000
,
00010000
00001000
00010000
00000000
00001000
00000000
00022000
00000000
00033000
00000000
00000000
00000000
01000000
00010000
01000000
00000000
,
00100000
00000000
10100000
00000000
00000000
00000000
11000000
00000000
00000000
00000000
01000000
00000000
00100000
00010000
00100000
00000000
,
00001000
00000000
00021000
00000000
00000000
00000000
00000010
00000000
00000000
00000000
00030010
00000000
00001000
00000100
00001000
00000000
,
00000001
00000101
00000000
00001100
00000000
00011000
02010000
00000000
,
00000000
00000000
00000000
00000000
00000000
00000000
00000000
03000000
12000000
00000000
00000000
00000000
00000000
00000000
00000000
00000000
00000000
00000000
00000000
00000000
00000000
00000000
00000000
00000000
00000000
00000000
00000000
00000000
00000000
00000000
00000000
03000000
02100000
00000000
00000000
00000000
00000000
00000000
00000000
00000000
00000000
00000000
00000000
00000000
00000000
00000000
00000000
00000000
03010000
00000000
00000000
00000000
10000000
00000000
00000000
00000000
00010000
00000000
00000000
00000000
00000000
00000000
00000000
00000000
,
01000000
00000000
00100000
00000000
10000000
00000000
01000000
00000000
00010000
00000000
00001000
00000000
00000010
00000100
00000010
00000000
,
00000001
00000000
00000100
00000000
00000010
00000000
00000100
00000000
00001000
00000000
00010000
00000000
00001000
01000000
00001000
00000000
,
00010000
00000000
00100000
00000000
01000000
00000000
00100000
00000000
00010000
00000000
00001000
00000000
00100000
00010000
00100000
00000000
,
01000000
00000000
10000000
00000000
00100000
10000000
01000000
00000000
01200000
00000000
00000000
00000000
00301000
00010000
00001000
00010000
,
00000010
00000000
00010000
00000000
00001000
00000010
00000001
00000000
00001000
00000001
00000100
00000000
00000001
00001000
00000100
00001000
,
00000100
00000000
00010000
00000000
00001000
00100000
00010000
00000000
10000000
00100000
01000000
00000000
00010000
10000000
00010000
10000000
,
00010000
01010000
00000000
01001000
00000000
00011000
00011000
00010010
,
00010010
00000000
00011000
00000000
00101000
00000000
00101000
00000000
00011000
00000000
00000000
00000000
00010000
00001000
00000100
00000010
,
00010000
00000000
00001000
00000000
00000100
00000000
00000001
00000000
00000010
00000000
00000100
00000000
00001000
00000010
00000100
00001000
,
00010000
00000000
00100000
00000000
01000000
00000000
00001000
00000000
00010000
00000000
00001000
00000000
00100000
00010000
00100000
01000000
,
10000000
00000000
00100000
00000000
01000000
00000000
00100000
00000000
00010000
00000000
00001000
00000000
00000100
00000001
00001000
00000000
,
00000100
00000000
00000220
00000000
00000330
00000000
00000000
00000000
00000001
00000010
00000100
00000000
00001000
00000000
00001200
00000000
,
00000000
00000000
00010000
00000000
00000000
00000000
00010300
00000000
00001000
00010000
00001000
00000000
00100000
00000000
00210000
00000000
,
00000000
00000000
01300000
00000000
10000000
00000000
00010000
00000000
01000000
00100000
01000000
00000000
00010000
00000000
10020000
00000000
,
00000000
00000000
10000000
00000000
00000000
00000000
10030000
00000000
01000000
00100000
00001000
00000000
00010000
00000000
00022000
00000000
,
00033000
00000000
00010000
00001000
00000010
00001000
00000000
00100000
,
00001000
00010000
00000010
00000001
00000010
00010000
00001000
00100000
,
10000000
00100000
00001000
00010000
01000000
00100000
00000000
00010000
,
10000000
00100000
00010000
00001000
00000010
00000100
00001000
00000001
,
00000100
00000010
00001000
00000010
00000001
00000010
00000000
00010000
,
00001000
00100000
10000000
00100000
00001000
00010000
00000010
00000001
,
00000010
00010000
00001000
00100000
00010000
00100000
01000000
00010000
,
00001000
00000000
00000000
00000000
00000000
00000000
00000000
00000000
00000100
00000000
00000000
00000000
00000000
00000000
00000000
00000000
00000010
00000000
00000000
00000000
00000000
00000000
00000000
00000000
00001000
00000000
00000000
00000000
00000000
00000000
00000000
00000000
00000100
00000000
00000000
00000000
00000000
00000000
00000000
00000000
00000010
00000000
00000000
00000000
00000000
00000000
00000000
00000000
00000000
00000000
00000000
00000000
00000000
00000000
00000000
00000000
00000220
00000330
00000000
00000000
00000000
00000000
00000000
00000000
,
00000001
00000010
00000001
00000010
00000001
00000010
00000001
00000100
00000001
00000100
00000001
00000100
,
00000010
00001000
00000010
00001000
00000010
00001000
00000100
00010000
00000100
00010000
00000100
00010000
,
00001000
00100000
00001000
00100000
00001000
00100000
00010000
01000000
00100000
01000000
00100000
10000000
,
01000000
00100000
00010000
00100000
00001000
00010000
00000100
00001000
00000010
00000100
00000001
00001000
,
00000100
00000010
00000001
00001000
00000010
00000100
00001000
00010000
00100000
01000000
00100000
10000000
,
00010000
10000000
01000000
00010000
00001000
00010000
01000000
10000000
00010000
01000000
00100000
10000000
,
00010000
10000000
00100000
01000000
10000000
01000000
00100000
00010000
00001000
00000100
00000010
00000001
,
00000010
00000100
00000001
00000010
00000100
00010000
00001000
00000100
00000001
00001000
00000100
00000010
,
00000002
00000000
00000003
00020000
00000000
00030000
00002000
00000000
,
00003000
20000000
00000000
30001000
00010000
00000000
00000100
00001000
,
00000001
00000100
00000001
00000100
00000001
00000100
00000001
00000100
00000001
00000100
00000001
00000100
00000001
00000100
00000001
00000100
,
00000010
00001000
00000010
00001000
00000010
00001000
00000010
00001000
00000010
00001000
00000010
00001000
00000010
00001000
00000010
00001000
,
00000100
00010000
00000100
00010000
00000100
00010000
00000100
00010000
00000100
00010000
00000100
00010000
00000100
00010000
00000100
00010000
,
00001000
00100000
00001000
00100000
00001000
00100000
00001000
00100000
00001000
00100000
00001000
00100000
00001000
00100000
00001000
00100000
,
00010000
01000000
00010000
01000000
00010000
01000000
00010000
01000000
00100000
10000000
00100000
10000000
00100000
10000000
00100000
10000000
,
01000000
00100000
01000000
00100000
01000000
00100000
01000000
00100000
00001000
00010000
00001000
00010000
00001000
00010000
00001000
00010000
,
00000100
00000010
00000100
00000010
00000100
00000010
00000100
00000010
00000001
00001000
00000001
00001000
00000010
00000100
00000010
00000100
,
00000010
00000000
00000000
00000000
00011000
00000000
00000000
00000000
00001000
00100000
00001000
00100000
00010000
10000000
00010000
10000000
,
01000000
00100000
01000000
00100000
00001000
00010000
00001000
00010000
00000010
00001000
00000010
00001000
00000001
00000010
00000001
00000010
,
00000100
00001000
00000100
00001000
00000001
00000100
00000001
00000100
00000010
00010000
00000010
00010000
00001000
00100000
00001000
00100000
,
00010000
10000000
00010000
10000000
01000000
00100000
01000000
00100000
00001000
00010000
00001000
00010000
00000100
00001000
00000100
00001000
,
00000001
00000100
00000001
00000100
00000001
00001000
00000001
00001000
00000100
00000010
00000001
00001000
00000010
00000100
00000001
00001000
,
00000100
00010000
00001000
00100000
00010000
00100000
01000000
10000000
00010000
01000000
00100000
10000000
00010000
00100000
01000000
00100000
,
00001000
00010000
00000010
00001000
00000001
00000010
00000100
00001000
00000010
00000100
00001000
00010000
00000100
00001000
00010000
00100000
,
00001000
00000000
00000000
00010000
00000000
00000000
00100000
00000000
00000000
01000000
00000000
00000000
00010000
00000000
00000000
00100000
00000000
00000000
01000000
00000000
00000000
10000000
00000000
00000000
00010000
00000000
00000000
00000000
00000000
00000000
00010000
00000000
10000000
00000000
01000000
00000000
00010000
00000000
00000000
00001000
00000000
00000000
00000100
00000000
00000000
00000001
00000000
00000000
,
00001000
00000100
00000010
00000001
00000010
00000100
00010000
00001000
00000100
00000001
00000010
00000100
,
00001000
00000010
00000100
00001000
00010000
00100000
01000000
00010000
00100000
01000000
10000000
00010000
,
01000000
00100000
10000000
01000000
00100000
00001000
00010000
00100000
01000000
00010000
00100000
01000000
,
10000000
01000000
00010000
00001000
00010000
01000000
10000000
00100000
00010000
00001000
00010000
00100000
,
10000000
01000000
00010000
00001000
00000010
00000001
00001000
00000001
00000100
00001000
00010000
00100000
,
10000000
00010000
00100000
01000000
00100000
00001000
00010000
00001000
00000010
00000001
00000010
00000100
,
00001000
00000001
00000100
00001000
00010000
00100000
10000000
00010000
01000000
00100000
00010000
00001000
,
00000100
00000010
00001000
00000001
00000010
00001000
00010000
00001000
00000100
00000010
00001000
00000001
,
00002002
00000000
00000000
00000000
,
00003003
00000000
00000000
00000000
;
