#VERSION:0.83;
#TITLE:Miroir Riorim;
#ARTIST:cosMo@暴走P;
#ARTISTTRANSLIT:cosMo@BousouP;
#BANNER:Miroir Riorim.png;
#BACKGROUND:Miroir Riorim-bg.png;
#CDTITLE:./CDTitles/NOSTALGIA FORTE.png;
#MUSIC:Miroir Riorim.ogg;
#SAMPLESTART:93.94;
#SAMPLELENGTH:15;
#BPMS:0=195,30=150,33=145,34=140,35=95,36.25=205;
#BGSTAGE:30;

//--------------- dance-single - Fred-104 ----------------
#NOTEDATA:;
#STEPSTYPE:dance-single;
#DESCRIPTION:Fred-104;
#DIFFICULTY:Beginner;
#METER:5;
#CREDIT:Fred-104;
#NOTES:
0000
0000
0000
0000
,
0000
0000
0000
0000
,
0000
0000
0000
0000
,
0000
0000
0000
0000
,
0000
0000
0000
0000
,
2000
0000
0000
0000
,
0000
0000
3000
0000
,
0002
0000
0000
0000
,
0000
0000
0000
0000
,
0000
0003
0000
0000
0000
0000
0000
0000
0000
0000
0000
0000
0000
0000
0000
0000
,
1000
0000
1000
0000
,
0100
0000
0100
0000
,
0010
0000
0010
0000
,
0001
0000
0001
0000
,
1000
0000
1000
0000
,
0001
0000
0001
0000
,
0100
0000
0100
0000
,
0100
0000
0100
0000
,
0010
0000
0000
0010
,
0000
0000
0010
0010
,
0010
0000
0000
0100
,
0000
0000
0100
0000
,
0001
0000
0000
0000
,
0001
0000
1000
1000
,
1000
0000
0001
0000
,
1000
0000
0001
1000
,
0001
0000
0000
0010
,
0000
0000
0010
0000
,
0100
0000
0000
0100
,
0000
0000
1000
0000
,
0001
0000
1000
0000
,
0001
0000
1000
1000
,
1000
0000
0001
0000
,
0100
0000
0010
0000
,
2000
0000
0000
3000
,
0002
0000
0000
0003
,
2000
0000
0000
3000
,
0002
0000
0000
0003
,
1000
0000
0000
0100
,
0000
0000
0001
0000
,
0001
0000
0000
0010
,
0000
0000
1000
0000
,
1000
0000
1000
0000
,
0001
0000
0001
0000
,
0100
0000
0100
0000
,
0010
0000
0010
0000
,
0110
0000
0000
0000
,
0000
0000
0000
0000
,
0001
0000
0001
0000
,
1000
0000
1000
0000
,
0001
0001
0001
0001
,
1001
0000
0000
0000
,
0000
0000
0000
0000
,
0000
0000
0000
0000
,
0000
0000
0000
0000
,
2000
3000
0200
0300
,
0020
0030
0002
0003
,
2000
3000
0002
0003
,
0200
0300
0020
0030
,
0200
0300
0002
0003
,
2000
3000
0200
0300
,
2000
3000
0020
0030
,
2000
3000
0002
0003
,
1000
0000
0100
0100
,
0100
0000
0010
0010
,
0010
0000
0001
0001
,
0001
0000
1000
1000
,
1000
0000
0001
1000
,
0001
0000
1000
0010
,
1000
0000
0001
1000
,
1001
0000
0000
0000
,
1001
0000
0000
0000
,
0000
0000
0000
0000
,
0002
0000
0000
0003
,
2000
0000
0000
3000
,
0001
0000
1000
0000
,
0001
0000
1000
0000
,
0001
0001
0001
0001
,
1001
0000
0000
0000
,
1000
0000
0001
0000
,
0100
0100
0100
0000
,
0001
0000
0010
0000
,
0100
0100
0100
0000
,
1000
0000
0001
0001
,
0001
0000
1000
0000
,
0010
0000
0100
0000
,
0001
0001
0001
0001
,
0001
0000
1000
0000
,
0010
0010
0010
0000
,
0100
0000
0010
0000
,
1000
1000
1000
0000
,
0100
0000
0010
0000
,
0001
0000
1000
0000
,
0001
0001
0001
0001
,
1000
1000
1000
1000
,
0000
0000
0000
2002
0000
0000
0000
0000
,
0000
0000
0000
0000
,
0000
0000
0000
0000
,
0000
0000
0000
0000
,
0000
0000
3003
0000
;

//--------------- dance-single - Fred-104 ----------------
#NOTEDATA:;
#STEPSTYPE:dance-single;
#DESCRIPTION:Fred-104;
#DIFFICULTY:Easy;
#METER:8;
#CREDIT:Fred-104;
#NOTES:
0000
0000
0000
0000
,
0000
0000
0000
0000
,
0000
0000
0000
0000
,
0000
0000
0000
0000
,
0000
0000
0000
0000
,
2000
3000
0200
0300
,
0020
0030
0002
0003
,
2000
3000
2002
0000
,
0000
0000
0000
0000
,
0000
3003
0000
0000
0000
0000
0000
0000
0000
0000
0000
0000
0000
0000
0000
0000
,
0001
0000
0010
0000
,
1000
0000
0100
0001
,
1000
0000
0100
0000
,
0010
0010
0001
0001
,
1000
0000
0001
0000
,
0100
0000
0010
0100
,
0110
0000
1001
0000
,
0001
0001
1000
1000
,
1001
0000
0000
0001
0000
0001
0000
0010
,
0000
0000
0100
1000
,
0001
0000
0000
0100
0000
0000
1000
0000
,
0000
0100
0000
0000
0001
0000
1000
0000
,
0001
0000
0000
0010
0000
0000
0100
0000
,
1000
0000
0010
1000
,
0100
0100
0110
0000
,
0001
0000
0001
0000
1000
0001
1000
0000
,
1001
0000
0000
1000
0000
1000
0000
0010
,
0000
0100
0001
1000
,
0100
0000
0001
0100
,
1000
0001
0100
0010
,
0110
0000
0001
0000
,
1000
0010
1000
0001
,
1000
0000
0100
0000
,
0010
0000
0010
0000
0001
1000
0001
0000
,
2000
0000
0000
3000
,
0002
0000
0000
0003
,
0100
0000
0010
0000
,
0100
0100
0100
0000
,
0001
0000
0000
0001
0000
0000
1000
0000
,
0000
1000
0000
0000
0010
0000
0100
0000
,
0001
0000
0000
0001
0000
0000
1000
0000
,
0000
1000
0000
0000
0100
0000
0010
0000
,
0001
0001
1000
1000
,
0010
0000
0000
0100
0000
0000
0010
0000
,
1000
0100
0010
0001
,
1000
0000
1000
0000
0001
1000
0001
0000
,
1001
0000
0000
0000
,
0000
0000
0000
0000
,
1000
1000
0100
0100
,
0010
0010
0001
0001
,
1000
0001
1000
0001
,
1001
0000
0000
0000
,
0000
0000
0000
0000
,
0000
0000
0000
0000
,
0000
0000
0000
0000
,
0002
0003
0200
0300
,
0002
0003
0020
0030
,
0200
0300
2000
3000
,
0002
0003
0200
0300
,
0020
0030
2000
3000
,
0200
0300
0020
0030
,
0002
0003
2000
3000
,
0002
0003
1000
0000
,
0100
0000
0010
0010
,
0001
0000
1000
1000
,
0001
0000
0100
0010
,
0100
0000
0001
0001
,
1000
0000
0010
0010
,
1000
0000
0100
0100
,
0010
0000
0001
0000
,
1000
0000
0000
0000
1000
0001
1000
0000
,
1001
0000
0000
0000
,
0000
0000
0000
0000
,
1000
0000
0000
0100
0000
0000
1000
0000
,
0001
0000
0000
0100
0000
0000
0001
0000
,
1000
0000
0010
0000
,
0001
0000
0100
0000
,
1000
0000
1000
0000
0001
1000
0001
0000
,
1001
0000
0000
0000
,
0001
1000
0001
0010
,
0001
1000
0010
0100
,
0001
0000
1000
0000
,
0100
0100
0010
0010
,
0001
0000
1000
0000
,
0010
0100
0010
0000
,
1000
0000
0100
0000
,
0010
0010
0001
1000
,
0001
0000
0100
0100
,
0010
0010
0100
0100
,
0001
0000
0000
1000
0000
0000
0010
0000
,
0000
0100
0000
0000
0010
0000
1000
0000
,
0100
0100
0010
0010
,
0001
1000
0010
0100
,
0001
0010
0100
1000
,
0010
0000
0100
0000
0001
1000
0001
0001
,
0000
0000
0000
2002
0000
0000
0000
0000
,
0000
0000
0000
0000
,
0000
0000
0000
0000
,
0000
0000
0000
0000
,
0000
0000
3003
0000
;

//--------------- dance-single - Fred-104 ----------------
#NOTEDATA:;
#STEPSTYPE:dance-single;
#DESCRIPTION:Fred-104;
#DIFFICULTY:Medium;
#METER:13;
#CREDIT:Fred-104;
#NOTES:
0000
0000
0000
0000
,
0000
0000
0000
0000
,
0000
0000
0000
0000
,
0000
0000
0000
0000
,
0000
0000
0000
0000
,
1000
1000
0100
0100
,
0010
0010
0001
0001
,
1000
0001
2002
0000
,
0000
0000
0000
0000
,
0000
3003
0000
0000
0000
0000
0000
0000
0000
0000
0000
0000
0000
0000
0000
0000
,
0001
0010
0001
0000
0001
0100
0001
0000
,
1000
0100
1000
0000
1000
0010
1000
0000
,
0001
0100
0001
0000
0001
0010
0001
0000
,
1000
0010
1000
0000
1000
0100
1000
0000
,
0001
0010
0100
0000
1000
0010
0100
0000
,
0001
0100
0010
0000
1000
0100
0010
0001
,
1000
0000
0000
1000
0000
0000
1000
0000
0001
0000
0000
0000
1001
0000
0000
0000
,
0001
0100
0010
0000
1000
0100
0010
0000
,
0001
0000
1000
0010
0000
0001
0000
0010
,
0000
0000
0100
0000
0001
0000
0000
0000
1000
0000
0000
1000
0000
0000
1000
0000
,
0100
0000
0010
0001
0000
0001
0100
0000
,
0010
1000
0000
1000
0001
0010
0001
0000
,
0010
0000
0100
2000
0000
0001
3001
0000
,
0200
1000
0010
0301
,
1000
0000
0000
1000
0000
0000
1000
0000
0001
0000
0000
0000
0110
0000
0000
0000
,
1000
0001
0100
0000
0010
0010
0010
0000
,
0110
0000
0001
0100
0000
1000
0000
0100
,
0000
0000
0010
0000
1000
0000
0000
0000
0100
0000
0000
0100
0000
0000
0100
0000
,
0010
0000
0000
0000
0000
0000
0001
0000
0000
0100
0000
0000
0010
0000
0000
0000
0010
0000
1000
0000
0000
0000
1000
0000
,
0100
0000
0010
0000
0001
0000
1000
0000
0001
0000
0000
0001
0000
0000
0001
0000
,
0100
0000
0000
0010
0000
0000
1000
0000
1000
0001
0000
0001
,
1000
0000
1000
0100
0000
0100
0010
0000
0010
0001
0000
0000
,
1000
0000
1000
0010
0000
0010
0100
0000
0100
0001
0000
0000
,
1000
0001
1000
0001
1000
0000
1001
0000
,
0001
0000
0000
0010
0000
0000
1000
0000
,
0001
0000
0000
0100
0000
0000
1000
0000
,
0001
1000
0100
0010
,
0001
1000
0010
0000
0100
0001
1000
0000
,
0001
0001
0000
1000
1000
0000
0100
0100
,
0000
0010
0010
0000
0100
1000
0010
0000
,
0100
0100
0000
0001
0001
0000
0010
0010
,
0000
0100
0100
0000
0010
0001
1000
0001
,
1000
0000
0100
0010
0001
0000
1000
0001
,
1000
0000
0001
0100
0000
0010
1000
0000
,
0001
0000
0010
0100
0010
0000
0001
1000
,
0010
0000
0100
0000
0001
1000
0001
1000
,
0001
0000
0000
0000
,
0000
0000
0000
0000
,
0001
0000
0001
0100
0000
0000
1000
0000
1000
0100
0000
0000
,
0001
0000
0001
0010
0000
0000
1000
0000
1000
0010
0000
0000
,
0001
0000
0001
1000
0000
1000
0001
0000
0001
1000
0000
1000
,
0002
0000
0000
0000
,
0000
0000
0000
0000
,
0000
0000
0000
0000
,
0000
0003
0000
0000
,
0001
0010
0100
1000
,
0001
0000
0100
0010
0100
0000
0000
0000
,
0001
1000
0100
0010
,
0001
0100
1000
0000
0001
0010
1000
0000
,
0100
0010
0001
1000
,
0010
0100
1000
0000
0001
0010
0100
0000
,
0001
0010
0100
1000
,
0001
0000
0100
0010
0100
0010
0100
0000
,
0001
1000
0100
0010
,
0001
1000
0010
0100
,
0010
1000
0100
0010
,
0001
1000
0001
0100
,
0110
1000
0100
0010
,
0011
1000
0001
0100
,
0110
0010
1000
0100
,
1000
0010
1000
0000
0001
1000
0001
0000
,
1000
0100
1000
0100
0000
0001
0100
0000
,
1000
0010
1000
0010
0000
0001
0010
0000
,
1000
0100
0001
0100
0000
1000
0001
1000
,
0001
0100
1000
0100
0000
0001
1000
0001
,
0010
0100
1000
1000
0010
0100
0001
0001
,
0100
0010
1000
1000
0100
0010
0001
0001
,
1000
0010
1000
0001
0010
0001
0100
0010
,
0200
0000
0000
0300
,
0110
0000
0000
0000
0010
0000
1000
0000
0001
0000
0000
0001
0000
0000
0001
0000
,
0011
1010
0101
1100
,
0001
0000
0000
0001
0000
0000
0001
0000
1000
0000
0000
1000
0000
0000
1000
0000
,
0100
0010
0001
0000
0100
0010
1000
0000
,
0001
0000
0000
0001
0000
0000
0001
0000
0100
0000
0000
0000
0110
0000
0000
0000
,
1000
0000
0000
1000
0000
0000
1000
0000
0100
0000
0000
0000
0110
0000
0000
0000
,
0001
0000
0001
1000
0000
1000
0010
0000
0010
0100
0000
0100
,
0001
1000
0010
0000
0100
0010
0110
0000
,
1001
0000
0000
0000
0000
0000
0001
0000
1000
0000
0000
1000
0000
0000
1000
0000
,
0010
0100
0001
0000
1000
0001
0010
0000
,
0110
0000
0000
0100
1000
0001
0100
0010
,
0000
1000
0100
0000
0010
0001
1000
0000
,
0001
0100
0001
0000
0010
0100
0010
0000
,
0100
1000
0100
0000
1000
0010
1000
0000
,
0001
0100
1000
0100
0001
1000
0100
1000
,
0010
0000
0100
0000
0001
0000
1000
0000
0100
0000
0010
0000
0001
1000
0001
1000
,
0000
0000
0000
2002
0000
0000
0000
0000
,
0000
0000
0000
0000
,
0000
0000
0000
0000
,
0000
0000
0000
0000
,
0000
0000
3003
0000
;

//--------------- dance-single - Fred-104 ----------------
#NOTEDATA:;
#STEPSTYPE:dance-single;
#DESCRIPTION:Fred-104;
#DIFFICULTY:Hard;
#METER:16;
#CREDIT:Fred-104;
#NOTES:
0000
0000
0000
0000
,
0000
0000
0000
0000
,
0000
0000
0000
0000
,
0000
0000
0000
0000
,
0000
0000
0000
0000
,
0001
0000
0010
0000
0100
1000
0010
0000
,
0100
0010
1000
0100
,
0010
0001
1000
0000
,
0010
0000
0000
0000
0000
0000
0000
0000
0000
0000
0000
0000
0000
0000
0000
0000
0000
0000
0000
0000
0000
0000
0000
0000
0000
0000
0000
0000
0000
0000
0000
0000
0000
0000
0000
0000
0000
0000
0000
0000
0000
0000
0000
0000
0000
0000
0000
0000
0100
0000
0000
0000
0000
0000
0000
0000
0000
0000
0000
0000
0000
0000
0000
0000
0000
0000
0000
0000
0000
0000
0000
0000
0000
0000
0000
0000
0000
0000
0000
0000
0000
0000
0000
0000
0000
0000
0000
0000
0000
0000
0000
0000
0000
0000
0000
0000
0001
0000
0000
0000
0000
0000
0000
0000
0000
0000
0000
0000
0000
0000
0000
0000
0000
0000
0000
0000
0000
0000
0000
0001
0000
0000
0000
0000
0000
0000
0000
0000
0000
0000
0000
0000
0000
0000
0000
0000
0000
0000
0000
0000
0000
0000
0000
0000
0000
0000
0000
0000
0000
0000
0000
0000
0000
0000
0000
0000
0000
1000
0000
0000
0000
0000
0000
0000
0000
0000
0000
0000
0000
0000
0000
0000
0000
0000
0000
0001
0000
0000
0000
0000
0000
0000
0000
0000
0000
0000
0000
0000
0000
0000
0000
0000
,
0000
0000
0000
0000
,
1000
0000
0100
0000
0010
0000
0001
1000
0001
0000
0100
0000
0010
0000
1000
0001
,
1000
0000
0001
0000
0100
0000
0001
1000
0001
0000
1000
0000
0100
0000
0010
0001
,
0010
0000
0001
0000
1000
0000
0010
0100
0010
0000
1000
0000
0001
0000
0010
0100
,
0010
0000
0001
0000
1000
0000
0001
0100
0001
0100
0010
0000
1000
0000
0000
0000
,
0001
0000
1000
0000
0100
0000
0010
0001
0010
0000
0100
0000
1000
0000
0001
0100
,
0001
0000
1000
0000
0100
0000
0010
0100
0010
0000
0100
0000
1000
0001
1000
0001
,
1000
0000
0000
0000
0000
0000
0000
0000
0000
1000
0000
0000
0000
0000
0000
0000
0000
0000
1000
0000
0000
0000
0000
0000
0001
0000
0000
0000
0100
0000
0000
0000
0001
0000
0000
0000
0100
0000
0000
0000
0010
0000
0000
0000
1000
0000
0000
0000
,
0001
0000
0010
0000
0100
0000
1000
0000
0001
0000
0001
0000
1000
0001
1000
0001
,
1000
0000
0001
0010
0000
0100
0010
1000
,
0000
0000
0010
0000
0001
0000
1000
0000
0010
0000
0000
0010
0000
0000
0010
0000
,
1000
0000
0001
0010
0000
1000
0010
0000
,
0100
0001
0000
0100
1000
0001
1000
0000
,
0001
0000
1000
0100
0000
0010
0001
1000
,
0010
0000
0010
0000
0010
0000
0010
0100
0010
0000
1000
0000
0001
0000
0000
0000
,
0010
0000
0000
0010
0000
0000
0010
0000
0100
0000
0000
0000
1100
0000
0000
0000
,
0001
0000
0001
0000
1000
0010
0000
0010
0100
0001
0100
0001
0100
0000
0000
0000
,
1001
0000
1000
0100
0000
0001
0100
0010
,
0000
0000
0100
0000
1000
0000
0001
0100
0001
0000
0000
0001
0000
0000
0001
0000
,
0010
0000
0000
0001
0000
1000
0010
0100
0001
1000
0100
0010
,
0001
0000
0000
1000
0010
0000
0010
0000
0100
0000
0000
0100
0000
0000
0100
0000
,
0110
0000
0000
0000
0000
0000
0001
1000
0001
0000
0010
0100
0010
0000
0001
0000
,
1000
0010
0100
0001
0100
0010
1000
0001
0010
0100
1000
0001
,
0100
0000
0001
0000
0100
0000
0001
0000
1000
0000
0100
0000
1000
0000
0100
0000
0010
0000
0001
0000
0000
0001
0000
0000
,
1000
0000
0000
1000
0000
0000
0001
0000
0000
0001
0000
0000
0100
0000
0010
0000
1000
0000
0100
0000
0010
0000
0001
0000
,
1000
0000
0001
0000
1000
0000
0100
0000
0000
0000
0100
0010
0100
0000
0010
0000
,
0001
0000
0000
0000
1000
0000
0001
0000
0000
0000
0001
0100
0001
0000
0010
0000
,
0100
0000
1000
0000
0100
0000
1000
0000
0001
0000
0100
0000
0010
1000
0010
1000
,
0001
0000
0010
0100
0010
0000
0001
0000
1000
0000
0001
0000
1001
0000
0000
0000
,
0001
0000
0010
0100
0010
0000
0001
0000
1000
0000
0001
0000
0100
0000
0001
0000
,
0000
0000
1000
0100
1000
0000
0010
0000
0100
0000
0001
1000
0001
0000
0010
0000
,
0001
1000
0010
0100
0001
1000
0100
0010
,
0001
0000
1000
0010
1000
0000
0001
0000
1000
0100
1000
0100
1000
0100
1000
0100
,
1000
0001
0100
1000
0001
0010
0100
0001
,
0010
0100
0001
1000
0010
0100
1000
0001
,
0000
1000
0001
0010
1000
0001
0100
0010
,
0001
0000
1000
0100
1000
0000
0001
0000
0100
0010
0100
0010
0100
0010
0100
0010
,
0100
0000
0000
0000
,
0000
0000
0000
0000
0000
0000
0001
0010
0100
1000
0100
0010
,
0001
0000
0001
0100
0000
0100
0010
0000
0010
1000
0000
1000
,
0001
0000
0001
0010
0000
0010
0100
1000
0001
0100
0001
1000
,
0010
1000
0010
1000
0001
1000
0100
1000
0100
1000
0001
1000
,
0020
0000
0000
0000
,
0000
0000
0000
0000
,
0000
0000
0000
0000
,
0000
1030
1000
1000
,
0001
0010
0001
0000
0100
0001
1000
0000
,
0100
0010
0001
1000
0001
0000
1000
0000
,
0001
0000
0100
0010
0100
0001
1000
0000
,
0001
0010
0100
1000
0001
0000
1001
0000
,
1000
0100
1000
0100
0010
0001
0010
0001
,
1000
0010
0001
0000
1000
0100
0001
0000
,
1000
0100
1000
0100
0010
0100
0001
0100
,
1000
0000
0001
0100
0010
1000
0001
0000
,
1000
0000
0000
0100
0000
0000
0010
0000
0000
0001
1000
0010
,
0100
0000
0000
0010
0000
0000
0100
0000
0000
0001
0010
0100
,
1000
0001
0010
0100
,
1000
0000
0000
0001
0000
0000
0100
0000
0000
0010
1000
0100
,
0010
0000
0000
0001
0000
0000
0101
0000
0000
1000
0100
0010
,
0001
0000
0000
1010
0000
0000
0001
0000
0000
1000
0001
0010
,
0100
0000
0010
0001
0100
0000
0001
0000
,
1000
0100
0010
0001
1000
1000
1001
0000
,
0001
0010
0001
0010
0000
0100
0010
0001
,
1000
0010
1000
0010
0000
0100
0010
1000
,
0001
1000
0100
0001
0000
1000
0010
0001
,
1000
0010
0100
0001
0000
1000
0100
1000
,
0001
0001
0010
0100
1000
1000
0010
0100
,
0001
0001
0100
0010
1000
1000
0100
0010
,
0001
1000
0001
1000
0001
1000
0001
1000
0001
1000
0001
1000
0001
1000
0001
1000
,
0001
0000
0000
0000
,
1001
0000
0000
0000
0001
0000
1000
0000
0010
0000
0000
1000
0000
0000
0100
0000
,
0110
0011
1010
0101
,
0001
0000
0010
0100
0000
0010
0001
0000
1000
0000
0001
0100
0000
0001
1000
0000
,
0100
0000
0010
0001
0010
0000
0100
1000
0100
0000
1000
0001
1000
0000
0001
0000
,
0100
0000
0000
0100
0000
0000
0100
0000
0110
0000
1000
0000
0001
0000
1000
0000
,
0010
0000
0000
0010
0000
0000
0010
0000
0100
0000
0001
0000
1000
0100
1000
0100
,
1000
0000
1000
0001
0000
0001
1000
0010
0100
0001
1000
0100
,
0010
0000
0001
0000
0010
0001
0000
0001
1000
0010
1000
0010
0100
0000
0001
0000
,
1001
0000
0000
0000
0000
0000
0001
1000
0010
0000
0000
0100
0000
0000
0001
0000
,
1000
0100
0100
0100
0010
0001
0010
0001
,
1001
0000
0000
0000
0000
0000
1000
0001
0100
0000
0001
1000
0001
0000
0001
0000
,
0000
0000
1000
0000
1000
0000
0010
0000
0100
0000
0001
1000
0001
1000
0001
0000
,
0010
0000
0100
0000
1000
0000
0001
0000
0100
0000
0010
0000
1000
0000
0001
0010
,
0001
0000
1000
0000
0001
1000
0001
0000
0010
0000
0100
1000
0100
0000
0010
0000
,
0001
0001
1000
1000
0010
0010
0100
0100
,
0001
1000
0001
1000
0001
1000
0001
1000
0001
1000
0001
1000
0001
1000
0001
1000
,
0000
0000
0000
0022
0000
0000
0000
0000
,
0000
0000
0000
0000
,
0000
0000
0000
0000
,
0000
0000
0000
0000
,
0000
0000
0033
0000
;

//--------------- dance-single - Fred-104† ----------------
#NOTEDATA:;
#STEPSTYPE:dance-single;
#DESCRIPTION:Fred-104†;
#DIFFICULTY:Challenge;
#METER:18;
#CREDIT:Fred-104†;
#NOTES:
0000
0000
0000
0000
,
0000
0000
0000
0000
,
0000
0000
0000
0000
,
0000
0000
0000
0000
,
0000
0000
0000
0000
,
1000
0010
1000
0100
,
0010
0001
1000
0010
,
0100
0100
0100
0100
,
0100
0000
0000
0000
0000
0000
0000
0000
0000
0000
0000
0000
0000
0000
0000
0000
0000
0000
0000
0000
0000
0000
0000
0000
0000
0000
0000
0000
0000
0000
0000
0000
0000
0000
0000
0000
0000
0000
0000
0000
0000
0000
0000
0000
0000
0000
0000
0000
0100
0000
0000
0000
0000
0000
0000
0000
0000
0000
0000
0000
0000
0000
0000
0000
0000
0000
0000
0000
0000
0000
0000
0000
0000
0000
0000
0000
0000
0000
0000
0000
0000
0000
0000
0000
0000
0000
0000
0000
0000
0000
0000
0000
0000
0000
0000
0000
0100
0000
0000
0000
0000
0000
0000
0000
0000
0000
0000
0000
0000
0000
0000
0000
0000
0000
0000
0000
0000
0000
0000
0100
0000
0000
0000
0000
0000
0000
0000
0000
0000
0000
0000
0000
0000
0000
0000
0000
0000
0000
0000
0000
0000
0000
0000
0000
0000
0000
0000
0000
0000
0000
0000
0000
0000
0000
0000
0000
0000
0100
0000
0000
0000
0000
0000
0000
0000
0000
0000
0000
0000
0000
0000
0000
0000
0000
0000
0100
0000
0000
0000
0000
0000
0000
0000
0000
0000
0000
0000
0000
0000
0000
0000
0000
,
0000
0000
0000
0000
,
0001
0010
0001
0010
0001
0000
1000
0000
0010
0100
0010
0100
0010
0000
1000
0000
,
0001
0100
0001
0100
0001
0000
1000
0000
0100
0010
0100
0010
0100
0000
1000
0000
,
0001
0100
0001
0100
0010
0000
1000
0000
0001
0010
0001
0010
0100
0000
1000
0000
,
0001
1000
0001
1000
0010
0000
0100
0001
1000
0100
1000
0001
0100
0000
0000
0000
,
0001
1000
0100
0010
0001
0000
1000
0000
0010
0100
0001
0100
0010
0000
1000
0000
,
0001
1000
0100
1000
0001
0000
0100
0000
0010
1000
0010
0100
0001
1000
0100
0010
,
0001
0000
0000
0000
0000
0000
0000
0000
0000
0001
0000
0000
0000
0000
0000
0000
0000
0000
0001
0000
0000
0000
0000
0000
1000
0000
0000
0000
0100
0000
0000
0000
0001
0000
0000
0000
0100
0000
0000
0000
0010
0000
0000
0000
0001
0000
0000
0000
,
1000
0000
0000
0000
0010
0000
0000
0000
0100
0000
0000
0000
1000
0000
0000
0000
0001
0000
0000
0000
0010
0000
0000
0000
0100
0000
0000
0000
0001
0000
0000
0000
1000
0000
0000
0000
0001
0000
0000
0010
0000
0000
0100
0000
0000
1000
0000
0000
,
0001
1000
0100
0001
0100
0010
1000
0010
,
0000
0000
0001
0000
1000
0010
0001
0010
1000
0000
0001
0010
0000
0100
1000
0000
,
0010
0100
1000
0001
0010
1000
0001
0010
,
1000
0001
0100
0010
0001
1000
0010
1000
,
0001
0010
0100
0001
1000
0010
0100
0010
,
0001
0000
1000
0000
0010
0000
0100
0001
1000
0000
0100
0010
0001
0000
0000
0000
,
0100
0000
0000
0100
0000
0000
0100
0000
0110
0000
0000
0000
1001
0000
0000
0000
,
0001
0000
1000
0000
0010
0100
0000
0100
0001
1000
0100
0010
0001
1000
0010
1000
,
0001
0000
1000
0100
1000
0000
0001
0000
0100
0000
1000
0000
0001
0000
0010
0000
,
0000
0000
0100
0000
0001
1000
0100
0010
0001
0000
1000
0010
0000
0001
0010
0000
,
1010
0000
0000
1000
0001
0010
0100
1000
0010
0001
0010
1000
,
0100
0000
0010
0001
1000
0010
0100
0010
1000
0000
0001
0010
0000
1000
0010
0000
,
0011
0000
0000
0000
0001
0000
1000
0100
0010
0000
0001
1000
0010
0100
0001
1000
,
0001
0010
1000
0001
0100
0010
0100
1000
0001
0100
0010
1000
,
0001
0100
0100
1000
0100
0100
0001
0010
0010
1000
0010
0010
,
0001
0000
0000
0001
0000
0000
1000
0000
0000
1000
0000
0000
0001
0000
0100
0000
0010
0000
1000
0000
0100
0000
1000
0000
,
1001
0000
0001
0000
1000
0000
0010
0000
0000
0000
0100
0010
1000
0000
0001
0000
,
0010
0000
0100
0000
1000
0000
0001
0000
0000
0000
0100
0001
0010
0000
0001
0000
,
0100
0000
0010
0000
1000
0000
0010
0000
0100
0000
0001
0000
1000
0100
0010
0001
,
1000
0000
0000
0000
0000
0000
0001
0000
0000
0100
0000
0000
0010
0000
0000
1000
0000
0000
0001
0000
0000
0000
0000
0000
0010
0000
0000
0000
0000
0000
0010
0000
0000
0000
0000
0000
0100
0000
0000
0000
0000
0000
0100
0000
1000
0000
0100
0000
,
1000
0000
0001
0100
0010
0000
1000
0000
0001
0010
0100
0000
1000
0000
0001
0100
,
0010
0000
1000
0000
0001
0010
0100
0000
1000
0001
0100
0010
1000
0001
0010
0000
,
0001
0000
0010
0100
1000
0000
0001
0000
0100
0010
1000
0000
0001
0000
0010
0100
,
1000
0000
0001
1000
0010
0100
0001
0000
1000
0100
0010
0001
1000
0100
0010
0001
,
1000
0001
0100
1000
0001
0010
0100
1000
,
0100
0001
1000
0100
0010
0001
1000
0010
,
0000
0001
0010
0100
0010
1000
0100
0010
,
0001
0000
0010
1000
0010
0000
0001
0000
1000
0010
0100
0001
0010
0100
1000
0001
,
1000
0000
0000
0000
,
0000
0000
0000
0000
0000
0000
0100
0100
0100
0100
0100
0100
,
0001
0100
1000
0001
0010
1000
0001
0010
1000
0001
0100
1000
,
0001
0100
1000
0001
0010
1000
0001
0100
0010
1000
0001
1000
,
0100
0100
0001
0100
0100
1000
0010
0010
0001
0010
0010
1000
,
0200
0000
0000
0000
,
0000
0000
0000
0000
,
0000
0000
0000
0000
,
0000
0000
0300
0000
0200
0000
0000
0300
0200
0000
0300
0000
0200
0300
0000
0000
,
1001
0001
0010
0100
1000
0001
1000
0010
,
0001
1000
0001
0010
1000
0000
0100
0000
,
1000
0010
0100
1000
0001
0010
0100
0001
,
0010
0100
0001
1000
0010
0100
1000
0001
,
0010
0100
0001
1000
0010
0100
0010
0001
,
1000
0010
1000
0001
0010
0100
1000
0001
,
1000
0010
0001
1000
0100
0010
0001
1000
,
0100
0010
1000
0100
0010
0001
1000
0001
,
0020
0000
0000
1000
0000
0000
0100
0000
0000
0031
1000
0001
,
0200
0000
0000
1000
0000
0000
0010
0000
0000
0301
1000
0100
,
0010
0000
0000
0000
0000
0000
0001
0000
0000
1000
0000
0000
0010
0000
0000
0100
0000
0000
0001
0000
1000
0000
0001
0000
,
0200
0000
0000
0010
0000
0000
1000
0000
0000
0301
1000
0100
,
0020
0000
0000
1000
0000
0000
0100
0000
0000
0031
1000
0010
,
0100
0000
0000
0001
0000
0000
1001
1000
0100
0010
0001
1000
,
0001
0000
1000
0010
0001
0010
0100
0001
,
0010
0000
1000
0000
0001
0000
0100
0000
1000
0000
0001
1000
0001
0000
0000
0000
,
1000
0100
1000
0100
0000
0100
0001
0100
,
1000
0010
1000
0010
0000
0010
0001
0010
,
1000
0100
0010
0001
1000
0100
0010
0000
0000
0000
0001
1000
0100
0010
0001
1000
,
0001
0100
0010
1000
0001
0100
0010
0000
0000
0000
1000
0001
0100
0010
1000
0001
,
1000
0000
0100
0001
0100
0000
1000
0000
0001
0000
0100
1000
0100
0000
0001
0000
,
1000
0000
0010
0001
0010
0000
1000
0000
0001
0000
0010
1000
0010
0000
0001
0000
,
1000
0100
0010
0001
1000
0010
0100
0001
1000
0100
0010
0001
0010
0100
1000
0001
,
0100
0010
1000
0010
0100
0010
1000
0010
0100
0000
0000
0000
1001
0000
0000
0000
,
0110
0000
0000
0000
0000
0000
0000
0000
0000
0000
0000
0000
0000
0000
0000
0000
0000
0000
0000
0000
0000
0000
0000
0000
0000
0000
0000
0000
0000
0000
0000
0000
0000
0000
0000
0000
0000
0000
0000
0000
0000
0000
0000
0000
0000
0000
0000
0000
0001
0000
0000
0000
0000
0000
0000
0000
0000
0000
0000
0000
1000
0000
0000
0000
0000
0000
0000
0000
0000
0000
0000
0000
0010
0000
0000
0000
0000
0000
0000
0000
0000
0000
0000
0000
0100
0000
0000
0000
0000
0000
0000
0000
0000
0000
0000
0000
0001
0000
0000
0000
0000
0000
0000
0000
0000
0000
0000
0000
0000
0000
0000
0000
0000
0000
0000
0000
0000
0000
0000
0000
1000
0000
0000
0000
0000
0000
0000
0000
0000
0000
0000
0000
0200
0300
0000
0000
0000
0000
0000
0000
0000
0000
0000
0000
0000
0000
0000
0000
0000
0000
0000
0000
0000
0000
0000
0000
0200
0300
0000
0000
0000
0000
0000
0000
0000
0000
0000
0000
0001
0000
0000
0000
0000
0000
0000
0000
0000
0000
0000
0000
0000
0000
0000
0000
0000
0000
0000
0000
0000
0000
0000
0000
,
0011
0000
0001
0010
1000
0000
0001
0100
1000
0000
0001
0010
0100
0000
0000
0000
,
1000
0000
0100
1000
0000
0100
0010
0000
0001
0000
0100
0010
0000
1000
0001
0000
,
0010
0100
1000
0001
0100
0010
1000
0001
0010
0100
1000
0001
0100
0000
0100
0000
,
0110
0000
0000
0100
0000
0000
0100
0000
1001
0000
0001
1000
0010
0100
0010
1000
,
0001
1000
0100
0010
0001
1000
0010
0100
0001
0000
1000
0000
0001
1000
0001
1000
,
0001
0001
0010
1000
1000
0010
0001
0001
0100
1000
1000
0100
,
0001
0000
1000
0000
0001
0010
0100
1000
0010
0100
0001
0010
0100
1000
0001
1000
,
1001
0000
0000
0000
0001
1000
0100
0010
0001
0000
1000
0010
0000
0001
0010
0000
,
1010
0000
0010
0000
0010
0000
0010
0000
0010
1000
0100
0010
0001
1000
0010
0100
,
0001
0000
0000
0000
0000
0000
0000
0000
0000
0000
0000
0000
0000
0000
0000
0000
0000
0000
0000
0000
0000
0000
0000
0000
1000
0000
0000
0000
0000
0000
0000
0000
0000
0000
0000
0000
0200
0300
0000
0000
0000
0000
0000
0000
0000
0000
0000
0000
0000
0000
0000
0000
0000
0000
0000
0000
0000
0000
0000
0000
0200
0300
0000
0000
0000
0000
0000
0000
0000
0000
0000
0000
0001
0000
0000
0000
0000
0000
0000
0000
0000
0000
0000
0000
0000
0000
0000
0000
0000
0000
0000
0000
0000
0000
0000
0000
1000
0000
0000
0000
0000
0000
0000
0000
0000
0000
0000
0000
0000
0000
0000
0000
0000
0000
0000
0000
0000
0000
0000
0000
0001
0000
0000
0000
0000
0000
0000
0000
0000
0000
0000
0000
0200
0300
0000
0000
0000
0000
0000
0000
0000
0000
0000
0000
0000
0000
0000
0000
0000
0000
0000
0000
0000
0000
0000
0000
0200
0300
0000
0000
0000
0000
0000
0000
0000
0000
0000
0000
1000
0000
0000
0000
0000
0000
0000
0000
0000
0000
0000
0000
0000
0000
0000
0000
0000
0000
0000
0000
0000
0000
0000
0000
,
0001
0000
0000
0000
0000
0000
0000
0000
0000
0000
0000
0000
0000
0000
0000
0000
0000
0000
0000
0000
0000
0000
0000
0000
0010
0000
0000
0000
0000
0000
0000
0000
0000
0000
0000
0000
0100
0000
0000
0000
0000
0000
0000
0000
0000
0000
0000
0000
1000
0000
0000
0000
0000
0000
0000
0000
0000
0000
0000
0000
0001
0000
0000
0000
0000
0000
0000
0000
0000
0000
0000
0000
0100
0000
0000
0000
0000
0000
0000
0000
0000
0000
0000
0000
0010
0000
0000
0000
0000
0000
0000
0000
0000
0000
0000
0000
1000
0000
0000
0000
0000
0000
0000
0000
0000
0000
0000
0000
0000
0000
0000
0000
0000
0000
0000
0000
0000
0000
0000
0000
0001
0000
0000
0000
0000
0000
0000
0000
0000
0000
0000
0000
0020
0030
0000
0000
0000
0000
0000
0000
0000
0000
0000
0000
0000
0000
0000
0000
0000
0000
0000
0000
0000
0000
0000
0000
0020
0030
0000
0000
0000
0000
0000
0000
0000
0000
0000
0000
1000
0000
0000
0000
0000
0000
0000
0000
0000
0000
0000
0000
0000
0000
0000
0000
0000
0000
0000
0000
0000
0000
0000
0000
,
0001
0010
0100
1000
0001
0000
0101
0000
1001
0000
1000
0010
0100
0001
1000
0100
,
0010
0001
0010
0100
0010
0001
0010
0100
0010
0001
1000
0010
0100
0010
1000
0001
,
1000
0100
0010
0001
1000
0010
0100
0010
1000
0001
0010
0100
0010
0001
1000
0010
,
0100
0001
1000
0100
0010
0001
1000
0001
0010
0100
1000
0010
0100
0001
0010
0100
,
0000
0000
0000
2020
0000
0000
0000
0000
,
0000
0000
0000
0000
,
0000
0000
0000
0000
,
0000
0000
0000
0000
,
0000
0000
3030
0000
;

//--------------- dance-double - Fred-104 ----------------
#NOTEDATA:;
#STEPSTYPE:dance-double;
#DESCRIPTION:Fred-104;
#DIFFICULTY:Easy;
#METER:9;
#CREDIT:Fred-104;
#NOTES:
00000000
00000000
00000000
00000000
,
00000000
00000000
00000000
00000000
,
00000000
00000000
00000000
00000000
,
00000000
00000000
00000000
00000000
,
00000000
00000000
00000000
00000000
,
20000000
30000000
00200000
00300000
,
20000000
30000000
02000000
03000000
,
00200000
00300000
00022000
00000000
,
00000000
00000000
00000000
00000000
,
00000000
00033000
00000000
00000000
00000000
00000000
00000000
00000000
00000000
00000000
00000000
00000000
00000000
00000000
00000000
00000000
,
00010000
00001000
00000010
00000001
,
00001000
00000010
00001000
00000010
,
00000100
00000001
00000010
00000100
,
00010000
00000000
00001000
00000000
00010000
00010000
00010000
00000000
,
00001000
00010000
00100000
01000000
,
00010000
00000000
00100000
00000000
01000000
10000000
01000000
00000000
,
10010000
00000000
01100000
00000000
,
10000000
00000000
00100000
00000000
00010000
00001000
00010000
00000000
,
00011000
00000000
00000000
00001000
00000000
01000000
00000000
00001000
,
00000000
00010000
00001000
00000100
,
00000001
00000000
00000000
00000010
00000000
00000000
00000100
00000000
,
00000000
00001000
00000000
00000000
00000100
00010000
00001000
00000000
,
00010000
00000000
00000000
00001000
00000000
00000000
00100000
00000000
,
00001000
00010000
00100000
10000000
,
01000000
00100000
00110000
00000000
,
00001000
00000000
00001000
00000000
00010000
00001000
00010000
00000000
,
00011000
00000000
00000000
00010000
00000000
00001000
00000000
01000000
,
00000000
00001000
00010000
00000100
,
00000010
00000000
00000001
00000010
,
00000100
00000010
00001000
00010000
,
00001000
00000000
01000000
00001000
,
00010000
00000100
00000010
00000001
,
00001000
00001000
00000010
00000010
,
00000100
00000000
00001000
00000000
00010000
00001000
00010000
00000000
,
00002000
00000000
00000000
00003000
,
00020000
00000000
00000000
00030000
,
00002000
00003000
00020000
00030000
,
00100000
10000000
01000000
00100000
,
00001000
00000000
00000000
00010000
00000000
00000000
00100000
00000000
,
00000000
00010000
00000000
00000000
00001000
00000000
00010000
00000000
,
00001000
00000000
00000000
00000010
00000000
00000000
00001000
00000000
,
00000000
00010000
00000000
00000000
00001000
00010000
00001000
00000000
,
00010000
00001000
00100000
00001000
,
00010000
00000000
00000000
00000100
00000000
00000000
00000010
00000000
,
00000001
00001000
00000010
00000100
,
00001000
00000000
00010000
00000000
00001000
00010000
00001000
00000000
,
00011000
00000000
00000000
00000000
,
00000000
00000000
00000000
00000000
,
00001000
00010000
00100000
10000000
,
01000000
00010000
00001000
00000010
,
00000001
00000100
00001000
00010000
,
00011000
00000000
00000000
00000000
,
00000000
00000000
00000000
00000000
,
00000000
00000000
00000000
00000000
,
00000000
00000000
00000000
00000000
,
00020000
00030000
00002000
00003000
,
00000200
00000301
00000020
00000030
,
00000200
00000300
00020000
00030000
,
00002000
00013000
00200000
00300000
,
02000000
03000000
00020000
00030000
,
20000000
31000000
00200000
00300000
,
00002000
00003000
00020000
00030000
,
00001000
00001000
00010000
00010000
,
00011000
00000000
00001000
00010000
,
00100000
00000000
01000000
00010000
,
10000000
00000000
01000000
00100000
,
00001000
00000000
00010000
00000010
,
00010000
00000000
00001000
00100000
,
00001000
00000000
00010000
00001000
,
00000100
00000000
00000001
00000010
,
00000100
00000000
00000100
00000000
00010000
00001000
00010000
00000000
,
00011000
00000000
00000000
00000000
,
00000000
00000000
00000000
00000000
,
00001000
00000000
00000000
00001000
00000000
00000000
00001000
00000000
,
00010000
00000000
00000000
00010000
00000000
00000000
00010000
00000000
,
00001000
00001000
00010000
00010000
,
00100000
00100000
10000000
10000000
,
01000000
00000000
00010000
00000000
00001000
00010000
00001000
00000000
,
00011000
00000000
00000000
00000000
,
00010000
00000100
00010000
00000100
,
00001000
00000100
00000010
00000001
,
00000100
00000000
00001000
00000000
,
00010000
00100000
01000000
00010000
,
00100000
00000000
01000000
00000000
,
10000000
00100000
00010000
00000000
,
00001000
00000000
00010000
00000000
,
00001000
00001000
00010000
00010000
,
00001000
00000000
00010000
00001000
,
00000100
00000001
00000010
00000100
,
00000010
00000000
00000000
00000001
00000000
00000000
00001000
00000000
,
00000000
00000010
00000000
00000000
00010000
00000000
00001000
00000000
,
00010000
00001000
01000000
00001000
,
01000000
00010000
00100000
01000000
,
10000000
00100000
00010000
00001000
,
00010000
00000000
00001000
00000000
01000000
00010000
01000000
00010000
,
00000000
00000000
00000000
20020000
00000000
00000000
00000000
00000000
,
00000000
00000000
00000000
00000000
,
00000000
00000000
00000000
00000000
,
00000000
00000000
00000000
00000000
,
00000000
00000000
30030000
00000000
;

//--------------- dance-double - Fred-104 ----------------
#NOTEDATA:;
#STEPSTYPE:dance-double;
#DESCRIPTION:Fred-104;
#DIFFICULTY:Medium;
#METER:13;
#CREDIT:Fred-104;
#NOTES:
00000000
00000000
00000000
00000000
,
00000000
00000000
00000000
00000000
,
00000000
00000000
00000000
00000000
,
00000000
00000000
00000000
00000000
,
00000000
00000000
00000000
00000000
,
00000001
00000100
00000010
00001000
,
00000001
00000010
00000100
00010000
,
00001000
00010000
00022000
00000000
,
00000000
00000000
00000000
00000000
,
00000000
00033000
00000000
00000000
00000000
00000000
00000000
00000000
00000000
00000000
00000000
00000000
00000000
00000000
00000000
00000000
,
01000000
00010000
01000000
00000000
00010000
10000000
00010000
00000000
,
10000000
01000000
10000000
00000000
01000000
00010000
01000000
00000000
,
00010000
00001000
00010000
00000000
00001000
00100000
00001000
00000000
,
00010000
00000010
00010000
00000010
00001000
00000010
00000100
00000000
,
00000010
00001000
00000100
00000000
00000010
00000001
00001000
00000000
,
00000010
00000100
00001000
00000000
00010000
00001000
00010000
00001000
,
00010000
00000000
00000000
00010000
00000000
00000000
00010000
00000000
00001000
00000000
00000000
00000000
00011000
00000000
00000000
00000000
,
01001000
00000000
01100000
00000000
00010000
10000000
00010000
00000000
,
10000000
00000000
01000000
00100000
00000000
00001000
00000000
00010000
,
00000000
00000000
00000010
00000000
00001000
00000000
00000000
00000000
00000100
00000000
00000000
00000010
00000000
00000000
00000001
00000000
,
00001000
00000000
00000000
00000100
00000000
00000000
00000010
00000000
,
00000000
00001000
00000000
00010000
00001000
00010000
00001000
00010000
,
00011000
00000000
00000000
00001000
00000000
01000000
00010000
10000000
,
02000000
00010000
00100000
13000000
,
01000000
00000000
00000000
01000000
00000000
00000000
00100000
00000000
00001000
00000000
00000000
00000000
00011000
00000000
00000000
00000000
,
00010000
00001000
00000100
00000000
00000010
00000010
00000010
00000000
,
00001001
00000000
00000001
00000010
00000000
00001000
00000000
00100000
,
00000000
00000000
00001000
00000000
00010000
00000000
00000000
00000000
00001000
00000000
00000000
00000100
00000000
00000000
00000001
00000000
,
00001000
00000010
00010010
00101000
,
00010000
00000000
00001000
00000000
00010000
00000000
00000000
00000000
00001000
00000000
00000000
01000000
00000000
00000000
00010000
00000000
,
00110000
00000000
00000000
10000000
01000000
00010000
00001000
00000000
,
00010000
00000000
00001000
00000100
00000000
00000000
00001000
00000000
00000100
00000001
00000000
00000000
,
00000011
00001010
00011000
01001000
,
00001000
00010000
00001000
00000000
00011000
00000000
01100000
00000000
,
10010000
00000000
00000000
10000000
00000000
00000000
01000000
00000000
,
00100000
00000000
00000000
00001000
00000000
00000000
00000010
00000000
,
00000100
00001000
00000010
00000100
,
00001000
00000000
00010000
00000000
00001000
00010000
00001000
00000000
,
00010000
00001000
00000000
00001000
00000010
00000000
00000010
00000001
,
00000000
00000001
00001000
00000000
00000100
00000010
00001000
00000000
,
00010000
00001000
00000000
00001000
01000000
00000000
01000000
00010000
,
00000000
00010000
00100000
00000000
01000000
10000000
00010000
00000000
,
01000000
00000000
00100000
10000000
01000000
00000000
00100000
00001000
,
00010000
00000000
00001000
00000100
00000000
00000001
00000010
00000000
,
00000100
00000000
00001000
00000001
00000100
00000000
00001000
00010000
,
00001000
00000000
01000000
00000000
00001000
00010000
00001000
00010000
,
00001000
00000000
00000000
00000000
,
00000000
00000000
01000000
01000000
,
01100000
00000000
00100000
10000000
00000000
00000000
10000000
00000000
10000000
01000000
00000000
00000000
,
01000000
00000000
01000000
00100000
00000000
00000000
00100000
00000000
00100000
00001000
00000000
00000000
,
00001000
00000000
00001000
00010000
00000000
00010000
00001000
00010000
00001000
00010000
00001000
00010000
,
00002000
00000000
00000000
00000000
,
00000000
00000000
00000000
00000000
,
00000000
00000000
00000000
00000000
,
00000000
00003000
00000000
00000000
,
00010000
00001000
00000010
00000100
,
00000010
00000000
00000001
00001000
00000010
00000000
00000000
00000000
,
00010000
00100000
01000000
00010000
,
10000000
01000000
00010000
00000000
00001000
00000010
00000001
00000000
,
00001000
00000100
00000010
00001000
,
00010000
00001000
01000000
00000000
00001000
00010000
00000100
00000000
,
00010000
00001000
00000100
00000001
,
00000010
00000000
00000100
00010000
00001000
00010000
01000000
00000000
,
10000000
00100000
00010000
00001000
,
00010000
01000000
00010000
00001000
,
00000010
00001000
00010000
00001000
,
00000100
00000001
00000010
00000100
,
00001100
00000001
00001000
00000100
,
00010100
00001000
01000000
00010000
,
01100000
10000000
01000000
00100000
,
00001000
00000000
00001000
00000000
00010000
00001000
00010000
00000000
,
00001000
01000000
00001000
01000000
00000000
00001000
00010000
00000000
,
00010000
00000100
00010000
00000100
00000000
00010000
00001000
00000000
,
00001000
00010000
00100000
01000000
00000000
00010000
10000000
00000000
,
01000000
00100000
00001000
00010000
00000000
00000100
00000010
00000000
,
00000001
00000100
00001000
00010000
00100000
10000000
00010000
00000000
,
10000000
01000000
00010000
00001000
00000010
00000001
00001000
00000000
,
00000001
00000100
00000010
00000100
00001000
00010000
00001000
01000000
,
00002000
00000000
00000000
00003000
,
00011000
00000000
00000000
00000000
00001000
00000000
00010000
00000000
00100000
00000000
00000000
10000000
00000000
00000000
01000000
00000000
,
01100000
01001000
00010100
00000110
,
00000001
00000000
00000000
00001000
00000000
00000000
00000100
00000000
00000010
00000000
00000000
00000001
00000000
00000000
00001000
00000000
,
00000010
00010000
00001000
00000000
01000000
00010000
00100000
00000000
,
01000000
00000000
00000000
01000000
00000000
00000000
01000000
00000000
10000000
00000000
00000000
00000000
10010000
00000000
00000000
00000000
,
10000000
00000000
00000000
01000000
00000000
00000000
00010000
00000000
00001000
00000000
00000000
00000000
00011000
00000000
00000000
00000000
,
00010000
00000000
00010000
00001000
00000000
00001000
00000100
00000000
00000100
00000010
00000000
00000010
,
00001000
00000100
00000010
00000001
00000100
00001000
00010000
00000000
,
00011000
00000000
00000000
00000000
00000000
00000000
00001000
00000000
01000000
00000000
00000000
01000000
00000000
00000000
01000000
00000000
,
00010000
00100000
00010000
00100000
01000000
10000000
00010000
00000000
,
10010000
00000000
00000000
10000000
01000000
00100000
00001000
00001000
,
00000000
00010000
00000010
00000000
00001000
00000001
00000010
00000000
,
00000100
00001000
00000001
00000000
00000100
00001000
00010000
00000000
,
01000000
00100000
00010000
00000000
10000000
00100000
00010000
00000000
,
00001000
00010000
00100000
00010000
00001000
00010000
01000000
00010000
,
00001000
00000000
00010000
00000000
00000010
00000000
00001000
00000000
00000100
00000000
00000010
00000000
00000001
00001000
00000001
00001000
,
00000000
00000000
00000000
00002002
00000000
00000000
00000000
00000000
,
00000000
00000000
00000000
00000000
,
00000000
00000000
00000000
00000000
,
00000000
00000000
00000000
00000000
,
00000000
00000000
00003003
00000000
;

//--------------- dance-double - Fred-104 ----------------
#NOTEDATA:;
#STEPSTYPE:dance-double;
#DESCRIPTION:Fred-104;
#DIFFICULTY:Hard;
#METER:16;
#CREDIT:Fred-104;
#NOTES:
00000000
00000000
00000000
00000000
,
00000000
00000000
00000000
00000000
,
00000000
00000000
00000000
00000000
,
00000000
00000000
00000000
00000000
,
00000000
00000000
00000000
00000000
,
00001000
00000000
00010000
00000000
01000000
10000000
00010000
00000000
,
01000000
00000000
00100000
00000000
00010000
00001000
00000100
00000000
,
00000010
00010000
00100000
00000000
,
01000000
00000000
00000000
00000000
00000000
00000000
00000000
00000000
00000000
00000000
00000000
00000000
00000000
00000000
00000000
00000000
00000000
00000000
00000000
00000000
00000000
00000000
00000000
00000000
00000000
00000000
00000000
00000000
00000000
00000000
00000000
00000000
00000000
00000000
00000000
00000000
00000000
00000000
00000000
00000000
00000000
00000000
00000000
00000000
00000000
00000000
00000000
00000000
00001000
00000000
00000000
00000000
00000000
00000000
00000000
00000000
00000000
00000000
00000000
00000000
00000000
00000000
00000000
00000000
00000000
00000000
00000000
00000000
00000000
00000000
00000000
00000000
00000000
00000000
00000000
00000000
00000000
00000000
00000000
00000000
00000000
00000000
00000000
00000000
00000000
00000000
00000000
00000000
00000000
00000000
00000000
00000000
00000000
00000000
00000000
00000000
00010000
00000000
00000000
00000000
00000000
00000000
00000000
00000000
00000000
00000000
00000000
00000000
00000000
00000000
00000000
00000000
00000000
00000000
00000000
00000000
00000000
00000000
00000000
00010000
00000000
00000000
00000000
00000000
00000000
00000000
00000000
00000000
00000000
00000000
00000000
00000000
00000000
00000000
00000000
00000000
00000000
00000000
00000000
00000000
00000000
00000000
00000000
00000000
00000000
00000000
00000000
00000000
00000000
00000000
00000000
00000000
00000000
00000000
00000000
00000000
00000000
00010000
00000000
00000000
00000000
00000000
00000000
00000000
00000000
00000000
00000000
00000000
00000000
00000000
00000000
00000000
00000000
00000000
00000000
00010000
00000000
00000000
00000000
00000000
00000000
00000000
00000000
00000000
00000000
00000000
00000000
00000000
00000000
00000000
00000000
00000000
,
00000000
00000000
00000000
00000000
,
00010000
00001000
00000010
00000100
00001000
00010000
00100000
01000000
,
00100000
00001000
00000100
00000010
00001000
00010000
01000000
00000000
,
00001000
00000010
00000100
00010000
00001000
00100000
01000000
00100000
,
00010000
00001000
00000010
00000100
00001000
01000000
00010000
00000000
,
01000000
00010000
00001000
00000100
00001000
00000010
00010000
00100000
,
00010000
00000000
00001000
00000000
00000100
00000000
00000010
00000000
00010000
00000000
00001000
00000000
00100000
00001000
00100000
00001000
,
00010000
00000000
00000000
00000000
00000000
00000000
00000000
00000000
00000000
00010000
00000000
00000000
00000000
00000000
00000000
00000000
00000000
00000000
00010000
00000000
00000000
00000000
00000000
00000000
00001000
00000000
00000000
00000000
00010000
00000000
00000000
00000000
00100000
00000000
00000000
00000000
01000000
00000000
00000000
00000000
00100000
00000000
00000000
00000000
00010000
00000000
00000000
00000000
,
00001000
00000000
00000000
00000000
00000000
00000000
00001000
00000000
00000000
00000000
00000000
00000000
00010000
00000000
00000000
00000000
00000000
00000000
00010000
00000000
00000000
00000000
00000000
00000000
00001000
00000000
00000000
00000000
00010000
00000000
00000000
00000000
00001000
00000000
00000000
00000000
00010000
00000000
00000000
00001000
00000000
00000000
00010000
00000000
00000000
00001000
00000000
00000000
,
00010000
00000000
00001000
00000100
00000000
00000010
00001000
00000100
,
00000000
00000000
00001000
00000000
00000010
00000000
00000100
00000000
00001000
00000000
00000000
01000000
00000000
00000000
00010000
00000000
,
00100000
00000000
01000000
00100000
00000000
00001000
00000010
00000000
,
00000100
00001000
00000000
00010000
00100000
00001000
01000000
00010000
,
00100000
00000000
01000000
00010000
00000000
00001000
00010000
01000000
,
00100000
00000000
00010000
00000000
00100000
00000000
00001000
00010000
00001000
00000000
00000100
00000000
00000010
00000000
00000000
00000000
,
00000100
00000000
00000000
00001000
00000000
00000000
00010000
00000000
00001000
00000000
00000000
00000000
00011000
00000000
00000000
00000000
,
00001000
00000000
00001000
00000000
01000000
00010000
00000000
00010000
00100000
01000000
00100000
01000000
00100000
00000000
00000000
00000000
,
00010000
00000000
01000000
00100000
00000000
00010000
00001000
00000010
,
00000000
00000000
00000100
00000000
00000010
00000000
00001000
00010000
00001000
00000000
00000000
00001000
00000000
00000000
00001000
00000000
,
00010000
00000000
00000000
00001000
00000000
00010000
00100000
01000000
00010000
00100000
01000000
00100000
,
00010000
00000000
00000000
01000000
00100000
00000000
00010000
00000000
00001000
00000000
00000000
00001000
00000000
00000000
00001000
00000000
,
00011000
00000000
00000000
00000000
00000000
00000000
00010000
00001000
00010000
00000000
00000010
00001000
00000010
00000000
00010000
00000000
,
00001000
00010000
00001000
00010000
00000010
00010000
00001000
00100000
00001000
00100000
00010000
00001000
,
00000010
00000000
00010000
00000000
00000010
00000000
00010000
00000000
00001000
00000000
00010000
00000000
00001000
00000000
00000100
00000000
00001000
00000000
00010000
00000000
00000000
00010000
00000000
00000000
,
00001000
00000000
00000000
00010000
00000000
00000000
00001000
00000000
00000000
00010000
00000000
00000000
01000000
00000000
00100000
00000000
00010000
00000000
01000000
00000000
00001000
00000000
00010000
00000000
,
00001000
00010000
00001000
00010000
00000000
00000010
00000100
00000010
,
00001000
00000000
00000100
00000010
00000000
00001000
00100000
00010000
,
00001000
00000100
00010000
01000000
00100000
00001000
00010000
00000010
,
00000100
00001000
00010000
00100000
01000000
00001000
00010000
00000000
,
00001000
00010000
01000000
00100000
00010000
00001000
00000100
00010000
,
00000000
00000010
00010000
00100000
01000000
00001000
00010000
00001000
,
00000100
00000010
00001000
00000100
00000010
00001000
00010000
01000000
,
00000000
00100000
00001000
00010000
00001000
00010000
00100000
00010000
,
00001000
00010000
01000000
00100000
00001000
00000010
00000100
00010000
,
00001000
00000100
00000010
00000100
00001000
00010000
00001000
00010000
,
00000000
00000010
00010000
00100000
01000000
00001000
00010000
01000000
,
00100000
00000000
00010000
00000000
01000000
00000000
00001000
00000000
00010000
00001000
00010000
00001000
00010000
00001000
00010000
00001000
,
00010000
00000000
00000000
00000000
,
00000000
00000000
00000000
00000000
00000000
00000000
00001000
00010000
00001000
00010000
00100000
01000000
,
00010000
00000000
00010000
01000000
00000000
01000000
00100000
00000000
00100000
00010000
00000000
00010000
,
00001000
00000000
00001000
00000100
00000000
00000100
00000010
00001000
00000100
00000010
00000100
00010000
,
00001000
00010000
00001000
00100000
00001000
00010000
00001000
00010000
00001000
01000000
00001000
00010000
,
00002000
00000000
00000000
00000000
,
00000000
00000000
00000000
00000000
,
00000000
00000000
00000000
00000000
,
00000000
00013000
00010000
00010000
,
00001000
00010000
00100000
00000000
01000000
00010000
00100000
00000000
,
01000000
00100000
00001000
00010000
00001000
00000000
00010000
00000000
,
00001000
00000100
00000010
00000000
00001000
00000100
00000010
00000000
,
00000100
00001000
00000010
00000100
00001000
00010000
00001000
00000000
,
00010000
00001000
00010000
00001000
00000010
00001000
00000010
00001000
,
00010000
00001000
01000000
00001000
00000100
00000010
00001000
00000100
,
00000010
00000100
00001000
00000010
00000100
00001000
00010000
00100000
,
01000000
00001000
00000100
00000010
00000100
00001000
00010000
00100000
,
01000000
00000000
00000000
00010000
00000000
00000000
00100000
00000000
00000000
01000000
00100000
00001000
,
00010000
00000000
00000000
00000100
00000000
00000000
00000010
00000000
00000000
00000100
00001000
00000010
,
00000100
00001000
00010000
00001000
,
00010000
00000000
00000000
00000010
00000000
00000000
00010000
00000000
00000000
00100000
00010000
00001000
,
00010000
00000000
00000000
00001000
00000000
00000000
00011000
00000000
00000000
00001000
00010000
00001000
,
01000000
00000000
00000000
01001000
00000000
00000000
00001000
00000000
00000000
00010000
00001000
01000000
,
00001000
00000000
00010000
00001000
00000100
00000000
00000010
00000000
,
00001000
00000100
00000010
00001000
00010000
00010000
00011000
00000000
,
00001000
00010000
00001000
00010000
00000000
00100000
00010000
00001000
,
00010000
00001000
00010000
00001000
00000000
00000010
00001000
00010000
,
00001000
00010000
00100000
01000000
00000000
00010000
00100000
00010000
,
01000000
00100000
00010000
00001000
00000000
00010000
00001000
00000100
,
00000010
00001000
00000100
00001000
00000010
00000100
00001000
00010000
,
00100000
01000000
00010000
00100000
00010000
01000000
00100000
00010000
,
00001000
00010000
00001000
00010000
00001000
00010000
00001000
00010000
00001000
00010000
00001000
00010000
00001000
00010000
00001000
00010000
,
00001000
00000000
00000000
00000000
,
00011000
00000000
00000000
00000000
00010000
00000000
00001000
00000000
00000100
00000000
00000000
00000010
00000000
00000000
00001000
00000000
,
00000110
00010010
01001000
00011000
,
01000000
00100000
00001000
00000010
00010000
00001000
00000010
00001000
,
00010000
00001000
01000000
00001000
00000100
00000010
00010000
00000010
,
00001000
00000000
00000000
00001000
00000000
00000000
00001000
00000000
00001010
00000000
00000010
00000000
00010000
00000000
00001000
00000000
,
00010000
00000000
00000000
00010000
00000000
00000000
00010000
00000000
00001000
00000000
01000000
00000000
00010000
00100000
00010000
00100000
,
00010000
00000000
00010000
00100000
00000000
00100000
01000000
00100000
00001000
00010000
00000010
00010000
,
00001000
00000000
00010000
00000000
00001000
00100000
00000000
00100000
00001000
00010000
00001000
00010000
00001000
00000000
00010000
00000000
,
00011000
00000000
00000000
00000000
00000000
00000000
00010000
00001000
00010000
00000000
00000000
00001000
00000000
00000000
00000100
00000000
,
00000010
00001000
00010000
00001000
00000010
00000100
00001000
00010000
,
00011000
00000000
00000000
00000000
00000000
00000000
00001000
01000000
00001000
00000000
00010000
00000100
00010000
00000000
00011000
00000000
,
00000000
00000000
00001000
00000000
00001000
00000000
00010000
00000000
00100000
00000000
01000000
00100000
01000000
00100000
01000000
00000000
,
00010000
00100000
01000000
00010000
00001000
00000100
00000010
00001000
,
00100000
00001000
00000010
00000100
00001000
00010000
00001000
00100000
,
00001000
00010000
00100000
01000000
00100000
00010000
00001000
01000000
,
00001000
00010000
00001000
00010000
00001000
00010000
00001000
00010000
00001000
00010000
00001000
00010000
00001000
00010000
00001000
00010000
,
00000000
00000000
00000000
00002002
00000000
00000000
00000000
00000000
,
00000000
00000000
00000000
00000000
,
00000000
00000000
00000000
00000000
,
00000000
00000000
00000000
00000000
,
00000000
00000000
00003003
00000000
;

//--------------- dance-double - Fred-104† ----------------
#NOTEDATA:;
#STEPSTYPE:dance-double;
#DESCRIPTION:Fred-104†;
#DIFFICULTY:Challenge;
#METER:18;
#CREDIT:Fred-104†;
#NOTES:
00000000
00000000
00000000
00000000
,
00000000
00000000
00000000
00000000
,
00000000
00000000
00000000
00000000
,
00000000
00000000
00000000
00000000
,
00000000
00000000
00000000
00000000
,
00010000
00001000
00000010
00000001
,
00001000
00000010
00000100
00001000
,
00010000
01000000
10000000
00010000
,
01000000
00000000
00000000
00000000
00000000
00000000
00000000
00000000
00000000
00000000
00000000
00000000
00000000
00000000
00000000
00000000
00000000
00000000
00000000
00000000
00000000
00000000
00000000
00000000
00000000
00000000
00000000
00000000
00000000
00000000
00000000
00000000
00000000
00000000
00000000
00000000
00000000
00000000
00000000
00000000
00000000
00000000
00000000
00000000
00000000
00000000
00000000
00000000
01000000
00000000
00000000
00000000
00000000
00000000
00000000
00000000
00000000
00000000
00000000
00000000
00000000
00000000
00000000
00000000
00000000
00000000
00000000
00000000
00000000
00000000
00000000
00000000
00000000
00000000
00000000
00000000
00000000
00000000
00000000
00000000
00000000
00000000
00000000
00000000
00000000
00000000
00000000
00000000
00000000
00000000
00000000
00000000
00000000
00000000
00000000
00000000
01000000
00000000
00000000
00000000
00000000
00000000
00000000
00000000
00000000
00000000
00000000
00000000
00000000
00000000
00000000
00000000
00000000
00000000
00000000
00000000
00000000
00000000
00000000
01000000
00000000
00000000
00000000
00000000
00000000
00000000
00000000
00000000
00000000
00000000
00000000
00000000
00000000
00000000
00000000
00000000
00000000
00000000
00000000
00000000
00000000
00000000
00000000
00000000
00000000
00000000
00000000
00000000
00000000
00000000
00000000
00000000
00000000
00000000
00000000
00000000
00000000
01000000
00000000
00000000
00000000
00000000
00000000
00000000
00000000
00000000
00000000
00000000
00000000
00000000
00000000
00000000
00000000
00000000
00000000
01000000
00000000
00000000
00000000
00000000
00000000
00000000
00000000
00000000
00000000
00000000
00000000
00000000
00000000
00000000
00000000
00000000
,
00000000
00000000
00000000
00000000
,
00001000
00000000
00100000
01000000
10000000
00000000
01000000
00000000
00010000
00000000
00001000
00010000
00001000
00000000
00000100
00000000
,
00000010
00000000
00010000
00001000
00010000
00000000
00001000
00000000
00100000
00000000
00010000
01000000
00010000
00000000
00001000
00000000
,
00000010
00000000
00001000
00000001
00000010
00000000
00000100
00000000
00010000
00000000
00001000
00100000
00010000
00000000
00100000
00000000
,
10000000
00000000
00100000
00010000
01000000
00000000
00001000
00010000
00001000
00000000
00100000
00000000
00010000
00000000
00000000
00000000
,
10000000
01000000
00100000
00001000
00010000
00000000
00001000
00000000
00010000
00001000
00010000
00001000
00000100
00000000
00000010
00000000
,
00001000
00000100
00000001
00000100
00001000
00000000
00000100
00000000
00010000
00001000
00100000
00010000
00100000
00001000
00010000
00000100
,
00010000
00000000
00000000
00000000
00000000
00000000
00000000
00000000
00000000
00010000
00000000
00000000
00000000
00000000
00000000
00000000
00000000
00000000
00010000
00000000
00000000
00000000
00000000
00000000
00001000
00000000
00000000
00000000
00000100
00000000
00000000
00000000
00000010
00000000
00000000
00000000
00001000
00000000
00000000
00000000
00000001
00000000
00000000
00000000
00000010
00000000
00000000
00000000
,
00001000
00000000
00000000
00000000
00010000
00000000
00000000
00000000
01000000
00000000
00000000
00000000
00100000
00000000
00000000
00000000
00010000
00000000
00000000
00000000
10000000
00000000
00000000
00000000
00100000
00000000
00000000
00000000
01000000
00000000
00000000
00000000
00010000
00000000
00000000
00000000
00100000
00000000
00000000
01000000
00000000
00000000
00100000
00000000
00000000
00010000
00000000
00000000
,
01000000
00100000
00010000
00001000
00010000
00000010
00010000
00100000
,
00000000
00000000
00010000
00000000
00001000
00000100
00000010
00001000
00000001
00000000
00000010
00000100
00000000
00001000
00000100
00000000
,
00001000
00000010
00000100
00001000
00010000
00100000
01000000
00010000
,
00100000
01000000
00010000
00001000
00000010
00000100
00001000
00000010
,
00010000
00000000
00001000
00000000
00000010
00000000
00000100
00000000
00000000
00000000
00010000
01000000
00100000
00000000
00010000
00000000
,
01000000
00000000
00001000
00000000
00010000
00000000
00000010
00000100
00001000
00000000
00010000
00100000
01000000
00000000
00000000
00000000
,
00001000
00000000
00000000
00001000
00000000
00000000
00001000
00000000
00010000
00000000
00001000
01000000
00001000
00000000
00000000
00000000
,
00010000
00000000
00010000
00000000
00001000
00010000
00000000
00010000
00001000
00010000
01000000
00100000
00010000
00000000
10000000
00000000
,
01000000
00000000
00100000
00001000
00010000
00000000
00001000
00000000
00000100
00000000
00000010
00000000
00001000
00000000
00010000
00000000
,
00000000
00000000
01000000
00000000
00010000
00100000
01000000
00010000
00001000
00000000
00100000
00001000
00000000
00010000
00001000
00000000
,
00010000
00000000
00000000
00001000
00010000
00001000
00000100
00000010
00000100
00001000
00010000
00100000
,
01000000
00000000
00010000
00100000
01000000
00100000
00010000
00100000
00010000
00000000
00100000
01000000
00000000
00010000
00001000
00000000
,
00010000
00000000
00000000
00000000
00001000
00000000
00010000
00000010
00001000
00000000
00000100
00000010
00000100
00000000
00001000
00000000
,
00000001
00000010
00000100
00000010
00001000
00010000
01000000
00100000
00010000
01000000
00010000
10000000
,
01000000
00010000
00001000
00000010
00000100
00001000
00010000
01000000
00100000
00010000
00001000
01000000
,
00001000
00000000
00000000
00001000
00000000
00000000
00010000
00000000
00000000
00010000
00000000
00000000
00001000
00000000
00010000
00000000
00100000
00000000
10000000
00000000
00010000
00000000
00100000
00000000
,
01000000
00000000
00010000
00000000
00001000
00000000
00010000
00000000
00000000
00000000
00001000
00010000
00001000
00000000
01000000
00000000
,
00010000
00000000
00001000
00000000
00000010
00000000
00000100
00000000
00000000
00000000
00000010
00010000
00001000
00000000
00100000
00000000
,
00001000
00000000
00000010
00000000
00000100
00000000
00001000
00000000
00000010
00000000
00000100
00000000
00001000
00010000
00001000
00010000
,
00001000
00000000
01000000
00100000
00010000
00100000
01000000
00000000
00010000
00000000
00100000
00000000
01000000
00000000
00010000
00000000
,
00001000
00010000
00001000
00000000
01000000
00000000
00001000
00010000
00001000
00000000
00000010
00000000
00001000
00010000
00001000
00000000
,
00100000
00000000
00001000
00010000
00001000
00000000
00000100
00000000
00000010
00001000
00000100
00000000
00000001
00000100
00001000
00000000
,
00000010
00000100
00000010
00000000
00000100
00000000
00001000
00010000
00100000
00000000
01000000
00000000
00010000
00100000
10000000
00000000
,
00100000
00000000
00010000
01000000
00100000
10000000
00010000
00000000
00100000
01000000
00100000
00010000
00100000
00001000
00010000
00000010
,
00010000
00000100
00001000
00010000
00100000
01000000
00100000
00010000
,
01000000
00100000
00010000
00001000
00000000
00000100
00000001
00001000
,
00000000
00000100
00000010
00001000
00100000
00001000
00010000
01000000
,
10000000
00000000
00010000
01000000
00100000
00000000
00010000
00000000
00001000
00010000
00001000
00000100
00000010
00001000
00000001
00000010
,
00000100
00000000
00000000
00000000
,
00000000
00000000
00000000
00000000
00000000
00000000
00001000
00001000
00001000
00001000
00001000
00001000
,
00000010
00000100
00001000
00010000
00100000
01000000
00010000
00100000
01000000
00010000
00001000
00000010
,
00000100
00001000
00000010
00000100
00001000
00010000
00100000
01000000
00010000
00100000
01000000
00010000
,
00001000
00001000
00001000
00010000
00010000
00010000
00001000
00001000
00001000
00010000
00010000
00010000
,
00001000
00000000
00000000
00000000
,
00000000
00000000
00000000
00000000
,
00000000
00000000
00000000
00000000
,
00000000
00001000
00001000
00001000
,
00010000
00000010
00010000
00000010
00001000
00010000
01000000
00010000
,
00001000
00010000
00100000
00001000
00000010
00000000
00001000
00000000
,
00010000
00001000
00000100
00001000
00010000
00001000
01000000
00001000
,
00000100
00001000
00010000
00001000
01000000
00001000
00010000
00000000
,
00001000
01000000
00001000
01000000
00010000
00001000
00000100
00000010
,
00010000
00100000
00001000
00010000
00100000
01000000
00001000
00010000
,
00001000
00010000
00100000
01000000
00010000
00001000
00000010
00000100
,
00000010
00001000
00100000
00010000
00001000
00000010
00000100
00010000
,
00001000
00000000
00000000
00010000
00000000
00000000
00100000
00000000
00000000
00010000
00001000
01000000
,
00001000
00000000
00000000
00010000
00000000
00000000
01000000
00000000
00000000
00010000
00001000
00000100
,
00000010
00000000
00000000
00000000
00000000
00000000
00001000
00000000
00000000
00000100
00000000
00000000
00000010
00000000
00000000
00000100
00000000
00000000
00010000
00000000
00001000
00000000
01000000
00000000
,
00001000
00000000
00000000
00010000
00000000
00000000
00100000
00000000
00000000
00010000
00001000
01000000
,
00010000
00000000
00000000
01000000
00000000
00000000
00001000
00000000
00000000
01000000
00100000
00010000
,
00001000
00000000
00000000
00010000
00000000
00000000
00001000
00010000
01000000
00100000
01000000
00010000
,
00001000
00000000
00010000
00001000
00000010
00010000
00100000
00001000
,
01000000
00000000
00001000
00000000
00000100
00000000
00000010
00000000
00010000
00000000
00001000
00010000
00001000
00000000
00000000
00000000
,
00010000
00000010
00010000
00000010
00000000
00000100
00001000
00010000
,
00001000
01000000
00001000
01000000
00000000
00100000
00010000
00001000
,
00010000
00000100
00010000
00000100
00001000
00000100
00000010
00000000
00000000
00000000
00000100
00001000
00000100
00000000
00010000
00000000
,
00001000
00100000
00001000
00100000
00010000
00100000
01000000
00000000
00000000
00000000
00100000
00010000
00100000
00000000
00001000
00000000
,
00010000
00001000
00000100
00000010
00010000
00000100
00000010
00001000
,
00010000
00100000
01000000
00001000
00100000
01000000
00010000
00001000
,
00010000
00001000
00010000
00000010
00001000
00000100
00000010
00000100
00010000
00001000
00100000
00010000
00100000
01000000
00010000
00001000
,
00010000
00010000
00010000
00010000
,
00001000
00000000
00010000
00000000
00001000
00010000
00100000
00010000
00001000
00000000
00010000
00000100
00000000
00000100
00000010
00000000
,
00000100
00001000
00010000
01000000
00100000
00010000
00001000
00000000
,
00010000
00000000
00001000
00000010
00000000
00001000
00010000
00000000
00001000
00000000
00010000
00100000
00000000
00010000
00001000
00000000
,
00010000
00001000
00010000
00000000
00000010
00001000
00000010
00000000
00010000
00001000
00100000
00001000
00010000
00000000
00010000
00000000
,
00001000
00000000
00000000
00001000
00000000
00000000
00001000
00000000
00010000
00000000
01000000
00100000
00010000
01000000
00100000
00000000
,
00010000
00001000
00010000
00000010
00001000
00000010
00010000
00001000
00010000
00000000
00001000
00000000
00010000
00001000
00010000
00001000
,
00010000
00001000
00000100
00000010
00000100
00001000
00010000
01000000
00100000
01000000
00010000
00001000
,
00010000
00000000
00010000
00000000
00001000
00010000
00000000
00010000
00001000
01000000
00001000
01000000
00001000
00010000
00001000
00010000
,
00001000
00000000
00000000
00000000
00010000
00001000
00000100
00001000
00010000
00000000
00001000
00100000
00000000
00100000
01000000
00000000
,
00100000
00000000
00100000
00000000
00100000
00000000
00100000
00000000
00010000
00100000
00001000
00010000
00000010
00001000
00000010
00000000
,
00010000
00000000
00010000
00001000
00000000
00001000
00000100
00000000
00000010
00000000
00000100
00001000
00000000
00001000
00010000
00000000
,
00001000
00000000
01000000
00010000
01000000
00001000
00010000
00001000
00010000
00000000
00001000
00010000
00000000
00010000
00001000
00000000
,
00010000
00001000
00000100
00000010
00001000
00000000
00000100
00000000
00010000
00000000
01000000
00100000
00010000
00100000
00010000
00000000
,
01000000
00001000
01000000
00000000
00001000
00010000
00001000
00000000
00010000
00000010
00001000
00000010
00010000
00001000
00100000
00000000
,
00001000
00010000
00001000
01000000
00010000
00100000
01000000
10000000
00010000
00100000
00001000
00010000
00000100
00001000
00000010
00000100
,
00000001
00001000
00000100
00000010
00000100
00001000
00000010
00000100
00001000
00010000
00100000
01000000
00100000
00010000
00001000
00100000
,
00000000
00000000
00000000
00022000
00000000
00000000
00000000
00000000
,
00000000
00000000
00000000
00000000
,
00000000
00000000
00000000
00000000
,
00000000
00000000
00000000
00000000
,
00000000
00000000
00033000
00000000
;
