#VERSION:0.83;
#TITLE:Mirage;
#ARTIST:Mutsuhiko Izumi;
#BANNER:Mirage.png;
#BACKGROUND:Mirage-bg.png;
#CDTITLE:./CDTitles/jubeat saucer.png;
#MUSIC:Mirage.ogg;
#SAMPLESTART:15.53;
#SAMPLELENGTH:15;
#BPMS:0=170;
#BGSTAGE:16;

//--------------- dance-single - Fred-104 ----------------
#NOTEDATA:;
#STEPSTYPE:dance-single;
#DESCRIPTION:Fred-104;
#DIFFICULTY:Beginner;
#METER:2;
#CREDIT:Fred-104;
#NOTES:
0000
0000
0000
0000
,
0000
0000
0000
0000
,
0000
0000
0000
0000
,
0000
0000
0000
0000
,
0000
0000
0000
0000
,
1000
0000
0000
0000
,
0000
0000
0000
0000
,
0001
0000
0000
0000
,
0000
0000
0000
0000
,
1000
0000
0000
0000
,
1000
0000
0000
0000
,
0002
0000
0000
0000
,
0003
0000
0100
0000
,
0200
0000
0000
0000
,
0300
0000
1000
0000
,
2000
0000
0000
3000
,
0200
0000
0000
0300
,
0100
0000
0100
0000
,
0001
0000
0000
0000
,
2000
0000
0000
0000
,
3000
0000
0010
0000
,
0020
0000
0000
0000
,
0030
0000
0001
0000
,
0002
0000
0000
0003
,
0020
0000
0000
0030
,
1000
0000
1000
0000
,
0001
0000
1000
0000
,
0001
0000
0000
0000
,
0010
0000
0000
0000
,
0100
0000
0000
0000
,
1000
0000
0001
0000
,
0001
0000
0000
0000
,
0200
0000
0300
0000
,
0002
0000
0000
0000
,
0000
0000
0003
0000
,
2000
0000
0000
0000
,
0000
0000
3000
0000
,
0001
0000
1000
0000
,
1000
0000
0000
0000
,
0010
0000
0010
0000
,
0100
0000
0000
0000
,
0010
0000
1000
0000
,
1000
0000
0000
0000
,
0001
0000
0001
0000
,
0010
0000
0000
0000
,
0100
0000
0100
0000
,
0100
0000
0100
0000
,
0100
0000
0100
0000
,
1000
0000
1000
0000
,
0002
0000
0003
0000
,
2000
0000
3000
0000
,
0001
0000
0001
0000
,
1000
0000
1000
0000
,
0002
0000
0000
0003
,
2000
0000
0000
3000
,
1001
0000
0000
0000
,
0000
0000
0000
0000
,
0000
0000
0000
0000
,
0000
0000
0000
0000
,
0001
0000
0000
0000
,
0000
0000
0000
0000
,
0000
0000
0000
0000
,
0000
0000
0000
0000
,
1000
0000
1000
0000
,
0010
0000
0000
0000
,
0001
0000
0000
0000
,
0010
0000
1000
0000
,
1000
0000
0000
0000
,
0001
0000
0100
0000
,
0001
0000
0000
0000
,
1000
0000
0001
0000
,
2000
0000
0000
3000
,
0002
0000
0000
0003
,
2000
0000
0000
3000
,
1001
0000
0000
0000
,
0000
0000
0000
0000
,
1000
0000
0001
0000
,
1000
0000
0000
0000
,
2002
3003
0000
0000
;

//--------------- dance-single - Fred-104 ----------------
#NOTEDATA:;
#STEPSTYPE:dance-single;
#DESCRIPTION:Fred-104;
#DIFFICULTY:Easy;
#METER:4;
#CREDIT:Fred-104;
#NOTES:
0000
0000
0000
0000
,
0000
0000
0000
0000
,
0000
0000
0000
0000
,
0000
0000
0000
0000
,
0000
0000
0000
0000
,
1000
1000
0000
0000
,
0010
0000
0100
0000
,
0100
0000
0001
0000
,
1000
0000
1000
0000
,
0002
0000
0000
0003
,
2000
0000
0000
3000
,
0001
0000
0010
0000
,
0200
0000
1300
1000
,
0001
0000
0100
0000
,
0020
0000
0130
0100
,
0001
0000
0001
0000
,
2000
0000
0000
3000
,
0100
0100
0100
0100
,
0100
0000
0020
0030
,
0001
0000
1000
0000
,
0020
0000
1030
1000
,
0001
0000
0010
0000
,
0200
0000
1300
1000
,
0001
0000
1000
0000
,
0001
0000
0000
1000
0000
0000
0000
0000
,
0010
0010
0010
0010
,
0020
0000
0000
0030
,
1000
0000
1000
0100
,
0001
0000
0001
0100
,
0010
0000
0100
1000
,
0001
0000
1000
1000
,
0001
0000
0001
1000
,
0010
0000
1000
0000
,
0002
0000
0013
0000
,
0002
0000
1003
0000
,
0200
0000
0310
0000
,
0200
0000
1300
0000
,
0001
0000
1000
0000
,
0010
0010
0100
0100
,
0100
0000
0002
0000
,
0003
0000
0001
0000
,
1000
0000
0010
0000
,
0001
0000
0100
0000
,
1000
0000
0001
0000
,
2000
0000
3000
0000
,
0002
0003
2000
3000
,
0020
0030
0200
0300
,
0002
0003
2000
3000
,
0100
0000
0100
0000
,
0010
0010
0010
0000
,
0001
0001
0001
0000
,
1000
0000
0010
0000
,
0100
0000
0100
0000
,
0001
0000
0001
0000
,
1000
1000
1000
1000
,
1001
0000
0000
0000
,
0000
0000
0000
0000
,
0110
0000
0000
0000
,
0000
0000
0000
0000
,
1001
0000
0000
0000
,
0000
0000
0000
0000
,
0110
0000
0000
0000
,
1001
0000
0000
0000
,
1000
0000
0010
0000
,
0001
0000
0001
0000
,
0010
0000
0100
0000
,
0010
0000
1000
1000
,
0001
0000
0010
0000
,
0001
0000
0010
0000
,
0100
0000
1000
0000
,
0001
0001
0001
0000
,
1001
0000
0000
0000
,
0110
0000
0000
0000
,
0110
0000
0000
0000
,
1001
0000
0000
0000
,
0000
0000
0000
0000
,
0001
0001
1000
1000
,
0001
0000
0000
0001
0000
0000
0000
0000
,
2002
3003
0000
0000
;

//--------------- dance-single - Fred-104 ----------------
#NOTEDATA:;
#STEPSTYPE:dance-single;
#DESCRIPTION:Fred-104;
#DIFFICULTY:Medium;
#METER:11;
#CREDIT:Fred-104;
#NOTES:
0000
0000
0000
0000
,
0000
0000
0000
0000
,
0000
0000
0000
0000
,
0000
0000
0000
0000
,
0000
0000
0000
0000
,
0001
0010
0001
0000
1000
0010
0000
0010
,
0100
0000
0100
0001
0000
2002
0000
3003
,
1000
0100
0001
0000
0100
0000
0010
0100
,
0000
1000
0001
1000
0010
0000
0110
0000
,
0100
0001
0100
0000
0010
1000
0010
0000
,
1000
0100
1000
0000
0001
0010
0001
0000
,
1000
0100
0010
0001
0000
0001
1000
0002
,
0000
0000
0000
0000
0103
0010
0100
0000
,
0001
1000
0001
0010
0000
0010
0100
2000
,
0000
0000
0000
0000
3001
1000
0001
0000
,
0110
0000
1000
0200
0000
0310
0002
0000
,
1003
0010
1000
0000
0001
1000
0100
0000
,
0010
0001
0100
0010
1000
0001
0010
0000
,
0100
0000
0100
0000
0010
0010
0010
0000
,
1000
0100
0010
0100
0000
0001
0100
2000
,
0000
0000
0000
0000
3001
1000
0001
0000
,
1000
0010
0001
0010
0000
0100
0001
2000
,
0000
0000
0000
0000
3100
0010
0001
0000
,
1000
0010
0000
0010
0000
0100
0002
0000
,
2003
0000
3100
0020
0000
0031
2000
0000
,
3001
0100
1000
0000
0001
0010
1000
0000
,
0001
0010
0100
0000
1000
0001
0100
0000
,
0101
0000
1001
0000
1100
0000
0100
0010
,
0001
0000
0011
0000
1001
0000
1000
0010
,
0100
0000
0101
0000
1001
0000
0001
1000
,
0010
0000
0110
0000
0100
0001
0100
0001
,
0010
0000
0110
0000
1100
0000
0001
1000
,
0010
0110
1001
0110
,
1000
0100
0001
0000
1000
0010
0001
0000
,
1000
0010
0001
0000
1000
0100
0001
1000
,
0100
0010
0001
0000
1000
0010
0100
0000
,
0010
1000
0010
0100
0001
1000
0100
0000
,
0110
0000
0010
0000
0001
1000
0001
0100
,
0000
0100
0010
0000
0100
0000
0100
0000
,
0001
0000
0000
1000
0000
1000
0000
0000
0100
0000
0010
0000
0001
0000
0001
0000
,
0000
1000
0010
0000
1010
0000
0101
0000
,
1000
0001
0010
0000
0100
0010
0001
0001
,
1000
0000
0110
0000
0001
0000
1000
0001
,
1000
0010
1000
0000
0001
0010
0100
0100
,
0000
1000
0001
0000
0100
0010
0100
0000
,
0001
0000
0000
0010
0000
0000
0001
0000
0010
0000
1000
0000
0010
0000
0001
0000
,
0010
0001
0010
1000
0010
0001
0010
0000
,
0001
1000
0001
0100
1000
0100
0001
0001
,
0000
1000
0100
0010
0100
0100
1000
0000
,
0001
0100
0001
0100
0010
1000
0010
1000
,
0100
0010
0001
0000
1000
0000
1001
0000
,
0001
0010
0001
0010
0100
1000
0100
1000
,
0001
1000
0100
0000
0110
0000
0011
0000
,
0001
1000
0010
0000
1000
0001
0010
0000
,
0100
0010
0100
0010
0001
1000
0001
1000
,
0001
0000
0200
0000
0000
0010
0000
0010
,
0000
0000
0310
0100
,
0101
0000
0000
1001
0000
0000
0000
0000
,
0100
0000
0000
0000
,
0110
0000
2000
0000
0000
0001
0000
0001
,
0000
0000
3001
0100
,
0110
0000
0000
0000
,
1001
0000
0001
1000
,
1001
0000
0001
0000
0010
0010
0000
0100
,
0100
0000
1000
0000
0010
1000
0010
0000
,
0100
0000
0000
0200
0000
0000
0000
0000
,
0310
0000
1000
0000
0100
0010
0001
0000
,
1000
0000
0001
0000
0100
0100
0000
0010
,
0020
0000
0000
0000
0130
0001
0100
0000
,
0010
0000
1000
0000
0100
0010
0001
0010
,
0001
0000
1000
0000
0001
1000
0001
0000
,
1100
0000
0000
0110
0000
0000
0011
0000
,
0101
0000
0000
0110
0000
0000
1010
0000
,
0101
0000
0000
1100
0000
0000
0011
0000
,
0110
0000
0000
2002
0000
0000
0000
0000
,
0000
0000
0000
3003
,
0110
0000
1001
0000
0001
1000
0001
0000
,
0100
0000
0010
0000
1000
0000
0002
0000
0000
0000
0000
0000
0003
0000
1000
0001
,
2000
3000
0000
0000
;

//--------------- dance-single - Fred-104 ----------------
#NOTEDATA:;
#STEPSTYPE:dance-single;
#DESCRIPTION:Fred-104;
#DIFFICULTY:Hard;
#METER:14;
#CREDIT:Fred-104;
#NOTES:
0000
0000
0000
0000
,
0000
0000
0000
0000
,
0000
0000
0000
0000
,
0000
0000
0000
0000
,
0000
0000
0000
0000
,
1000
0100
0100
0010
0100
0100
1000
0001
,
0100
1000
0100
0001
0000
0011
0000
0000
,
0001
0100
0100
0001
0010
0010
0001
1001
,
0000
1000
0100
0010
0001
1000
0020
0000
,
0130
0001
0100
0001
1000
0100
1000
0100
,
0010
0000
0001
0000
0010
0000
0001
0000
1000
0001
1000
0001
1000
0001
1000
0001
,
1000
0010
0001
0020
0000
1030
0001
0020
,
0000
0000
0000
0000
0000
0000
0000
0000
0130
1000
0100
1000
0100
0000
0010
0000
,
0001
1000
0010
0002
0000
0013
0100
0002
,
0000
0000
0000
0000
0000
0000
0000
0000
1003
0001
1000
0001
1000
0000
0000
0000
,
0002
0000
0103
0002
0000
1003
0002
0000
,
0013
0100
0010
0100
0010
0000
0100
0000
1000
0000
0001
0000
0100
0000
0000
0000
,
0010
1000
0100
0001
1000
0010
0100
1000
,
0001
0000
0000
0000
0100
0000
0010
0000
0100
0001
0100
0000
0001
1000
0001
0000
,
1000
0100
0010
0100
0000
0001
0100
2000
,
0000
0000
0000
0000
0000
0000
0000
0000
3001
1000
0001
1000
0010
0000
0100
0000
,
0001
1000
0100
0010
0000
1000
0010
0002
,
0000
0000
0000
0000
0000
0000
0000
0000
1003
0001
1000
0001
1000
0000
0000
0000
,
0001
0010
0010
0100
0010
0010
0011
0000
,
1000
0010
0010
0100
0010
0010
1010
0000
,
0001
0010
0100
0001
1000
0010
0001
1000
,
0010
0000
0000
0000
0100
0000
0001
0000
1000
0001
1000
0001
1000
0001
1000
0001
,
1000
0000
0000
1000
0100
0000
0000
0100
0010
0000
0000
0010
0002
0000
0000
0000
,
0103
0000
0000
0100
0001
0000
0000
0001
1000
0000
0000
1000
0001
0000
0010
0000
,
0100
0000
0000
0100
0001
0000
0000
0001
0100
0000
0000
0100
1000
0000
0001
0000
,
0100
0000
0000
0100
0010
0000
1000
0000
0001
1000
0001
0000
0100
0010
0100
0000
,
0001
0000
0000
0001
1000
0000
0000
1000
0100
0000
0000
0100
0010
0000
1000
0000
,
0010
0000
0000
0010
0001
0000
0000
0001
1000
0000
0000
1000
0001
0000
0000
0001
,
1000
0101
1000
0011
,
0001
0000
1100
0000
0001
0000
1010
0001
,
0100
0100
0010
0010
1000
1000
0001
0001
,
0010
0000
0100
0000
1000
0000
0001
0000
0100
0001
0100
0000
0001
1000
0001
0000
,
0200
0000
0000
0000
0000
0000
0000
0000
0000
0000
0000
0000
0301
0000
0000
1000
0000
0000
0001
0000
0000
0000
0000
0000
1000
0000
0000
0000
0100
0000
0000
0000
1000
0000
0000
0000
0001
0000
0000
0000
0000
0000
0200
0000
0000
0000
0000
0000
,
0000
0000
1300
0000
0100
0000
0010
0000
0100
0000
0001
1000
0001
0000
0000
0000
,
1000
0000
0000
1000
0000
1000
0000
0000
0010
0100
0010
0000
1000
0000
1002
0000
,
0000
0000
0013
0000
0100
0000
1000
0000
0001
0100
0001
0000
1000
0100
1000
0000
,
0001
1000
0001
0000
0010
0000
0100
0000
1000
0001
1000
0000
0010
0100
0000
0100
,
0010
0000
0000
0010
1000
0000
0001
0000
2000
0000
0000
0000
3001
0000
0010
0000
,
0100
0000
1000
0001
1000
0000
0100
0000
0010
0001
0010
0000
0100
0000
0120
0000
,
0000
0031
1000
0010
0001
1000
0100
0010
,
1000
0000
0001
1000
0000
0001
0100
0000
0000
0010
1000
0000
0000
0001
1000
0000
,
0100
0010
0100
0000
0010
0000
0001
0000
1000
0010
1000
0000
0001
0010
0001
0000
,
0100
0000
0001
1000
0001
0000
1000
0000
0100
0000
0010
0000
0100
0000
2100
0000
,
0000
0000
3001
1000
0001
0000
0100
0000
0010
1000
0010
0000
0100
0000
0001
0000
,
1000
0000
0100
0000
0100
0000
0100
0000
0010
0000
0001
0000
0001
0000
0001
1000
,
0001
0000
0100
0010
0100
0000
0001
0000
0100
0000
0010
0000
1000
0000
0001
0000
,
2000
0000
3200
0000
0302
0000
0203
0000
0320
0000
2030
0000
3020
0000
0031
1000
,
0001
0100
0010
0000
1010
0000
0001
1000
,
0100
0100
0010
0010
0001
0001
1000
1000
,
0010
0000
0010
0000
0100
0000
0100
0000
0001
1000
0001
1000
0001
1000
0001
1000
,
0001
0000
0020
0000
0000
0230
0000
0320
,
0000
0000
0000
0000
1030
0010
0001
1000
,
1001
0000
0000
0011
0000
0000
0000
0000
,
1100
0000
0000
0000
,
1001
0000
2000
0000
3000
0200
0000
0302
,
0000
0000
0000
0000
0103
0010
0001
1000
,
1010
0000
0000
0000
,
1001
0000
0000
0000
0000
0000
1000
0010
0100
0010
0100
0001
,
1000
0000
0100
0001
1000
0010
0100
1000
,
0002
0000
0100
0000
0103
0010
0001
0010
,
1000
0001
0001
0010
0001
0001
1000
0010
,
0100
0010
0100
0010
1000
0010
0100
0010
0100
0001
1000
0001
,
0010
0000
0100
0001
0100
1000
0001
0100
,
0020
0000
1000
0000
1030
0001
0010
0100
,
1000
0000
0010
0000
0010
0000
0100
0000
0001
0000
0001
0000
1000
0000
0001
0010
,
0001
0000
1000
0000
0010
0000
0100
0000
0001
0000
1000
0100
1000
0100
1000
0000
,
0001
0100
0100
1000
0100
0100
0001
1000
,
0001
0010
0010
1000
0010
0010
0001
1000
,
0001
0010
0010
1000
0010
0010
0100
1000
,
0001
0100
0010
2020
0000
0000
0000
0000
,
0000
0000
0000
3030
,
0101
0000
0000
0000
1001
0000
0000
0000
1000
0100
1000
0100
0010
0000
0000
0000
,
0001
0000
1000
0000
0010
0000
0220
0000
0000
0000
0000
0000
0330
0000
0001
1000
,
0002
0003
0000
0000
;

//--------------- dance-double - Fred-104 ----------------
#NOTEDATA:;
#STEPSTYPE:dance-double;
#DESCRIPTION:Fred-104;
#DIFFICULTY:Easy;
#METER:6;
#CREDIT:Fred-104;
#NOTES:
00000000
00000000
00000000
00000000
,
00000000
00000000
00000000
00000000
,
00000000
00000000
00000000
00000000
,
00000000
00000000
00000000
00000000
,
00000000
00000000
00000000
00000000
,
00001000
00000000
00010000
00000000
00000000
00010000
00000000
00000000
,
00001000
00000000
00000000
01000000
00000000
01000000
00000000
00000000
,
00010000
00000000
10000000
00000000
01000000
00000000
00000000
00100000
,
00000000
00100000
00001000
00010000
,
00002000
00003000
00020000
00030000
,
00001000
00001000
00001000
00001000
,
00011000
00000000
00000000
00000100
00000000
00000000
00000000
00020000
,
00000000
00000000
00031000
01000000
,
00010000
00000000
00000000
10000000
00000000
00000000
00000000
02000000
,
00000000
00000000
03100000
00100000
,
00001000
00000000
00000000
00001000
00000000
00000000
00001000
00000000
,
00020000
00000000
00031000
00000000
,
00010000
00010000
00001000
00001000
,
00011000
00000000
00010000
00001000
,
00010000
00000000
00000000
00000100
00000000
00000000
00000000
00000020
,
00000000
00000000
00000130
00001000
,
00000001
00000000
00000000
00000100
00000000
00000000
00000000
00002000
,
00000000
00000000
00013000
00001000
,
00010000
00000000
00000000
00001000
00000000
00000000
01000000
00000000
,
00001000
00000000
00000000
00010000
00000000
00000000
00001000
00000000
,
00100000
00010000
10000000
00010000
,
20000000
00000000
00000000
30000000
,
10000000
10000000
01000000
01000000
,
00100000
00100000
00001000
00001000
,
00010000
00010000
00000100
00000100
,
00000010
00000001
00001001
00000000
,
00000001
00000010
00000001
00001000
,
00000010
00000100
00001000
00010000
,
00001000
00001000
01000000
01000000
,
00100000
00100000
10000000
10000000
,
01000000
01000000
00100000
00100000
,
00001000
00001000
00010000
00010000
,
00011000
00000000
00000000
00000000
00010000
00000000
00000000
00001000
,
00000000
00010000
00000100
00000010
,
00000001
00000000
00000000
00000000
00001000
00000000
00000000
00001000
,
00000000
00000010
00010000
00000000
,
00001000
00000000
00010000
00000000
,
01000000
01000000
00100000
00000000
,
00001000
00000000
00001000
00000000
00010000
00000000
00000000
00010000
,
00000000
00001000
00011000
00000000
,
00001000
00001000
00010000
00010000
,
00001000
00001000
01000000
01000000
,
00001000
00000000
00001000
00000000
00010000
00000000
00000000
00010000
,
00000000
00000100
00000010
00000001
,
00001000
00000010
00001000
00000010
,
00010000
00001000
00010000
00000000
,
00001000
00000000
00010000
00000000
00100000
00000000
00000000
01000000
,
00000000
00010000
10010000
00000000
,
10000000
10000000
01000000
01000000
,
00010000
00001000
00000100
00000001
,
00001001
00000000
00000000
00000000
,
00000000
00000000
00000000
00000000
,
00000110
00000000
00000000
00000000
,
00000000
00000000
00000000
00000000
,
00011000
00000000
00000000
00000000
,
00000000
00000000
00000000
00000000
,
01100000
00000000
00000000
00000000
,
10010000
00000000
00000000
00000000
,
10000000
10000000
00100000
00010000
,
00002000
00000000
00013000
00000000
,
00010000
00000000
00000000
00000100
00000000
00000000
00001000
00000000
,
00000100
00000010
00000001
00001000
,
00000001
00000001
00000100
00001000
,
00020000
00000000
00031000
01000000
,
00010000
00000000
00000000
00100000
00000000
00000000
01000000
00000000
,
00100000
00010000
00100000
00001000
,
00011000
00000000
00000000
00010000
00000000
00000000
00010000
00000000
,
00011000
00000000
00000000
00001000
00000000
00000000
00001000
00000000
,
00011000
00000000
00000000
00010000
00000000
00000000
00001000
00000000
,
00011000
00000000
00000000
00022000
00000000
00000000
00000000
00000000
,
00000000
00000000
00000000
00033000
,
00010000
00001000
00000100
00000001
,
00000010
00000000
00000000
00000100
00000000
00000000
00000000
00000000
,
00002002
00003003
00000000
00000000
;

//--------------- dance-double - Fred-104 ----------------
#NOTEDATA:;
#STEPSTYPE:dance-double;
#DESCRIPTION:Fred-104;
#DIFFICULTY:Medium;
#METER:10;
#CREDIT:Fred-104;
#NOTES:
00000000
00000000
00000000
00000000
,
00000000
00000000
00000000
00000000
,
00000000
00000000
00000000
00000000
,
00000000
00000000
00000000
00000000
,
00000000
00000000
00000000
00000000
,
00001000
00000000
00010000
00000000
00001000
01000000
00000000
00020000
,
10030000
00000000
01000000
00100000
00000000
00011000
00000000
00000000
,
00001000
00010000
00000100
00000000
00000010
00000000
00000001
00001000
,
00000000
00000010
00000100
00001000
00010000
00001000
00010000
00000000
,
00011000
00010000
00010010
00010000
,
00011000
00001000
01001000
00001000
,
00010000
00001000
00000100
00000001
00000000
00001000
00000100
00000020
,
00000000
00000000
00000000
00000000
00000031
00001000
00000001
00000000
,
00001000
00000010
00010000
00001000
00000000
00010000
00100000
02000000
,
00000000
00000000
00000000
00000000
03010000
10000000
00010000
00000000
,
20000000
00000000
00000000
32000000
00000000
00000000
03020000
00000000
,
00031000
00010000
00001000
00000000
00010000
00000000
00000100
00000000
,
00000020
00000032
00000203
00002300
,
00023000
00000000
00032000
00000000
01003000
00010000
01000000
00000000
,
00010000
00100000
01000000
10000000
00000000
00010000
10000000
00200000
,
00000000
00000000
00000000
00000000
00310000
00001000
00010000
00000000
,
00000100
00010000
00001000
00010000
00000000
00000100
00000010
00000002
,
00000000
00000000
00000000
00000000
00001003
00000001
00001000
00000000
,
00000001
00000010
00000000
00000100
00000000
00010000
00002000
00000000
,
00023000
00000000
00030000
00000200
00000000
00000310
00000002
00000000
,
00001003
00000010
00000100
00000000
00001000
00010000
00100000
00000000
,
01000000
00000000
00010000
00000000
00100000
01000000
10000000
00000000
,
11000000
01010000
11000000
00100000
,
00101000
00000000
00011000
00000000
00010010
00000000
00010000
00001000
,
00000100
00000000
00000101
00000000
00001001
00000000
00001000
00000100
,
00000010
00000000
00000011
00000000
00000001
00000100
00000010
00000100
,
00001000
00000000
00011000
00000000
00110000
00000000
00100000
10000000
,
00010000
00000000
11000000
00000000
01000000
00100000
00001000
00000000
,
00010000
00001010
00010000
00001010
,
00011000
00110000
00001000
00110000
,
00011000
00010100
00011000
01001000
,
00011000
00000000
00010010
00000000
00010000
00001000
00010000
00000000
,
00011000
00000000
00001000
00000100
00000001
00001000
00000100
00000010
,
00000000
00000001
00001000
00000000
00000010
00000100
00001000
00000000
,
00010000
00000000
00000000
00001000
00000000
00001000
00000000
00000000
00010000
00000000
00001000
00000000
00010000
00000000
00010000
00000000
,
00000000
00001000
00010000
00000000
00000100
00001000
00000001
00000000
,
00000100
00000001
00000100
00000000
00000010
00001000
00000010
00000000
,
00010000
00000000
00000000
00000000
00011000
00000000
00000000
00000000
00001000
00000000
00000000
00000000
00100000
00000000
00000000
00010000
,
00000000
10000000
00100000
00000000
01000000
00100000
00010000
00001000
,
00000000
00010000
00000100
00000000
00000020
00000000
00000032
00000000
,
00001003
00000001
00000100
00000000
00001000
00010000
00001000
00000000
,
00000010
00001000
00010000
00000000
00100000
00010000
00001000
00000000
,
00010000
01000000
10000000
00000000
01000000
00010000
00001000
00010000
,
00000000
00000010
00001000
00000001
00000010
00000100
00010000
00000000
,
00001000
00100000
00001000
00100000
00001000
00010000
00000010
00001000
,
00000020
00000230
00000301
00001001
,
00000001
00000100
00001000
00000000
00010000
00100000
10000000
00000000
,
10000000
01000000
00010000
00000000
00001000
00000010
00000001
00000000
,
00000011
00001010
00000101
00001100
,
00000001
00000100
00001000
00010000
01000000
10000000
00010000
00000000
,
10010000
00000000
20000000
00000000
00000000
00010000
00000000
00010000
,
00000000
30000000
10000000
01000000
,
01100000
00000000
00000000
00011000
00000000
00000000
00000000
00000000
,
00000010
00000000
00000000
00000000
,
00001001
00000000
00000002
00000000
00000000
00001000
00000000
00001000
,
00000000
00000003
00000001
00000100
,
00001100
00000000
00000000
00000000
,
00011000
00000000
00010000
00010000
,
00011000
00000000
00001000
00000000
00010000
00100000
00000000
00100000
,
10000000
00000000
00010000
00000000
00100000
01000000
10000000
00000000
,
00010000
00000000
00000000
01000000
00000000
00000000
00100000
00000000
,
00010000
00001000
00010000
00000100
,
00000010
00000000
00000001
00000000
00000100
00001000
00000000
00001000
,
00010000
00000000
00001000
00000000
01000000
00001000
00010000
00000000
,
00001000
00000000
00000100
00000000
00000010
00000000
00001000
00000100
,
00000010
00000000
00000001
00000000
00000100
00001000
00010000
00000000
,
00011000
00000000
00000000
00101000
00000000
00000000
00011000
00000000
,
00011000
00000000
00000000
00010010
00000000
00000000
00011000
00000000
,
00011000
00000000
00000000
01001000
00000000
00000000
00011000
00000000
,
00011000
00000000
00000000
00020200
00000000
00000000
00000000
00000000
,
00000000
00000000
00000000
00030300
,
00011000
00000000
01100000
00000000
00010000
10000000
00010000
00000000
,
10000000
01000000
00100000
00020000
00000000
00000000
00000000
10030000
,
20000000
30000000
00000000
00000000
;

//--------------- dance-double - Fred-104 ----------------
#NOTEDATA:;
#STEPSTYPE:dance-double;
#DESCRIPTION:Fred-104;
#DIFFICULTY:Hard;
#METER:14;
#CREDIT:Fred-104;
#NOTES:
00000000
00000000
00000000
00000000
,
00000000
00000000
00000000
00000000
,
00000000
00000000
00000000
00000000
,
00000000
00000000
00000000
00000000
,
00000000
00000000
00000000
00000000
,
00010000
00001000
00001000
00000100
00000001
00000001
00000010
00000100
,
00001000
00000001
00000100
00001000
00000000
00011000
00000000
00000000
,
00001000
00100000
00010000
01000000
00100000
00010000
00001000
00011000
,
00000000
00001000
00010000
00000100
00000010
00000001
00001000
00000000
,
00000001
00000010
00000100
00001000
00000010
00000100
00001000
00010000
,
00100000
00000000
01000000
00000000
00010000
00000000
00100000
00000000
01000000
10000000
01000000
00000000
00100000
00010000
00100000
00000000
,
00001000
00010000
00100000
02000000
00000000
13000000
01000000
00020000
,
00000000
00000000
00000000
00000000
00000000
00000000
00000000
00000000
10030000
01000000
10000000
00000000
00010000
00100000
00010000
00000000
,
01000000
00100000
00010000
00002000
00000000
00003100
00000001
00000020
,
00000000
00000000
00000000
00000000
00000000
00000000
00000000
00000000
00000130
00001000
00000100
00001000
00000100
00000000
00000000
00000000
,
00020000
00000000
00031000
00020000
00000000
00130000
00020000
00000000
,
00031000
00010000
00001000
00010000
00001000
00000000
00010000
00000000
01000000
00000000
00100000
00000000
00010000
00000000
00000000
00000000
,
10000000
00100000
00010000
00001000
00010000
01000000
00010000
00001000
,
00010000
00000000
00000100
00000000
00000010
00000000
00000001
00000000
00001000
00000010
00001000
00000000
00000001
00000100
00000001
00000000
,
00001000
00000100
00000010
00002000
00000000
00013000
01000000
00200000
,
00000000
00000000
00000000
00000000
00000000
00000000
00000000
00000000
00310000
10000000
00010000
00000000
01000000
00100000
01000000
00000000
,
00001000
00010000
01000000
00200000
00000000
10300000
00100000
00020000
,
00000000
00000000
00000000
00000000
00000000
00000000
00000000
00000000
00130000
00001000
00100000
00001000
00010000
00000000
00000000
00000000
,
00001000
00010000
00100000
01000000
00100000
00010000
00011000
00000000
,
00010000
00001000
00000010
00000100
00000010
00001000
00011000
00000000
,
00010000
00001000
00000100
00000010
00000100
00000001
00001000
00000100
,
00000010
00000000
00000000
00000000
00000001
00000000
00001000
00000000
00000010
00010000
00000010
00000000
00010000
00001000
00010000
00000000
,
00001000
00010000
01000000
00100000
00010000
01000000
00002000
00000000
,
00013000
01000000
00100000
00010000
10000000
00100000
01000000
00010000
,
00001000
00000000
00000010
00000000
00010000
00000000
00001000
00000000
00000010
00000000
00000100
00000000
00000010
00000001
00000010
00000001
,
00001000
00000000
00000010
00000000
00000100
00000000
00001000
00000000
00010000
00001000
00010000
00000000
00001000
01000000
00001000
00000000
,
00010000
01000000
00100000
01000000
10000000
00100000
00020000
00000000
,
00031000
00010000
00000100
00000010
00001000
00010000
00000010
00001000
,
00000010
00000100
00000001
00000000
00000010
00001000
00010000
00000000
,
01000000
00100000
00010000
00000000
01000000
00100000
10000000
00010000
,
10000000
10000000
00100000
00100000
00010000
00010000
00001000
00001000
,
00000100
00000000
00000100
00000000
00000001
00000000
00000001
00000000
00000010
00000100
00000010
00000000
00000100
00001000
00000100
00000000
,
00020000
00000000
00000000
00000000
00000000
00000000
00000000
00000000
00000000
00000000
00000000
00000000
00031000
00000000
00000000
00100000
00000000
00000000
00010000
00000000
00000000
00000000
00000000
00000000
01000000
00000000
00000000
00000000
00100000
00000000
00000000
00000000
01000000
00000000
00000000
00000000
00010000
00000000
00000000
00000000
00000000
00000000
00200000
00000000
00000000
00000000
00000000
00000000
,
00000000
00000000
10300000
00000000
00100000
00000000
00001000
00000000
00010000
00000000
00000010
00001000
00000010
00000000
00000000
00000000
,
00000100
00000000
00000000
00000100
00000000
00000100
00000000
00000000
00000001
00000000
00001000
00000000
00000100
00000000
00020100
00000000
,
00000000
00000000
00031000
00000000
00010000
00000000
00100000
00000000
10000000
00010000
10000000
00000000
01000000
00100000
01000000
00000000
,
00100000
00001000
00100000
00000000
00001000
00000000
00010000
00000000
00001000
00000000
00000100
00000000
00000010
00010000
00000000
00010000
,
00001000
00000000
00000000
00001000
00010000
00000000
00001000
00000000
00000200
00000000
00000000
00000000
00000301
00000000
00001000
00000000
,
00000100
00000000
00000010
00000001
00000010
00000000
00000001
00000000
00000100
00000000
00001000
00000000
00010000
00000000
00012000
00000000
,
00000000
01003000
00001000
00100000
00010000
01000000
00100000
10000000
,
00010000
00000000
00100000
00001000
00000000
00010000
00001000
00000000
00000000
00001000
00010000
00000000
00000000
00010000
00000010
00000000
,
00001000
00000100
00001000
00000000
00000001
00000000
00000010
00000000
00000100
00001000
00000100
00000000
00010000
00001000
00010000
00000000
,
00100000
00000000
01000000
00010000
01000000
00000000
00001000
00000000
00010000
00000000
01000000
00000000
10000000
00000000
10020000
00000000
,
00000000
00000000
10030000
00100000
10000000
00000000
00100000
00000000
00010000
00001000
00010000
00000000
00000010
00000000
00010000
00000000
,
00001000
00000000
00000100
00000000
00000001
00000000
00000010
00000000
00000100
00000000
00000001
00000000
00000100
00000000
00001000
00000001
,
00001000
00000000
00000001
00000100
00000001
00000000
00001000
00000000
00000100
00000000
00010000
00000000
00001000
00000000
00010000
00000000
,
00100000
00000000
01000000
00000000
10000000
00000000
01000000
00000000
00010000
00000000
10000000
00000000
01000000
00000000
00010000
00001000
,
00010000
00000000
00011000
00000000
00010000
00000100
00000010
00000001
,
00001000
00000010
00010000
00100000
01000000
00001000
00010000
00100000
,
10000000
00000000
00010000
00000000
00100000
00000000
01000000
00000000
00010000
00001000
00010000
00001000
00010000
00001000
00010000
00000000
,
00011000
00000000
00002000
00000000
00000000
00023000
00000000
00230000
,
00000000
00000000
00000000
00000000
10300000
01000000
00100000
00001000
,
00011000
00000000
00000000
00010010
00000000
00000000
00000000
00000000
,
00000101
00000000
00000000
00000000
,
00001100
00000000
00000002
00000000
00000000
00002003
00000000
00003002
,
00000000
00000000
00000000
00000000
00000103
00001000
00010000
00001000
,
00011000
00000000
00000000
00000000
,
01100000
00000000
00000000
00000000
00000000
00000000
00010000
00100000
01000000
10000000
01000000
00100000
,
00010000
00000000
10000000
01000000
00010000
00001000
00010000
00100000
,
00010000
00001000
00010000
00000100
00000010
00000001
00001000
00000010
,
00000100
00000001
00000001
00000010
00000001
00000001
00001000
00000000
,
00000010
00001000
00000010
00010000
00001000
00010000
00001000
00100000
00010000
00100000
00010000
10000000
,
00010000
00000000
00100000
01000000
00010000
00001000
00010000
00000100
,
00000010
00000001
00001000
00000010
00000100
00001000
00010000
00001000
,
00010000
00000000
00000100
00000000
00000100
00000000
00001000
00000000
00000100
00000000
00000100
00000000
00010000
00000000
00001000
00010000
,
00001000
00000000
00010000
00000000
00100000
00000000
10000000
00000000
00010000
00000000
00100000
01000000
00100000
00000000
00010000
00000000
,
10000000
01000000
00010000
00001000
00000010
00000001
00001000
00001000
,
00000001
00000100
00001000
00010000
00100000
10000000
00010000
00010000
,
10000000
00100000
00010000
00001000
00000100
00000001
00001000
00001000
,
00000001
00000100
00001000
00022000
00000000
00000000
00000000
00000000
,
00000000
00000000
00000000
00033000
,
00000110
00000000
00000000
00000000
00001001
00000000
00000000
00000000
00000001
00001000
00000001
00001000
00000100
00000000
00000000
00000000
,
00000010
00000000
00000001
00000000
00000100
00000000
00002000
00000000
00000000
00000000
00000000
00000000
00000000
00000000
00013000
00001000
,
00020000
00030000
00000000
00000000
;
