#VERSION:0.83;
#TITLE:Midnight City Warfare;
#ARTIST:sky_delta;
#BANNER:Midnight City Warfare.png;
#BACKGROUND:Midnight City Warfare-bg.png;
#CDTITLE:./CDTitles/jb clan.png;
#MUSIC:Midnight City Warfare.ogg;
#SAMPLESTART:86.667;
#SAMPLELENGTH:15;
#DISPLAYBPM:90:180;
#BPMS:0=180,34=90,34.25=180,34.5=360,35.5=180,35.75=90,36=180,131=360,131.5=180,131.75=90,132=180,163=360,163.5=180,163.75=90,164=180,195=360,195.5=180,195.75=90,196=180,220=90,220.25=180,220.5=360,221=180,227=360,227.5=180,227.75=90,228=180,256=90,257.5=180,257.75=90,257.875=45,258=180,306=90,310=180,314=90,325.75=180,326.25=90,328=180,335=270,335.5=180,335.833333=90,336=180;
#STOPS:325.75=0.167;
#TIMESIGNATURES:0=4=4,256=2=4,258=4=4,314=2=4,316=4=4;
#BGSTAGE:31;

//--------------- dance-single - Fred-104 ----------------
#NOTEDATA:;
#STEPSTYPE:dance-single;
#DESCRIPTION:Fred-104;
#DIFFICULTY:Beginner;
#METER:5;
#CREDIT:Fred-104;
#NOTES:
0000
0000
0000
0000
,
0000
0000
0000
0000
,
0000
0000
0000
0000
,
0000
0000
0000
0000
,
0000
0000
0000
0000
,
1000
0000
0000
1000
,
0000
0000
1000
0000
,
0001
0000
0000
0001
,
0000
0000
1000
0000
,
0001
0000
0100
0000
,
0001
1000
0001
0000
,
1000
0000
0010
0000
,
1000
0001
1000
0000
,
0001
0000
0010
0000
,
0100
1000
0100
0000
,
1000
0000
0010
0000
,
1000
0000
0001
0000
,
2000
0000
0000
0000
,
0000
3000
0001
0001
,
0002
0000
0000
0000
,
0000
0003
1000
0001
,
1000
0000
0100
0000
,
1000
0000
0010
0100
,
0001
0000
1000
0000
,
0001
0000
1000
0000
,
0001
0000
0000
0000
,
1000
0000
0010
0100
,
0010
0000
1000
0000
,
0100
0000
0010
0001
,
1000
0000
1000
0000
,
0001
0000
0001
0000
,
1000
1000
0001
0001
,
2002
0000
0000
3003
,
1000
0000
0010
0000
,
1000
0000
0100
0000
,
1000
0000
0001
0000
,
1001
0000
0000
0000
,
1000
0000
0010
0000
,
1000
0000
0001
0000
,
1000
0000
0100
0000
,
0220
0000
0000
0330
,
0001
0000
1000
0000
,
0001
0000
0100
0100
,
0100
0000
0010
0000
,
1000
0000
0001
0001
,
1001
0000
0000
0000
,
0000
0000
0000
0000
,
1000
1000
0001
0001
,
2002
0000
0000
3003
,
1000
0000
0000
0000
,
0001
0000
0000
0000
,
1000
0000
0000
0000
,
0001
0000
0000
0000
,
1000
0000
0010
0000
,
0100
0000
0001
0000
,
2002
3003
0000
0000
,
2002
0000
0000
3003
,
0002
0000
0000
0000
,
0000
0000
0003
0000
,
2000
0000
0000
0000
,
0000
0000
3000
0000
,
0010
0000
0010
0000
,
0100
0000
0100
0000
,
0001
0001
1000
1000
,
2002
0000
0000
3003
0001
0000
0000
0000
,
1000
0000
0001
0000
,
0100
0000
0001
0000
,
0010
0000
0100
0000
,
1000
1000
1000
0000
,
0010
0000
1000
0000
,
0001
0000
0100
0000
,
0010
0000
1000
0000
,
0001
0001
0001
0000
,
1000
0000
0010
0000
,
1000
1000
0100
0000
,
0010
0000
0001
0000
,
1000
0001
1000
0000
,
0001
0000
1000
0000
,
0001
0000
2002
3003
,
1000
0010
0100
0001
,
1000
0001
0010
0100
,
1000
2002
3003
0001
,
1000
1000
0001
0001
,
2002
0000
0000
0000
,
3003
0000
0000
0000
;

//--------------- dance-single - Fred-104 ----------------
#NOTEDATA:;
#STEPSTYPE:dance-single;
#DESCRIPTION:Fred-104;
#DIFFICULTY:Easy;
#METER:9;
#CREDIT:Fred-104;
#NOTES:
0000
0000
0000
0000
,
0000
0000
0000
0000
,
0000
0000
0000
0000
,
0000
0000
0000
0000
,
0000
0000
0000
0000
,
1000
0000
0000
1000
0000
0000
0001
0000
,
0000
0001
0000
0000
0200
0000
0300
0000
,
0001
0000
0000
0001
0000
0000
1000
0000
,
0000
1000
0000
0000
0020
0000
0030
0000
,
0100
0000
0000
0100
0000
0000
0001
0000
,
0000
1000
0000
0000
0002
0000
0003
0000
,
0100
0000
0000
0100
0000
0000
0010
0000
,
0000
1000
0000
0000
0200
0000
0300
0000
,
1000
0000
0000
0100
0000
0000
0010
0000
,
0000
0001
0000
0000
2000
0000
3000
0000
,
0001
0000
0000
0100
0000
0000
0010
0000
,
0000
0100
0000
0000
0002
0000
0003
0000
,
0100
0000
0000
0010
0000
0000
1000
0000
,
0000
0010
0000
0000
0200
0000
0300
0000
,
0001
0000
0000
1000
0000
0000
0100
0000
,
0000
0010
0000
0000
0002
0000
0003
0000
,
1000
0000
0000
0001
0000
0000
0100
0000
,
0000
0001
0000
0000
0020
0000
0030
0000
,
0100
0000
1000
1000
0000
0001
0000
1000
,
0000
1001
0000
0000
0001
0000
1000
0000
,
0200
0000
0000
0000
0000
0000
0300
0010
,
0000
0010
0000
0000
0001
0000
1000
0000
,
0002
0000
0000
0000
0000
0000
0003
1000
,
0000
1000
0000
0000
0001
0000
1000
0000
,
1100
0010
0101
0010
,
1000
0100
0001
0100
,
1000
0100
1000
0000
0001
0100
0001
0000
,
2002
0000
0000
3003
,
1000
0000
1100
0000
0001
1000
0001
0000
,
0100
0000
0000
0010
0000
0000
0100
0000
,
0001
0010
0001
0000
1000
0010
1000
0000
,
0001
0100
0010
1000
,
0100
0000
0000
0000
0000
0000
0000
0000
0000
0000
0000
0000
0000
0000
0000
0000
1001
0000
0000
0000
0000
0000
0000
0000
0000
0000
0000
0000
0000
0000
0000
0000
0200
0300
0000
0000
0000
0000
0000
0000
0200
0300
0000
0000
0000
0000
0000
0000
0001
0000
0000
0000
0000
0000
0000
0000
0000
0000
0000
0000
0000
0000
0000
0000
,
1000
0010
1000
0000
0001
0010
0001
0000
,
1000
0001
0100
0010
,
0100
0000
0000
0220
0000
0000
0330
0000
,
1001
0000
0001
0000
0010
0100
0010
0000
,
0001
0000
1000
0000
0001
0100
0001
0000
,
1000
0000
0100
0000
0010
0100
0010
0000
,
0001
0100
0010
1000
,
1001
0000
0000
0001
0000
0000
1000
0000
,
0000
0001
0000
0000
0100
0000
0010
0000
,
0100
0100
0001
1000
,
2002
0000
0000
3003
,
1000
0000
0001
0000
0000
0001
0000
0000
,
0010
0000
0100
0000
0000
0100
0000
0000
,
1000
0000
0010
0000
0000
0010
0000
0000
,
0010
0100
0001
1001
,
1000
0000
0001
0000
0100
0010
0100
0000
,
0001
0000
1000
0000
0001
0010
0001
0000
,
2000
3001
1000
0001
,
0100
0100
0220
0330
,
1001
0000
0000
1000
0000
0000
0001
0000
,
0000
1000
0000
0000
0001
0000
0100
0000
,
0010
0000
0000
0100
0000
0000
0010
0000
,
0000
1000
0000
0000
0100
0000
0010
0000
,
0001
0001
0100
0100
,
0001
1000
0100
0100
,
1000
0100
0001
0000
0001
0100
1000
0000
,
2002
0000
0000
3003
0001
0000
1001
0000
,
1000
0001
0100
0000
0001
0000
0000
1000
,
0000
0010
0100
0001
,
1000
0100
0010
0000
0001
0000
1000
0000
,
1001
0000
0001
0100
,
0001
0010
0100
0000
1000
0000
0100
0000
,
1000
0010
0100
0000
0001
0000
1000
0000
,
0001
0010
0001
0000
0100
0000
0010
0000
,
1000
0001
1000
0000
0001
0000
1001
0000
,
1000
0010
0100
0000
0010
0000
1000
0000
,
0001
0010
0100
0000
1000
0000
0001
0000
,
0100
0010
1000
0000
0001
1000
0001
0000
,
0100
0010
0200
0000
0301
1000
1001
0001
,
0100
0010
1000
0100
1000
0000
0001
0000
,
1000
0001
1000
0001
2000
0000
0000
3000
,
1001
0001
0110
0000
1000
0100
0001
0100
,
1000
0010
0110
0000
0001
0001
1000
1000
,
0100
0010
0001
2000
0000
3001
0100
0000
,
0001
0000
0010
0100
1000
0000
0100
0000
,
1000
0000
0000
2002
0000
0000
0000
0000
,
3003
0000
0000
0000
;

//--------------- dance-single - Fred-104 ----------------
#NOTEDATA:;
#STEPSTYPE:dance-single;
#DESCRIPTION:Fred-104;
#DIFFICULTY:Medium;
#METER:14;
#CREDIT:Fred-104;
#NOTES:
0000
0000
0000
0000
,
0000
0000
0000
0000
,
0000
0000
0000
0000
,
0000
0000
0000
0000
,
0000
0000
0000
0000
,
2000
0000
3010
2000
0000
3100
2000
0000
,
3001
0200
0000
1300
0100
0000
0001
0000
,
2000
0000
3001
0020
0000
0031
0200
0000
,
0301
0020
0000
0130
2000
0000
3002
0000
,
2003
0000
3001
0020
0000
0130
0020
0000
,
0031
0200
0000
1300
0100
0000
0001
0010
,
0200
0000
1300
0020
0000
0130
0002
0000
,
1003
0200
0000
0310
0002
0000
0103
0010
,
0200
0000
0301
0020
0000
1030
0002
0000
,
0103
2000
0000
3001
1000
0000
0100
0010
,
0002
0000
1003
0200
0000
0310
0200
0000
,
1300
0002
0000
0013
0200
0000
0302
0000
,
0203
0000
1300
0002
0000
0103
0020
0000
,
1030
0020
0000
0031
0010
0000
0100
0001
,
2000
0000
3001
0200
0000
1300
0200
0000
,
0310
2000
0000
3100
0020
0032
2003
3002
,
2003
0000
3010
0200
0000
0310
0002
0000
,
0013
0200
0000
0310
2000
0000
3002
0003
,
1001
0000
0110
0110
0000
1010
0000
0101
,
0000
1001
0000
0001
0010
1000
0010
0001
,
1000
0100
1000
0010
0100
0001
1000
0100
,
0000
0110
0000
0001
1000
0001
0100
0010
,
0100
0001
0010
0001
1000
0100
0010
0001
,
0000
1001
0000
1000
0010
0100
0001
1000
,
1100
0101
1010
0011
,
1000
0100
0010
0001
0100
0010
1000
0100
,
1000
0000
0010
0000
0100
0000
0001
0000
1000
0001
1000
0000
0001
0100
0001
0000
,
2000
0000
3200
0000
0302
0000
2003
0000
3020
0000
0032
0000
2003
0000
0000
3000
,
1001
0000
0012
1003
0001
0100
0010
0100
,
0001
0000
0000
0000
0000
0000
0000
0000
0000
0000
0000
0000
0000
0000
0000
0000
0000
0000
0000
0000
0000
0000
0000
0000
0200
0300
0000
0000
0000
0000
0000
0000
0000
0000
0000
0000
0000
0000
0000
0000
0000
0000
0000
0000
0000
0000
0000
0000
0200
0300
0000
0000
0000
0000
0000
0000
0000
0000
0000
0000
0000
0000
0000
0000
0000
0000
0000
0000
0000
0000
0000
0000
1000
0000
0000
0000
0000
0000
0000
0000
0000
0000
0000
0000
0000
0000
0000
0000
0000
0000
0000
0000
0000
0000
0000
0000
0200
0300
0000
0000
0000
0000
0000
0000
0000
0000
0000
0000
0000
0000
0000
0000
0000
0000
0000
0000
0000
0000
0000
0000
0200
0300
0000
0000
0000
0000
0000
0000
0000
0000
0000
0000
0000
0000
0000
0000
0000
0000
0000
0000
0000
0000
0000
0000
0001
0000
0000
0000
0000
0000
0000
0000
0000
0000
0000
0000
0000
0000
0000
0000
0000
0000
0000
0000
0000
0000
0000
0000
0010
0000
0000
0000
0000
0000
0000
0000
0000
0000
0000
0000
0000
0000
0000
0000
0000
0000
0000
0000
0000
0000
0000
0000
,
0100
1000
0001
0100
0010
1000
0100
0010
,
0001
0001
1000
1000
0001
1000
1001
0000
,
0110
0000
0000
0000
0000
0000
0000
0000
0000
0000
0000
0000
0000
0000
0000
0000
2001
0000
0000
0000
0000
0000
0000
0000
3000
0000
0000
0000
0000
0000
0000
0000
0200
0300
0000
0000
0000
0000
0000
0000
0200
0300
0000
0000
0000
0000
0000
0000
0001
0000
0000
0000
0000
0000
0000
0000
0000
0000
0000
0000
0000
0000
0000
0000
,
1000
0100
0001
0100
2000
3020
0032
0023
,
1030
0010
0100
0001
0010
0001
1000
0001
,
0101
0000
0000
0110
0000
0000
1010
0000
0000
0000
0000
0000
2002
0000
0000
3003
,
1100
0000
0102
1003
0001
0001
1000
1000
,
1001
0000
2100
3010
0100
0100
0001
0001
,
0011
0000
2010
3001
0100
0100
0010
0010
,
1000
0100
0010
0001
0100
0010
0001
0010
,
2001
0000
0000
3200
0000
0000
0302
0000
,
0000
2003
0000
0000
3020
0000
0031
1000
,
0001
0100
0010
0100
0001
0010
0100
1000
,
0002
0000
0023
0000
2030
0000
3002
0000
0203
0000
2300
0000
3002
0000
0000
0003
,
1001
0000
0000
0000
1100
0000
0000
0010
0000
0000
0101
0000
0000
0010
0000
0000
,
1001
0000
0000
0000
1010
0000
0000
0100
0000
0000
0011
0000
0000
0100
0000
0000
,
1001
0000
0000
0000
0110
0000
0000
1000
0000
0000
0110
0000
0000
0001
0000
0000
,
1000
1000
0001
0001
1000
0001
1001
0000
,
1100
0000
0012
0103
0001
0010
0100
1000
,
0001
0001
0100
0010
1000
1000
0100
0010
,
0002
0000
1003
0010
0100
0001
1000
0100
,
0110
0000
0000
0011
0000
0000
1010
0000
0101
0000
0000
0000
2002
0000
0000
3003
,
2100
0000
0000
3020
0000
0000
0230
0000
,
0000
0002
0000
0000
0303
0000
0000
0000
,
1002
0000
0000
0023
0000
0000
0230
0000
,
0000
2300
0000
0000
3001
1000
0001
0000
,
1000
0100
1000
0010
1000
0100
0010
0001
,
0100
0000
0000
0001
0000
0000
0100
0000
0010
0000
0010
0000
0100
0000
0100
0000
,
0001
0010
0100
1000
0001
0100
0010
0000
,
1001
0000
0000
0220
0000
0000
0330
0000
1001
0000
0000
0000
1100
0000
1000
0000
,
0001
0000
0000
0000
0000
0000
0000
0000
0000
0000
0000
0000
0000
0000
0000
0000
0000
0000
0000
0000
0000
0000
0000
0000
0100
0000
0000
0000
0000
0000
0000
0000
0000
0000
0000
0000
0000
0000
0000
0000
0000
0000
0000
0000
0000
0000
0000
0000
0010
0000
0000
0000
0000
0000
0000
0000
0000
0000
0000
0000
0000
0000
0000
0000
0000
0000
0000
0000
0000
0000
0000
0000
0100
0000
0000
0000
0000
0000
0000
0000
0000
0000
0000
0000
0000
0000
0000
0000
0000
0000
0000
0000
0000
0000
0000
0000
0001
0000
0000
0000
0000
0000
0000
0000
0000
0000
0000
0000
0000
0000
0000
0000
0000
0000
0000
0000
0000
0000
0000
0000
0020
0030
0000
0000
0000
0000
0000
0000
0000
0000
0000
0000
0000
0000
0000
0000
0000
0000
0000
0000
0000
0000
0000
0000
0020
0030
0000
0000
0000
0000
0000
0000
0000
0000
0000
0000
0000
0000
0000
0000
0000
0000
0000
0000
0000
0000
0000
0000
1000
0000
0000
0000
0000
0000
0000
0000
0000
0000
0000
0000
0000
0000
0000
0000
0000
0000
0000
0000
0000
0000
0000
0000
,
0020
0030
0000
0000
0000
0000
0000
0000
0000
0000
0000
0000
0000
0000
0000
0000
0000
0000
0000
0000
0000
0000
0000
0000
0020
0030
0000
0000
0000
0000
0000
0000
0000
0000
0000
0000
0000
0000
0000
0000
0000
0000
0000
0000
0000
0000
0000
0000
0001
0000
0000
0000
0000
0000
0000
0000
0000
0000
0000
0000
0000
0000
0000
0000
0000
0000
0000
0000
0000
0000
0000
0000
0000
0000
0000
0000
0000
0000
0000
0000
0000
0000
0000
0000
0000
0000
0000
0000
0000
0000
0000
0000
0000
0000
0000
0000
1001
0000
0000
0000
0000
0000
0000
0000
0000
0000
0000
0000
0000
0000
0000
0000
0000
0000
0000
0000
0000
0000
0000
0000
0000
0000
0000
0000
0000
0000
0000
0000
0000
0000
0000
0000
0000
0000
0000
0000
0000
0000
0000
0000
0000
0000
0000
0000
0110
0000
0000
0000
0000
0000
0000
0000
0000
0000
0000
0000
0000
0000
0000
0000
0000
0000
0000
0000
0000
0000
0000
0000
0100
0000
0000
0000
0000
0000
0000
0000
0000
0000
0000
0000
0000
0000
0000
0000
0000
0000
0000
0000
0000
0000
0000
0000
,
0001
0000
1000
0000
0100
0000
0010
0000
0001
0000
0000
0100
0000
0000
0010
0000
,
0100
0000
0001
0000
1000
0001
1000
0000
0002
0000
0000
0000
1003
0000
0000
0010
,
0000
0000
0100
0000
0010
0000
1000
0000
0001
0000
0000
0100
0000
0000
1000
0000
,
0001
0000
0010
0000
1000
0000
0001
0000
1000
0000
0000
0100
0000
0000
0010
0000
,
1000
0010
0001
0000
1001
0000
1000
0001
,
0100
0010
1000
0000
1100
0000
0110
0010
,
0001
0100
0001
0010
0001
0010
0100
1000
,
0100
1000
0010
0100
0001
0100
1000
0010
,
1000
0000
0100
0000
0001
0000
1000
0000
0001
0000
0100
0010
0100
0000
0001
0000
,
1000
0000
0001
0000
1000
0000
0001
0000
2000
0000
0000
0000
0000
0000
0000
0000
3001
0000
0000
0000
0010
0000
0000
0001
0000
0000
1000
0000
1001
0000
0000
0000
,
0001
1000
0100
1000
0010
0100
0001
1000
0001
0000
0010
0000
0100
0000
1000
0000
,
0001
0000
0001
0000
1000
0000
1000
0000
0002
0023
0000
0032
0203
0320
2030
3002
,
1003
0000
0000
0000
0000
0000
0000
0000
0000
0000
0000
0000
0000
0000
0000
0000
0000
0000
0000
0000
0000
0000
0000
0000
0100
0000
0000
0000
0000
0000
0000
0000
0000
0000
0000
0000
0010
0000
0000
0000
0000
0000
0000
0000
0000
0000
0000
0000
0011
0000
0000
0000
0000
0000
0000
0000
0000
0000
0000
0000
0001
0000
0000
0000
0000
0000
0000
0000
0000
0000
0000
0000
1000
0000
0000
0000
0000
0000
0000
0000
0000
0000
0000
0000
0001
0000
0000
0000
0000
0000
0000
0000
0000
0000
0000
0000
1000
0000
0000
0000
0000
0000
0000
0000
0000
0000
0000
0000
0020
0030
0000
0000
0000
0000
0000
0000
0000
0000
0000
0000
0020
0030
0000
0000
0000
0000
0000
0000
0000
0000
0000
0000
0001
0000
0000
0000
0000
0000
0000
0000
0000
0000
0000
0000
0200
0300
0000
0000
0000
0000
0000
0000
0000
0000
0000
0000
0200
0300
0000
0000
0000
0000
0000
0000
0000
0000
0000
0000
1000
0000
0000
0000
0000
0000
0000
0000
0000
0000
0000
0000
0001
0000
0000
0000
0000
0000
0000
0000
0000
0000
0000
0000
,
2001
0000
3001
0100
0001
0010
0010
0010
0001
0100
0010
1000
1001
0000
0110
0000
,
2002
3003
1100
1000
0010
0100
0001
0021
0000
1000
0000
0031
0100
0010
1000
0001
,
1000
0000
0100
0000
1000
0000
0001
0000
1000
0001
1000
0001
1000
0001
1000
0001
,
2000
0000
0000
3200
0000
0300
0220
0000
0000
0000
0330
0000
2002
0000
0000
0000
,
3003
0000
0000
0000
;

//--------------- dance-single - Fred-104 ----------------
#NOTEDATA:;
#STEPSTYPE:dance-single;
#DESCRIPTION:Fred-104;
#DIFFICULTY:Hard;
#METER:17;
#CREDIT:Fred-104;
#NOTES:
0000
0000
0000
0000
,
0000
0000
0000
0000
,
0000
0000
0000
0000
,
0000
0000
0000
0000
,
0000
0000
0000
0000
,
2000
3100
0010
2000
3010
0001
2000
3010
,
0100
2000
3100
0001
1000
0100
0010
0001
,
2000
3010
0001
2000
3100
0010
2000
3100
,
0001
2000
3010
0100
2000
0000
3002
0000
,
2003
0000
3100
0010
0100
0000
0020
0000
0031
0100
0001
0000
0020
0000
0130
1000
,
0100
0000
0020
0000
0031
1000
0001
0000
1000
0100
0010
0001
1000
0000
0010
0000
,
0200
0000
0301
0010
0001
0000
0200
0000
0310
1000
0010
0000
0200
0000
0301
1000
,
0001
0000
2000
0000
3100
1000
0100
0000
2000
0000
3002
0000
0203
0000
0320
0000
,
2030
0000
3001
1000
0010
0000
0200
0000
0301
0010
0100
0000
2000
0000
3010
1000
,
0001
0000
0200
0000
0310
1000
0001
0000
2000
0000
3002
0000
0023
0000
0230
0000
,
2300
0000
3001
0010
0100
0000
2000
0000
3001
0010
0100
0000
2100
0000
3100
0010
,
0001
0000
2000
0000
3010
0100
1000
0000
0200
0000
0000
0000
0302
0000
0000
0000
,
2003
0000
3100
0010
0001
0000
2000
0000
3010
0100
0001
0000
2000
0000
3001
0010
,
0100
0000
2000
0000
3001
0100
0010
0000
2000
0000
3020
0000
0230
0000
0302
0000
,
2003
0000
3001
1000
0100
0000
0020
0000
0031
1000
0010
0000
0200
0000
0301
0010
,
0100
0000
2000
0000
3010
0100
0001
1000
0002
0000
0203
0000
0320
0000
2030
0000
,
3002
0000
0013
1000
0010
0000
0002
0000
0103
1000
0100
0000
0002
0000
1003
0100
,
0001
0000
0200
0000
1300
0010
0001
0000
0010
1000
0001
1000
0002
0000
1003
0000
,
1001
0000
0110
1010
0000
1100
0110
0011
,
0000
0101
0000
2001
3002
0203
0320
2030
,
3001
0010
0100
0010
0001
1000
0010
0210
,
0300
0000
1020
0000
0030
0000
0201
0000
0301
0000
1000
0000
0010
0000
0100
0001
,
0100
0001
0010
0100
1000
0010
0100
2100
,
3000
0000
0201
0000
0300
0000
1002
0000
1003
0000
0100
0000
0010
0001
0010
0000
,
0011
1010
0101
1100
,
0001
0000
0010
0001
0010
0000
0100
1000
0100
0000
1000
0010
1000
0000
0001
0100
,
0001
0000
1000
0000
0001
0000
0010
0000
0100
0010
0100
1000
0010
0100
0001
1000
,
0002
0000
0023
0000
2030
0000
3002
0000
0203
0000
1300
0001
2000
0000
0000
3000
,
1001
0000
0000
0000
0110
0000
0001
1000
0010
0000
1000
0001
0100
0001
1000
0000
,
0001
0100
0001
0100
0010
0000
1000
0100
1000
0100
0010
0000
0002
0000
2003
0000
,
3100
0000
0000
0000
1000
0010
0100
0000
0010
1000
0100
0010
0001
0100
0001
0010
,
0001
0010
0011
0010
0110
0100
1100
0000
,
0101
0000
0000
0000
0000
0000
0000
0000
0000
0000
0000
0000
0000
0000
0000
0000
1001
0000
0000
0000
0000
0000
0000
0000
1000
0000
0000
0000
0000
0000
0000
0000
0200
0300
0000
0000
0000
0000
0000
0000
0200
0300
0000
0000
0000
0000
0000
0000
0001
0000
0000
0000
1000
0000
0000
0000
0001
0000
0000
0000
1000
0000
0000
0000
,
0001
0010
0001
0010
0100
1000
0100
0010
0200
0000
2300
0000
3020
0000
0032
0000
,
0103
0000
1000
0000
0001
1000
0001
0000
1000
0100
0001
0000
0100
1000
0010
0000
,
0110
0000
0000
0101
0000
0000
1001
0000
0000
0000
0000
0000
0220
0000
0000
0330
,
1001
0000
0000
0000
1100
0000
1000
0000
0010
1000
0010
0000
0010
0100
0010
0000
,
0110
0000
0000
0000
0101
0000
0001
0000
1000
0100
1000
0000
1000
0010
1000
0000
,
1001
0000
0000
0000
0110
0000
0010
0000
0100
0001
0100
0000
0100
1000
0100
0000
,
0010
0000
1000
0001
1000
0100
0010
0000
0002
0000
0203
0000
2300
0000
3200
0300
,
1002
0000
0000
0203
0310
0000
2010
0000
,
0000
3200
0310
0000
0002
1003
0010
1000
,
0200
0000
1300
0000
0010
0000
0200
0000
0301
0010
0100
1000
0010
0100
0001
0010
,
0002
0000
2003
0000
3200
0000
0302
0000
2003
0000
3020
0000
0032
0000
0000
0003
,
1001
0000
0000
0000
1100
0000
0000
0101
0000
0000
1010
0000
0000
0110
0000
0000
,
1001
0000
0000
0000
0011
0000
0000
1010
0000
0000
0101
0000
0000
1100
0000
0000
,
0110
0000
0000
0000
1100
0000
0000
0101
0000
0000
1010
0000
0000
0011
0000
0000
,
1001
0000
1000
0000
1100
0000
1000
0000
1010
0000
0010
0000
0100
0001
0100
0001
,
0010
0000
0011
0001
0100
1000
0100
0001
,
2001
3100
0010
0001
1002
0103
0010
1000
,
1020
0000
0000
0000
1030
0100
1000
0010
0100
0001
0010
0001
0100
0010
1000
0100
,
1000
0000
0000
1010
0000
0000
0101
0000
0110
0000
0000
0000
2002
0000
0000
3003
,
2001
3000
0001
0020
0030
0010
2000
3000
,
0001
0200
0300
0100
1000
0001
0100
0010
,
2000
3000
0010
0002
0003
1000
0200
0300
,
0001
2000
3000
0010
0002
1003
0100
0000
,
2000
0000
3001
0020
0130
0001
2000
3010
,
0001
0000
1000
0010
0000
0100
0010
0000
1000
0100
0010
0000
0001
0010
0100
0000
,
1000
0010
1000
0000
0001
0100
0001
0000
1000
0100
1000
0001
0010
0001
0100
0010
,
1000
0000
0000
0000
0000
0000
1100
0000
0100
0000
0000
0000
0022
0000
0000
0033
1001
0000
0000
0000
0000
0000
0000
0000
0001
0000
0000
0000
0010
0000
0100
0000
,
1000
0000
0001
1000
0010
0000
0100
0000
0001
0100
0001
0100
0001
0000
1000
0010
,
0100
0010
1000
0010
0100
0000
0000
0000
1001
0000
0000
0000
0011
0000
0001
0100
,
0010
1000
0100
0000
1000
0000
0001
0000
1000
0000
0001
0010
0000
0100
1000
0000
,
0001
0000
0100
0010
1000
0001
0010
0001
2000
0000
0000
0000
3001
0000
1000
0100
,
0000
0010
1000
0000
0010
0000
0001
0000
1000
0000
0001
0100
0000
0010
0001
0000
,
0010
0100
0002
0000
1003
0100
0020
0000
0031
0000
0010
0100
0000
0001
1000
0000
,
0010
0100
1000
0001
1000
0000
0000
0000
1001
0000
0000
0000
0002
0000
0203
0000
,
0320
0000
0000
0000
0000
0000
0000
0000
2030
0000
0000
0000
0000
0000
0000
0000
3002
0000
0000
0000
0000
0000
0000
0000
2003
0000
0000
0000
0000
0000
0000
3000
1100
0000
0000
0000
0000
0000
0000
0000
0000
0000
0000
0000
0000
0000
0000
0000
1001
0000
0000
0000
0000
0000
0000
0000
0001
0000
0000
0000
0100
0000
0000
0000
,
0010
0000
0001
1000
0100
0000
0010
0000
1000
0000
0001
1000
0100
0000
1000
0000
,
0010
1000
0010
0100
0001
1000
0001
0000
1000
0000
0100
0000
0010
0000
0001
0010
,
0100
0000
0001
1000
0010
0000
0100
0000
1000
0000
0010
1000
0001
1000
0100
0000
,
0010
0001
1000
0001
0100
0010
2000
3000
1001
0000
0001
0100
0110
0010
1000
0001
,
0100
0010
0000
0001
0010
0000
0100
0000
0001
0000
0001
1000
0001
0000
1000
0000
0001
0000
0000
0000
0100
0000
0000
0000
0010
0000
0000
0000
1000
0000
0000
0000
,
0001
0100
0010
1000
0001
0010
0100
1000
0002
0023
0230
0320
0032
0203
2300
3200
,
0301
0000
0000
0000
0100
0000
0010
0000
1010
0000
1000
0001
1000
0001
1000
0001
0010
0001
0010
0001
1000
0000
0010
1000
0001
1000
0100
0000
2000
0000
3200
0000
,
0320
0000
0000
0000
0031
0000
0001
0000
1001
0000
1000
0010
0100
0010
0100
0000
0001
0000
0010
0000
0100
0000
1000
0000
1100
0000
0000
0000
1001
0000
0000
0000
,
0220
0000
0000
0000
0330
0000
0000
0000
1001
0000
0000
0000
0001
0000
0000
0000
0100
0000
0000
0000
0001
0000
1000
0000
0100
0000
0010
0000
0002
0003
0000
0000
0000
0000
0000
0000
0101
0000
0000
0000
0001
0000
0000
0000
1000
0000
0001
0000
2000
0000
0000
0000
3020
0000
0000
0000
0032
0000
0000
0000
0023
0000
0000
0000
,
0130
0000
0001
0000
1000
0000
0100
0000
1000
0010
1000
0001
0100
0001
0010
0100
,
0020
0000
0000
0032
0000
0000
2000
0000
0000
0000
3003
0000
2002
0000
0000
0000
,
3003
0000
0000
0000
;

//--------------- dance-double - Fred-104 ----------------
#NOTEDATA:;
#STEPSTYPE:dance-double;
#DESCRIPTION:Fred-104;
#DIFFICULTY:Easy;
#METER:9;
#CREDIT:Fred-104;
#NOTES:
00000000
00000000
00000000
00000000
,
00000000
00000000
00000000
00000000
,
00000000
00000000
00000000
00000000
,
00000000
00000000
00000000
00000000
,
00000000
00000000
00000000
00000000
,
00010000
00000000
00000000
00001000
00000000
00000000
00100000
00000000
,
00000000
00001000
00000000
00000000
00020000
00000000
00030000
00000000
,
00001000
00000000
00000000
00010000
00000000
00000000
00000010
00000000
,
00000000
00010000
00000000
00000000
00002000
00000000
00003000
00000000
,
00100000
00000000
00000000
00010000
00000000
00000000
10000000
00000000
,
00000000
00100000
00000000
00000000
02000000
00000000
03000000
00000000
,
00010000
00000000
00000000
10000000
00000000
00000000
01000000
00000000
,
00000000
00100000
00000000
00000000
00002000
00000000
00003000
00000000
,
00010000
00000000
00000000
00001000
00000000
00000000
00000100
00000000
,
00000000
00000001
00000000
00000000
00002000
00000000
00003000
00000000
,
00000001
00000000
00000000
00000100
00000000
00000000
00000010
00000000
,
00000000
00001000
00000000
00000000
00000002
00000000
00000003
00000000
,
00000100
00000000
00000000
00001000
00000000
00000000
00010000
00000000
,
00000000
00100000
00000000
00000000
02000000
00000000
03000000
00000000
,
00010000
00000000
00000000
10000000
00000000
00000000
01000000
00000000
,
00000000
00100000
00000000
00000000
00002000
00000000
00003000
00000000
,
00010000
00000000
00000000
00001000
00000000
00000000
00010000
00000000
,
00000000
00000010
00000000
00000000
00002000
00000000
00003000
00000000
,
00000001
00000000
00000100
00000100
00000000
00000010
00000000
00010000
,
00000000
00011000
00000000
00000000
00001000
00000000
00010000
00000000
,
00002000
00000000
00000000
00000000
00000000
00000000
00003000
00100000
,
00000000
00100000
00000000
00000000
01000000
00000000
10000000
00000000
,
00200000
00000000
00000000
00000000
00000000
00000000
00300000
01000000
,
00000000
01000000
00000000
00000000
00010000
00000000
00100000
00000000
,
00101000
00001000
00010010
00010000
,
00001000
00010000
00100000
00010000
,
00001000
00001000
00010000
00010000
,
00022000
00000000
00000000
00033000
,
00010000
00000000
00001000
00000000
00000100
00000010
00001000
00000000
,
00000001
00000000
00000000
00000100
00000000
00000000
00001000
00000000
,
00010000
00001000
00010000
00000000
00100000
00000000
01000000
00000000
,
00010000
00000000
10000000
00000000
01000000
00100000
01000000
00000000
,
00100000
00000000
00000000
00000000
00000000
00000000
00000000
00000000
00000000
00000000
00000000
00000000
00000000
00000000
00000000
00000000
10010000
00000000
00000000
00000000
00000000
00000000
00000000
00000000
00000000
00000000
00000000
00000000
00000000
00000000
00000000
00000000
02000000
03000000
00000000
00000000
00000000
00000000
00000000
00000000
02000000
03000000
00000000
00000000
00000000
00000000
00000000
00000000
00010000
00000000
00000000
00000000
00000000
00000000
00000000
00000000
00000000
00000000
00000000
00000000
00000000
00000000
00000000
00000000
,
10000000
01000000
00010000
00000000
00001000
00010000
00001000
00000000
,
00000010
00000100
00001000
00000010
,
00010000
00000000
00000000
00022000
00000000
00000000
00033000
00000000
,
00011000
00000000
00010000
00000000
00000100
00001000
00000100
00000000
,
00010000
00000000
00000010
00000000
00001000
00000010
00001000
00000000
,
00000001
00000000
00001000
00000000
00000001
00000010
00000100
00000000
,
00000010
00000001
00000100
00001000
,
00011000
00000000
00000000
00001000
00000000
00000000
00100000
00000000
,
00000000
00010000
00000000
00000000
10000000
00000000
00100000
00000000
,
01000000
00010000
10000000
01000000
,
02200000
00000000
00000000
03300000
,
10000000
00000000
01000000
00000000
00000000
00100000
00000000
00000000
,
00001000
00000000
00010000
00000000
00000000
00000010
00000000
00000000
,
00010000
00000000
00001000
00000000
00000000
00100000
00000000
00000000
,
00001000
00010000
00001000
00011000
,
00010000
00000000
00000100
00000000
00001000
00000001
00001000
00000000
,
00000001
00000000
00000010
00000000
00000100
00001000
00000100
00000000
,
00020000
00031000
00010000
00001000
,
01000000
00100000
02200000
03300000
,
10010000
00000000
00000000
01000000
00000000
00000000
00100000
00000000
,
00000000
01000000
00000000
00000000
10000000
00000000
00100000
00000000
,
00010000
00000000
00000000
00001000
00000000
00000000
00000100
00000000
,
00000000
00000010
00000000
00000000
00000100
00000000
00000001
00000000
,
00001000
00000001
00001000
00000010
,
00010000
00001000
00100000
00001000
,
00010000
00001000
00010000
00000000
00000100
00001000
00000001
00000000
,
00002002
00000000
00000000
00003003
00000100
00000000
00001001
00000000
,
00000001
00000010
00000100
00000000
00010000
00000000
00000000
00001000
,
00000000
00100000
01000000
00100000
,
00010000
01000000
00100000
00000000
10000000
00000000
01000000
00000000
,
01100000
00000000
00001000
00010000
,
00001000
00100000
00010000
00000000
01000000
00000000
00001000
00000000
,
00010000
00000100
00001000
00000000
00000001
00000000
00001000
00000000
,
00000010
00000100
00000010
00000000
00001000
00000000
00000001
00000000
,
00000010
00000100
00001000
00000000
00000100
00000000
00011000
00000000
,
01000000
00100000
01000000
00000000
00010000
00000000
10000000
00000000
,
01000000
00100000
01000000
00000000
00100000
00000000
00001000
00000000
,
00010000
00001000
00010000
00000000
00001000
00000100
00000010
00000000
,
00001000
00000010
00020000
00000000
00031000
00010000
00011000
00001000
,
00010000
00100000
10000000
01000000
00100000
00000000
00001000
00000000
,
00010000
00001000
00010000
00000000
00022000
00000000
00000000
00033000
,
00010000
00000100
00001100
00001000
00000001
00000010
00001000
00000010
,
00000001
00001000
00001100
00000000
00010000
00001000
00010000
00001000
,
01000000
00100000
10000000
00200000
00000000
00310000
00001000
00000000
,
00010000
00001000
00000100
00000001
,
00000011
00000000
00000000
00002002
00000000
00000000
00000000
00000000
,
00003003
00000000
00000000
00000000
;

//--------------- dance-double - Fred-104 ----------------
#NOTEDATA:;
#STEPSTYPE:dance-double;
#DESCRIPTION:Fred-104;
#DIFFICULTY:Medium;
#METER:14;
#CREDIT:Fred-104;
#NOTES:
00000000
00000000
00000000
00000000
,
00000000
00000000
00000000
00000000
,
00000000
00000000
00000000
00000000
,
00000000
00000000
00000000
00000000
,
00000000
00000000
00000000
00000000
,
00002000
00000000
00103000
00002000
00000000
00013000
00002000
00000000
,
01003000
00002000
00000000
00013000
00001000
00000000
00100000
00000000
,
00020000
00000000
10030000
02000000
00000000
03010000
00002000
00000000
,
00003010
00000200
00000000
00001300
00000002
00000000
00000203
00000000
,
00000302
00000000
00000103
00000020
00000000
00001030
00000200
00000000
,
00010300
00002000
00000000
00013000
00000010
00000000
00010000
00000000
,
00002000
00000000
00103000
00020000
00000000
10030000
00020000
00000000
,
00130000
02000000
00000000
03100000
00002000
00000000
00013000
00000000
,
00000020
00000000
00001030
00000020
00000000
00010030
00002000
00000000
,
00103000
00020000
00000000
10030000
00100000
00000000
01000000
00000000
,
00020000
00000000
10030000
02000000
00000000
03100000
00002000
00000000
,
00013000
00000200
00000000
00001300
00000002
00000000
00000023
00000000
,
00000230
00000000
00000310
00000002
00000000
00000103
00000020
00000000
,
00000130
00002000
00000000
00013000
00100000
00000000
01000000
00010000
,
20000000
00000000
31000000
00200000
00000000
01300000
00020000
00030000
,
00001000
00000020
00000000
00000130
00001000
00000001
00001000
00000001
,
00002000
00000000
00003001
00000020
00000000
00000130
00002000
00000000
,
00003100
00020000
00000000
00031000
00200000
00000000
00320000
00030000
,
10010000
00000000
10000000
11000000
00000000
01100000
00000000
00101000
,
00000000
00011000
00000000
00010000
00001000
00000100
00000001
00001000
,
00000001
00000010
00000001
00000010
00000100
00001000
00000100
00010000
,
00000000
00011000
00000000
00001000
00100000
00010000
10000000
00000000
,
00010000
10000000
00100000
00010000
00001000
00000100
00000010
00001000
,
00000000
00000110
00000000
00001000
00000100
00000010
00000001
00000000
,
00000101
00001100
00011000
00101000
,
00001000
00010000
00100000
10000000
00010000
01000000
00001000
00010000
,
00100000
00000000
01000000
00000000
00001000
00000000
00010000
00000000
00000100
00001000
00000100
00000000
00001000
00000001
00001000
00000000
,
00000001
00000000
00000010
00000000
00001000
00000000
00010000
00000000
01000000
00000000
10000000
00000000
20020000
00000000
00000000
30030000
,
01100000
00000000
10000000
00100000
00010000
00001000
00010000
00100000
,
00010000
00001000
00000100
00000010
00001000
00000100
00000010
00000001
,
00001000
00000000
00000001
00000100
00000010
00000100
00001000
00010000
,
00100000
10000000
00100000
01000000
00010000
10000000
00010000
00000000
,
01100000
00000000
00000000
00000000
00000000
00000000
00000000
00000000
00000000
00000000
00000000
00000000
00000000
00000000
00000000
00000000
10010000
00000000
00000000
00000000
00000000
00000000
00000000
00000000
00000000
00000000
00000000
00000000
00000000
00000000
00000000
00000000
02000000
03000000
00000000
00000000
00000000
00000000
00000000
00000000
02000000
03000000
00000000
00000000
00000000
00000000
00000000
00000000
00010000
00000000
00000000
00000000
00000000
00000000
00000000
00000000
00000000
00000000
00000000
00000000
00000000
00000000
00000000
00000000
,
10000000
00100000
00010000
00001000
00000100
00000010
00000100
00001000
,
00010000
00001000
00000010
00000001
00001000
00000100
00000010
00000001
,
00000101
00000000
00000000
00001010
00000000
00000000
00001100
00000000
00000000
00000000
00000000
00000000
00022000
00000000
00000000
00033000
,
00011000
00000000
00010000
00001000
00000100
00000001
00000010
00001000
,
00010000
00000000
00001000
00010000
01000000
10000000
00100000
00010000
,
00001000
00000000
00010000
00001000
00000010
00000001
00000100
00001000
,
00010000
00001000
01000000
00100000
00010000
00100000
01000000
00010000
,
20000000
00000000
00000000
30200000
00000000
00000000
00320000
00000000
,
00000000
00032000
00000000
00000000
00003200
00000000
00000301
00001000
,
00000001
00000010
00000100
00001000
00000010
00010000
00001000
00100000
,
00010000
00000000
10000000
00000000
01000000
00000000
00010000
00000000
00001000
00000000
00000010
00000000
00000002
00000000
00000000
00000003
,
00001001
00000000
00000000
00000000
00000011
00000000
00000000
00001000
00000000
00000000
00000100
00000000
00000000
00010000
00000000
00000000
,
00011000
00000000
00000000
00000000
01100000
00000000
00000000
00010000
00000000
00000000
10000000
00000000
00000000
00100000
00000000
00000000
,
01010000
00000000
00000000
00000000
00101000
00000000
00000000
00010000
00000000
00000000
00000010
00000000
00000000
00001000
00000000
00000000
,
00000100
00000100
00000010
00000010
00000100
00000010
00000110
00000000
,
00001001
00000000
00000001
00000010
00001000
00010000
01000000
00100000
,
00010000
10000000
00100000
00010000
00001000
00010000
00100000
01000000
,
00002000
00000000
00013000
00001000
00000100
00000001
00000010
00000100
,
00000110
00000000
00000000
00000011
00000000
00000000
00001010
00000000
00000110
00000000
00000000
00000000
00022000
00000000
00000000
00033000
,
00021000
00000000
00000000
00000010
00000000
00000000
00100000
00000000
,
00000000
00000010
00030000
00000000
00010000
00000000
00001000
00000000
,
00012000
00000000
00000000
01000000
00000000
00000000
00000100
00000000
,
00000000
01000000
00003000
00000000
00001000
00000000
00010000
00000000
,
00001000
00010000
00100000
10000000
00010000
00100000
00001000
00010000
,
01000000
00100000
00010000
00001000
00000100
00000010
00000001
00001000
,
00000010
00000001
00000010
00001000
00000001
00000010
00001000
00010000
,
00001000
00000000
00000000
00022000
00000000
00000000
00033000
00000000
00011000
00000000
00000000
00000000
00001000
00000000
00010000
00000000
,
00100000
01000000
00001000
00100000
00001000
00010000
00100000
10000000
,
00010000
00100000
01000000
10000000
10010000
00000000
10000000
01000000
,
00010000
00000000
00001000
00000000
00010000
00000000
01000000
00000000
00100000
00000000
00000000
00010000
00000000
00000000
10000000
00000000
,
00100000
00000000
00010000
00000000
00001000
00000000
00010000
00000000
00000010
00000000
00001000
00000000
00000100
00000000
00001000
00000001
,
00000000
00000001
00000010
00000000
00000100
00000000
00010000
00000000
00001000
00000000
00010000
00001000
00000000
00001000
00100000
00000000
,
00010000
00000000
10000000
00000000
00100000
00000000
01000000
00000000
00010000
00000000
10000000
01000000
00000000
01000000
00100000
00000000
,
00001000
00010000
00001000
00000010
00000100
00000000
00001000
00000001
,
00000100
00001000
00010000
00001000
00010000
00000000
00001000
00010000
,
00100000
10000000
00010000
00100000
01000000
00000000
10000000
01000000
,
00010000
00001000
00010000
00100000
00010000
00000000
00001000
00000100
,
00000010
00001000
00000100
00000010
00000001
00000100
00001000
00010000
,
00001000
00000000
00000100
00000000
00000002
00000000
00000000
00000000
00001003
00000000
00000001
00000010
00000100
00000100
00001000
00000010
,
00010000
00001000
00010000
00000010
00010000
00001000
00100000
00010000
10000000
00000000
00010000
00000000
00100000
00000000
01000000
00000000
,
10000000
00100000
00010000
00001000
00022000
00000000
00000000
00033000
,
00010000
00000000
00001000
00010000
00010100
00000100
00001000
00000001
00001000
00000100
00000010
00000001
00000100
00000010
00001000
00000001
,
00001000
00000000
00000001
00000100
00000010
00000100
00001000
00010000
00100000
01000000
00100000
10000000
00010000
00000000
01100000
00000000
,
10010000
00000000
00000000
00000000
00000000
00000000
00000000
00000000
10000000
00000000
00000000
00000000
01000000
00000000
00000000
00000000
00100000
00000000
00000000
00000000
00001000
00000000
00000000
00000000
00010000
00000000
00000000
00000000
00002000
00003000
00000000
00000000
00000000
00000000
00000000
00000000
00000010
00000000
00000000
00000000
00000000
00000000
00000000
00000000
00000100
00000000
00000000
00000000
00001000
00000000
00000000
00000000
00000001
00000000
00000000
00000000
00000100
00000000
00000000
00000000
00000000
00000000
00000000
00000000
,
00000001
00000010
00000100
00010000
00001000
00100000
01000000
10000000
,
00020000
00000000
00000000
20030000
00000000
30000000
22000000
00000000
00000000
00000000
33000000
00000000
20020000
00000000
00000000
00000000
,
30030000
00000000
00000000
00000000
;

//--------------- dance-double - Fred-104 ----------------
#NOTEDATA:;
#STEPSTYPE:dance-double;
#DESCRIPTION:Fred-104;
#DIFFICULTY:Hard;
#METER:17;
#CREDIT:Fred-104;
#NOTES:
00000000
00000000
00000000
00000000
,
00000000
00000000
00000000
00000000
,
00000000
00000000
00000000
00000000
,
00000000
00000000
00000000
00000000
,
00000000
00000000
00000000
00000000
,
00020000
00031000
00000010
00000200
00001300
00000010
00000200
00001300
,
00010000
00200000
10300000
00010000
00100000
00001000
00000010
00000100
,
00002000
00003001
00000100
00002000
00013000
00100000
02000000
03001000
,
00010000
02000000
13000000
00010000
02000000
00000000
03020000
00000000
,
20030000
00000000
31000000
00100000
00010000
00000000
20000000
00000000
31000000
00100000
00010000
00000000
20000000
00000000
30100000
01000000
,
00010000
00000000
20000000
00000000
30100000
01000000
00010000
00000000
00200000
00000000
00302000
00000000
00023000
00000000
00032000
00000000
,
00003020
00000000
00000130
00001000
00000001
00000000
00000020
00000000
00000130
00001000
00000001
00000000
00000100
00000000
00000020
00001000
,
00000031
00000000
00000100
00000000
00000020
00001000
00000031
00000000
00000200
00000000
00002300
00000000
00023000
00000000
00230000
00000000
,
20300000
00000000
30010000
00100000
01000000
00000000
20000000
00000000
30010000
00100000
01000000
00000000
20000000
00000000
30010000
01000000
,
00100000
00000000
20000000
00000000
30010000
01000000
00100000
00000000
20000000
00000000
32000000
00000000
03020000
00000000
00032000
00000000
,
00023000
00000000
00030100
00001000
00000010
00000000
00020000
00000000
00030100
00001000
00000010
00000000
00020000
00000000
00030010
00001000
,
00000100
00000000
00020000
00000000
00030010
00001000
00000100
00000000
00002000
00000000
00000000
00000000
00003002
00000000
00000000
00000000
,
00002003
00003001
00000010
00002000
00013000
01000000
00200000
00310000
,
01000000
00002000
00003100
00000010
00002000
00013000
00002000
00003010
,
00000200
00000301
00000010
00000200
00000310
00001000
00020000
01030000
,
00100000
00020000
10030000
00100000
00020000
00031000
00020000
00130000
,
02000000
03010000
10000000
00020000
00130000
01000000
00020000
00031000
,
00100000
00000000
00002000
00000000
00003010
00000000
00000100
00000000
00001000
00000001
00000010
00000100
00002000
00000000
00003100
00000000
,
00010100
00000000
00010000
00010010
00000000
00001000
00011000
00101000
,
00000000
00011000
00000000
00020000
00032000
00003200
00000302
00000023
,
00000130
00001000
00000100
00010000
00000100
00010000
00001000
00021000
,
00030000
00000000
01002000
00000000
00003000
00000000
00010020
00000000
00010030
00000000
00001000
00000000
00000100
00000000
00000010
00001000
,
00000001
00000100
00001000
00010000
00100000
01000000
00010000
00120000
,
00030000
00000000
20100000
00000000
30000000
00000000
00120000
00000000
10030000
00000000
01000000
00000000
00100000
00010000
01000000
00000000
,
01010000
00101000
00010100
00001010
,
00010000
00000000
00000010
00001000
00000010
00000000
00010000
00001000
00010000
00000000
00000100
00001000
00000100
00000000
00010000
00001000
,
00010000
00000000
00000100
00000000
00000010
00000000
00000001
00000000
00001000
00000010
00001000
00000010
00000100
00000001
00000100
00000001
,
00002000
00000000
00003002
00000000
00000023
00000000
00002030
00000000
00023000
00000000
01030000
10000000
00020000
00000000
00000000
00030000
,
10010000
00000000
00000000
00000000
01100000
00000000
00010000
10000000
00100000
00000000
10000000
00010000
00100000
00000000
00001000
00000000
,
00010000
00000010
00001000
00000010
00010000
00000000
00001000
00100000
00010000
00100000
00001000
00000000
00020000
00000000
00030020
00000000
,
00001030
00000000
00000000
00000000
00000010
00010000
00001000
00000000
00100000
00010000
10000000
00000000
01000000
00100000
00010000
00000000
,
00110000
00010000
00011000
00010000
00010010
00000010
00001010
00000000
,
00001001
00000000
00000000
00000000
00000000
00000000
00000000
00000000
00000000
00000000
00000000
00000000
00000000
00000000
00000000
00000000
00000001
00000000
00000000
00000000
00000000
00000000
00000000
00000000
00001000
00000000
00000000
00000000
00000000
00000000
00000000
00000000
00000200
00000300
00000000
00000000
00000000
00000000
00000000
00000000
00000200
00000300
00000000
00000000
00000000
00000000
00000000
00000000
00000001
00000000
00000000
00000000
00001000
00000000
00000000
00000000
00000001
00000000
00000000
00000000
00001000
00000000
00000000
00000000
,
00000001
00000010
00000001
00000010
00000100
00000010
00000100
00000010
00000002
00000000
00000023
00000000
00002030
00000000
00023000
00000000
,
00031000
00000000
00100000
00000000
01000000
10000000
00010000
00000000
01000000
00010000
10000000
00000000
01000000
00100000
00010000
00000000
,
00110000
00000000
00000000
00101000
00000000
00000000
00010010
00000000
00000000
00000000
00000000
00000000
00000220
00000000
00000000
00000330
,
00001001
00000000
00000000
00000000
00000001
00000000
00000010
00000000
00001000
00010000
01000000
00000000
00100000
00010000
10000000
00000000
,
10010000
00000000
00000000
00000000
10000000
00000000
01000000
00000000
00010000
00001000
00000010
00000000
00000100
00001000
00000001
00000000
,
00001001
00000000
00000000
00000000
00000001
00000000
00000100
00000000
00001000
00010000
00100000
00000000
01000000
00010000
10000000
00000000
,
00100000
00000000
10000000
01000000
00100000
00001000
00010000
00000000
00002000
00000000
00003200
00000000
00000320
00000000
00002030
00000000
,
00003002
00000000
00000000
00000203
00001300
00000000
00020000
00000000
,
00000000
00230000
10300000
00000000
00020000
10030000
00100000
01000000
,
00010000
00000000
10000000
00000000
01000000
00000000
00100000
00000000
00001000
00010000
00001000
00010000
00000010
00001000
00000010
00001000
,
00000002
00000000
00000023
00000000
00002030
00000000
00023000
00000000
02030000
00000000
03200000
00000000
00320000
00000000
00000000
00030000
,
10010000
00000000
00000000
00000000
11000000
00000000
00000000
01010000
00000000
00000000
00011000
00000000
00000000
00001100
00000000
00000000
,
00000101
00000000
00000000
00000000
00000011
00000000
00000000
00001010
00000000
00000000
00011000
00000000
00000000
00110000
00000000
00000000
,
10100000
00000000
00000000
00000000
11000000
00000000
00000000
01010000
00000000
00000000
00011000
00000000
00000000
00001010
00000000
00000000
,
00000011
00000000
00000001
00000000
00001000
00000000
00000010
00000000
00010000
00000000
00001000
00000000
00010000
00001000
00010000
00001000
,
00010000
00000000
00001000
00010000
00100000
01000000
00001000
00010000
,
00001000
00000010
00000100
00001000
00000001
00000100
00001000
00010000
,
00002000
00000000
00000000
00000000
00013000
00001000
00100000
00000000
00001000
00100000
00010000
10000000
00010000
01000000
00100000
10000000
,
00010000
00000000
00000000
10000000
00000000
00000000
01000000
00000000
01100000
00000000
00000000
00000000
00022000
00000000
00000000
00033000
,
00000120
00000030
00001000
00000200
00000300
00000001
00000200
00000300
,
00001000
00000200
00000300
00000001
00000100
00001000
00000001
00000100
,
00002000
00003000
00010000
00002000
00003000
00000010
00002000
00003000
,
00010000
00002000
00003000
00000010
00002000
00013000
00001000
00100000
,
00020000
00000000
10030000
00200000
00310000
10000000
02000000
03010000
,
10000000
00000000
00010000
00100000
00000000
01000000
00100000
00000000
00001000
00010000
00001000
00000000
00010000
00000010
00010000
00000000
,
00000010
00001000
00000010
00000000
00000100
00000001
00000100
00000000
00000001
00000010
00000100
00001000
00000100
00010000
00001000
00100000
,
00010000
00000000
00000000
00000000
00000000
00000000
01000000
00000000
00100000
00000000
00000000
00000000
20020000
00000000
00000000
30030000
11000000
00000000
00000000
00000000
00000000
00000000
00000000
00000000
01100000
00000000
00000000
00000000
00100000
00000000
00001000
00000000
,
00010000
00000000
00000010
00000000
00001000
00000001
00000010
00000000
00000100
00000010
00000001
00001000
00000010
00000000
00010000
00001000
,
00010000
00000010
00001000
00000100
00010000
00000000
00000000
00000000
00011000
00000000
00000000
00000000
01001000
00000000
00001000
00100000
,
00010000
00000000
10000000
00000000
00100000
00000000
01000000
00000000
00010000
00000000
00100000
01000000
00000000
10000000
01000000
00000000
,
00100000
00000000
00010000
01000000
00001000
00010000
00001000
00010000
00002000
00000000
00000000
00000000
00013000
00000000
00001000
00000100
,
00000000
00000010
00001000
00000000
00000100
00000000
00000010
00000000
00000001
00000000
00000100
00000010
00000000
00000100
00001000
00000000
,
00010000
00100000
01000000
00000000
00010000
00100000
01000000
00000000
10000000
00000000
00100000
01000000
00000000
00100000
10000000
00000000
,
01000000
00100000
00010000
00100000
00001000
00000000
00000000
00000000
00011000
00000000
00000000
00000000
00020000
00000000
00032000
00000000
,
00003020
00000000
00000000
00000000
00000000
00000000
00000000
00000000
00000230
00000000
00000000
00000000
00000000
00000000
00000000
00000000
00020300
00000000
00000000
00000000
00000000
00000000
00000000
00000000
00032000
00000000
00000000
00000000
00000000
00000000
00000000
00003000
00011000
00000000
00000000
00000000
00000000
00000000
00000000
00000000
00000000
00000000
00000000
00000000
00000000
00000000
00000000
00000000
00010010
00000000
00000000
00000000
00000000
00000000
00000000
00000000
00010000
00000000
00000000
00000000
00001000
00000000
00000000
00000000
,
00010000
00000000
00000100
00001000
00000001
00000000
00000100
00000000
00000010
00001000
00000000
00001000
00000001
00000000
00000010
00000000
,
00000100
00001000
00000100
00000000
00010000
00001000
00100000
00001000
00010000
00000000
00001000
00000000
00000100
00000000
00000001
00001000
,
00000001
00000000
00000010
00000100
00000010
00000000
00001000
00000000
00010000
00000000
01000000
00100000
00000000
01000000
00100000
00000000
,
00010000
10000000
00100000
10000000
00010000
10000000
02000000
03000000
01100000
00000000
00100000
00010000
10010000
10000000
00100000
00010000
,
00001000
00000100
00000010
00001000
00000100
00000010
00000001
00000010
00000001
00000000
00000100
00000000
00001000
00000000
00010000
00000000
,
00001000
00010000
00001000
00100000
00010000
10000000
00010000
01000000
00200000
20300000
32000000
03020000
00032000
00003020
00000032
00002003
,
00003001
00000000
00000000
00000000
00001000
00000000
00000100
00000000
00000110
00000000
00000010
00000001
00000010
00000001
00000010
00000000
00000001
00001000
00000100
00010000
00001000
00000000
01000000
00010000
01000000
00010000
01000000
00000000
00200000
00000000
20300000
00000000
,
32000000
00000000
00000000
00000000
03100000
00000000
00010000
00000000
00110000
00000000
00100000
00001000
00010000
00001000
00010000
00000000
00001000
00000000
00000010
00000000
00000100
00000000
00001000
00000000
00001100
00000000
00000000
00000000
00001001
00000000
00000000
00000000
,
00000220
00000000
00000000
00000000
00000330
00000000
00000000
00000000
00001001
00000000
00000000
00000000
00000001
00000000
00000000
00000000
00000100
00000000
00000000
00000000
00001000
00000000
00000000
00000000
00010000
00000000
00001000
00000000
00020000
00030000
00000000
00000000
00000000
00000000
00000000
00000000
00011000
00000000
00000000
00000000
00001000
00000000
00000000
00000000
00010000
00000000
00100000
00000000
02000000
00000000
00000000
00000000
03020000
00000000
00000000
00000000
20030000
00000000
00000000
00000000
30020000
00000000
00000000
00000000
,
10030000
00000000
01000000
00000000
00100000
00000000
00010000
00000000
01000000
00001000
00010000
00001000
00000010
00000100
00001000
00000001
,
00000200
00000000
00000000
00002300
00000000
00000000
00020000
00000000
00000000
00000000
00033000
00000000
00022000
00000000
00000000
00000000
,
00033000
00000000
00000000
00000000
;
