#VERSION:0.83;
#TITLE:Make A Difference;
#ARTIST:Lala Moore with CoCoRo*Co;
#GENRE:GOSPEL;
#BANNER:Make A Difference.png;
#BACKGROUND:Make A Difference-bg.png;
#CDTITLE:./CDTitles/bm IIDX 9th style.png;
#MUSIC:Make A Difference.ogg;
#SAMPLESTART:84.91;
#SAMPLELENGTH:15;
#BPMS:0=130;
#BGSTAGE:18;

//--------------- dance-single - Fred-104 ----------------
#NOTEDATA:;
#STEPSTYPE:dance-single;
#DESCRIPTION:Fred-104;
#DIFFICULTY:Beginner;
#METER:2;
#CREDIT:Fred-104;
#NOTES:
0000
0000
0000
0000
,
0000
0000
0000
0000
,
0000
0000
0000
0000
,
0000
0000
0000
0000
,
0000
0000
0000
0000
,
0000
0000
0000
0000
,
1000
0000
0000
0000
,
0001
0000
0000
0000
,
1000
0000
0000
0000
,
0001
0000
0000
0000
,
0010
0000
0000
0000
,
0100
0000
0000
0000
,
0010
0000
0000
0000
,
0100
0000
0000
0000
,
1000
0000
0001
0000
,
1000
0000
0010
0000
,
1000
0000
0001
0000
,
1001
0000
0000
0000
,
0001
0000
0010
0000
,
0001
0000
0001
0000
,
1000
0000
0010
0000
,
1001
0000
0000
0000
,
0002
0000
0003
0000
,
2000
0000
3000
0000
,
0002
0000
0003
0000
,
1000
0000
0001
0000
,
1000
0000
0001
0000
,
0200
0000
0300
0000
,
0001
0000
1000
0000
,
0200
0000
0300
0000
,
1001
0000
0000
0000
,
0000
0000
0000
0000
,
0000
0000
0000
0000
,
0000
0000
0000
0000
,
0002
0000
0003
0000
,
2000
0000
3000
0000
,
0002
0000
0003
0000
,
1001
0000
0000
0000
,
1000
0000
0000
0000
,
0001
0000
0010
0000
,
0100
0000
0000
0000
,
1000
0000
0001
0000
,
0100
0000
0000
0000
,
0010
0000
0100
0000
,
0010
0000
0000
0000
,
1000
0000
0001
0000
,
1000
0000
0000
0000
,
0010
0000
0000
0000
,
0001
0000
0000
0000
,
0100
0000
0000
0000
,
1000
0000
0000
0000
,
0001
0000
0000
0000
,
0100
0000
0000
0000
,
0010
0000
1000
0000
,
0002
0000
0003
0000
,
2000
0000
3000
0000
,
0002
0000
0003
0000
,
1000
0000
0001
0000
,
0200
0000
0300
0000
,
0020
0000
0030
0000
,
0200
0000
0300
0000
,
0001
0000
1000
0000
,
0001
0000
0000
0000
,
1001
0000
0000
0000
;

//--------------- dance-single - Fred-104 ----------------
#NOTEDATA:;
#STEPSTYPE:dance-single;
#DESCRIPTION:Fred-104;
#DIFFICULTY:Easy;
#METER:5;
#CREDIT:Fred-104;
#NOTES:
0000
0000
0000
0000
,
0000
0000
0000
0000
,
0000
0000
0000
0000
,
0000
0000
0000
0000
,
0000
0000
0000
0000
,
0000
0000
0000
0000
,
2000
3000
0100
0010
,
0002
0003
0100
0010
,
2000
3000
0001
0010
,
0200
0300
2000
3000
,
0002
0003
1000
0001
,
0200
0300
0010
1000
,
0200
0300
0010
0100
,
1000
1000
0001
0001
,
0100
0010
0100
0000
,
0001
1000
0100
0010
,
0100
1000
0010
0100
,
0002
0003
2000
3000
,
0001
0100
0001
0010
,
0100
1000
0001
1000
,
0010
1000
0001
0010
,
0002
0103
2000
3010
,
0002
0000
2000
3003
,
1000
0001
1000
0000
,
0200
0000
0020
0330
,
0100
0010
0001
0000
,
1001
0001
0100
0000
,
0010
0100
0100
0001
,
1001
1000
0100
0000
,
1000
0001
0100
0010
,
0110
0000
0000
0000
,
0000
0000
0000
0000
,
0000
0000
0000
0000
,
0000
0000
0000
0000
,
1000
0100
1000
0100
,
0001
0100
1000
0000
,
0001
0100
1000
0100
,
0002
0000
2000
3003
,
0001
0010
0100
0100
,
1000
0001
1000
0000
,
0010
0010
0100
0010
,
1000
0100
0010
0000
,
0001
0001
1000
0001
,
0100
0010
0100
0000
,
0001
0001
0010
0100
,
0010
0100
1000
0100
,
1000
1000
0001
0100
,
0010
0100
0001
0000
,
1000
1000
0010
1000
,
0100
1000
0001
0000
,
0010
0010
0100
0010
,
0001
0001
1000
0010
,
0100
0100
0001
1000
,
0100
0010
0001
1000
,
0002
0003
0020
0030
,
2000
3000
0200
0300
,
0002
0003
2000
3000
,
0001
1000
0001
0000
,
2000
3000
0200
0300
,
0002
0003
0020
0030
,
2000
3000
0002
0003
,
1000
0100
0010
0000
,
0001
1000
0010
1000
,
1001
0000
0000
0000
;

//--------------- dance-single - Fred-104 ----------------
#NOTEDATA:;
#STEPSTYPE:dance-single;
#DESCRIPTION:Fred-104;
#DIFFICULTY:Medium;
#METER:8;
#CREDIT:Fred-104;
#NOTES:
0000
0000
0000
0000
,
0000
0000
0000
0000
,
0000
0000
0000
0000
,
0000
0000
0000
0000
,
0000
0000
0000
0000
,
0000
0000
0000
0000
,
1000
0000
0100
0000
1000
0000
0000
0000
0010
0000
0000
0010
0000
0000
0010
0000
,
0100
0000
0001
0000
0100
0000
0000
0000
0001
0000
0000
0001
0000
0000
0001
0000
,
0010
0000
0100
0000
0010
0000
0000
0000
0100
0000
0000
0100
0000
0000
0100
0000
,
1000
0001
0100
0100
0001
1000
0001
0000
,
1000
0000
0100
0000
0010
0000
0000
0000
0001
0000
0000
0001
0000
0000
0001
0000
,
0100
0000
0010
0000
0100
0000
0000
0000
0001
0000
0000
0001
0000
0000
0001
0000
,
0010
0000
0100
0000
0010
0000
0000
0000
0100
0000
0000
0100
0000
0000
0100
0000
,
1000
0010
0100
0000
0001
1000
0100
0000
,
0110
0000
0001
0000
1001
0000
0000
0001
,
0100
1000
0100
0001
1000
0000
0001
0000
,
0010
0010
0100
0000
1000
1000
0001
0000
,
0100
0000
0010
0100
0010
0000
1000
0001
,
1001
0000
0100
0000
0110
0000
0000
1000
,
0100
0001
0100
1000
0001
0000
0100
0000
,
0002
2003
3100
0110
,
0002
0013
2000
3100
,
0002
0000
0000
0000
1000
0000
0000
2000
0000
0000
0000
0000
3003
0000
0000
0000
,
1000
0100
0010
0001
,
2000
0000
0000
0000
0001
0000
0000
0002
0000
0000
0000
0000
3003
0000
0000
0000
,
1001
0001
0100
0010
,
0110
0000
0000
0000
0001
0000
0000
1000
0000
0000
0001
0000
0010
0000
0200
0000
,
0000
0000
1300
0010
0100
0010
1000
0000
,
1001
0000
0000
0000
1000
0000
0000
0100
0000
0000
0010
0000
0001
0000
0200
0000
,
0000
0310
0100
0110
,
1001
0000
0000
0000
,
0000
0000
0000
0000
,
0000
0000
0000
0000
,
0000
0000
0000
0000
,
0001
0000
0010
0010
0100
0000
1000
0000
,
0001
0000
0100
0000
0010
0000
1000
0001
,
1000
0000
0100
0000
0010
0001
0010
0000
,
0002
0000
2000
3003
,
1001
0000
0001
0000
1000
0010
0100
0000
,
0001
0000
0100
1000
0100
0000
0010
0000
,
1010
0000
1000
0001
1000
0000
0100
0000
,
0010
0001
0010
0000
0001
1000
0001
0000
,
1001
0000
1000
0000
0100
0100
0010
0000
,
0001
0000
1000
0000
0010
0010
0100
0000
,
0010
0000
1000
0000
0100
0010
0010
0000
,
0001
0000
0001
0000
1000
0001
1000
0001
,
0100
0000
0110
0000
0010
1000
0100
0010
,
0001
0000
0011
0000
0001
1000
0010
1000
,
0001
0000
1100
0000
0001
1000
0010
0100
,
0001
0000
0110
0000
1000
0100
0010
0000
,
0011
0000
1001
0000
0001
1000
0010
0000
,
0110
0000
1001
0000
1000
0100
0010
0000
,
0011
0000
1010
0000
0001
1000
0100
0000
,
0010
0010
0001
0000
1000
0010
1000
0000
,
0110
0000
1000
0100
0001
0000
0001
0100
,
1000
0000
1000
0010
0001
0000
0001
0010
,
1000
0000
1000
0100
0001
0000
1000
0010
,
0001
0000
0000
0001
0000
0000
0001
0000
0010
0000
0100
0000
1000
0000
0001
0000
,
1000
0000
0001
0010
1000
0000
1000
0010
,
0001
0000
0001
0100
1000
0000
1000
0100
,
0001
0000
1000
0100
0001
0000
1000
0010
,
0001
0000
0000
0001
0000
0000
0001
0000
0100
0000
0010
0000
0100
0000
0001
0000
,
1001
0000
1000
0100
0010
0001
1000
0001
,
1001
0000
0000
0000
;

//--------------- dance-single - Fred-104 ----------------
#NOTEDATA:;
#STEPSTYPE:dance-single;
#DESCRIPTION:Fred-104;
#DIFFICULTY:Hard;
#METER:13;
#CREDIT:Fred-104;
#NOTES:
0000
0000
0000
0000
,
0000
0000
0000
0000
,
0000
0000
0000
0000
,
0000
0000
0000
0000
,
0000
0000
0000
0000
,
0000
0000
0000
0000
,
0001
0000
0100
0000
0001
0000
1000
0000
0010
0000
0000
0100
0000
0000
0001
0000
,
1000
0000
0100
0000
0010
0000
0001
0000
1000
0000
0000
0001
0000
0000
0100
0000
,
0010
0000
0100
0000
0001
0000
1000
0000
0100
0000
0000
0010
0000
0000
0001
0000
,
1000
0000
0000
0001
0000
0000
0100
0000
0000
0010
0000
0000
0100
0000
0001
0100
0000
0001
1000
0000
0001
1000
0000
0000
,
0001
0000
0000
0100
0000
0000
0010
0000
0000
0100
0000
0000
1000
0000
0000
0000
0000
0100
0000
0000
0001
1000
0000
0000
,
0100
0000
0000
0010
0000
0000
1000
0000
0000
0010
0000
0000
0100
0000
0000
0000
0000
0010
0000
0000
0001
1000
0000
0000
,
0001
0000
0000
0100
0000
0000
1000
0000
0000
0100
0000
0000
0010
0000
0000
0000
0000
0001
0000
0000
0010
1000
0000
0000
,
0001
0000
0000
0010
0000
0000
0100
0000
1000
0000
0000
1000
0001
0000
0100
0001
0000
1000
0001
0000
0010
0100
0000
0000
,
1000
0000
0000
0000
0000
0000
0100
0000
1000
0000
0000
0002
0000
0000
0000
0103
0000
0000
0010
0000
0000
0100
0000
0001
,
1000
0000
0000
0000
0000
0000
0100
0000
0001
0000
0000
2000
0000
0000
0000
0000
0000
0000
3010
0000
0000
0100
0000
0000
,
1000
0000
0000
0001
0000
0010
0000
0000
0100
0000
0000
1000
0000
0000
0000
0001
0000
0000
0100
0000
0000
0000
0000
0000
,
0002
0000
0000
0000
0000
0000
1003
0000
0001
1000
0000
0000
0100
0000
0000
0000
0000
0010
0001
0000
0010
0001
0000
0000
,
1000
0000
0000
0000
0000
0000
0001
0000
1000
0000
0000
1000
0010
0000
0100
0010
0000
1000
0001
0000
0000
1000
0000
1000
,
0100
0000
0000
0000
0000
0000
0001
0000
0100
0000
0000
0020
0000
0000
0000
0000
0000
0000
0031
0000
0000
1000
0000
0000
,
0002
0100
2003
0010
3001
0000
1001
0000
,
2000
0000
0000
0000
0000
0000
3100
0000
0010
0000
0000
0001
0000
0000
0000
0000
0000
1000
0001
0000
0100
0001
0000
0000
,
2001
0000
0000
0000
0000
0000
0001
0000
0001
0000
0000
0002
0000
0000
0000
0000
0000
0000
3003
0000
0000
0000
0000
0000
,
0012
0000
0000
0000
0000
0000
1000
0000
0000
1000
0000
1000
0003
0000
0000
0001
0000
0000
1000
0000
0000
0010
0000
0000
,
0120
0000
0000
0000
0000
0000
0100
0000
0100
0000
0000
0200
0000
0000
0000
0000
0000
0000
0330
0000
0000
0000
0000
0000
,
1001
0000
0000
0000
0000
0000
0001
0000
0100
0000
0000
0001
1000
0000
0000
0001
0000
0000
1000
0000
0000
0100
0000
0000
,
0110
0000
0000
0000
0000
0000
1000
0000
0100
0000
0000
0010
0000
0000
0000
1000
0000
0000
0010
0000
0000
0002
0000
0000
,
0000
0000
0000
0000
0000
0000
1003
0000
0001
0000
0000
0001
0100
0000
0000
0010
0000
0000
0100
0000
0000
0001
0000
0000
,
1001
0000
0000
0000
0000
0000
0001
0000
0100
0000
0000
0010
0000
0000
0000
0001
0000
0000
0010
0000
0000
2000
0000
0000
,
0000
0000
3001
0000
1000
0100
0011
0000
,
1001
0000
0000
0000
,
0000
0000
0000
0000
,
0000
0000
0000
0000
,
0000
0000
0000
0000
,
1000
0000
0100
0000
0010
0000
0001
1000
0001
0000
0100
0010
0100
0000
0001
0000
,
1000
0000
0100
0000
0001
0000
0100
0000
1000
0000
0100
0000
0010
0001
0010
0001
,
0010
0000
0001
1000
0000
0010
1000
0010
0100
0000
0001
1000
0100
0000
1000
0001
,
0200
0000
0020
0330
,
1001
0000
0000
0000
0000
0001
0000
0000
0010
0000
0000
0100
0000
0000
0000
1000
0000
0000
0010
0000
0000
0100
0000
0000
,
0001
0010
1000
0001
0100
0010
1001
0000
,
1100
0000
0000
0000
0000
0000
0001
0000
0000
0100
0000
0000
1000
0000
0000
0100
0000
0000
0010
0000
0100
0000
0000
0010
,
1000
0000
0000
0000
0000
0000
0001
0000
0000
0000
1000
0000
0100
0000
0000
0000
0000
0000
0010
0000
0000
0000
0000
0000
0001
0000
0000
1000
0000
0000
0010
0000
0000
0100
0000
0000
0001
0000
0000
1000
0000
0000
0100
0000
0000
0000
0000
0000
,
0110
0000
0000
0000
0000
0001
0000
0000
1000
0000
0000
0010
0000
0000
0000
0100
0000
0000
0001
0000
0000
0010
0000
0000
,
0001
0000
0000
1000
0000
0000
0100
0000
0000
0001
0000
0000
1000
0000
0000
0010
0000
0000
0001
0000
1000
0001
0000
1000
,
0001
0000
1000
0000
0000
0100
0000
0000
0001
0000
0000
0100
0000
0000
0000
1000
0000
0000
0001
0000
1000
0010
0000
1000
,
0001
0000
0000
0000
1000
0000
0000
0000
0000
0000
0100
0000
0000
0000
0000
0000
0001
0000
0000
0000
0000
0000
0100
0000
0000
0000
0000
0000
0000
0000
1000
0000
0000
0001
0000
0000
1000
0000
0000
0000
0000
0000
0010
0000
0000
0000
0000
0000
,
0100
0000
0001
0000
0000
0001
1000
0000
0000
0100
0000
0000
0010
0000
0000
0001
0000
0000
0010
0000
0100
0000
0000
1000
,
0001
0000
1000
0000
0000
1000
0100
0000
0000
0010
0000
0000
0001
0000
0000
1000
0000
0000
0010
0000
0100
0000
0000
0100
,
0001
0000
1000
0000
0000
0100
0010
0000
0000
0001
0000
0000
1000
0000
0000
0010
0000
0000
0100
0000
0001
0000
0000
1000
,
0001
0000
0000
0000
0000
0001
0100
0000
0000
0010
0000
0000
0100
0000
0000
0001
0000
0000
1000
0000
0100
1000
0000
0000
,
0001
0000
0100
0000
0000
0100
0010
0000
0000
1000
0000
0000
0010
0000
0000
1000
0000
0000
0001
0000
0010
0000
0000
0001
,
1000
0000
0100
0000
0000
0100
0010
0000
0000
0001
0000
0000
1000
0000
0000
0010
0000
0000
0100
0000
0010
0000
0000
1000
,
0001
0000
0100
0000
0000
0100
0010
0000
0000
1000
0000
0000
0001
0000
0000
0010
0000
0000
0100
0000
1000
0000
0000
1000
,
0001
0000
0100
0000
0000
0100
0010
0000
0000
1000
0000
0000
0100
0000
0010
0001
0000
0010
0001
0000
1000
0010
0000
0000
,
0110
0000
0000
0000
1000
0100
1000
0100
1000
0000
0000
0000
0001
0100
0001
0100
,
0001
0000
0000
0000
1000
0010
1000
0010
1000
0000
0000
0000
0001
0010
0001
0010
,
0001
0000
0000
0000
0100
0010
0100
0010
0100
0000
0000
0000
0001
1000
0001
1000
,
0001
0000
0000
0001
0000
0000
0001
0000
1000
0001
0100
0000
0001
1000
0100
0000
,
0110
0000
0000
0000
0001
0010
0100
1000
0001
0000
0000
0000
1000
0010
0100
0001
,
1000
0000
0000
0000
0001
0100
0001
1000
0100
0000
0000
0000
1000
0010
1000
0001
,
0010
0000
0000
0000
0100
1000
0001
0100
0010
0000
0000
0000
1000
0001
0010
0100
,
0010
0000
0000
0010
0000
0000
0010
0000
0001
1000
0010
1000
0001
0000
0010
0000
,
0110
0000
0000
0000
0000
0000
0000
0000
0000
0100
0000
0000
1000
0000
0000
0001
0000
0000
0100
0000
0000
0010
0000
0000
1000
0000
0000
0000
0000
0000
0000
0000
0000
0000
0001
0000
0010
0000
0000
0000
0100
0000
1000
0000
0000
0000
0000
0000
,
1001
0000
0000
0000
;

//--------------- dance-double - Fred-104 ----------------
#NOTEDATA:;
#STEPSTYPE:dance-double;
#DESCRIPTION:Fred-104;
#DIFFICULTY:Easy;
#METER:6;
#CREDIT:Fred-104;
#NOTES:
00000000
00000000
00000000
00000000
,
00000000
00000000
00000000
00000000
,
00000000
00000000
00000000
00000000
,
00000000
00000000
00000000
00000000
,
00000000
00000000
00000000
00000000
,
00000000
00000000
00000000
00000000
,
00020000
00031000
00000100
00000001
,
00002000
00003100
00000010
00000001
,
00002000
00003010
00000100
00001000
,
00020000
00030000
00200000
00300000
,
20000000
31000000
00010000
00001000
,
00020000
00130000
00010000
00001000
,
00000200
00001300
00010000
00001000
,
00000020
00000031
00000010
00000100
,
00011000
00000000
00001000
00000000
,
00010000
00100000
10000000
00000000
,
01000000
00100000
00010000
00100000
,
00001000
00000000
00010000
00000000
,
00011000
00000000
00010000
00000000
,
00001000
00000100
00000010
00000000
,
00001000
00000100
00000010
00000001
,
00002000
00003100
00000002
00000013
,
00002000
00000000
00000002
00003003
,
00001000
00000001
00000100
00001000
,
00020000
00000000
00002000
00033000
,
00010000
00001000
00010000
00100000
,
01100000
01000000
00010000
00000000
,
10000000
01000000
00010000
00001000
,
00011000
00010000
00000100
00000000
,
00010000
00001000
01000000
00010000
,
10010000
00000000
00000000
00000000
,
00000000
00000000
00000000
00000000
,
00000000
00000000
00000000
00000000
,
00000000
00000000
00000000
00000000
,
00000001
00000100
00001000
00010000
,
00001000
00000100
00000001
00000000
,
00000100
00001000
00010000
01000000
,
20000000
00000000
00020000
30030000
,
10010000
10000000
01000000
01000000
,
00100000
00100000
00001000
00000000
,
00010000
00010000
00001000
00001000
,
00000100
00000001
00000010
00000100
,
00001000
00001000
00000001
00000100
,
00001000
00010000
00001000
00000000
,
00010000
00010000
00001000
01000000
,
00010000
00100000
00001000
00000000
,
00010000
00001000
00011000
00000000
,
00001000
00010000
00100000
10000000
,
00010000
00100000
01000000
00010000
,
00001000
00000010
00000100
00001000
,
00000100
00010000
00001000
00000000
,
00010000
00001000
00000100
00000010
,
00000100
00000001
00001000
00000001
,
00001000
00000100
00010000
00001000
,
00020000
00030000
00002000
00003000
,
00000200
00000300
00000002
00000003
,
00000020
00000030
00002000
00003000
,
00010000
00001000
00010000
00001000
,
00020000
00030000
00002000
00003000
,
00020000
00030000
00200000
00300000
,
20000000
30000000
02000000
03000000
,
00020000
00030000
00002000
00003000
,
00010000
00001000
00000010
00000001
,
00001001
00000000
00000000
00000000
;

//--------------- dance-double - Fred-104 ----------------
#NOTEDATA:;
#STEPSTYPE:dance-double;
#DESCRIPTION:Fred-104;
#DIFFICULTY:Medium;
#METER:8;
#CREDIT:Fred-104;
#NOTES:
00000000
00000000
00000000
00000000
,
00000000
00000000
00000000
00000000
,
00000000
00000000
00000000
00000000
,
00000000
00000000
00000000
00000000
,
00000000
00000000
00000000
00000000
,
00000000
00000000
00000000
00000000
,
00001000
00000000
00010000
00000000
00001000
00000000
00000000
00000000
01000000
00000000
00000000
00001000
00000000
00000000
01000000
00000000
,
00010000
00000000
10000000
00000000
00010000
00000000
00000000
00000000
00100000
00000000
00000000
01000000
00000000
00000000
10000000
00000000
,
00100000
00000000
00010000
00000000
00001000
00000000
00000000
00000000
00010000
00000000
00000000
00000010
00000000
00000000
00010000
00000000
,
00001000
00010000
00000100
00000100
00001000
00000001
00001000
00000000
,
00000100
00000000
00000010
00000000
00000001
00000000
00000000
00000000
00000100
00000000
00000000
00000100
00000000
00000000
00000100
00000000
,
00001000
00000000
00010000
00000000
00001000
00000000
00000000
00000000
00100000
00000000
00000000
00100000
00000000
00000000
00100000
00000000
,
00010000
00000000
10000000
00000000
00010000
00000000
00000000
00000000
01000000
00000000
00000000
01000000
00000000
00000000
01000000
00000000
,
00100000
10000000
01000000
00000000
00100000
00001000
00010000
00000000
,
00011000
00000000
00000100
00000000
00001001
00000000
00000000
00001000
,
00000100
00000001
00000100
00001000
00000001
00000000
00000010
00000000
,
00000100
00000100
00010000
00000000
00001000
00001000
00010000
00000000
,
00001000
00000000
01000000
00010000
00100000
00000000
01000000
01000000
,
11000000
00000000
00100000
00000000
10010000
00000000
00000000
10000000
,
00010000
01000000
10000000
01000000
00010000
00000000
10000000
00000000
,
02000000
03200000
00301000
00011000
,
00020000
00031000
00000020
00001030
,
00020000
00000000
00000000
00000000
00001000
00000000
00000000
00002000
00000000
00000000
00000000
00000000
00033000
00000000
00000000
00000000
,
00010000
00001000
00000100
00000001
,
00002000
00000000
00000000
00000000
00000001
00000000
00000000
00000002
00000000
00000000
00000000
00000000
00003003
00000000
00000000
00000000
,
00001001
00000001
00000100
00001000
,
00011000
00000000
00000000
00000000
00001000
00000000
00000000
00001000
00000000
00000000
00001000
00000000
00100000
00000000
00020000
00000000
,
00000000
00000000
10030000
00010000
10000000
00100000
01000000
00000000
,
00011000
00000000
00000000
00000000
00010000
00000000
00000000
00001000
00000000
00000000
00000010
00000000
00000001
00000000
00002000
00000000
,
00000000
00003010
00000100
00000001
,
00001001
00000000
00000000
00000000
,
00000000
00000000
00000000
00000000
,
00000000
00000000
00000000
00000000
,
00000000
00000000
00000000
00000000
,
10000000
00000000
01000000
00010000
00001000
00000000
00010000
00000000
,
00001000
00000000
00010000
00000000
01000000
00000000
00010000
00001000
,
00010000
00000000
00001000
00000000
00000100
00000001
00000100
00000000
,
00000002
00000000
00002000
00003003
,
00001001
00000000
00000001
00000000
00000010
00001000
00010000
00000000
,
00001000
00000000
00010000
00100000
01000000
00000000
00010000
00000000
,
10010000
00000000
10000000
01000000
00100000
00000000
00001000
00000000
,
00010000
00000010
00010000
00000000
00001000
00100000
00001000
00000000
,
00011000
00000000
00010000
00000000
00001000
00000100
00000001
00000000
,
00000010
00000000
00000100
00000000
00010000
00001000
00010000
00000000
,
00001000
00000000
00010000
00000000
00000010
00001000
00000100
00000000
,
00000010
00000000
00000010
00000000
00000001
00000100
00000001
00000100
,
00001000
00000000
00011000
00000000
00001000
00010000
00100000
10000000
,
00010000
00000000
01100000
00000000
10000000
01000000
00100000
00001000
,
00010000
00000000
00011000
00000000
00010000
00001000
00000010
00000100
,
00001000
00000000
00001100
00000000
00000001
00000100
00000010
00000100
,
00001000
00000000
00011000
00000000
00001000
01000000
00010000
00000000
,
01100000
00000000
10010000
00000000
10000000
01000000
00100000
00000000
,
00101000
00000000
00010010
00000000
00010000
00001000
00010000
00000000
,
00001000
00010000
00100000
10000000
,
10010000
00000000
10000000
01000000
00010000
00000000
00001000
00000100
,
00000001
00000000
00000001
00000010
00001000
00000000
00010000
00100000
,
10000000
00000000
00010000
10000000
00010000
00000000
10000000
00100000
,
01000000
00000000
00000000
01000000
00000000
00000000
01000000
00000000
00001000
00000000
00010000
00000000
00000100
00000000
00000000
00000000
,
00000110
00000000
00000001
00000100
00001000
00000000
00010000
01000000
,
10000000
00000000
10000000
00100000
00010000
00000000
00001000
00000010
,
00000001
00000000
00000010
00000100
00001000
00000000
00000100
00010000
,
00001000
00000000
00000000
00001000
00000000
00000000
00001000
00000000
01000000
00000000
00010000
00000000
00100000
00000000
00000000
00000000
,
01000000
10000000
00100000
00010000
00001000
00010000
01000000
00000000
,
11000000
00000000
00000000
00000000
;

//--------------- dance-double - Fred-104 ----------------
#NOTEDATA:;
#STEPSTYPE:dance-double;
#DESCRIPTION:Fred-104;
#DIFFICULTY:Hard;
#METER:13;
#CREDIT:Fred-104;
#NOTES:
00000000
00000000
00000000
00000000
,
00000000
00000000
00000000
00000000
,
00000000
00000000
00000000
00000000
,
00000000
00000000
00000000
00000000
,
00000000
00000000
00000000
00000000
,
00000000
00000000
00000000
00000000
,
00010000
00000000
00001000
00000000
00000100
00000000
00000001
00000000
00001000
00000000
00000000
00000001
00000000
00000000
00001000
00000000
,
00000001
00000000
00000100
00000000
00001000
00000000
00010000
00000000
01000000
00000000
00000000
10000000
00000000
00000000
00010000
00000000
,
10000000
00000000
00100000
00000000
00010000
00000000
00001000
00000000
00010000
00000000
00000000
00001000
00000000
00000000
00000010
00000000
,
00000001
00000000
00000000
00001000
00000000
00000000
00000010
00000000
00000000
00000100
00000000
00000000
00001000
00000000
00010000
00001000
00000000
00010000
00001000
00000000
00100000
00001000
00000000
00000000
,
00010000
00000000
00000000
00001000
00000000
00000000
00010000
00000000
00000000
01000000
00000000
00000000
00100000
00000000
00000000
00000000
00000000
00010000
00000000
00000000
10000000
00100000
00000000
00000000
,
10000000
00000000
00000000
00010000
00000000
00000000
01000000
00000000
00000000
00100000
00000000
00000000
00010000
00000000
00000000
00000000
00000000
00001000
00000000
00000000
00010000
00001000
00000000
00000000
,
00000010
00000000
00000000
00000100
00000000
00000000
00001000
00000000
00000000
00000100
00000000
00000000
00000001
00000000
00000000
00000000
00000000
00000100
00000000
00000000
00000010
00000001
00000000
00000000
,
00001000
00000000
00000000
00000010
00000000
00000000
00010000
00000000
00001000
00000000
00000000
00001000
00100000
00000000
00001000
00100000
00000000
00010000
10000000
00000000
00010000
10000000
00000000
00000000
,
01000000
00000000
00000000
00000000
00000000
00000000
00100000
00000000
00100000
00000000
00000000
00002000
00000000
00000000
00000000
00013000
00000000
00000000
00001000
00000000
00000000
00010000
00000000
00000010
,
00010000
00000000
00000000
00000000
00000000
00000000
00001000
00000000
00010000
00000000
00000000
00200000
00000000
00000000
00000000
00000000
00000000
00000000
10300000
00000000
00000000
00010000
00000000
00000000
,
00100000
00000000
00000000
01000000
00000000
00100000
00000000
00000000
00010000
00000000
00000000
00100000
00000000
00000000
00000000
00001000
00000000
00000000
00010000
00000000
00000000
00000000
00000000
00000000
,
00002000
00000000
00000000
00000000
00000000
00000000
00013000
00000000
00001000
00010000
00000000
00000000
00000010
00000000
00000000
00000000
00000000
00001000
00000010
00000000
00001000
00000001
00000000
00000000
,
00000010
00000000
00000000
00000000
00000000
00000000
00000100
00000000
00001000
00000000
00000000
00001000
00000100
00000000
00010000
00001000
00000000
00010000
00001000
00000000
00000000
01000000
00000000
00001000
,
01000000
00000000
00000000
00000000
00000000
00000000
00001000
00000000
00010000
00000000
00000000
00002000
00000000
00000000
00000000
00000000
00000000
00000000
00013000
00000000
00000000
00001000
00000000
00000000
,
00000010
00000100
00001000
00000001
00000100
00000000
00011000
00000000
,
00002000
00000000
00000000
00000000
00000000
00000000
00013000
00000000
00001000
00000000
00000000
01000000
00000000
00000000
00000000
00000000
00000000
00010000
10000000
00000000
00000000
00010000
00000000
00000000
,
10020000
00000000
00000000
00000000
00000000
00000000
10000000
00000000
10000000
00000000
00000000
20000000
00000000
00000000
00000000
00000000
00000000
00000000
30030000
00000000
00000000
00000000
00000000
00000000
,
02100000
00000000
00000000
00000000
00000000
00000000
00100000
00000000
00000000
00100000
00000000
03200000
00000000
00000000
00000000
10300000
00000000
00000000
00100000
00000000
00000000
00010000
00000000
00000000
,
00012000
00000000
00000000
00000000
00000000
00000000
00010000
00000000
00010000
00000000
00000000
00020000
00000000
00000000
00000000
00000000
00000000
00000000
00033000
00000000
00000000
00000000
00000000
00000000
,
00011000
00000000
00000000
00000000
00000000
00000000
00010000
00000000
00001000
00000000
00000000
00001000
00010000
00000000
00000000
00001000
00000000
00000000
00000010
00000000
00000000
00000100
00000000
00000000
,
00000110
00000000
00000000
00000000
00000000
00000000
00001000
00000000
00000001
00000000
00000000
00000100
00000000
00000000
00000000
00000010
00000000
00000000
00010000
00000000
00000000
00002000
00000000
00000000
,
00000000
00000000
00000000
00000000
00000000
00000000
00013000
00000000
00001000
00000000
00000000
00001000
00100000
00000000
00000000
00010000
00000000
00000000
00001000
00000000
00000000
00000100
00000000
00000000
,
00000110
00000000
00000000
00000000
00000000
00000000
00001000
00000000
00000001
00000000
00000000
00000100
00000000
00000000
00000000
00001000
00000000
00000000
00010000
00000000
00000000
02000000
00000000
00000000
,
00000000
00000000
13000000
00000000
01000000
00100000
00001000
00000000
,
00011000
00000000
00000000
00000000
,
00000000
00000000
00000000
00000000
,
00000000
00000000
00000000
00000000
,
00000000
00000000
00000000
00000000
,
00010000
00001000
00000010
00000001
00001000
00000100
00010000
01000000
,
10000000
00000000
00010000
00000000
01000000
00000000
00001000
00000000
00010000
00000000
00000100
00000000
00000010
00000001
00000010
00000001
,
00000010
00000000
00000001
00001000
00000000
00000001
00001000
00000010
00001000
00000000
00000010
00010000
00000010
00000000
00010000
00000000
,
00002000
00000000
00020000
00033000
,
00011000
00000000
00000000
00000000
00000000
00001000
00000000
00000000
00010000
00000000
00000000
00100000
00000000
00000000
00000000
01000000
00000000
00000000
00100000
00000000
00000000
10000000
00000000
00000000
,
00010000
00100000
00010000
00001000
00000100
00000010
00000100
00001000
,
00001001
00000000
00000000
00000000
00000000
00000000
00000001
00000000
00000000
00000100
00000000
00000000
00000010
00000000
00000000
00000100
00000000
00000000
00001000
00000000
00010000
00000000
00000000
00010000
,
00001000
00000000
00000000
00000000
00000000
00000000
00100000
00000000
00000000
00000000
00010000
00000000
00100000
00000000
00000000
00000000
00000000
00000000
01000000
00000000
00000000
00000000
00000000
00000000
10000000
00000000
00000000
00010000
00000000
00000000
01000000
00000000
00000000
00010000
00000000
00000000
01000000
00000000
00000000
00010000
00000000
00000000
01000000
00000000
00000000
00000000
00000000
00000000
,
01100000
00000000
00000000
00000000
00000000
10000000
00000000
00000000
01000000
00000000
00000000
00010000
00000000
00000000
00000000
00001000
00000000
00000000
00000100
00000000
00000000
00000001
00000000
00000000
,
00000010
00000000
00000000
00000100
00000000
00000000
00000010
00000000
00000000
00001000
00000000
00000000
00010000
00000000
00000000
01000000
00000000
00000000
10000000
00000000
00010000
01000000
00000000
00000000
,
00010000
00000000
10000000
00000000
00000000
01000000
00000000
00000000
00100000
00000000
00000000
00001000
00000000
00000000
00000000
00010000
00000000
00000000
00001000
00000000
00000100
00000010
00000000
00000000
,
00001000
00000000
00000000
00000000
00000001
00000000
00000000
00000000
00000000
00000000
00001000
00000000
00000000
00000000
00000000
00000000
00000100
00000000
00000000
00000000
00000000
00000000
00010000
00000000
00000000
00000000
00000000
00000000
00000000
00000000
00001000
00000000
00000000
00010000
00000000
00000000
00001000
00000000
00000000
00000000
00000000
00000000
00000000
00000000
00000000
00000000
00000000
00000000
,
00010000
00000000
00001000
00000000
00000000
00001000
00100000
00000000
00000000
01000000
00000000
00000000
00100000
00000000
00000000
00010000
00000000
00000000
10000000
00000000
00100000
00000000
00000000
00100000
,
01000000
00000000
00100000
00000000
00000000
00100000
10000000
00000000
00000000
01000000
00000000
00000000
00100000
00000000
00000000
00001000
00000000
00000000
00010000
00000000
00000100
00000000
00000000
00000100
,
00001000
00000000
00000100
00000000
00000000
00000100
00010000
00000000
00000000
00000100
00000000
00000000
00000010
00000000
00000000
00000001
00000000
00000000
00000100
00000000
00000001
00000000
00000000
00000001
,
00001000
00000000
00000000
00000000
00000000
00001000
00000010
00000000
00000000
00000100
00000000
00000000
00001000
00000000
00000000
00010000
00000000
00000000
00001000
00000000
01000000
00001000
00000000
00000000
,
00010000
00000000
00001000
00000000
00000000
00001000
00010000
00000000
00000000
01000000
00000000
00000000
00100000
00000000
00000000
00010000
00000000
00000000
10000000
00000000
00010000
00000000
00000000
00010000
,
10000000
00000000
01000000
00000000
00000000
01000000
00100000
00000000
00000000
00001000
00000000
00000000
00010000
00000000
00000000
00001000
00000000
00000000
00000100
00000000
00000010
00000000
00000000
00000010
,
00001000
00000000
00000001
00000000
00000000
00000001
00000010
00000000
00000000
00001000
00000000
00000000
00010000
00000000
00000000
00001000
00000000
00000000
00010000
00000000
00001000
00000000
00000000
00001000
,
01000000
00000000
00010000
00000000
00000000
00010000
10000000
00000000
00000000
01000000
00000000
00000000
00100000
00000000
00001000
00100000
00000000
00001000
00010000
00000000
00001000
00010000
00000000
00000000
,
00011000
00000000
00000000
00000000
00010000
00000100
00010000
00000100
00010000
00000000
00000000
00000000
00000100
00001000
00000100
00001000
,
00000100
00000000
00000000
00000000
00000010
00000001
00000010
00000001
00000010
00000000
00000000
00000000
00000001
00001000
00000001
00001000
,
00000001
00000000
00000000
00000000
00001000
00000010
00001000
00000010
00001000
00000000
00000000
00000000
00000100
00010000
00000100
00010000
,
00001000
00000000
00000000
00001000
00000000
00000000
00001000
00000000
00010000
00001000
01000000
00000000
00010000
10000000
01000000
00000000
,
01100000
00000000
00000000
00000000
00100000
00010000
00100000
00010000
00100000
00000000
00000000
00000000
00001000
00010000
00001000
00010000
,
00001000
00000000
00000000
00000000
00010000
00000010
00010000
00000010
00010000
00000000
00000000
00000000
00000010
00001000
00000010
00001000
,
00000010
00000000
00000000
00000000
00000100
00000001
00000100
00000001
00000100
00000000
00000000
00000000
00000001
00001000
00000001
00001000
,
00000001
00000000
00000000
00000010
00000000
00000000
00000010
00000000
00000100
00001000
00000100
00010000
00001000
00000000
00010000
00000000
,
00011000
00000000
00000000
00000000
00000000
00000000
00000000
00000000
00000000
00001000
00000000
00000000
01000000
00000000
00000000
00010000
00000000
00000000
01000000
00000000
00000000
00010000
00000000
00000000
10000000
00000000
00000000
00000000
00000000
00000000
01000000
00000000
00000000
00000000
00100000
00000000
00001000
00000000
00000000
00000000
00010000
00000000
00001000
00000000
00000000
00000000
00000000
00000000
,
00011000
00000000
00000000
00000000
;
