#VERSION:0.83;
#TITLE:Made In Love;
#ARTIST:黒魔;
#ARTISTTRANSLIT:Chroma;
#BANNER:Made In Love.png;
#BACKGROUND:Made In Love-bg.png;
#CDTITLE:./CDTitles/SDVX IV HEAVENLY HAVEN.png;
#MUSIC:Made In Love.ogg;
#SAMPLESTART:92.719;
#SAMPLELENGTH:15;
#BPMS:0=88;
#BGSTAGE:3;

//--------------- dance-single - Fred-104 ----------------
#NOTEDATA:;
#STEPSTYPE:dance-single;
#DESCRIPTION:Fred-104;
#DIFFICULTY:Beginner;
#METER:2;
#CREDIT:Fred-104;
#NOTES:
0000
0000
0000
0000
,
0000
0000
0000
0000
,
0000
0000
0000
0000
,
0000
0000
0000
0000
,
0000
0000
0000
0000
,
0000
0000
0000
0000
,
1000
0000
0000
0000
,
0000
0000
0000
0000
,
0001
0000
0000
0000
,
0000
0000
0000
0000
,
1001
0000
0000
0000
,
0000
0000
0000
0000
,
1000
0000
0000
0000
,
0100
0000
0000
0000
,
0001
0000
0000
0000
,
0001
0000
0000
0000
,
0100
0000
0000
0000
,
1000
0000
0000
0000
,
0001
0000
0000
0000
,
0020
0000
0000
0000
,
0000
0000
0000
0030
,
0001
0000
0001
0000
,
1000
0000
1000
0000
,
0010
0000
0100
0000
,
0001
0000
0001
0000
,
0001
0000
1000
0000
,
0010
0000
0100
0000
,
0001
0000
0001
0000
0002
0000
0000
0003
,
0000
0000
0000
0000
,
0000
0000
0000
0000
,
1000
0000
0000
0000
,
0000
0000
0000
0000
,
0001
0000
1000
0000
,
0001
0001
1001
0000
,
1000
0000
0000
0000
,
0010
0000
0000
0000
,
0001
0000
0001
0000
,
0010
0000
0000
0000
,
1000
0000
0001
0000
,
1000
0000
0000
0000
,
0100
0000
0100
0000
,
0020
0000
0000
0030
,
0020
0000
0000
0030
,
0020
0000
0000
0030
,
0020
0000
0000
0030
,
0020
0000
0000
0030
,
0001
0000
0000
0000
,
1000
0000
0000
0000
,
0000
0000
0000
0000
,
1001
0000
0000
0000
,
0000
0000
0000
1001
;

//--------------- dance-single - Fred-104 ----------------
#NOTEDATA:;
#STEPSTYPE:dance-single;
#DESCRIPTION:Fred-104;
#DIFFICULTY:Easy;
#METER:4;
#CREDIT:Fred-104;
#NOTES:
0000
0000
0000
0000
,
0000
0000
0000
0000
,
0000
0000
0000
0000
,
0000
0000
0000
0000
,
0000
0000
0000
0000
,
0000
0000
0000
0000
,
0002
0000
0000
0003
,
0100
0000
0000
0200
0000
0000
0300
0000
,
0010
0000
0100
0100
,
0220
0000
0000
0000
,
0330
0000
0000
0000
,
0000
0000
0000
0000
,
1001
0001
1000
0010
,
1000
0000
1000
0000
0100
0000
0010
0010
,
0010
0001
1000
0001
,
0100
0000
0100
0000
0010
0000
0100
0100
,
0001
1000
0100
0010
,
0001
0000
1000
0000
0001
0000
0100
0100
,
0100
1000
0010
0002
,
2000
0000
0000
0000
,
0000
0000
0000
3003
,
1001
1000
0100
0010
,
0002
1003
1000
0010
,
0110
0000
1000
0000
,
0001
0000
0000
0001
0000
0000
1001
0000
,
1000
0100
0010
0001
,
1000
0010
1000
0001
,
0010
1000
0100
0001
,
0000
0000
0000
0000
,
0000
0000
0000
0000
,
0002
0003
2000
3000
,
0002
0003
2000
3000
,
0001
0010
1000
0100
,
0001
1000
2002
3003
,
1000
0100
0010
0001
,
1000
0010
1000
0001
,
0010
0100
1000
0001
,
0100
0100
0010
0010
,
0110
0000
0100
0000
,
0001
0000
1000
0000
,
0100
0010
0001
1000
,
2002
0000
3003
0000
,
0220
0000
0330
0000
,
2002
0000
3003
0000
,
0220
0000
0330
0000
,
2002
0000
3003
0001
,
1000
0000
0000
0020
0000
0000
0000
0000
,
0200
0000
0000
0000
,
0000
0000
0000
0330
,
0220
0000
0000
0000
,
0000
0000
0330
1001
;

//--------------- dance-single - Fred-104 ----------------
#NOTEDATA:;
#STEPSTYPE:dance-single;
#DESCRIPTION:Fred-104;
#DIFFICULTY:Medium;
#METER:8;
#CREDIT:Fred-104;
#NOTES:
0000
0000
0000
0000
,
0000
0000
0000
0000
,
0000
0000
0000
0000
,
0000
0000
0000
0000
,
0000
0000
0000
0000
,
0000
0000
0000
0000
,
2000
0000
0000
0000
3000
0001
1000
0001
,
0100
0000
0000
0100
0000
0000
0020
0000
0000
0000
0000
0000
0030
0000
0000
0000
,
0100
0000
0000
0001
0000
0000
1000
0000
0100
0000
0000
0000
0010
0000
0000
0000
,
0022
0000
0000
0000
,
0033
0000
0000
0000
0000
0000
0002
0003
,
0002
0000
0003
0001
1000
0000
0100
0000
0010
0000
0100
0000
0010
0000
0001
0000
,
1001
0001
1000
0010
0100
0010
0100
0100
,
0001
1000
0100
0010
0001
1000
0010
0010
,
0100
0001
1000
0100
0010
0100
1000
1000
,
0001
0000
0100
0000
0010
0000
1000
0000
0100
0000
0110
0000
0010
0001
0010
0000
,
1001
0000
0001
0100
0000
0000
0001
0000
0010
0000
0100
0000
1000
0000
0000
0000
,
0010
0000
0100
0010
0100
0000
0001
0000
1000
0000
0100
0000
0010
0000
0000
0000
,
0001
0000
1000
0010
1000
0000
0001
0000
0020
0000
0000
0000
0230
0000
0000
0000
,
2000
0000
0000
0000
,
0000
0000
0000
3300
,
0110
0000
0001
0011
1000
1010
0001
0100
,
0110
0000
0110
0000
0010
1000
0010
0000
0010
0100
0010
0000
1000
0000
1001
0000
,
0001
0000
0010
0000
0100
0000
1000
0000
1100
0000
0000
0101
0000
0000
1010
0000
,
0011
0000
0000
1010
0000
0000
0101
0000
0000
1100
0000
0000
0110
0000
0000
0000
,
0001
0000
0010
0000
0010
0000
0100
0000
1000
0000
0001
0000
1000
0010
1000
0000
,
0010
0000
0010
0000
0100
0000
0001
0000
1000
0000
0100
0000
0010
0001
0010
0000
,
0001
0100
0100
0110
1000
1000
1000
1001
,
0000
0000
0000
0000
,
0000
0000
0000
1001
,
0002
0023
0032
0023
,
0230
2300
3200
2300
,
3001
0100
0001
0100
1000
0100
1000
0100
,
0001
0010
1000
0010
0002
0000
2000
3003
,
1001
0001
0100
0100
0010
1000
0110
0010
,
0011
0001
1000
0010
0100
0001
1100
0100
,
0110
0010
0001
0100
0010
0100
0101
1000
,
1001
1000
0010
1000
0100
0010
0001
0001
,
1000
1000
0010
0100
0010
1000
1001
0000
,
0001
0001
0010
0100
0010
0001
1001
0000
,
0001
0100
1000
0100
0002
0003
2000
3000
,
2002
0000
3003
0000
,
0220
0000
0330
0000
,
2002
0000
3003
0000
,
0220
0000
0330
0000
,
2002
0000
0000
0000
3003
0001
1000
0100
,
2000
0000
0000
3020
0000
0000
0230
0000
0000
0000
0000
0000
0000
0000
0000
0000
,
0002
0000
0000
0000
,
0000
0000
0000
0303
,
2002
0000
0000
0000
,
0000
0000
3003
0110
;

//--------------- dance-single - Fred-104 ----------------
#NOTEDATA:;
#STEPSTYPE:dance-single;
#DESCRIPTION:Fred-104;
#DIFFICULTY:Hard;
#METER:13;
#BPMS:0=88,83=176,84=88,88=176,89=88,91.5=176,92=88,93.5=176,94=88,99.75=176,100=88,134=176,136=88,167.666667=176,168=88,171.666667=176,172=88,175.666667=176,176=88,179.666667=175.439,180=88;
#STOPS:83=0.341,88=0.171,88.5=0.17,91.5=0.085,91.75=0.085,93.5=0.17,99.75=0.086,134=0.341,135=0.341,167.666667=0.113,171.666667=0.114,175.666667=0.114,179.666667=0.113;
#CREDIT:Fred-104;
#NOTES:
0000
0000
0000
0000
,
0000
0000
0000
0000
,
0000
0000
0000
0000
,
0000
0000
0000
0000
,
0000
0000
0000
0000
,
0000
0000
0000
0000
,
0002
0000
0000
0000
0003
0020
0230
0320
,
0230
0000
0000
2300
0000
0000
0002
0000
0000
0000
0000
0000
3003
0000
0000
0000
,
2000
0000
0100
3200
0000
0000
0320
0000
0032
0000
0000
0000
2003
0000
0000
0000
,
3020
0000
0000
0000
,
0030
0000
0000
0000
0000
0000
0200
0300
,
0200
0000
0300
0100
0001
0100
0001
0100
0001
0000
1000
0100
0001
0100
1000
0000
,
1001
0000
0001
0000
0010
0000
0100
0100
1000
0000
0001
0000
0100
0000
0010
1000
,
0010
0000
0100
0000
0001
1000
0100
0010
0001
0100
0010
1000
0100
0000
0010
0010
,
0011
0000
0001
0000
1000
0000
0001
1000
0010
0000
0100
0000
0010
0000
1000
0100
,
0010
0000
0001
1000
1000
0010
0100
0010
0100
0000
0101
0000
0001
1000
0001
0000
,
0110
0000
1000
0100
0000
0010
0001
0000
1000
0010
0100
1000
0001
1000
0100
0010
,
1000
0000
0001
0100
0010
0100
0001
0010
0100
0000
0100
1000
1001
0001
0100
0000
,
0110
0000
0010
1000
0100
0000
0011
0000
0002
0000
0023
0000
0230
0000
2300
0000
,
0002
0000
0000
0000
,
0000
0000
0000
3003
,
1001
0000
0000
0000
0000
0000
0000
0000
1100
0000
0000
0000
0101
0000
0000
0000
1001
0000
0000
0001
0010
0000
0100
0000
0110
0000
0000
0000
0011
0000
0000
0000
,
2020
0000
0000
3030
0000
0000
0000
0000
0000
0000
0000
0000
0000
0000
0000
0000
0000
0000
0000
0000
0000
0000
0000
0000
0022
0000
0000
0033
0000
0000
0000
0000
0000
0000
0000
0000
0000
0000
0000
0000
0000
0000
0000
0000
0000
0000
0000
0000
1000
0000
0000
0000
0000
0000
0000
0000
0000
0000
0000
0000
0010
0000
0000
0000
0000
0000
0000
0000
0000
0000
0000
0000
0001
0000
0000
0000
0000
0000
0000
0000
0000
0000
0000
0000
0000
0000
0000
0000
0000
0000
0000
0000
0000
0000
0000
0000
0001
0000
0000
0000
0000
0000
0000
0000
0000
0000
0000
0000
0010
0000
0000
0000
0000
0000
0000
0000
0000
0000
0000
0000
1000
0000
0000
0000
0000
0000
0000
0000
0000
0000
0000
0000
0001
0000
0000
0000
0000
0000
0000
0000
0000
0000
0000
0000
0010
0000
0000
0000
0000
0000
0000
0000
0100
0000
0000
0000
0000
0000
0000
0000
0010
0000
0000
0000
0000
0000
0000
0000
0200
0000
0000
0000
0000
0000
0000
0000
0000
0000
0000
0000
0300
0000
0000
0000
0000
0000
0000
0000
0000
0000
0000
0000
,
1000
0000
0000
0000
0100
0000
0000
0000
0001
0000
0000
0000
0000
0000
0000
0000
1000
0000
0000
0000
0010
0000
0000
0000
0002
0003
0000
0000
0000
0000
0000
0000
1000
0000
0000
0000
1100
0000
0000
0000
0000
0000
0000
0000
0001
0000
0000
0000
0101
0000
0000
0000
0000
0000
0000
0000
1001
0000
0000
0000
0000
0000
0000
0000
,
1000
1010
0000
0001
0011
0000
1001
0000
1000
0100
0010
0001
2002
0000
0000
3003
,
0001
0100
1000
0001
0010
1000
0100
0010
0001
0100
0010
0100
0001
0010
0100
1000
,
0100
0010
1000
0001
0100
0010
0001
1000
0010
0100
0010
0001
1000
0100
0001
0000
,
1000
0100
0001
1000
0010
0001
1000
0000
0001
0100
0010
0001
1000
0100
0001
0000
,
0000
0000
0000
2000
3020
2030
3020
0032
,
0203
0000
0302
0000
0203
0000
2300
0000
3002
0000
2003
3000
1001
0000
0000
0000
,
2000
3200
0302
0023
,
2030
3200
0302
0023
,
1030
1100
0001
0101
1000
1010
0001
0011
,
1000
0000
0000
0000
0000
0000
0000
0000
0000
0000
0000
0000
0000
0000
0000
0000
1000
0000
0000
0000
0000
0000
0000
0000
0100
0000
0000
0000
0000
0000
0000
0000
0000
0000
0000
0000
0000
0000
0000
0000
0100
0000
0000
0000
0000
0000
0000
0000
0010
0000
0000
0000
0000
0000
0000
0000
0000
0000
0000
0000
0000
0000
0000
0000
0010
0000
0000
0000
0000
0000
0000
0000
0001
0000
0000
0000
0000
0000
0000
0000
0000
0000
0000
0000
0000
0000
0000
0000
0001
0000
0000
0000
0000
0000
0000
0000
2000
0000
0000
3000
0000
0000
0000
0000
0000
0000
0000
0000
0000
0000
0000
0000
0000
0000
0000
0000
0000
0000
0000
0000
0000
0000
0000
0000
0000
0000
0000
0000
0000
0000
0000
0000
0000
0000
0000
0000
0000
0000
0000
0000
0000
0000
0000
0000
2002
0000
0000
3003
0000
0000
0000
0000
0000
0000
0000
0000
0000
0000
0000
0000
0000
0000
0000
0000
0000
0000
0000
0000
0000
0000
0000
0000
0000
0000
0000
0000
0000
0000
0000
0000
0000
0000
0000
0000
0000
0000
0000
0000
0000
0000
0000
0000
,
1001
0000
0000
0001
0100
0001
0100
0000
0000
0110
0000
0000
1001
0000
1000
0001
0010
0001
0010
0100
0010
0001
0000
0000
,
1001
0000
0000
1000
0100
0010
0100
0000
0000
0110
0000
0000
0011
0000
0001
1000
0010
1000
0010
0100
0001
1000
0000
0000
,
1001
0000
0000
0001
0100
0010
0100
0000
0000
0101
0000
0000
1100
0000
1000
0100
0010
0100
0010
0001
1000
0001
0000
0000
,
1000
0001
0010
0001
2000
0000
3001
1000
0010
1000
0002
0000
1003
0100
1000
0100
0010
0001
1000
0010
1000
0010
0100
0001
,
2000
0000
0000
3100
0000
0100
0010
0000
0000
0011
0000
0000
1000
0000
0000
0001
0000
0000
0220
0000
0000
0330
0000
0000
,
0002
0000
0000
0103
0000
0100
0010
0000
0000
1010
0000
0000
0001
0000
0000
0010
0000
0000
2002
0000
0000
3003
0000
0000
,
2000
0000
0000
3010
0000
0010
0100
0001
0100
0001
1000
0100
1000
0010
0100
0001
0000
0000
1000
0100
0010
0001
0000
0000
,
2200
0000
0000
0000
0000
0000
0300
0000
0000
0000
0000
3000
,
0202
0000
0000
0000
0000
0000
0300
0000
0000
0000
0000
0003
,
0022
0000
0000
0000
0000
0000
0030
0000
0000
0000
0000
0003
,
2020
0000
0000
0000
0000
0000
0030
0000
0000
0000
0000
3000
,
2002
0000
0000
0000
3003
0002
0023
0230
,
2300
0000
0000
3002
0000
0000
0200
0000
0000
0000
0000
0000
0000
0000
0000
0000
,
0000
0000
0000
0000
,
0000
0000
0000
0303
,
0220
0000
0000
0000
,
0000
0000
0330
1001
;

//--------------- dance-single - Fred-104 ----------------
#NOTEDATA:;
#STEPSTYPE:dance-single;
#DESCRIPTION:Fred-104;
#DIFFICULTY:Challenge;
#METER:16;
#BPMS:0=88,83=176,84=88,88=176,89=88,91.5=176,92=88,93.5=176,94=88,99.75=176,140=88,154=176,156=88,187.666667=176,188=88,191.666667=176,192=88,195.666667=176,196=88,199.666667=175.439,200=88;
#STOPS:83=0.341,88=0.171,88.5=0.17,91.5=0.085,91.75=0.085,93.5=0.17,99.75=0.086,154=0.341,155=0.341,187.666667=0.113,191.666667=0.114,195.666667=0.114,199.666667=0.113;
#CREDIT:Fred-104;
#NOTES:
0000
0000
0000
0000
,
0000
0000
0000
0000
,
0000
0000
0000
0000
,
0000
0000
0000
0000
,
0000
0000
0000
0000
,
0000
0000
0000
0000
0000
0000
0000
0000
0000
0000
0000
0000
0000
0000
1000
0001
,
2000
0000
0000
0000
3000
0200
0302
0203
,
0320
0000
0000
0032
0000
0000
2003
0000
0000
0000
0000
0000
3000
0000
0000
0000
,
0002
0000
0203
2300
0000
0000
3200
0000
0302
0000
0000
0000
0023
0000
0000
0000
,
0200
0000
0000
0000
,
0330
0000
0000
0000
0000
0000
2000
3000
,
2000
0000
0000
0000
3000
0000
1000
0000
0100
0000
0001
0000
1000
0000
0010
0000
0001
0000
0000
0000
0110
0000
0100
0001
0100
0000
0100
0000
0110
0000
0000
0000
,
1002
0000
0100
0000
1000
0000
0013
0100
2000
0000
0100
0000
0001
0000
3010
0100
,
0002
0000
0100
0103
0010
1000
0010
1000
0100
0001
0100
1000
0001
0001
0010
0001
,
2001
0000
0100
0000
0100
0000
3001
0100
0020
0000
1000
0000
0001
0000
1030
0100
,
0010
0000
0000
0000
0001
0000
0100
0010
0100
0000
1000
0000
0100
0000
0001
0000
1001
0000
0000
0000
0001
0000
0000
0000
0110
0000
1000
0000
0001
0000
0000
0000
,
0011
0000
1000
0100
0000
0001
0100
1000
0001
0100
1000
0100
0001
0010
0001
0010
,
0100
0000
0000
0000
1000
0000
0010
0000
0100
0000
0010
0000
0001
0000
0010
1000
0010
0000
0000
0000
1000
0000
0100
0000
0110
0000
0010
0000
0001
0000
0000
0000
,
1010
0000
0001
0100
0110
0000
0101
0000
0001
0000
1000
0000
2000
0000
0001
0000
,
0002
0000
0000
0000
,
0000
0000
0000
3003
,
0001
0000
0000
0000
0010
0000
0000
0000
0100
0000
0000
0000
1000
0000
0000
0000
0000
0000
0000
0000
0000
0000
0000
0000
1010
0000
0000
0000
0000
0000
0000
0000
0000
0000
0000
0000
0101
0000
0000
0000
0000
0000
0000
0000
0000
0000
0000
0000
1100
0000
0000
0000
0000
0000
0000
0000
0000
0010
0000
0000
0001
0000
0000
0000
0000
0000
0100
0000
0000
0000
0000
0000
0110
0000
0000
0000
0000
0000
0000
0000
0000
0000
0000
0000
0001
0000
0000
0000
0010
0000
0000
0000
1000
0000
0000
0000
,
0020
0000
0000
0030
0000
0000
0000
0000
0000
0000
0000
0000
0000
0000
0000
0000
0000
0000
0000
0000
0000
0000
0000
0000
0022
0000
0000
0033
0000
0000
0000
0000
0000
0000
0000
0000
0000
0000
0000
0000
0000
0000
0000
0000
0000
0000
0000
0000
1000
0000
0000
0000
0000
0000
0000
0000
0000
0000
0000
0000
0010
0000
0000
0000
0000
0000
0000
0000
0000
0000
0000
0000
0001
0000
0000
0000
0000
0000
0000
0000
0000
0000
0000
0000
0000
0000
0000
0000
0000
0000
0010
0000
0000
0000
0000
0000
0100
0000
0000
0000
0000
0000
0000
0000
0000
0000
0000
0000
0001
0000
0000
0000
0000
0000
0000
0000
0000
0000
0000
0000
0010
0000
0000
0000
0000
0000
0100
0000
0000
0000
0000
0000
1000
0000
0000
0000
0000
0000
0001
0000
0000
0000
0000
0000
0100
0000
0000
0000
0000
0000
0000
0000
0100
0000
0000
0000
0000
0000
0000
0000
1000
0000
0000
0000
0000
0000
0000
0000
0002
0000
0000
0003
0000
0000
0000
0000
0000
0000
0000
0000
2000
0000
0000
3000
0000
0000
0000
0000
0000
0000
0000
0000
,
0001
0000
0000
0000
0010
0000
0000
0000
1000
0000
0000
0000
0001
0000
0000
0000
0100
0000
0000
0000
1000
0000
0000
0000
2002
3003
0000
0000
0000
0000
0000
0000
1200
0000
0000
0000
0310
0000
0000
0000
0001
0000
0000
0000
0201
0000
0000
0000
0310
0000
0000
0000
1000
0000
0000
0000
1020
0000
0000
0000
0130
0000
0000
0000
,
0001
0000
0000
0000
0021
0000
0000
0000
0130
0000
1000
0000
0100
0000
0000
0000
1000
0000
0001
0000
0100
0000
0001
0000
1000
0000
0000
0000
0001
0000
1000
0000
0100
0000
1000
0000
0001
0000
0000
0000
1000
0000
0100
0000
0010
0000
0001
0000
2000
0000
0000
0000
0000
0000
0000
0000
0000
0000
0000
0000
3002
0003
0000
0000
,
1000
0100
1000
0100
1000
0000
0001
0100
0001
0100
0001
0000
1000
0100
1000
0001
,
0200
0000
0001
1300
0200
0000
1000
0301
0100
0010
1000
0001
1000
0000
0001
0000
,
0010
0100
0010
0100
0010
0000
0001
1000
0001
1000
0001
0000
1000
0010
1000
0001
,
0020
0000
0001
1030
0020
0000
1000
0031
0010
0100
1000
0001
2000
0000
0000
0000
,
3001
0100
1000
0001
0010
0100
0101
0000
,
0001
0010
0001
0100
0010
1000
0100
1000
0010
0100
0001
0010
0001
0000
0000
0000
,
0000
0000
0000
2000
,
3020
0230
0302
2003
,
3020
0230
0302
2003
,
3020
0000
0230
0300
0101
0000
0000
0000
,
2000
3200
0320
0032
,
2003
3020
0230
0302
,
1003
0100
1000
0001
0100
0001
1000
0010
1000
0001
0010
0001
1000
0100
0010
0001
0010
0100
1000
0010
0100
0001
0100
0010
,
1000
0000
0000
0000
0000
0000
0000
0000
0100
0000
0000
0000
0000
0000
0000
0000
0001
0000
0000
0000
0000
0000
0000
0000
1000
0000
0000
0000
0000
0000
0000
0000
0010
0000
0000
0000
0000
0000
0000
0000
0001
0000
0000
0000
0000
0000
0000
0000
1000
0000
0000
0000
0000
0000
0000
0000
0010
0000
0000
0000
0000
0000
0000
0000
0001
0000
0000
0000
0000
0000
0000
0000
1000
0000
0000
0000
0000
0000
0000
0000
0100
0000
0000
0000
0000
0000
0000
0000
0001
0000
0000
0000
0000
0000
0000
0000
2002
0000
0000
3003
0000
0000
0000
0000
0000
0000
0000
0000
0000
0000
0000
0000
0000
0000
0000
0000
0000
0000
0000
0000
0000
0000
0000
0000
0000
0000
0000
0000
0000
0000
0000
0000
0000
0000
0000
0000
0000
0000
0000
0000
0000
0000
0000
0000
0220
0000
0000
0330
0000
0000
0000
0000
0000
0000
0000
0000
0000
0000
0000
0000
0000
0000
0000
0000
0000
0000
0000
0000
0000
0000
0000
0000
0000
0000
0000
0000
0000
0000
0000
0000
0000
0000
0000
0000
0000
0000
0000
0000
0000
0000
0000
0000
,
2001
0000
0000
3001
0010
0100
1000
0000
1000
0010
0000
0010
0100
0000
0100
0001
1000
0001
0100
1000
0001
0010
0100
0001
,
0020
0000
0000
0130
0010
0001
1000
0000
1000
0001
0000
0001
0010
0000
0010
0100
1000
0010
0100
1000
0001
0010
0100
0001
,
2000
0000
0000
3100
0010
0100
1000
0000
1000
0001
0000
0001
0100
0000
0100
0010
1000
0001
0010
0100
0001
1000
0010
0100
,
1000
0100
0010
0001
0002
0000
1003
0010
0100
0001
0002
0000
1003
0100
0010
1000
0010
0001
1000
0010
0001
0010
0100
0001
,
2000
0000
0000
3002
0000
0103
0020
0000
0000
0032
0000
0000
0023
0000
0000
2030
0000
0000
3200
0000
0000
0310
0010
0010
,
0002
0000
0000
2003
0000
3010
0200
0000
0000
2300
0000
0000
3200
0000
0000
0302
0000
0000
2003
0000
0000
3100
0100
0100
,
0020
0000
0000
0031
1000
0010
0001
1000
0100
0010
1000
0001
1001
0000
0001
0010
0100
1000
1001
0000
1000
0010
0100
0001
,
2002
0000
0000
0000
0000
0000
0000
0000
0000
0000
0000
0000
0000
0000
0000
0000
0000
0000
0000
0000
0000
0000
0000
0000
0000
0000
0000
0000
0000
0000
0000
0000
0000
0000
0000
0000
0000
0000
0000
0000
0000
0000
0000
0000
0000
0000
0000
0000
0000
0000
0000
0000
0000
0000
0000
0000
0000
0000
0000
0000
0000
0000
0000
0000
0000
0000
0000
0000
0000
0000
0000
0000
3000
0000
0000
0000
0000
0000
0000
0000
0000
0000
0000
0000
0000
0000
0000
0000
0000
0000
0000
0000
0000
0000
0000
0000
1003
0000
0000
0000
0000
0000
0000
0000
0010
0000
0000
0000
0000
0000
0000
0000
1000
0000
0000
0000
0000
0000
0000
0000
0010
0000
0000
0000
0000
0000
0000
0000
1000
0000
0000
0000
0000
0000
0000
0000
0010
0000
0000
0000
0000
0000
0000
0000
1000
0000
0000
0000
0000
0000
0000
0000
0010
0000
0000
0000
0000
0000
0000
0000
1000
0000
0000
0000
0000
0000
0000
0000
0010
0000
0000
0000
0000
0000
0000
0000
2000
0000
0000
3000
0000
0000
0000
0000
0000
0000
0000
0000
0000
0000
0000
0000
,
2002
0000
0000
0000
0000
0000
0000
0000
0000
0000
0000
0000
0000
0000
0000
0000
0000
0000
0000
0000
0000
0000
0000
0000
0000
0000
0000
0000
0000
0000
0000
0000
0000
0000
0000
0000
0000
0000
0000
0000
0000
0000
0000
0000
0000
0000
0000
0000
0000
0000
0000
0000
0000
0000
0000
0000
0000
0000
0000
0000
0000
0000
0000
0000
0000
0000
0000
0000
0000
0000
0000
0000
0003
0000
0000
0000
0000
0000
0000
0000
0000
0000
0000
0000
0000
0000
0000
0000
0000
0000
0000
0000
0000
0000
0000
0000
3001
0000
0000
0000
0000
0000
0000
0000
0010
0000
0000
0000
0000
0000
0000
0000
0001
0000
0000
0000
0000
0000
0000
0000
0010
0000
0000
0000
0000
0000
0000
0000
0001
0000
0000
0000
0000
0000
0000
0000
0010
0000
0000
0000
0000
0000
0000
0000
0001
0000
0000
0000
0000
0000
0000
0000
0010
0000
0000
0000
0000
0000
0000
0000
0001
0000
0000
0000
0000
0000
0000
0000
0010
0000
0000
0000
0000
0000
0000
0000
0002
0000
0000
0003
0000
0000
0000
0000
0000
0000
0000
0000
0000
0000
0000
0000
,
2200
0000
0000
0000
0000
0000
0000
0000
0000
0000
0000
0000
0000
0000
0000
0000
0000
0000
0000
0000
0000
0000
0000
0000
0000
0000
0000
0000
0000
0000
0000
0000
0000
0000
0000
0000
0000
0000
0000
0000
0000
0000
0000
0000
0000
0000
0000
0000
0000
0000
0000
0000
0000
0000
0000
0000
0000
0000
0000
0000
0000
0000
0000
0000
0000
0000
0000
0000
0000
0000
0000
0000
0300
0000
0000
0000
0000
0000
0000
0000
0000
0000
0000
0000
0000
0000
0000
0000
0000
0000
0000
0000
0000
0000
0000
0000
3001
0000
0000
0000
0000
0000
0000
0000
0100
0000
0000
0000
0000
0000
0000
0000
0001
0000
0000
0000
0000
0000
0000
0000
0100
0000
0000
0000
0000
0000
0000
0000
0001
0000
0000
0000
0000
0000
0000
0000
0100
0000
0000
0000
0000
0000
0000
0000
0001
0000
0000
0000
0000
0000
0000
0000
0100
0000
0000
0000
0000
0000
0000
0000
0001
0000
0000
0000
0000
0000
0000
0000
0100
0000
0000
0000
0000
0000
0000
0000
0002
0000
0000
0003
0000
0000
0000
0000
0000
0000
0000
0000
0000
0000
0000
0000
,
0202
0000
0000
0000
0000
0000
0000
0000
0000
0000
0000
0000
0000
0000
0000
0000
0000
0000
0000
0000
0000
0000
0000
0000
0000
0000
0000
0000
0000
0000
0000
0000
0000
0000
0000
0000
0000
0000
0000
0000
0000
0000
0000
0000
0000
0000
0000
0000
0000
0000
0000
0000
0000
0000
0000
0000
0000
0000
0000
0000
0000
0000
0000
0000
0000
0000
0000
0000
0000
0000
0000
0000
0300
0000
0000
0000
0000
0000
0000
0000
0000
0000
0000
0000
0000
0000
0000
0000
0000
0000
0000
0000
0000
0000
0000
0000
1003
0000
0000
0000
0000
0000
0000
0000
0100
0000
0000
0000
0000
0000
0000
0000
1000
0000
0000
0000
0000
0000
0000
0000
0100
0000
0000
0000
0000
0000
0000
0000
1000
0000
0000
0000
0000
0000
0000
0000
0100
0000
0000
0000
0000
0000
0000
0000
1000
0000
0000
0000
0000
0000
0000
0000
0100
0000
0000
0000
0000
0000
0000
0000
1000
0000
0000
0000
0000
0000
0000
0000
0100
0000
0000
0000
0000
0000
0000
0000
2000
0000
0000
3000
0000
0000
0000
0000
0000
0000
0000
0000
0000
0000
0000
0000
,
2002
0000
0000
0000
3003
2000
3200
0302
,
2003
0000
0000
3020
0000
0000
0032
0000
0000
0000
0000
0000
0000
0000
0000
0000
,
1003
0010
1000
0000
0010
0000
0000
0000
0010
0000
0000
0000
0100
0001
0100
0000
0001
0000
0000
0000
0010
0000
0100
0000
1000
0000
0001
1000
0001
0000
0100
0000
0010
0000
0100
0000
0000
0010
0000
0000
0010
0000
0000
0010
0000
0000
0010
0000
,
0000
0000
0000
0000
0210
0000
0000
0000
0000
0000
0000
0000
0000
0000
0000
0000
0000
0000
0000
0000
0000
0000
0000
0000
0000
0000
0000
0000
0010
0000
0000
0000
0000
0000
0000
0000
0000
0000
0000
0000
0000
0000
0000
0000
0000
0000
0000
0000
0000
0000
0000
0000
0010
0000
0000
0000
0000
0000
0000
0000
0000
0000
0000
0000
0000
0000
0000
0000
0000
0000
0000
0000
0000
0000
0000
0000
0010
0000
0000
0000
0000
0000
0000
0000
0000
0000
0000
0000
0000
0000
0000
0000
0000
0000
0000
0000
0000
0000
0000
0000
0000
0000
0000
0000
0000
0020
0000
0000
0000
0000
0000
0000
0000
0000
0000
0000
0000
0000
0000
0000
0000
0000
0000
0000
0000
0000
0000
0000
0000
0000
0000
0000
0000
0000
0000
0000
0000
0000
0000
0000
0000
0000
0000
0000
0330
0000
0000
0000
0000
0000
0000
0000
0000
0000
0000
0000
0000
0000
0000
0000
0000
0000
0000
0000
0000
0000
0000
0000
0000
0000
0000
0000
0000
0000
0000
0000
0000
0000
0000
0000
0000
0000
0000
0000
0000
0000
0000
0000
0000
0000
0000
0000
,
2002
0000
0000
0000
0000
0000
0000
3003
,
0001
0000
0000
0000
0010
0000
0000
0000
0100
0000
0000
0000
1000
0000
0000
0000
0100
0000
0000
0000
0010
0000
0000
0000
0001
0000
0000
0000
0100
0000
0000
0000
0010
0000
0000
0000
1000
0000
0000
0000
0010
0000
0000
0000
0100
0000
0000
0000
0001
0000
0000
0010
0000
0000
0100
0000
0000
1000
0000
0000
0100
0000
0000
0010
0000
0000
0001
0000
0000
1000
0000
0000
1001
0000
0000
0000
0000
0000
0000
0000
0000
0000
0000
0000
0000
0000
0000
0000
0000
0000
0000
0000
0000
0000
0000
0000
;

//--------------- dance-double - Fred-104 ----------------
#NOTEDATA:;
#STEPSTYPE:dance-double;
#DESCRIPTION:Fred-104;
#DIFFICULTY:Easy;
#METER:3;
#CREDIT:Fred-104;
#NOTES:
00000000
00000000
00000000
00000000
,
00000000
00000000
00000000
00000000
,
00000000
00000000
00000000
00000000
,
00000000
00000000
00000000
00000000
,
00000000
00000000
00000000
00000000
,
00000000
00000000
00000000
00000000
,
00020000
00000000
00000000
00030000
,
00002000
00000000
00000000
00003000
,
00010000
00000000
00000010
00000010
,
00000220
00000000
00000000
00000000
,
00000330
00000000
00000000
00000000
,
00000000
00000000
00000000
00000000
,
00000001
00000010
00000100
00000100
,
00010000
00001000
00010000
00000000
,
00001000
00100000
00001000
00100000
,
00010000
00100000
01000000
00000000
,
10000000
00010000
10000000
01000000
,
00010000
00001000
00010000
00000000
,
00000100
00000010
00000001
00001000
,
00002002
00000000
00000000
00000000
,
00000000
00000000
00000000
00003003
,
00001001
00000001
00000100
00001000
,
00010000
00000000
00001000
00000000
,
01000000
00000000
00010000
00000000
,
10000000
00000000
01000000
01000000
,
00100000
00001000
00010000
00010000
,
00000010
00001000
00000010
00001000
,
00000001
00000010
00000100
00001000
,
00000000
00000000
00000000
00000000
,
00000000
00000000
00000000
00011000
,
00002000
00000000
00000000
00003000
,
00020000
00000000
00000000
00030000
,
00002000
00003000
00020000
00030000
,
00001000
00010000
00022000
00033000
,
00001000
00000000
00010000
01000000
,
10000000
00000000
00010000
10000000
,
01000000
00000000
00100000
00001000
,
00010000
00010000
00001000
00001000
,
00011000
00000000
00010000
00000000
,
00000010
00000000
00001000
00000000
,
00000010
00010000
00001000
00010000
,
00002000
00000000
00003000
00000000
,
02000000
00000000
03000000
00000000
,
00020000
00000000
00030000
00000000
,
20000000
00000000
30000000
00000000
,
20020000
00000000
30030000
00000000
,
20000000
00000000
00000000
30000000
,
02000000
00000000
00000000
03000000
,
00200000
00000000
00000000
00300000
,
20020000
00000000
00000000
00000000
,
00000000
00000000
30030000
10010000
;

//--------------- dance-double - Fred-104 ----------------
#NOTEDATA:;
#STEPSTYPE:dance-double;
#DESCRIPTION:Fred-104;
#DIFFICULTY:Medium;
#METER:8;
#CREDIT:Fred-104;
#NOTES:
00000000
00000000
00000000
00000000
,
00000000
00000000
00000000
00000000
,
00000000
00000000
00000000
00000000
,
00000000
00000000
00000000
00000000
,
00000000
00000000
00000000
00000000
,
00000000
00000000
00000000
00000000
,
00020000
00000000
00000000
00000000
00030000
00100000
01000000
00010000
,
00001000
00000000
00000000
00010000
00000000
00000000
00002000
00000000
00000000
00000000
00000000
00000000
00003000
00000000
00000000
00000000
,
00010000
00000000
00000100
00001000
00000000
00000000
00000100
00000000
00000010
00000000
00000000
00000000
00001000
00000000
00000000
00000000
,
00022000
00000000
00000000
00000000
,
00033000
00000000
00000000
00000000
00000000
00000000
00020000
00030000
,
00020000
00000000
00030000
00001000
01000000
00000000
00010000
00000000
10000000
01000000
00010000
00000000
01000000
10000000
00010000
00000000
,
10010000
10000000
00100000
00010000
00001000
00000010
00001000
00010000
,
00001000
00010000
00000100
00000010
00000001
00001000
00000010
00000010
,
00000100
00000001
00000010
00001000
00010000
00100000
00010000
00001000
,
00010000
00000000
01000000
00000000
00100000
01000000
10000000
00000000
10010000
00000000
01100000
00000000
10000000
01000000
00100000
00000000
,
00011000
00000000
00000100
00010000
00000100
00000000
00010000
00000000
00001000
00000000
00000100
00000000
00000001
00000000
00000000
00000000
,
00001000
00000000
00000100
00000010
00000100
00000000
00000010
00000000
00001000
00000000
00010000
00000000
00100000
00000000
00000000
00000000
,
01000000
00000000
00010000
10000000
01000000
00000000
00100000
00000000
00001000
00000000
00010000
00000000
00200000
00000000
00000000
00000000
,
20000000
00000000
00000000
00000000
,
00000000
00000000
00000000
30300000
,
10010000
00000000
11000000
00010000
00101000
00001000
00010010
00010000
,
00011000
00000000
00011000
00000000
00010000
00001000
00000100
00000000
00001000
00010000
00001000
00000000
01000000
00000000
00011000
00000000
,
00010000
00000000
00001000
00000000
00000100
00000001
00001000
00000000
00000001
00000000
00000010
00000100
00000000
00010000
00001000
00000000
,
00100000
00000000
00010000
00100000
00000000
01000000
10000000
00000000
00100000
00010000
00000000
00001000
00011000
00000000
00000000
00000000
,
00010000
00000000
00001000
00000000
00000100
00000000
00000001
00000000
00001000
00000000
00000100
00000000
00000010
00000001
00000100
00000000
,
00000010
00000000
00000100
00000000
00001000
00000000
00010000
00000000
00100000
00000000
01000000
00000000
10000000
01000000
00010000
00000000
,
10000000
00000000
01000000
00000000
00010000
00000000
00001000
00000000
00000100
00000001
00001000
00000100
00000010
00001000
00010000
00000000
,
00000000
00000000
00000000
00000000
,
00000000
00000000
00000000
00011000
,
00002000
00023000
02030000
03200000
,
00302000
00023000
00030020
00000230
,
00010300
00001000
00000010
00001000
00010000
00001000
00000100
00001000
,
00010000
00001000
01000000
00100000
01100000
00000000
01100000
00000000
,
10010000
10000000
01000000
00100000
00001000
00010000
00010010
00001000
,
00001001
00001000
00000100
00000010
00000001
00000100
00001100
00010000
,
00011000
00001000
00100000
00010000
00100000
01000000
11000000
00010000
,
10100000
10000000
01000000
00010000
00001000
00010000
00000010
00000000
,
00000110
00001000
00000001
00000100
00001000
00010000
00011000
00000000
,
00010100
00010000
00001000
01000000
00100000
01000000
10010000
00000000
,
10000000
01000000
00010000
00001000
00001100
00000000
00000101
00000000
,
00002002
00000000
00003003
00000000
,
00020020
00000000
00030030
00000000
,
00202000
00000000
00303000
00000000
,
00022000
00000000
00033000
00000000
,
00022000
00000000
00000000
00000000
00033000
00010000
00001000
00000100
,
00000002
00000000
00000000
00000023
00000000
00000000
00000200
00000000
00000000
00000000
00000000
00000000
00000000
00000000
00000000
00000000
,
00000000
00000000
00000000
00000000
,
00000000
00000000
00000000
00000330
,
00022000
00000000
00000000
00000000
,
00000000
00000000
00033000
01100000
;

//--------------- dance-double - Fred-104 ----------------
#NOTEDATA:;
#STEPSTYPE:dance-double;
#DESCRIPTION:Fred-104;
#DIFFICULTY:Hard;
#METER:13;
#BPMS:0=88,83=176,84=88,88=176,89=88,91.5=176,92=88,93.5=176,94=88,99.75=176,100=88,134=176,136=88,167.666667=176,168=88,171.666667=176,172=88,175.666667=176,176=88,179.666667=175.439,180=88;
#STOPS:83=0.341,88=0.171,88.5=0.17,91.5=0.085,91.75=0.085,93.5=0.17,99.75=0.086,134=0.341,135=0.341,167.666667=0.113,171.666667=0.114,175.666667=0.114,179.666667=0.113;
#CREDIT:Fred-104;
#NOTES:
00000000
00000000
00000000
00000000
,
00000000
00000000
00000000
00000000
,
00000000
00000000
00000000
00000000
,
00000000
00000000
00000000
00000000
,
00000000
00000000
00000000
00000000
,
00000000
00000000
00000000
00000000
,
00002000
00000000
00000000
00000000
00003000
00020000
00030020
00002030
,
00003200
00000000
00000000
00000320
00000000
00000000
00000002
00000000
00000000
00000000
00000000
00000000
00000033
00000000
00000000
00000000
,
00000002
00000000
00000100
00000203
00000000
00000000
00002300
00000000
00023000
00000000
00000000
00000000
02030000
00000000
00000000
00000000
,
20000000
00000000
00000000
00000000
,
33000000
00000000
00000000
00000000
00000000
00000000
20000000
30000000
,
20000000
00000000
30000000
10000000
01000000
00010000
00001000
00000100
00000001
00000000
00000010
00000100
00001000
00000100
00010000
00000000
,
00011000
00000000
00010000
00000000
00001000
00000000
00000100
00000010
00001000
00000000
00000001
00000000
00000010
00000000
00000100
00000010
,
00001000
00000000
00010000
00000000
00001000
00100000
00010000
00100000
01000000
10000000
00100000
01000000
00010000
00000000
00100000
01000000
,
00010000
00000000
00001000
00000000
00010000
00000000
00000100
00000010
00000001
00000000
00001000
00000000
00000010
00000000
00000100
00001000
,
00010000
00000000
00001000
00001000
01000000
00010000
10000000
00010000
00100000
00000000
01100000
00000000
10000000
01000000
00010000
00000000
,
00011000
00000000
00001000
00010000
00000000
00000010
00001000
00000000
00000100
00000010
00000001
00000100
00000010
00000001
00000010
00000100
,
00000001
00000000
00000010
00000100
00000010
00001000
00010000
00001000
01000000
00000000
01000000
00100000
01100000
01000000
00010000
00000000
,
10010000
00000000
10000000
00100000
01000000
00000000
00100000
00000000
00020000
00000000
00032000
00000000
00003020
00000000
00000032
00000000
,
00002000
00000000
00000000
00000000
,
00000000
00000000
00000000
00003003
,
00001001
00000000
00000000
00000000
00000000
00000000
00000000
00000000
00000110
00000000
00000000
00000000
00011000
00000000
00000000
00000000
01100000
00000000
00000000
01000000
00100000
00000000
01000000
00000000
01010000
00000000
00000000
00000000
10010000
00000000
00000000
00000000
,
22000000
00000000
00000000
33000000
00000000
00000000
00000000
00000000
00000000
00000000
00000000
00000000
00000000
00000000
00000000
00000000
00000000
00000000
00000000
00000000
00000000
00000000
00000000
00000000
02020000
00000000
00000000
03030000
00000000
00000000
00000000
00000000
00000000
00000000
00000000
00000000
00000000
00000000
00000000
00000000
00000000
00000000
00000000
00000000
00000000
00000000
00000000
00000000
10000000
00000000
00000000
00000000
00000000
00000000
00000000
00000000
00000000
00000000
00000000
00000000
00100000
00000000
00000000
00000000
00000000
00000000
00000000
00000000
00000000
00000000
00000000
00000000
00010000
00000000
00000000
00000000
00000000
00000000
00000000
00000000
00000000
00000000
00000000
00000000
00000000
00000000
00000000
00000000
00000000
00000000
00000000
00000000
00000000
00000000
00000000
00000000
00001000
00000000
00000000
00000000
00000000
00000000
00000000
00000000
00000000
00000000
00000000
00000000
00000010
00000000
00000000
00000000
00000000
00000000
00000000
00000000
00000000
00000000
00000000
00000000
00000001
00000000
00000000
00000000
00000000
00000000
00000000
00000000
00000000
00000000
00000000
00000000
00000010
00000000
00000000
00000000
00000000
00000000
00000000
00000000
00000000
00000000
00000000
00000000
00000100
00000000
00000000
00000000
00000000
00000000
00000000
00000000
00001000
00000000
00000000
00000000
00000000
00000000
00000000
00000000
00000001
00000000
00000000
00000000
00000000
00000000
00000000
00000000
00002000
00000000
00000000
00000000
00000000
00000000
00000000
00000000
00000000
00000000
00000000
00000000
00003000
00000000
00000000
00000000
00000000
00000000
00000000
00000000
00000000
00000000
00000000
00000000
,
00000001
00000000
00000000
00000000
00000010
00000000
00000000
00000000
00001000
00000000
00000000
00000000
00000000
00000000
00000000
00000000
00010000
00000000
00000000
00000000
00100000
00000000
00000000
00000000
20000000
30000000
00000000
00000000
00000000
00000000
00000000
00000000
01100000
00000000
00000000
00000000
00000000
00000000
00000000
00000000
10000000
00000000
00000000
00000000
01000000
00000000
00000000
00000000
00000000
00000000
00000000
00000000
00010000
00000000
00000000
00000000
00001000
00000000
00000000
00000000
00000000
00000000
00000000
00000000
,
00011000
00000000
00010000
00000100
00000000
00001000
00000001
00000000
00001000
00000010
00000000
00010000
00022000
00000000
00000000
00033000
,
00010000
00001000
00000010
00000100
00010000
00000010
00001000
00100000
01000000
00010000
00100000
01000000
00010000
00001000
00010000
00000000
,
00001000
00010000
00100000
01000000
00001000
00100000
00010000
00000010
00000100
00001000
00000010
00000100
00001000
00010000
00001000
00000000
,
00010000
00001000
01000000
00001000
00010000
00100000
01000000
00000000
00001000
00010000
01000000
00010000
00001000
00010000
00000010
00000000
,
00000000
00000000
00000000
00020000
00032000
00023000
00230000
20300000
,
32000000
00000000
03020000
00000000
00032000
00000000
00003020
00000000
00000032
00000000
00002003
00003000
00001001
00000000
00000000
00000000
,
00000002
00000023
00000230
00020300
,
00032000
00203000
02300000
23000000
,
30010000
01001000
00001000
00010100
00001000
00010010
00010000
00101000
,
00001000
00000000
00000000
00000000
00000000
00000000
00000000
00000000
00000000
00000000
00000000
00000000
00000000
00000000
00000000
00000000
00001000
00000000
00000000
00000000
00000000
00000000
00000000
00000000
00010000
00000000
00000000
00000000
00000000
00000000
00000000
00000000
00000000
00000000
00000000
00000000
00000000
00000000
00000000
00000000
00010000
00000000
00000000
00000000
00000000
00000000
00000000
00000000
00000010
00000000
00000000
00000000
00000000
00000000
00000000
00000000
00000000
00000000
00000000
00000000
00000000
00000000
00000000
00000000
00000010
00000000
00000000
00000000
00000000
00000000
00000000
00000000
00001000
00000000
00000000
00000000
00000000
00000000
00000000
00000000
00000000
00000000
00000000
00000000
00000000
00000000
00000000
00000000
00001000
00000000
00000000
00000000
00000000
00000000
00000000
00000000
00000002
00000000
00000000
00000003
00000000
00000000
00000000
00000000
00000000
00000000
00000000
00000000
00000000
00000000
00000000
00000000
00000000
00000000
00000000
00000000
00000000
00000000
00000000
00000000
00000000
00000000
00000000
00000000
00000000
00000000
00000000
00000000
00000000
00000000
00000000
00000000
00000000
00000000
00000000
00000000
00000000
00000000
00000000
00000000
00000000
00000000
00000000
00000000
00002002
00000000
00000000
00003003
00000000
00000000
00000000
00000000
00000000
00000000
00000000
00000000
00000000
00000000
00000000
00000000
00000000
00000000
00000000
00000000
00000000
00000000
00000000
00000000
00000000
00000000
00000000
00000000
00000000
00000000
00000000
00000000
00000000
00000000
00000000
00000000
00000000
00000000
00000000
00000000
00000000
00000000
00000000
00000000
00000000
00000000
00000000
00000000
,
00000110
00000000
00000000
00000001
00000010
00000100
00001000
00000000
00000000
00001100
00000000
00000000
00010100
00000000
00010000
00001000
01000000
00010000
10000000
00010000
00100000
01000000
00000000
00000000
,
11000000
00000000
00000000
00010000
10000000
01000000
10000000
00000000
00000000
01010000
00000000
00000000
01100000
00000000
10000000
01000000
00100000
00010000
00100000
00001000
00010000
00001000
00000000
00000000
,
00011000
00000000
00000000
00010000
00001000
00000010
00000001
00000000
00000000
00001001
00000000
00000000
00000110
00000000
00000001
00000010
00000100
00001000
00000100
00010000
00001000
00010000
00000000
00000000
,
00001000
00100000
00010000
00100000
00002000
00000000
00013000
00000010
00001000
00000010
00020000
00000000
00031000
00000000
01000000
00010000
00000000
10000000
00010000
10000000
01000000
00100000
00010000
00100000
,
00001000
00000000
00000000
00010000
00000000
00010000
00000100
00000000
00000000
00000010
00000000
00000000
00000011
00000000
00000000
00001010
00000000
00000000
00000202
00000000
00000000
00000303
00000000
00000000
,
00000001
00000000
00000000
00000010
00000000
00000010
00001000
00000000
00000000
00010000
00000000
00000000
00011000
00000000
00000000
00110000
00000000
00000000
20200000
00000000
00000000
30300000
00000000
00000000
,
00010000
00000000
00000000
10000000
00000000
10000000
01000000
00100000
00010000
00100000
00001000
00010000
00000010
00001000
00000001
00000010
00000000
00000000
00000100
00001000
00000100
00010000
00000000
00000000
,
00022000
00000000
00000000
00000000
00000000
00000000
00003000
00000000
00000000
00000000
00000000
00030000
,
00020020
00000000
00000000
00000000
00000000
00000000
00030000
00000000
00000000
00000000
00000000
00000030
,
00202000
00000000
00000000
00000000
00000000
00000000
00003000
00000000
00000000
00000000
00000000
00300000
,
00022000
00000000
00000000
00000000
00000000
00000000
00003000
00000000
00000000
00000000
00000000
00030000
,
02200000
00000000
00000000
00000000
03300000
20000000
32000000
03020000
,
00032000
00000000
00000000
00023000
00000000
00000000
00002000
00000000
00000000
00000000
00000000
00000000
00000000
00000000
00000000
00000000
,
00000000
00000000
00000000
00000000
,
00000000
00000000
00000000
00033000
,
00000220
00000000
00000000
00000000
,
00000000
00000000
00000330
00001001
;

//--------------- dance-double - Fred-104 ----------------
#NOTEDATA:;
#STEPSTYPE:dance-double;
#DESCRIPTION:Fred-104;
#DIFFICULTY:Challenge;
#METER:16;
#BPMS:0=88,83=176,84=88,88=176,89=88,91.5=176,92=88,93.5=176,94=88,99.75=176,140=88,154=176,156=88,187.666667=176,188=88,191.666667=176,192=88,195.666667=176,196=88,199.666667=175.439,200=88;
#STOPS:83=0.341,88=0.171,88.5=0.17,91.5=0.085,91.75=0.085,93.5=0.17,99.75=0.086,154=0.341,155=0.341,187.666667=0.113,191.666667=0.114,195.666667=0.114,199.666667=0.113;
#CREDIT:Fred-104;
#NOTES:
00000000
00000000
00000000
00000000
,
00000000
00000000
00000000
00000000
,
00000000
00000000
00000000
00000000
,
00000000
00000000
00000000
00000000
,
00000000
00000000
00000000
00000000
,
00000000
00000000
00000000
00000000
00000000
00000000
00000000
00000000
00000000
00000000
00000000
00000000
00000000
00000000
00010000
00001000
,
00020000
00000000
00000000
00000000
00030000
00002000
00023000
00230000
,
02300000
00000000
00000000
03020000
00000000
00000000
20030000
00000000
00000000
00000000
00000000
00000000
30000000
00000000
00000000
00000000
,
02000000
00000000
03200000
00302000
00000000
00000000
00003020
00000000
00000230
00000000
00000000
00000000
00002300
00000000
00000000
00000000
,
00000002
00000000
00000000
00000000
,
00003003
00000000
00000000
00000000
00000000
00000000
00020000
00030000
,
00020000
00000000
00000000
00000000
00030000
00000000
00010000
00000000
00001000
00000000
00000100
00000000
00000010
00000000
00000100
00000000
00001000
00000000
00000000
00000000
00011000
00000000
00001000
00100000
00001000
00000000
00001000
00000000
00011000
00000000
00000000
00000000
,
00002000
00000000
00010000
00000000
00000010
00000000
00013000
00001000
02000000
00000000
00100000
00000000
10000000
00000000
03100000
01000000
,
00020000
00000000
10000000
00000000
10030000
01000000
00100000
01000000
00010000
00001000
00000100
00000001
00001000
00000100
00000010
00000001
,
00002000
00000000
00000100
00000000
00010000
00000000
00003100
00010000
00002000
00000000
00013000
00002000
01000000
00000000
01003000
00010000
,
10000000
00000000
00000000
00000000
01000000
00000000
00100000
00010000
00100000
00000000
00001000
00000000
00000010
00000000
00001000
00000000
00011000
00000000
00000000
00000000
00000110
00000000
00000000
00000000
00000001
00000000
00001000
00000000
00001001
00000000
00000000
00000000
,
00000110
00000000
00000001
00000010
00000000
00001000
00010000
00000000
00001000
01000000
00010000
00100000
01000000
00000000
10000000
00100000
,
00010000
00000000
00000000
00000000
00001000
00000000
00010000
00000000
00000100
00000000
00000010
00000000
00000001
00000000
00001000
00000010
00001000
00000000
00000000
00000000
00000001
00000000
00000010
00000000
00001010
00000000
00001000
00000000
00010000
00000000
00000000
00000000
,
00101000
00000000
00000010
00010000
00011000
00000000
01001000
00000000
00002000
00000000
00010000
00000000
00023000
00000000
00001000
00000000
,
00002000
00000000
00000000
00000000
,
00000000
00000000
00000000
00033000
,
00010000
00000000
00000000
00000000
00001000
00000000
00000000
00000000
00000100
00000000
00000000
00000000
00000001
00000000
00000000
00000000
00000000
00000000
00000000
00000000
00000000
00000000
00000000
00000000
00000110
00000000
00000000
00000000
00000000
00000000
00000000
00000000
00000000
00000000
00000000
00000000
00011000
00000000
00000000
00000000
00000000
00000000
00000000
00000000
00000000
00000000
00000000
00000000
01100000
00000000
00000000
00000000
00000000
00000000
00000000
00000000
00000000
10000000
00000000
00000000
00100000
00000000
00000000
00000000
00000000
00000000
00010000
00000000
00000000
00000000
00000000
00000000
00011000
00000000
00000000
00000000
00000000
00000000
00000000
00000000
00000000
00000000
00000000
00000000
00010000
00000000
00000000
00000000
00001000
00000000
00000000
00000000
00000010
00000000
00000000
00000000
,
00000002
00000000
00000000
00000003
00000000
00000000
00000000
00000000
00000000
00000000
00000000
00000000
00000000
00000000
00000000
00000000
00000000
00000000
00000000
00000000
00000000
00000000
00000000
00000000
00002200
00000000
00000000
00003300
00000000
00000000
00000000
00000000
00000000
00000000
00000000
00000000
00000000
00000000
00000000
00000000
00000000
00000000
00000000
00000000
00000000
00000000
00000000
00000000
00010000
00000000
00000000
00000000
00000000
00000000
00000000
00000000
00000000
00000000
00000000
00000000
00001000
00000000
00000000
00000000
00000000
00000000
00000000
00000000
00000000
00000000
00000000
00000000
01000000
00000000
00000000
00000000
00000000
00000000
00000000
00000000
00000000
00000000
00000000
00000000
00000000
00000000
00000000
00000000
00000000
00000000
01000000
00000000
00000000
00000000
00000000
00000000
00010000
00000000
00000000
00000000
00000000
00000000
00000000
00000000
00000000
00000000
00000000
00000000
10000000
00000000
00000000
00000000
00000000
00000000
00000000
00000000
00000000
00000000
00000000
00000000
01000000
00000000
00000000
00000000
00000000
00000000
00100000
00000000
00000000
00000000
00000000
00000000
01000000
00000000
00000000
00000000
00000000
00000000
00010000
00000000
00000000
00000000
00000000
00000000
00001000
00000000
00000000
00000000
00000000
00000000
00000000
00000000
00010000
00000000
00000000
00000000
00000000
00000000
00000000
00000000
00000010
00000000
00000000
00000000
00000000
00000000
00000000
00000000
00020000
00000000
00000000
00030000
00000000
00000000
00000000
00000000
00000000
00000000
00000000
00000000
00020000
00000000
00000000
00030000
00000000
00000000
00000000
00000000
00000000
00000000
00000000
00000000
,
00001000
00000000
00000000
00000000
00010000
00000000
00000000
00000000
00100000
00000000
00000000
00000000
01000000
00000000
00000000
00000000
10000000
00000000
00000000
00000000
00010000
00000000
00000000
00000000
00002000
00003000
00000000
00000000
00000000
00000000
00000000
00000000
00011000
00000000
00000000
00000000
00010000
00000000
00000000
00000000
00000010
00000000
00000000
00000000
00001010
00000000
00000000
00000000
00001000
00000000
00000000
00000000
00000100
00000000
00000000
00000000
00000110
00000000
00000000
00000000
00000010
00000000
00000000
00000000
,
00000001
00000000
00000000
00000000
00000101
00000000
00000000
00000000
00000100
00000000
00001000
00000000
00010000
00000000
00000000
00000000
00001000
00000000
01000000
00000000
00001000
00000000
01000000
00000000
00001000
00000000
00000000
00000000
00010000
00000000
00000100
00000000
00010000
00000000
00000100
00000000
00010000
00000000
00000000
00000000
00000100
00000000
00001000
00000000
00000100
00000000
00000010
00000000
00000002
00000000
00000000
00000000
00000000
00000000
00000000
00000000
00000000
00000000
00000000
00000000
00002003
00003000
00000000
00000000
,
00000001
00000010
00000100
00001000
00000100
00000000
00010000
00001000
00010000
00001000
00010000
00000000
00001000
00100000
00010000
00100000
,
02000000
00000000
10000000
03010000
02000000
00000000
00010000
13000000
01000000
00100000
00010000
10000000
00010000
00000000
10000000
00000000
,
00100000
01000000
00010000
01000000
00001000
00000000
00010000
00001000
00010000
00000100
00001000
00000000
00000100
00000010
00000001
00001000
,
00000020
00000000
00001000
00000031
00000020
00000000
00000001
00001030
00000010
00000100
00000010
00001000
00000002
00000000
00000000
00000000
,
00001003
00000001
00000010
00001000
00010000
00100000
10100000
00000000
,
10000000
01000000
00100000
00010000
00100000
00001000
00010000
00000100
00001000
00000100
00000010
00000001
00001000
00000000
00000000
00000000
,
00000000
00000000
00000000
00000002
,
00000023
00000032
00000023
00000230
,
00002300
00023000
00032000
00023000
,
00230000
02300000
13000000
00000000
,
20000000
30200000
00320000
00032000
,
00003200
00000302
00000023
00000230
,
00001300
00000001
00000100
00000010
00000100
00001000
00010000
00100000
01000000
10000000
01000000
00010000
10000000
01000000
00100000
01000000
00010000
00001000
00000010
00000100
00000001
00000100
00001000
00000001
,
00001000
00000000
00000000
00000000
00000000
00000000
00000000
00000000
00000001
00000000
00000000
00000000
00000000
00000000
00000000
00000000
00000100
00000000
00000000
00000000
00000000
00000000
00000000
00000000
00001000
00000000
00000000
00000000
00000000
00000000
00000000
00000000
00010000
00000000
00000000
00000000
00000000
00000000
00000000
00000000
00100000
00000000
00000000
00000000
00000000
00000000
00000000
00000000
10000000
00000000
00000000
00000000
00000000
00000000
00000000
00000000
00010000
00000000
00000000
00000000
00000000
00000000
00000000
00000000
10000000
00000000
00000000
00000000
00000000
00000000
00000000
00000000
01000000
00000000
00000000
00000000
00000000
00000000
00000000
00000000
00010000
00000000
00000000
00000000
00000000
00000000
00000000
00000000
00001000
00000000
00000000
00000000
00000000
00000000
00000000
00000000
00022000
00000000
00000000
00033000
00000000
00000000
00000000
00000000
00000000
00000000
00000000
00000000
00000000
00000000
00000000
00000000
00000000
00000000
00000000
00000000
00000000
00000000
00000000
00000000
00000000
00000000
00000000
00000000
00000000
00000000
00000000
00000000
00000000
00000000
00000000
00000000
00000000
00000000
00000000
00000000
00000000
00000000
00000000
00000000
00000000
00000000
00000000
00000000
00022000
00000000
00000000
00033000
00000000
00000000
00000000
00000000
00000000
00000000
00000000
00000000
00000000
00000000
00000000
00000000
00000000
00000000
00000000
00000000
00000000
00000000
00000000
00000000
00000000
00000000
00000000
00000000
00000000
00000000
00000000
00000000
00000000
00000000
00000000
00000000
00000000
00000000
00000000
00000000
00000000
00000000
00000000
00000000
00000000
00000000
00000000
00000000
,
00021000
00000000
00000000
00031000
01000000
00001000
00010000
00000000
00010000
00100000
00000000
00100000
10000000
00000000
10000000
01000000
00100000
10000000
00100000
00010000
10000000
00100000
00010000
00001000
,
00020000
00000000
00000000
00031000
00010000
00000010
00001000
00000000
00001000
00000100
00000000
00000100
00000010
00000000
00000010
00000001
00000100
00000010
00000100
00001000
00010000
00001000
01000000
00010000
,
20000000
00000000
00000000
31000000
00100000
00010000
01000000
00000000
01000000
00100000
00000000
00100000
00010000
00000000
00010000
00100000
01000000
00010000
00100000
01000000
00010000
00001000
00010000
00000010
,
00001000
00000100
00000010
00000001
00000002
00000000
00001003
00000010
00000100
00000001
00000002
00000000
00001003
00000100
00000010
00001000
00010000
01000000
00100000
00010000
01000000
00100000
10000000
00010000
,
00100000
00000000
00000000
01100000
00000000
10000000
01000000
00000000
00000000
00011000
00000000
00000000
00000101
00000000
00000000
00001001
00000000
00000000
00000011
00000000
00000000
00000001
00000100
00001000
,
00010000
00000000
00000000
00011000
00000000
00001000
01000000
00000000
00000000
00110000
00000000
00000000
10100000
00000000
00000000
01010000
00000000
00000000
11000000
00000000
00000000
10000000
01000000
00010000
,
00002000
00000000
00000000
00013000
00001000
00000010
00000100
00000010
00000001
00001000
00000010
00000100
00000101
00000000
00001000
00010000
00000000
00000000
00011000
00000000
01000000
10000000
00000000
00000000
,
20200000
00000000
00000000
00000000
00000000
00000000
00000000
00000000
00000000
00000000
00000000
00000000
00000000
00000000
00000000
00000000
00000000
00000000
00000000
00000000
00000000
00000000
00000000
00000000
00000000
00000000
00000000
00000000
00000000
00000000
00000000
00000000
00000000
00000000
00000000
00000000
00000000
00000000
00000000
00000000
00000000
00000000
00000000
00000000
00000000
00000000
00000000
00000000
00000000
00000000
00000000
00000000
00000000
00000000
00000000
00000000
00000000
00000000
00000000
00000000
00000000
00000000
00000000
00000000
00000000
00000000
00000000
00000000
00000000
00000000
00000000
00000000
00300000
00000000
00000000
00000000
00000000
00000000
00000000
00000000
00000000
00000000
00000000
00000000
00000000
00000000
00000000
00000000
00000000
00000000
00000000
00000000
00000000
00000000
00000000
00000000
30100000
00000000
00000000
00000000
00000000
00000000
00000000
00000000
10000000
00000000
00000000
00000000
00000000
00000000
00000000
00000000
00100000
00000000
00000000
00000000
00000000
00000000
00000000
00000000
10000000
00000000
00000000
00000000
00000000
00000000
00000000
00000000
00100000
00000000
00000000
00000000
00000000
00000000
00000000
00000000
10000000
00000000
00000000
00000000
00000000
00000000
00000000
00000000
00100000
00000000
00000000
00000000
00000000
00000000
00000000
00000000
10000000
00000000
00000000
00000000
00000000
00000000
00000000
00000000
00100000
00000000
00000000
00000000
00000000
00000000
00000000
00000000
10000000
00000000
00000000
00000000
00000000
00000000
00000000
00000000
00200000
00000000
00000000
00300000
00000000
00000000
00000000
00000000
00000000
00000000
00000000
00000000
00000000
00000000
00000000
00000000
,
02002000
00000000
00000000
00000000
00000000
00000000
00000000
00000000
00000000
00000000
00000000
00000000
00000000
00000000
00000000
00000000
00000000
00000000
00000000
00000000
00000000
00000000
00000000
00000000
00000000
00000000
00000000
00000000
00000000
00000000
00000000
00000000
00000000
00000000
00000000
00000000
00000000
00000000
00000000
00000000
00000000
00000000
00000000
00000000
00000000
00000000
00000000
00000000
00000000
00000000
00000000
00000000
00000000
00000000
00000000
00000000
00000000
00000000
00000000
00000000
00000000
00000000
00000000
00000000
00000000
00000000
00000000
00000000
00000000
00000000
00000000
00000000
03000000
00000000
00000000
00000000
00000000
00000000
00000000
00000000
00000000
00000000
00000000
00000000
00000000
00000000
00000000
00000000
00000000
00000000
00000000
00000000
00000000
00000000
00000000
00000000
00013000
00000000
00000000
00000000
00000000
00000000
00000000
00000000
00001000
00000000
00000000
00000000
00000000
00000000
00000000
00000000
00010000
00000000
00000000
00000000
00000000
00000000
00000000
00000000
00001000
00000000
00000000
00000000
00000000
00000000
00000000
00000000
00010000
00000000
00000000
00000000
00000000
00000000
00000000
00000000
00001000
00000000
00000000
00000000
00000000
00000000
00000000
00000000
00010000
00000000
00000000
00000000
00000000
00000000
00000000
00000000
00001000
00000000
00000000
00000000
00000000
00000000
00000000
00000000
00010000
00000000
00000000
00000000
00000000
00000000
00000000
00000000
00001000
00000000
00000000
00000000
00000000
00000000
00000000
00000000
00020000
00000000
00000000
00030000
00000000
00000000
00000000
00000000
00000000
00000000
00000000
00000000
00000000
00000000
00000000
00000000
,
00020200
00000000
00000000
00000000
00000000
00000000
00000000
00000000
00000000
00000000
00000000
00000000
00000000
00000000
00000000
00000000
00000000
00000000
00000000
00000000
00000000
00000000
00000000
00000000
00000000
00000000
00000000
00000000
00000000
00000000
00000000
00000000
00000000
00000000
00000000
00000000
00000000
00000000
00000000
00000000
00000000
00000000
00000000
00000000
00000000
00000000
00000000
00000000
00000000
00000000
00000000
00000000
00000000
00000000
00000000
00000000
00000000
00000000
00000000
00000000
00000000
00000000
00000000
00000000
00000000
00000000
00000000
00000000
00000000
00000000
00000000
00000000
00030000
00000000
00000000
00000000
00000000
00000000
00000000
00000000
00000000
00000000
00000000
00000000
00000000
00000000
00000000
00000000
00000000
00000000
00000000
00000000
00000000
00000000
00000000
00000000
00001300
00000000
00000000
00000000
00000000
00000000
00000000
00000000
00000100
00000000
00000000
00000000
00000000
00000000
00000000
00000000
00001000
00000000
00000000
00000000
00000000
00000000
00000000
00000000
00000100
00000000
00000000
00000000
00000000
00000000
00000000
00000000
00001000
00000000
00000000
00000000
00000000
00000000
00000000
00000000
00000100
00000000
00000000
00000000
00000000
00000000
00000000
00000000
00001000
00000000
00000000
00000000
00000000
00000000
00000000
00000000
00000100
00000000
00000000
00000000
00000000
00000000
00000000
00000000
00001000
00000000
00000000
00000000
00000000
00000000
00000000
00000000
00000100
00000000
00000000
00000000
00000000
00000000
00000000
00000000
00002000
00000000
00000000
00003000
00000000
00000000
00000000
00000000
00000000
00000000
00000000
00000000
00000000
00000000
00000000
00000000
,
00002002
00000000
00000000
00000000
00000000
00000000
00000000
00000000
00000000
00000000
00000000
00000000
00000000
00000000
00000000
00000000
00000000
00000000
00000000
00000000
00000000
00000000
00000000
00000000
00000000
00000000
00000000
00000000
00000000
00000000
00000000
00000000
00000000
00000000
00000000
00000000
00000000
00000000
00000000
00000000
00000000
00000000
00000000
00000000
00000000
00000000
00000000
00000000
00000000
00000000
00000000
00000000
00000000
00000000
00000000
00000000
00000000
00000000
00000000
00000000
00000000
00000000
00000000
00000000
00000000
00000000
00000000
00000000
00000000
00000000
00000000
00000000
00003000
00000000
00000000
00000000
00000000
00000000
00000000
00000000
00000000
00000000
00000000
00000000
00000000
00000000
00000000
00000000
00000000
00000000
00000000
00000000
00000000
00000000
00000000
00000000
00000013
00000000
00000000
00000000
00000000
00000000
00000000
00000000
00000001
00000000
00000000
00000000
00000000
00000000
00000000
00000000
00000010
00000000
00000000
00000000
00000000
00000000
00000000
00000000
00000001
00000000
00000000
00000000
00000000
00000000
00000000
00000000
00000010
00000000
00000000
00000000
00000000
00000000
00000000
00000000
00000001
00000000
00000000
00000000
00000000
00000000
00000000
00000000
00000010
00000000
00000000
00000000
00000000
00000000
00000000
00000000
00000001
00000000
00000000
00000000
00000000
00000000
00000000
00000000
00000010
00000000
00000000
00000000
00000000
00000000
00000000
00000000
00000001
00000000
00000000
00000000
00000000
00000000
00000000
00000000
00000020
00000000
00000000
00000030
00000000
00000000
00000000
00000000
00000000
00000000
00000000
00000000
00000000
00000000
00000000
00000000
,
00000220
00000000
00000000
00000000
00000330
00000002
00000203
00002300
,
00023000
00000000
00000000
02030000
00000000
00000000
03200000
00000000
00000000
00000000
00000000
00000000
00000000
00000000
00000000
00000000
,
00310000
10000000
00010000
00000000
01000000
00000000
00000000
00000000
01000000
00000000
00000000
00000000
00100000
10000000
00100000
00000000
10000000
00000000
00000000
00000000
01000000
00000000
00010000
00000000
00001000
00000000
00010000
00001000
00010000
00000000
00000100
00000000
00000010
00000000
00000001
00000000
00000000
00001000
00000000
00000000
00000010
00000000
00000000
00010000
00000000
00000000
00001000
00000000
,
00000000
00000000
00000000
00000000
00021000
00000000
00000000
00000000
00000000
00000000
00000000
00000000
00000000
00000000
00000000
00000000
00000000
00000000
00000000
00000000
00000000
00000000
00000000
00000000
00000000
00000000
00000000
00000000
00001000
00000000
00000000
00000000
00000000
00000000
00000000
00000000
00000000
00000000
00000000
00000000
00000000
00000000
00000000
00000000
00000000
00000000
00000000
00000000
00000000
00000000
00000000
00000000
00001000
00000000
00000000
00000000
00000000
00000000
00000000
00000000
00000000
00000000
00000000
00000000
00000000
00000000
00000000
00000000
00000000
00000000
00000000
00000000
00000000
00000000
00000000
00000000
00001000
00000000
00000000
00000000
00000000
00000000
00000000
00000000
00000000
00000000
00000000
00000000
00000000
00000000
00000000
00000000
00000000
00000000
00000000
00000000
00000000
00000000
00000000
00000000
00000000
00000000
00000000
00000000
00000000
00002000
00000000
00000000
00000000
00000000
00000000
00000000
00000000
00000000
00000000
00000000
00000000
00000000
00000000
00000000
00000000
00000000
00000000
00000000
00000000
00000000
00000000
00000000
00000000
00000000
00000000
00000000
00000000
00000000
00000000
00000000
00000000
00000000
00000000
00000000
00000000
00000000
00000000
00000000
00033000
00000000
00000000
00000000
00000000
00000000
00000000
00000000
00000000
00000000
00000000
00000000
00000000
00000000
00000000
00000000
00000000
00000000
00000000
00000000
00000000
00000000
00000000
00000000
00000000
00000000
00000000
00000000
00000000
00000000
00000000
00000000
00000000
00000000
00000000
00000000
00000000
00000000
00000000
00000000
00000000
00000000
00000000
00000000
00000000
00000000
00000000
00000000
,
20020000
00000000
00000000
00000000
00000000
00000000
00000000
30030000
,
10000000
00000000
00000000
00000000
01000000
00000000
00000000
00000000
00100000
00000000
00000000
00000000
01000000
00000000
00000000
00000000
00010000
00000000
00000000
00000000
00001000
00000000
00000000
00000000
00000010
00000000
00000000
00000000
00000100
00000000
00000000
00000000
00000010
00000000
00000000
00000000
00000001
00000000
00000000
00000000
00001000
00000000
00000000
00000000
00000001
00000000
00000000
00000000
00001000
00000000
00000000
00000001
00000000
00000000
00000100
00000000
00000000
00000001
00000000
00000000
00001000
00000000
00000000
00000100
00000000
00000000
00010000
00000000
00000000
00001000
00000000
00000000
00010000
00000000
00000000
00000000
00000000
00000000
00000000
00000000
00000000
00000000
00000000
00000000
00000000
00000000
00000000
00000000
00000000
00000000
00000000
00000000
00000000
00000000
00000000
00000000
;
