#VERSION:0.83;
#TITLE:MEGALOMAN[i]A;
#ARTIST:TITANZ;
#TITLETRANSLIT:MEGALOMANiA;
#BANNER:MEGALOMAN[i]A.png;
#BACKGROUND:MEGALOMAN[i]A-bg.png;
#CDTITLE:./CDTitles/crossbeats REV.png;
#MUSIC:MEGALOMAN[i]A.ogg;
#SAMPLESTART:31.192;
#SAMPLELENGTH:15;
#BPMS:0=200,264=195,272=205,304=210;
#TIMESIGNATURES:0=4=4,316=3=4,319=4=4;
#BGSTAGE:29;

//--------------- dance-single - Fred-104 ----------------
#NOTEDATA:;
#STEPSTYPE:dance-single;
#DESCRIPTION:Fred-104;
#DIFFICULTY:Beginner;
#METER:5;
#CREDIT:Fred-104;
#NOTES:
0000
0000
0000
0000
,
0000
0000
0000
0000
,
0000
0000
0000
0000
,
0000
0000
0000
0000
,
0000
0000
0000
0000
,
0000
0000
0000
0000
,
0001
0000
0001
0000
,
0000
0000
0010
0000
,
1000
0000
0000
1000
,
0000
0000
0100
0000
,
0001
0000
0000
0001
,
0000
1000
1000
0000
,
0000
0001
0000
0100
,
0100
0000
0001
0000
,
1000
0000
1000
0000
,
0100
0000
0100
0000
,
0010
0000
0100
0000
,
0010
0000
0001
0001
,
0001
0000
1000
0000
,
0001
0000
0000
0000
,
1000
0000
0100
0000
,
0010
0000
0000
0000
,
0001
0000
1000
0000
,
0001
0000
0001
0000
,
0100
0000
0100
0000
,
0010
0010
0010
0010
,
0100
0000
0001
0000
,
1000
0000
1000
0000
,
0100
0000
0100
0000
,
1000
0000
1000
0000
,
0001
0000
0010
0000
,
0001
0000
1000
0000
,
0001
0000
0100
0000
,
0001
0001
0001
0001
,
0002
0000
0013
0000
,
0020
0000
0130
0000
,
0200
0000
1300
0000
,
1000
1000
1000
1000
,
0002
0000
1003
0000
,
0020
0000
0130
0000
,
0002
0000
1003
0000
,
0100
0100
0100
0100
,
0020
0000
0000
0030
,
0002
0000
0000
0003
,
1000
0000
0001
0000
,
1000
0000
0010
0000
,
1000
1000
1000
0000
,
0100
0100
0100
0000
,
0010
0010
0001
0001
,
0001
0000
0000
0000
,
1000
1000
0000
0001
,
0001
0001
0000
1000
,
1000
1000
0000
0001
,
0001
0001
0002
0003
,
0100
0100
0000
0010
,
0010
0010
0000
0100
,
0100
0100
0000
0001
,
0001
0001
0002
0003
,
1001
0000
0000
1000
,
0000
0000
0100
0000
,
0001
0000
0000
0001
,
0000
0000
0100
0000
,
1000
0000
1000
0000
,
0001
0000
0001
0000
,
1001
0000
0000
0110
,
0000
0000
1001
0000
,
1001
0000
0000
0000
,
0000
0000
0000
0000
,
2000
0000
0000
0000
,
3002
0000
0000
0000
,
2003
0000
0000
0000
,
3002
0000
0000
0000
,
2003
0000
0000
0000
,
0000
0000
3000
0000
,
0002
0003
2000
3000
,
0001
0001
0001
0001
,
0001
0000
0001
0000
,
0100
0000
0100
0000
,
1000
0000
0100
0000
,
0001
0000
0000
1000
,
0000
1000
0000
0100
,
0000
0001
0000
0001
,
0000
0010
0000
1000
,
1000
0000
1000
0000
0000
2002
0000
0000
,
0000
0000
3003
0000
;

//--------------- dance-single - Fred-104 ----------------
#NOTEDATA:;
#STEPSTYPE:dance-single;
#DESCRIPTION:Fred-104;
#DIFFICULTY:Easy;
#METER:10;
#CREDIT:Fred-104;
#NOTES:
0000
0000
0000
0000
,
0000
0000
0000
0000
,
0000
0000
0000
0000
,
0000
0000
0000
0000
,
0000
0000
0000
0000
,
0000
0000
0000
0000
,
1000
1000
1000
0000
,
0010
0100
0100
0000
,
0001
0000
1000
1000
,
0000
0100
0010
0000
,
0001
0000
1000
1000
,
0000
0001
0001
0000
,
0110
0100
0010
0010
,
0100
0001
1000
1001
,
0002
0003
0010
0010
,
0100
1000
1000
0001
,
1000
1000
0000
0000
0001
0001
0000
0000
,
1000
1000
0000
0000
0001
0000
1000
0000
,
0001
0001
0010
0010
,
0000
0100
0000
1000
0000
0100
0000
1000
,
0001
0000
1000
0000
0001
0000
0000
0100
,
0000
0100
0000
0010
0000
0010
0100
0000
,
0001
1000
0001
1000
,
0000
0100
0000
0100
0000
0010
0010
0000
,
0001
0100
0010
0100
,
0001
0001
0000
1000
1000
0000
1001
0000
,
0001
1000
0010
1000
,
0100
0000
0010
0000
0001
0001
0001
0000
,
1000
0001
0100
0010
,
1000
0010
0110
1001
,
0001
0010
0100
1000
,
0001
0000
1000
0000
0010
0010
0010
0000
,
1000
0100
0010
0100
,
1000
0000
0001
0000
0100
0100
0100
0000
,
0010
0010
0000
1000
0020
0000
1030
0000
,
0001
0001
0000
0010
0002
0000
1003
0000
,
0001
0001
0000
0100
0002
0000
0013
0000
,
0000
0010
0010
0000
0110
0000
1001
0000
,
1000
0200
0000
0301
0100
0000
2000
0000
,
3001
0200
0000
1300
0100
0000
0002
0000
,
1003
0020
0000
0031
0010
0000
2000
0000
,
3001
0001
0000
1000
0001
0000
1001
0000
,
1000
1000
0001
0001
,
0100
0010
0100
0000
0001
1000
0001
0000
,
1000
1000
0100
0100
,
0010
0001
0010
0000
0002
2000
3003
0000
,
1000
0000
1000
0000
0100
0010
0100
0000
,
0010
0000
0010
0000
0001
1000
0001
0000
,
0100
0000
0100
0000
0010
1000
0010
0000
,
1001
0000
0000
0000
,
1000
0200
0300
0001
,
0100
2000
3000
0001
,
1000
0020
0030
0001
,
0010
1000
0002
0003
,
1000
1000
0100
0010
,
0001
0001
0100
0010
,
0100
0100
0001
0010
,
0100
1000
0002
0003
,
1000
1000
0000
1000
,
0000
1000
0000
1000
,
0000
0001
0000
0001
,
0001
0000
0000
1000
0000
1001
0000
0000
,
0001
0001
0010
0010
,
0100
0100
1000
1000
,
0001
0000
0000
1000
0000
0000
0001
0000
,
0000
0100
0000
0000
0010
0000
0100
0000
,
2002
0000
0000
0000
,
0000
0000
0000
3003
,
2000
0000
0000
0000
,
3002
0000
0000
0000
,
2003
3002
2003
3002
,
2003
3002
2003
0000
3002
2003
3002
0000
,
0023
0000
0000
0000
,
0000
0000
0000
0030
,
0200
0300
0200
0300
,
1000
1000
1000
1000
,
0001
0000
1000
0000
1000
0010
0000
1000
,
0000
0010
0000
0100
0000
0100
0000
0001
,
0000
0001
1000
0000
0001
0010
0001
0010
,
0000
0010
0000
1001
0000
0000
1000
0000
,
0001
0000
1000
0001
1000
0001
0000
0100
,
0000
0010
0000
1000
0000
0001
0000
0010
,
0010
0100
0010
0000
0100
0000
1000
0001
,
1000
0001
1000
0000
0000
2002
0000
0000
,
0000
0000
0000
3003
;

//--------------- dance-single - Fred-104 ----------------
#NOTEDATA:;
#STEPSTYPE:dance-single;
#DESCRIPTION:Fred-104;
#DIFFICULTY:Medium;
#METER:14;
#BPMS:0=100,36=200,68=400,156=200,160=400,192=200,208=400,232=100,234=200,298=195,306=102.5,322=420;
#STOPS:349=0.286;
#TIMESIGNATURES:0=4=4,232=2=4,234=4=4;
#CREDIT:Fred-104;
#NOTES:
0000
0000
0000
0000
,
0000
0000
0000
0000
,
0000
0000
0000
0000
,
1000
0100
1100
0000
0001
0100
0101
0001
,
1001
0000
1000
1010
0010
0100
0101
0001
,
1100
0100
0010
0011
MMMM
0001
1001
0000
,
0101
1001
0000
1000
1010
0010
1000
1001
,
0011
1000
1001
MMMM
1010
0001
1100
0001
,
1000
1000
0000
0000
0001
0001
0000
0000
1000
1000
0000
0000
0001
0001
1000
0000
,
0200
0300
0010
0000
0100
0000
0010
0000
0001
0000
1000
0000
0000
0000
1010
0000
,
0000
1001
0000
1100
0000
1001
0000
0001
,
1000
0001
1000
0001
0010
0100
1000
0001
,
0000
0101
0000
1010
0000
0001
1000
0001
,
0100
0010
1000
0010
0100
0001
1000
0100
,
0000
0110
0000
0011
0000
0001
1000
0001
,
0100
0001
1000
0001
0010
0100
0010
0001
,
0100
0010
0100
0010
0100
0000
1001
0000
,
2000
3000
0000
0000
0010
0000
0000
0000
1000
0000
0000
0000
0001
0000
0000
0000
,
1000
0010
0100
0002
,
0003
2000
3000
0002
,
0003
1000
0001
0010
,
0100
0010
0100
1000
,
0001
1000
0100
0010
,
0000
2000
3000
0020
,
0030
0001
0100
0010
,
0100
0001
0100
0001
,
1000
0001
0010
0100
,
0000
0002
0003
0200
,
0300
0010
0001
1000
,
0010
0100
0001
0010
,
0100
1000
0001
2000
,
3000
0002
0003
0200
,
0300
0010
0010
0000
,
1000
0001
1000
0100
,
0010
0000
0011
0000
,
0001
1000
0001
0100
,
0010
0000
1010
0000
,
1000
0001
0010
0100
,
0010
0000
1001
0000
,
0002
0003
1000
0000
0001
0000
0000
0000
1010
0000
0000
0000
0101
0000
0000
0000
,
2000
3000
0000
0000
0100
0000
0000
0000
0001
0000
0000
0000
0100
0000
0000
0000
,
1000
0000
1001
0000
,
0001
0100
1000
0100
,
0001
0000
1001
0000
,
1000
0010
0001
0010
,
1000
0000
1001
0000
,
0001
0001
0000
1000
,
1000
0010
0100
0001
,
2000
3000
0000
0000
0001
0000
0000
0000
1000
0000
0001
0000
0010
0000
0000
0000
,
0100
0000
0001
0000
0100
1000
0001
0100
,
0010
0000
0100
0000
0001
1000
0100
0010
,
0100
0000
0001
0000
0100
1000
0001
0000
,
0002
0003
0000
0000
0000
0000
0000
0000
1000
0000
0000
0000
0000
0000
0000
0000
,
0001
1000
0100
1000
,
0001
1000
0010
0100
,
0001
1000
0100
0010
,
0001
0000
0100
0000
,
0010
1000
0001
0010
,
0200
0000
0000
0000
0000
0000
0000
0000
2300
3000
0001
0000
0020
0000
0130
0000
,
1000
0001
2000
3010
0200
0301
0200
0310
,
1000
0001
0020
0130
0010
0001
0200
0310
,
1000
0100
0020
0130
2000
3001
0200
0310
,
1000
0000
MMMM
0000
2000
3001
0200
0301
,
0010
0001
2000
3001
0020
0130
2000
3001
,
0100
0010
2000
3100
0010
0100
0002
0103
,
1000
0001
0200
0310
2000
3100
0002
1003
,
0010
0001
1001
0000
1001
0000
0100
0000
,
0000
0100
0000
0100
,
0000
0100
0000
0100
,
0000
0000
0100
0100
0010
0010
MMMM
1010
,
MMMM
0101
MMMM
0000
0001
0000
0010
0000
,
1000
0000
0001
0100
1000
0000
0010
0000
,
0001
0000
1000
0100
0001
0001
0000
1000
,
1000
0000
0100
0100
0000
0010
0010
0000
,
0001
0000
1000
0000
0001
1000
0001
1000
0002
0000
0000
0000
0000
0000
0000
0000
,
0000
0000
2000
0000
,
3003
MMMM
2000
3200
,
0310
0010
0001
1000
0002
0000
0203
0000
,
1300
0100
0010
0100
0002
0000
0000
0000
,
0000
0000
0000
0003
1000
0010
0100
0001
,
1000
0000
1000
0000
0001
1000
0001
1000
0002
0003
0000
0000
1000
0000
0000
0000
,
0001
0100
0001
1000
,
0100
0010
0000
0011
,
0000
1001
0000
0001
,
0100
0001
1000
0001
,
0010
0100
0010
0100
,
1000
0001
0000
1000
,
0000
0000
0000
0000
0000
0000
0000
0000
0000
0000
0000
0000
0000
0000
0000
0000
2002
3003
0000
0000
0000
0000
0000
0000
0000
0000
0000
0000
0000
0000
0000
0000
0001
0000
0000
0000
0000
0000
0000
0000
0000
0000
0000
0000
0000
0000
0000
0000
1000
0000
0000
0000
0000
0000
0000
0000
0000
0000
0000
0000
0000
0000
0000
0000
,
0001
0010
0100
1000
,
0001
0100
0000
0110
,
0000
1010
0000
1000
,
0001
1000
0010
0100
,
0001
1000
0100
0010
,
0001
1000
0001
0100
,
0010
0000
1000
0000
0010
0000
1000
0001
,
1000
2002
0000
0000
,
0000
0000
0000
0000
,
0000
0000
3003
0000
;

//--------------- dance-single - Fred-104 ----------------
#NOTEDATA:;
#STEPSTYPE:dance-single;
#DESCRIPTION:Fred-104;
#DIFFICULTY:Hard;
#METER:17;
#BPMS:0=100,36=200,68=400,156=200,160=400,192=200,208=400,232=100,234=200,298=195,306=102.5,322=420;
#STOPS:349=0.286;
#TIMESIGNATURES:0=4=4,232=2=4,234=4=4;
#CREDIT:Fred-104;
#NOTES:
0000
0000
0000
0000
,
0000
0000
0000
0000
,
0000
0000
0000
0000
,
0001
0000
0000
0001
0000
0000
1001
0000
0000
MMMM
0000
0000
1000
0000
0000
0001
0100
0001
0010
0000
0000
0100
0000
0000
,
1100
0000
0000
0000
0000
0000
MMMM
0000
0000
0011
0000
0000
0000
0000
0000
0000
0010
0100
1000
0000
0000
1010
0000
0000
,
1001
0001
0010
0110
0100
0101
1100
0000
,
1001
0000
0000
1010
0000
0000
MMMM
0000
0000
0001
0000
0000
0011
0000
0000
0000
0010
0100
1000
0000
0000
1001
0000
0000
,
0101
0000
0000
1000
0000
0000
0011
0000
0000
MMMM
0000
0000
1001
0000
0000
1000
0100
0010
0001
0000
0000
0001
0000
0000
,
1000
0000
0000
0100
0000
0000
0110
0000
0000
0000
0000
0000
0001
0000
0000
0010
0000
0000
0110
0000
0000
0000
0000
0000
1000
0000
0000
0010
0000
0000
1000
0000
0001
0000
0010
0000
0100
0000
0000
1000
0000
0000
0002
0000
0000
0000
0000
0000
,
2003
3000
0010
0000
0100
0000
0010
0000
0001
0000
0010
0000
0100
0000
0020
0000
,
0000
1000
0000
0031
0010
1000
0010
0100
,
0001
0010
0100
0010
1000
0010
0100
0020
,
0000
0001
0000
1030
0010
0100
0010
0001
,
1000
0001
0101
0100
0010
1000
1001
0001
,
0000
1100
0000
0011
0001
1000
0010
0100
,
0001
0000
0010
0000
0110
0000
0100
0000
1000
0001
1000
0001
0100
0000
0010
0000
,
0100
0000
0010
0100
0010
0000
0100
0010
0100
0010
0100
0000
0120
0000
2030
0000
,
3002
0003
0000
0000
1000
0000
0000
0000
0100
0000
0000
0000
1000
0000
0000
0000
,
0001
0000
0010
0100
0010
0000
0001
0000
,
1000
0010
0100
1000
,
0001
0010
1000
0001
,
1000
0001
0100
0001
,
1000
0000
0010
0100
0010
0000
1000
0000
,
0001
0010
1000
0001
,
0100
0001
1000
0010
,
0001
1000
0010
0100
,
0001
0000
1000
0100
1000
0000
0001
0000
,
1000
0100
0010
1000
,
0001
0100
1000
0001
,
0100
0010
1000
0001
,
0010
0000
0100
1000
0100
0000
1000
0000
,
0001
0100
0010
0001
,
1000
0100
0010
1000
,
0001
0000
0010
0100
0010
0000
1000
0000
,
0010
0000
0011
0000
,
1000
0000
0010
0100
0010
0000
0001
0000
,
0010
0000
1010
0000
,
0001
0000
0100
1000
0100
0000
0010
0000
,
0100
0000
0101
0000
,
0002
0003
0010
0000
0010
0000
0000
0000
0110
0000
0000
0000
1001
0000
0000
0000
,
2000
3000
0000
0000
0001
0000
0010
0000
0100
0000
0000
0000
0001
0000
0000
0000
,
0100
1000
0002
0003
,
1000
0000
0010
0100
1000
0000
0100
0000
,
0010
0100
0002
0003
,
1000
0000
0100
0010
1000
0000
0010
0000
,
0001
0100
0020
0030
,
1010
0101
0000
1001
,
0001
0100
0001
0100
0001
1000
0100
0010
,
0002
0003
0000
0000
1001
0000
0000
0000
0001
0000
1000
0000
0100
0000
0010
0000
,
1010
0000
0011
0000
0001
1000
0001
0100
,
0010
0000
0011
0000
0010
1000
0001
0010
,
0100
0000
0101
0000
0100
1000
0001
MMMM
,
2000
3000
0000
0000
0001
0000
0100
0000
0001
0000
0000
0000
1000
0000
0000
0000
,
0100
0000
0010
0001
0010
0000
0100
0000
,
1000
0000
0001
1000
0001
0000
0100
0010
,
0100
0000
0010
1000
0010
0000
1000
0000
,
0001
0000
1000
0100
1000
0000
0001
0000
,
0100
0000
0010
1000
0010
0000
0100
0000
,
0002
1000
0000
1000
0000
2000
0000
3003
0002
0003
0010
0000
0200
0300
0010
0000
,
1000
0000
0010
0000
0200
0300
0010
0000
0002
0003
0010
0000
0200
0300
0010
0000
,
1000
0000
0010
0000
0002
0003
1000
0000
0001
0000
0100
0000
0020
0030
0100
0000
,
1000
0000
0100
0000
0020
0030
0100
0000
0002
0003
0100
0000
0020
0030
0100
0000
,
1000
0000
0100
0000
0002
0000
0000
0000
2003
3000
0100
0000
0020
0030
0100
0000
,
0001
0000
0100
0000
0020
0030
0100
0000
2000
3000
0100
0000
0002
0003
0100
0000
,
0010
0000
0100
0000
2000
3000
0001
0000
1000
0000
0010
0000
0200
0300
0010
0000
,
0001
0000
0010
0000
0200
0300
0010
0000
2000
3000
0010
0000
0002
0003
0010
0100
,
0010
1000
2002
3003
1002
0000
1000
0000
,
0000
1000
0000
1000
,
0000
1000
0000
1000
,
0000
0000
0000
0000
1003
0000
0001
1000
0010
0000
0110
0000
MMMM
0000
0101
0000
,
MMMM
1001
MMMM
0000
2000
0000
0100
0000
,
0001
0000
3010
0100
0020
0000
0001
0000
,
0100
0000
1030
0001
1001
0101
0000
1001
,
1100
0000
1001
0011
0000
1001
1010
1000
,
0001
1000
0001
1000
0100
0010
0001
1000
0002
0000
0000
0000
0000
0000
0000
0000
,
0000
0000
2000
0000
,
3003
0000
0000
0000
MMMM
0000
0000
0000
2000
3100
0200
0000
0010
0010
0000
0001
,
0000
0010
0000
1000
0000
0001
0000
1300
0000
0001
0200
0000
0010
0010
0000
1000
,
0000
0010
0000
0001
0000
1300
0100
0001
1001
1000
0020
0000
0001
0001
0000
1000
,
0000
0001
0000
0100
0000
0001
0000
1030
0000
0100
0200
0000
0010
0010
0000
0310
,
0001
0000
1000
0000
0001
0000
1000
0000
0010
0100
0010
0100
0010
0100
0010
0100
0020
0000
0030
0000
0000
0000
0000
0000
1000
0000
0000
0000
0001
0000
0000
0000
,
1000
0000
0100
0000
0010
0000
0001
1000
,
0001
0100
1000
0001
,
0010
0000
0100
0000
1000
0000
0100
0001
,
0100
0000
0001
0000
1000
0000
0010
0100
,
0010
0000
1000
0000
0100
0000
0010
0001
,
0010
0011
0000
1010
,
0000
0000
0000
0000
0000
0000
0000
0000
0000
0000
0000
0000
0000
0000
0000
0000
0202
0303
0000
0000
0000
0000
0000
0000
0000
0000
0000
0000
0000
0000
0000
0000
1000
0000
0000
0000
0000
0000
0000
0000
0000
0000
0000
0000
0000
0000
0000
0000
0001
0000
0000
0000
0000
0000
0000
0000
1000
0000
0000
0000
0000
0000
0000
0000
,
0100
0000
0010
0000
0001
0000
1000
0010
,
0100
0001
0010
0100
,
0001
0000
1000
0000
0010
0000
0100
0010
,
0001
0000
1000
0000
0010
1000
0010
0100
,
0001
0000
1000
0100
0010
0000
0001
0100
,
0010
0000
1000
0000
0001
0010
0001
0010
,
0100
1000
0100
1000
0001
0100
0010
1000
,
0010
0100
0002
0000
0000
0000
0000
0000
,
0000
0000
0000
0000
,
0000
0000
0003
0000
;

//--------------- dance-single - Fred-104† ----------------
#NOTEDATA:;
#STEPSTYPE:dance-single;
#DESCRIPTION:Fred-104†;
#DIFFICULTY:Challenge;
#METER:18;
#BPMS:0=100,36=200,68=400,156=200,160=400,192=200,208=400,232=200,233=100,233.5=50,234=200,298=195,306=102.5,322=420;
#STOPS:349=0.286;
#TIMESIGNATURES:0=4=4,232=2=4,234=4=4;
#CREDIT:Fred-104†;
#NOTES:
0000
0000
0000
0000
,
0000
0000
0000
0000
,
0000
0000
0000
0000
,
0010
0000
0000
0010
0000
0000
1001
0000
0000
MMMM
0000
0000
0110
0000
0000
1000
0100
0010
0001
0000
0000
1000
0000
0000
,
1010
0000
0000
MMMM
0000
0000
0001
0000
0000
0101
0000
0000
1000
0000
0000
0100
0010
0100
0001
0000
0000
0110
0000
0000
,
1100
0000
1000
0000
0001
0000
0101
0000
0010
0000
1010
0000
1001
0001
1000
0001
,
0100
0000
0000
0000
0000
0000
0110
0000
0000
0000
0000
0000
0010
0000
0000
0000
0000
0000
0001
0000
0000
0000
0000
0000
0011
0000
0000
0000
0000
0000
0010
0000
1000
0000
0100
0000
0010
0000
0000
0001
0000
0000
0200
0000
0000
0300
0000
0000
,
0120
0000
0000
0000
0000
0000
1030
0000
0000
0000
0000
0000
1002
0000
0000
0000
0000
0000
0013
0000
0000
0100
0000
0000
1100
0000
0000
0000
0000
0000
0001
0000
1000
0000
0010
0000
0100
0000
0000
0001
0000
0000
1000
0000
0000
0000
0000
0000
,
0011
0000
0000
0000
0000
0000
0011
0000
0000
0000
0000
0000
0100
0000
0000
0000
0000
0000
1000
0000
0000
0000
0000
0000
1010
0000
0000
0000
0000
0000
1010
0000
0000
0000
0000
0000
0100
0000
0000
0000
0000
0000
0001
0000
0000
0000
0000
0000
1001
0000
0000
0000
0000
0000
1001
0000
0000
0000
0000
0000
1000
0000
0000
0000
0100
0000
0000
0000
0010
0000
0000
0000
0001
0000
0000
0000
0000
0000
0001
0000
0000
0000
0000
0000
1000
0000
0000
0001
0000
0000
1000
0000
0000
0001
0000
0000
,
2000
3000
0000
0000
0000
0000
0000
0000
0010
0000
0000
0000
0100
0000
0000
0000
0010
0000
0000
0000
0000
0000
0000
0000
0001
0000
0000
0000
0000
0000
0000
0000
0010
0000
0000
0000
0000
0000
0000
0000
0100
0000
0000
0000
1000
0000
0000
0000
0100
0000
0000
0000
0000
0000
0000
0000
0101
0000
0000
0000
0000
0000
0000
0000
,
MMMM
0011
MMMM
1001
1000
0100
0010
0001
,
0100
0000
0010
0001
0010
0000
0100
0000
1000
0000
0100
0001
0010
0000
0110
0000
,
MMMM
1100
MMMM
1001
0001
0100
0010
1000
,
0001
0010
0210
0301
0100
1000
1001
0011
,
MMMM
1010
MMMM
0011
0001
0100
0010
1000
,
0100
0000
0010
0000
1010
0000
1000
0000
0010
0001
0010
0001
1000
0000
0001
0000
,
0100
0000
0010
1000
0100
0000
0010
0001
0100
0010
1000
0000
0001
1000
0001
1000
,
0002
0003
0000
0000
0000
0000
0000
0000
0000
0000
0000
0000
0000
0000
0000
0000
0100
0000
0000
0000
0000
0000
0000
0000
0001
0000
0000
0000
0000
0000
0000
0000
0010
0000
0000
0000
0000
0000
0000
0000
0000
0000
0000
0000
0000
0000
0000
0000
0100
0000
0000
0000
0000
0000
0000
0000
1000
0000
0000
0000
0000
0000
0000
0000
,
0001
0000
0100
0010
1000
0000
0100
0010
,
0001
1000
0010
1000
0001
0010
0100
0010
,
0001
1000
0100
1000
0010
0100
0001
0000
,
1000
0000
0100
0010
0001
0000
1000
0010
,
0100
0000
0010
1000
0001
0000
0010
0100
,
1000
0100
0010
0001
1000
0010
1000
0100
,
0010
0100
1000
0001
0100
0010
0100
0000
,
0001
0000
1000
0001
0010
0000
0100
0010
,
0001
0000
0100
0010
1000
0000
0010
1000
,
0100
1000
0010
0100
0001
1000
0100
0010
,
0001
0010
0100
1000
0001
0100
0010
0000
,
1000
0000
0001
0010
0100
0000
1000
0100
,
0010
0000
0001
1000
0010
0000
1000
0001
,
0010
0100
1000
0010
1000
0001
0100
0010
,
1000
0100
1000
0001
0100
0010
1000
0000
,
0001
0010
0100
0010
1000
0000
0010
0000
,
0001
0000
1000
0001
2000
0000
0000
0000
,
3001
1000
0010
0100
0010
0000
0001
0000
,
0010
0000
0100
0001
2000
0000
0000
0000
,
3100
0010
0001
1000
0010
0000
0100
0000
,
1000
0000
0100
0001
0020
0000
0000
0000
,
0230
0300
0000
0000
0000
0000
0000
0000
0100
0000
0000
0000
0000
0000
0000
0000
0110
0000
0000
0000
0000
0000
0000
0000
MMMM
0000
0000
0000
0000
0000
0000
0000
0110
0000
0000
0000
0000
0000
0000
0000
MMMM
0000
0000
0000
0000
0000
0000
0000
1000
0000
0000
0000
0001
0000
0000
0000
1000
0000
0000
0000
0001
0000
0000
0000
,
2000
3000
0000
0000
0000
0000
0000
0000
0001
0000
0000
0000
0000
0000
0000
0000
0100
0000
0000
0000
0000
0000
0000
0000
0020
0000
0000
0000
0000
0000
0000
0000
0001
0000
0000
0000
0000
0000
0000
0000
0000
0000
0000
0000
0000
0000
0000
0000
1030
0000
0000
0000
0000
0000
0000
0000
0000
0000
0000
0000
0000
0000
0000
0000
,
0001
0010
0110
0000
,
1000
0001
0010
0200
0001
0000
0310
0000
,
0001
1000
1001
0000
,
0001
1000
0001
0200
1000
0000
0310
0000
,
1000
0001
1001
0000
,
1100
0011
0000
1001
,
0001
0010
0100
1000
0010
0100
0001
1000
,
0002
0003
0000
0000
0000
0000
0000
0000
0000
0000
0000
0000
0000
0000
0000
0000
1001
0000
0000
0000
0000
0000
0000
0000
MMMM
0000
0000
0000
0000
0000
0000
0000
0001
0000
0000
0000
0000
0000
0000
0000
1000
0000
0000
0000
0000
0000
0000
0000
0010
0000
0000
0000
0000
0000
0000
0000
0100
0000
0000
0000
0000
0000
0000
0000
,
1100
0000
0101
MMMM
1000
0001
0100
0010
,
0011
0000
0110
MMMM
1010
1000
0001
0010
,
0110
0000
0110
MMMM
1000
0001
MMMM
MMMM
,
2000
3000
0000
0000
0000
0000
0000
0000
0000
0000
0000
0000
0000
0000
0000
0000
0010
0000
0000
0000
0000
0000
0000
0000
1000
0000
0000
0000
0000
0000
0000
0000
0100
0000
0000
0000
0000
0000
0000
0000
0000
0000
0000
0000
0000
0000
0000
0000
0010
0000
0000
0000
0000
0000
0000
0000
0001
0000
0000
0000
0000
0000
0000
0000
,
1000
0000
0001
0100
0010
0000
1000
0001
,
0010
0000
0100
1000
0001
0000
0100
0001
,
1000
0100
0010
0000
0001
0000
1000
0000
,
0001
0000
0100
0001
0010
0000
0100
1000
,
0001
0000
0100
0010
1000
0010
0100
0001
,
0200
0000
0000
0000
0000
0000
0000
0000
0010
0000
0000
0000
0000
0000
0000
0000
0000
0000
0000
0000
0010
0000
0000
0000
0000
0000
0010
0000
0000
0000
0310
0000
2000
3000
0000
0000
0000
0000
0000
0000
0100
0000
0000
0000
0000
0000
0000
0000
0020
0030
0000
0000
0000
0000
0000
0000
0100
0000
0000
0000
0000
0000
0000
0000
,
0001
0000
0000
0000
0000
0000
0000
0000
0100
0000
0000
0000
0000
0000
0000
0000
0020
0030
0000
0000
0000
0000
0000
0000
0100
0000
0000
0000
1000
0000
0000
0000
0002
0003
0000
0000
0000
0000
0000
0000
0100
0000
0000
0000
0000
0000
0000
0000
0020
0030
0000
0000
0000
0000
0000
0000
0100
0000
0000
0000
0000
0000
0000
0000
,
1000
0000
0000
0000
0000
0000
0000
0000
0100
0000
0000
0000
0000
0000
0000
0000
0020
0030
0000
0000
0000
0000
0000
0000
1000
0000
0000
0000
0001
0000
0000
0000
0010
0000
0000
0000
0000
0000
0000
0000
0100
0000
0000
0000
0000
0000
0000
0000
0020
0030
0000
0000
0000
0000
0000
0000
1000
0000
0000
0000
0000
0000
0000
0000
,
0001
0000
0000
0000
0000
0000
0000
0000
0100
0000
0000
0000
0000
0000
0000
0000
0020
0030
0000
0000
0000
0000
0000
0000
0001
0000
0000
0000
1000
0000
0000
0000
0020
0030
0000
0000
0000
0000
0000
0000
0001
0000
0000
0000
0000
0000
0000
0000
2000
3000
0000
0000
0000
0000
0000
0000
0200
0000
0000
0000
0000
0000
0000
0000
,
0002
0000
0000
0000
0000
0000
0000
0000
0300
0000
0000
0000
0000
0000
0000
0000
0003
0000
0000
0000
0000
0000
0000
0000
MMMM
0000
0000
0000
0000
0000
0000
0000
2000
3000
0000
0000
0100
0000
0000
0000
1000
0000
0000
0000
0100
0000
0000
0000
0020
0030
0000
0000
0000
0000
0000
0000
0001
0000
0000
0000
0000
0000
0000
0000
,
1000
0000
0000
0000
0010
0000
0000
0000
1000
0000
0000
0000
0010
0000
0000
0000
0200
0300
0000
0000
0000
0000
0000
0000
0001
0000
0000
0000
0000
0000
0000
0000
0020
0030
0000
0000
0100
0000
0000
0000
1000
0000
0000
0000
0100
0000
0000
0000
0020
0030
0000
0000
0000
0000
0000
0000
0001
0000
0000
0000
0000
0000
0000
0000
,
1000
0000
0000
0000
0010
0000
0000
0000
0100
0000
0000
0000
0001
0000
0000
0000
2000
3000
0000
0000
0000
0000
0000
0000
0001
0000
0000
0000
0000
0000
0000
0000
0010
0000
0000
0000
0100
0000
0000
0000
1000
0000
0000
0000
0001
0000
0000
0000
0200
0300
0000
0000
0000
0000
0000
0000
0010
0000
0000
0000
0000
0000
0000
0000
,
1000
0000
0000
0000
0001
0000
0000
0000
0010
0000
0000
0000
0100
0000
0000
0000
2000
3000
0000
0000
0000
0000
0000
0000
0001
0000
0000
0000
0000
0000
0000
0000
0200
0300
0000
0000
0010
0000
0000
0000
1000
0000
0000
0000
0010
0000
0000
0000
0200
0300
0000
0000
0000
0000
0000
0000
0001
0000
0000
0000
0010
0000
0000
0000
,
0100
0000
0100
0000
0110
0000
0000
0000
1002
0003
0000
0000
0200
0000
0300
0000
,
MMMM
0000
0200
0300
MMMM
0000
0200
0300
,
MMMM
0000
0200
0300
MMMM
0000
0200
0300
,
MMMM
0000
0000
0000
0200
0000
0310
1000
0001
0000
0011
0000
MMMM
0000
1010
0000
,
MMMM
0101
MMMM
0000
1100
0100
1000
0100
,
0010
0001
0010
0001
1000
0010
1000
0010
,
0100
0001
0100
0001
0011
0100
1000
1010
,
0100
0001
0101
0010
1000
1100
0010
0001
,
1000
0010
0100
0001
0010
0100
1000
0001
2000
0000
0000
0000
0000
0000
0000
0000
,
0000
0000
0002
0000
,
3003
0000
0000
0000
0000
0000
0000
0000
0000
0000
0000
0000
MMMM
MMMM
MMMM
MMMM
MMMM
0000
0000
0000
0000
0000
0000
0000
1000
0000
0000
0100
0000
0000
0010
0000
0000
0001
0000
0000
1000
0000
0000
0100
0000
0000
0010
0000
0000
0001
0000
0000
,
1000
0000
0000
0000
0000
0000
0100
0000
0000
0000
0000
0000
0010
0000
0000
0000
0000
0000
0001
0000
0000
0000
0000
0000
1000
0000
0000
0000
0100
0000
0000
0000
0010
0000
0000
0000
0001
0000
0000
0000
1000
0000
0000
0000
0001
0000
0000
0000
1000
0000
0000
0000
0010
0000
0000
0000
0100
0000
0000
0000
0001
0000
0000
0000
1000
0000
0000
0000
0001
0000
0000
0000
1000
0000
0000
0100
0000
0000
1000
0000
0000
0100
0000
0000
0010
0000
0000
0001
0000
0000
0010
0000
0000
0001
0000
0000
,
1000
0100
1000
0100
0010
0001
0010
0001
1000
0010
0100
0001
1000
0010
0100
0001
2000
0000
0000
0000
0000
0000
0000
0000
0000
0000
0000
0000
0000
0000
0000
0000
,
0000
0000
0000
3000
,
1000
0000
0000
0000
1000
0000
0000
0000
0001
0000
0000
0000
0001
0000
0000
0000
0100
0000
0010
0000
1000
0000
0001
0000
0100
0000
0010
0000
1000
0000
0001
0000
0020
0030
0000
0000
0000
0000
0000
0000
0000
0000
0000
0000
0000
0000
0000
0000
0100
0000
0000
0000
0000
0000
0000
0000
1000
0000
0000
0000
0000
0000
0000
0000
,
0001
0000
0100
0001
1000
0001
0010
0000
,
0100
0010
0002
0000
0010
0000
2003
0000
,
0100
3002
0010
2003
,
0100
0000
3001
0000
1000
0000
0010
1000
,
0001
0000
0010
0100
0010
0001
1000
0000
,
0010
0100
0001
0000
1100
0000
0101
0000
,
MMMM
0000
0000
0000
0000
0000
0000
0000
0000
0000
0000
0000
0000
0000
0000
0000
2002
3003
0000
0000
0000
0000
0000
0000
0000
0000
0000
0000
0000
0000
0000
0000
0001
0000
0000
0000
0000
0000
0000
0000
0010
0000
0000
0000
0000
0000
0000
0000
0100
0000
0000
0000
0000
0000
0000
0000
1000
0000
0000
0000
0000
0000
0000
0000
,
0001
0000
0100
0000
0010
1000
0010
0100
,
0001
0000
1000
0000
0100
0010
0001
1000
,
0010
1000
0001
0100
0001
1000
0100
1000
,
0001
0010
0001
0000
1000
0010
1000
0100
,
0010
0000
0001
0100
1000
0000
0001
0010
,
1000
0000
1000
0000
0001
1000
0100
0010
,
1000
0010
0100
1000
0010
0100
1000
0001
,
0010
0100
0002
0000
0000
0000
0000
0000
,
0000
0000
0000
0000
,
0000
0000
0003
0000
;

//--------------- dance-double - Fred-104 ----------------
#NOTEDATA:;
#STEPSTYPE:dance-double;
#DESCRIPTION:Fred-104;
#DIFFICULTY:Easy;
#METER:10;
#CREDIT:Fred-104;
#NOTES:
00000000
00000000
00000000
00000000
,
00000000
00000000
00000000
00000000
,
00000000
00000000
00000000
00000000
,
00000000
00000000
00000000
00000000
,
00000000
00000000
00000000
00000000
,
00000000
00000000
00000000
00000000
,
00001000
00010000
00001000
00000000
,
01000000
00010000
01000000
00000000
,
00001000
00000000
00010000
00001000
,
00000000
00000100
00000001
00000000
,
00001000
00000000
00000001
00000010
,
00000000
00001000
00010000
00000000
,
00011000
00010000
00001000
00010000
,
00001000
00010000
00001000
00011000
,
00002000
00003000
00001000
00010000
,
01000000
00100000
01000000
10000000
,
00010000
00010000
00000000
00000000
10000000
10000000
00000000
00000000
,
00100000
00100000
00000000
00000000
00010000
00000000
00001000
00000000
,
00010000
00010000
00001000
00010000
,
00000000
00000010
00000000
00001000
00000000
00000010
00000000
00000100
,
00000010
00000000
00001000
00000000
00000001
00000000
00000000
00000010
,
00000000
00000100
00000000
00010000
00000000
00001000
00010000
00000000
,
00001000
00100000
00001000
00010000
,
00000000
00001000
00000000
01000000
00000000
00010000
00010000
00000000
,
10000000
01000000
00100000
01000000
,
00010000
00010000
00000000
00001000
00001000
00000000
00011000
00000000
,
00010000
00001000
00000010
00000100
,
00010000
00000000
00001000
00000000
00010000
00010000
00010000
00000000
,
00001000
00000010
00000001
00001000
,
00000001
00000100
00000110
00001001
,
00000001
00000100
00000010
00010000
,
00001000
00000000
00100000
00000000
00001000
00001000
00001000
00000000
,
00010000
00001000
01000000
00010000
,
01000000
00000000
00001000
00000000
00010000
00010000
00010000
00000000
,
00001000
00010000
00000000
00100000
00020000
00000000
00031000
00000000
,
00010000
00001000
00000000
00000010
00002000
00000000
00013000
00000000
,
00001000
00010000
00000000
01000000
00020000
00000000
00031000
00000000
,
00000000
01000000
01000000
00000000
01100000
00000000
10010000
00000000
,
10000000
02000000
00000000
03010000
00001000
00000000
00020000
00000000
,
00031000
00000020
00000000
00000031
00001000
00000000
00000002
00000000
,
00000103
00001000
00000000
00010000
00100000
00000000
02000000
00000000
,
03100000
10000000
00000000
10000000
01000000
00000000
01100000
00000000
,
00010000
00010000
10000000
10000000
,
00100000
00010000
00100000
00000000
00010000
00001000
00010000
00000000
,
00001000
00001000
01000000
01000000
,
00001000
00010000
00001000
00000000
00020000
00002000
00033000
00000000
,
00010000
00000000
00001000
00000000
00000010
00000100
00000010
00000000
,
00000001
00000000
00001000
00000000
00000001
00000100
00000001
00000000
,
00000010
00000000
00000100
00000000
00010000
00001000
00010000
00000000
,
00011000
00000000
00000000
00000000
,
00001000
00020000
00030000
00100000
,
00010000
00002000
00003000
00010000
,
00001000
00020000
00030000
01000000
,
00010000
00001000
00020000
00030000
,
00001000
00010000
00000100
00010000
,
00001000
00010000
00000010
00001000
,
00000010
00000100
00000001
00000010
,
00000100
00010000
00002000
00003000
,
00010000
00010000
00000000
00010000
,
00000000
00010000
00000000
00010000
,
00000000
00001000
00000000
00001000
,
00001000
00000000
00000000
00010000
00000000
00011000
00000000
00000000
,
00001000
00001000
01000000
01000000
,
00100000
00100000
10000000
10000000
,
01000000
00000000
00000000
00100000
00000000
00000000
00001000
00000000
,
00000000
00010000
00000000
00000000
00000100
00000000
00010000
00000000
,
00022000
00000000
00000000
00000000
,
00000000
00000000
00000000
00033000
,
00002000
00000000
00000000
00000000
,
00023000
00000000
00000000
00000000
,
00030020
00020030
00032000
00023000
,
00230000
20300000
30020000
20030000
,
32000000
00000000
00000000
00000000
,
00000000
00000000
00000000
03000000
,
00200000
00300000
00002000
00003000
,
00010000
00000000
00000100
00000000
00000010
00000001
00001000
00000000
,
00000010
00000000
00010000
00000000
00010000
00001000
00000000
01000000
,
00000000
00010000
00000000
00100000
00000000
01000000
00000000
10000000
,
00000000
10000000
00010000
00000000
00100000
00001000
00100000
00001000
,
00000000
00010000
00000000
00011000
00000000
00000000
00010000
00000000
,
00001000
00000000
00000100
00000001
00000100
00000001
00000000
00001000
,
00000000
00000001
00000000
00000010
00000000
00000100
00000000
00001000
,
00001000
00000100
00010000
00000000
00001000
00000000
00010000
00100000
,
01000000
00010000
10000000
00000000
00000000
20020000
00000000
00000000
,
00000000
00000000
00000000
30030000
;

//--------------- dance-double - Fred-104 ----------------
#NOTEDATA:;
#STEPSTYPE:dance-double;
#DESCRIPTION:Fred-104;
#DIFFICULTY:Medium;
#METER:14;
#BPMS:0=100,36=200,68=400,156=200,160=400,192=200,208=400,232=100,234=200,298=195,306=102.5,322=420;
#STOPS:349=0.286;
#TIMESIGNATURES:0=4=4,232=2=4,234=4=4;
#CREDIT:Fred-104;
#NOTES:
00000000
00000000
00000000
00000000
,
00000000
00000000
00000000
00000000
,
00000000
00000000
00000000
00000000
,
00010000
00001000
00011000
00000000
00010000
00000100
00001100
00000100
,
00000110
MMMMMMMM
00000010
00000011
00000001
00000100
00001100
00001000
,
00011000
00010000
00001000
01001000
00000000
01000000
10010000
00000000
,
11000000
10010000
MMMMMMMM
00100000
00101000
00001000
00010000
00010100
,
00001100
00000100
00001001
00000000
00001010
00000010
00000110
00000100
,
00000001
00000001
00000000
00000000
00000010
00000010
00000000
00000000
00001000
00001000
00000000
00000000
00010000
00001000
00010000
00000000
,
00002000
00003000
01000000
00000000
00010000
00000000
10000000
00000000
00010000
00000000
00100000
00000000
01000000
00000000
10000000
00000000
,
00000000
01100000
00000000
10010000
00000000
00010000
10000000
00100000
,
10000000
01000000
00100000
00010000
00100000
00001000
00010000
00000100
,
00000000
00000110
00000000
00000011
00000000
00000001
00001000
00000001
,
00000100
00000001
00000010
00000100
00000010
00001000
00010000
00001000
,
00000000
01001000
00000000
00011000
00000000
00001000
00100000
00010000
,
10000000
00010000
00100000
01000000
00010000
00001000
00010000
00000100
,
00000010
00000001
00000100
00000010
00001000
00000000
00001001
00000000
,
00000002
00000003
00000000
00000000
00000010
00000000
00000000
00000000
00000001
00000000
00000000
00000000
00000010
00000000
00000000
00000000
,
00000100
00010000
00001000
00010000
,
00000000
00011000
00000000
00010100
,
00000000
00010000
00001000
00010000
,
00000010
00000100
00001000
00000100
,
00000001
00001000
00000100
00000010
,
00000000
00000011
00000000
00001001
,
00000000
00000001
00001000
00000001
,
00000100
00000010
00000100
00001000
,
00010000
00001000
00010000
00001000
,
00000000
00101000
00000000
10010000
,
00000000
00010000
01000000
00100000
,
10000000
00010000
01000000
00010000
,
01000000
00010000
10000000
01000000
,
00000000
01100000
00000000
00101000
,
00000000
00001000
00010000
00000000
,
00001000
00010000
00000100
00000010
,
00000002
00000000
00002003
00000000
,
00003001
00001000
00000010
00010000
,
00002000
00000000
00023000
00000000
,
01030000
00100000
01000000
10000000
,
00020000
00000000
20030000
00000000
,
30200000
00300000
00100000
00000000
01000000
00000000
00000000
00000000
00011000
00000000
00000000
00000000
00010100
00000000
00000000
00000000
,
00020000
00030000
00000000
00000000
00001000
00000000
00000000
00000000
00000100
00000000
00000000
00000000
00000001
00000000
00000000
00000000
,
00001000
00000000
00001001
MMMMMMMM
,
00000001
00000010
00001000
00010000
,
00001000
00000000
00011000
MMMMMMMM
,
00001000
01000000
00010000
00100000
,
01000000
00000000
11000000
MMMMMMMM
,
00010000
00010000
00000000
10000000
,
00100000
00010000
00001000
00010000
,
00002000
00003000
00000000
00000000
00010000
00000000
00000000
00000000
00000100
00000000
00010000
00000000
00001000
00000000
00000000
00000000
,
00010000
00000000
00100000
00000000
01000000
00010000
10000000
01000000
,
00100000
00000000
00010000
00000000
01000000
00001000
00010000
00000100
,
00000010
00000000
00000001
00000000
00000100
00001000
00010000
00000000
,
00002000
00003000
00000000
00000000
00000000
00000000
00000000
00000000
00011000
00000000
00000000
00000000
00000000
00000000
00000000
00000000
,
00010000
00001000
00100000
00001000
,
00010000
00001000
01000000
00010000
,
01000000
00001000
00010000
00001000
,
00100000
00000000
10010000
00000000
,
10000000
01000000
00010000
00001000
,
00020000
00000000
00000000
00000000
00000000
00000000
00000000
00000000
00032000
00003000
00010000
00000000
00000020
00000000
00010030
00000000
,
00001000
00010000
00000200
00000300
00000020
00000031
00002000
00003010
,
00000100
00001000
00020000
00030000
00001000
01000000
00200000
10300000
,
00010000
00100000
02000000
03000000
20000000
30100000
00020000
00031000
,
00010000
00000000
MMMMMMMM
00000000
00002000
00013000
00000020
00010030
,
00001000
00010000
00000200
00010300
00002000
00013000
00200000
01300000
,
00100000
00010000
00002000
00003000
00010000
00000100
00002000
00003001
,
00000100
00000001
00002000
00003100
00000020
00001030
00020000
01030000
,
00100000
00010000
10010000
00000000
10010000
00000000
10000000
00000000
,
00000000
01000000
00000000
00010000
,
00000000
00001000
00000000
00000100
,
00000000
00000000
00000001
00000001
00000010
00000010
MMMMMMMM
00000110
,
MMMMMMMM
00011000
MMMMMMMM
00000000
00001000
00000000
00010000
00000000
,
00100000
00000000
10000000
00010000
10000000
00000000
01000000
00000000
,
00010000
00000000
00001000
00010000
00001000
00001000
0000MMMM
00010000
,
00010000
MMMM0000
00001000
00001000
0000MMMM
00010000
00010000
MMMM0000
,
00001000
00000000
00010000
00000000
00001000
00010000
00001000
00010000
00002000
00000000
00000000
00000000
00000000
00000000
00000000
00000000
,
00000000
00000000
00020000
00000000
,
00033000
MMMMMMMM
00020000
00032000
,
00003200
00000302
00002003
00003200
,
00000320
00000032
00000203
00000000
,
00000000
00000000
00000000
00000000
00001300
00010000
00001000
00010000
,
00001000
00000000
00001000
00000000
00010000
00001000
00010000
00001000
00020000
00030000
00000000
00000000
00001000
00000000
00000000
00000000
,
01000000
00001000
00010000
00000100
,
00000010
00000001
00000000
00000011
,
00000000
00001001
00000000
00000001
,
00000100
00000010
00000100
00001000
,
00010000
00001000
01000000
00010000
,
10000000
01000000
00000000
01010000
,
00000000
00000000
00000000
00000000
00000000
00000000
00000000
00000000
00000000
00000000
00000000
00000000
00000000
00000000
00000000
00000000
00022000
00033000
00000000
00000000
00000000
00000000
00000000
00000000
00000000
00000000
00000000
00000000
00000000
00000000
00000000
00000000
00010000
00000000
00000000
00000000
00000000
00000000
00000000
00000000
00000000
00000000
00000000
00000000
00000000
00000000
00000000
00000000
00000100
00000000
00000000
00000000
00000000
00000000
00000000
00000000
00000000
00000000
00000000
00000000
00000000
00000000
00000000
00000000
,
00001000
00000100
00010000
00000100
,
00000010
00000001
00000000
00001001
,
00000000
00000110
00000000
00000001
,
00000100
00001000
00010000
00001000
,
00000010
00001000
00010000
01000000
,
10000000
00010000
01000000
00100000
,
10000000
00000000
01000000
00000000
00100000
00000000
00001000
00010000
,
00001000
00022000
00000000
00000000
,
00000000
00000000
00000000
00000000
,
00000000
00000000
00033000
00000000
;

//--------------- dance-double - Fred-104 ----------------
#NOTEDATA:;
#STEPSTYPE:dance-double;
#DESCRIPTION:Fred-104;
#DIFFICULTY:Hard;
#METER:17;
#BPMS:0=100,36=200,68=400,156=200,160=400,192=200,208=400,232=100,234=200,298=195,306=102.5,322=420;
#STOPS:349=0.286;
#TIMESIGNATURES:0=4=4,232=2=4,234=4=4;
#CREDIT:Fred-104;
#NOTES:
00000000
00000000
00000000
00000000
,
00000000
00000000
00000000
00000000
,
00000000
00000000
00000000
00000000
,
00000001
00000000
00000000
00001000
00000000
00000000
00001001
00000000
00000000
0000MMMM
00000000
00000000
00000001
00000000
00000000
00000010
00001000
00010000
00001000
00000000
00000000
00010000
00000000
00000000
,
00011000
00000000
00000000
MMMM1000
00000000
00000000
0001MMMM
00000000
00000000
00011000
00000000
00000000
MMMMMMMM
00000000
00000000
00001000
01000000
00010000
00100000
00000000
00000000
01100000
00000000
00000000
,
11000000
10000000
00100000
00110000
00010000
00011000
00010010
00000000
,
01001000
00000000
00000000
00010100
00000000
00000000
MMMMMMMM
00000000
00000000
00001001
00000000
00000000
00000110
00000000
00000000
00000000
00000001
00000010
00000100
00000000
00000000
00010100
00000000
00000000
,
00011000
00000000
00000000
00001000
00000000
00000000
00101000
00000000
00000000
MMMMMMMM
00000000
00000000
10010000
00000000
00000000
00010000
00100000
01000000
10000000
00000000
00000000
00010000
00000000
00000000
,
10000000
00000000
00000000
01000000
00000000
00000000
00100000
00000000
00000000
00100000
00000000
00000000
00010000
00000000
00000000
01000000
00000000
00000000
00100000
00000000
00000000
00100000
00000000
00000000
10000000
00000000
00000000
01000000
00000000
00000000
00010000
00000000
00001000
00000000
00010000
00000000
00001000
00000000
00000000
00000010
00000000
00000000
00000001
00000000
00000000
00000000
00000000
00000000
,
00002000
00003000
00000001
00000000
00000100
00000000
00001000
00000000
00000100
00000000
00000010
00000000
00000100
00000000
00001000
00000000
,
00000000
00010000
00000000
00001000
01000000
00010000
00100000
00010000
,
10000000
01000000
00010000
01000000
00100000
01000000
00010000
00001000
,
00000000
00010000
00000000
00000100
00000010
00000001
00001000
00000010
,
00000100
00000001
00001001
00000001
00000010
00000100
00001100
00001000
,
00000000
00010010
00000000
01001000
00001000
00010000
00100000
10000000
,
01000000
00000000
00100000
00000000
00101000
00000000
00001000
00000000
00010000
00001000
00010000
00001000
00010000
00000000
00000100
00000000
,
00000010
00000000
00000100
00000010
00000100
00000000
00000010
00000100
00000010
00000100
00000010
00000000
00000011
00000000
00000001
00000000
,
00002000
00003000
00000000
00000000
00000010
00000000
00000000
00000000
00010000
00000000
00000000
00000000
00100000
00000000
00000000
00000000
,
01000000
00001000
00010000
00100000
,
10000000
00000000
01000000
00100000
01000000
00000000
00010000
00000000
,
00001000
00000000
00000010
00000100
00000010
00000000
00000001
00000000
,
00001000
00000001
00000100
00010000
,
01000000
00100000
00010000
00001000
,
00010000
00000000
00001000
00000010
00001000
00000000
00010000
00000000
,
00001000
00000000
00010000
00100000
00010000
00000000
00001000
00000000
,
00010000
00001000
00100000
01000000
,
00010000
10000000
00100000
00010000
,
10000000
00000000
00100000
01000000
00100000
00000000
00010000
00000000
,
00001000
00000000
00000100
00000010
00000100
00000000
00000001
00000000
,
00001000
00000010
00000001
00001000
,
00000100
00000010
00010000
00001000
,
00010000
00000000
00001000
01000000
00001000
00000000
00010000
00000000
,
00001000
00000000
00010000
00000100
00010000
00000000
00001000
00000000
,
00010000
00001000
00000100
00000001
,
00000010
00000000
00001001
00000000
,
00000001
00000100
00001000
00010000
,
00001000
00000000
00011000
00000000
,
00001000
00010000
00100000
10000000
,
01000000
00000000
01100000
00000000
,
00002000
00003000
00010000
00000000
00011000
00000000
00000000
00000000
00001001
00000000
00000000
00000000
00011000
00000000
00001000
00010000
,
00002000
00003000
00000000
00000000
00010000
00000000
00000000
00000000
01000000
00000000
00000000
00000000
10000000
00000000
00000000
00000000
,
00100000
00010000
00001000
MMMMMMMM
,
00010000
00001000
00000100
00000001
,
00000010
00001000
00010000
MMMMMMMM
,
00001000
00010000
01000000
10000000
,
00100000
00010000
00001000
MMMMMMMM
,
00011000
00011000
00000000
00010010
,
00000010
00001000
00000010
00001000
00000100
00000010
00000100
00000010
,
00000001
00000000
00001001
00000000
00000001
00000100
00001000
00010000
,
00001000
00000000
00011000
00000000
00010000
00001000
00000010
00000100
,
00010000
00000000
00011000
00000000
00001000
00010000
01000000
00100000
,
00010000
00000000
10010000
00000000
10000000
00100000
00010000
MMMMMMMM
,
00002000
00003000
00000000
00000000
00010000
00000000
00000000
00000000
00000010
00000000
00000000
00000000
00000100
00000000
00000000
00000000
,
00001000
00000001
00000010
00001000
,
00000001
00000100
00010000
01000000
,
00001000
00010000
00100000
10000000
,
00010000
00100000
10000000
00100000
,
01000000
00010000
00001000
00010000
,
00000200
00000010
00000000
00000010
00000000
00000020
00000000
MMMM0330
00000002
00000003
00001000
00000000
00000020
00000030
00000100
00000000
,
00001000
00000000
00010000
00000000
00200000
00300000
01000000
00000000
00020000
00030000
10000000
00000000
02000000
03000000
00100000
00000000
,
01000000
00000000
00010000
00000000
00002000
00003000
00010000
00000000
00000010
00000000
00001000
00000000
00000002
00000003
00001000
00000000
,
00000010
00000000
00010000
00000000
00002000
00003000
01000000
00000000
00200000
00300000
01000000
00000000
20000000
30000000
01000000
00000000
,
00100000
00000000
00010000
00000000
00011000
00000000
00000000
00000000
00020000
00030000
00001000
00000000
00000020
00000030
00000100
00000000
,
00000001
00000000
00000100
00000000
00000020
00000030
00001000
00000000
00020000
00030000
00001000
00000000
00000200
00000300
00000010
00000000
,
00000001
00000000
00000010
00000000
00000200
00000300
00001000
00000000
00010000
00000000
01000000
00000000
20000000
30000000
01000000
00000000
,
00010000
00000000
00001000
00000000
00020000
00030000
00100000
00000000
20000000
30000000
00100000
00000000
00020000
00030000
00001000
00010000
,
00001000
00000000
00000100
00000000
00000101
00000000
MMMMMMMM
00000000
00001002
00000003
00000000
00000000
00000100
00000000
00000000
00000000
,
MMMMMMMM
00000100
MMMMMMMM
00000100
,
MMMMMMMM
00000100
MMMMMMMM
00000100
,
MMMMMMMM
00000000
00000000
00000000
00000100
00000000
00000001
00000010
00000100
00000000
00000110
00000000
MMMMMMMM
00000000
00011000
00000000
,
MMMMMMMM
01100000
MMMMMMMM
00000000
10010000
00000000
10000000
01000000
,
00010000
00001000
00010000
00100000
00010000
00000000
00001000
00000100
,
00000010
00000000
00010000
00000000
00001000
00000000
00000010
00000000
MMMM0002
00000003
00000100
00000000
00001000
00000000
0002MMMM
00030000
,
00100000
00000000
10000000
00000000
2000MMMM
30000000
01000000
00000000
00010000
00000000
MMMM2000
00003000
00000010
00000000
00000001
00000000
,
MMMM2000
00003001
00001000
00000001
00001000
00000100
00010000
00001000
00020000
00000000
00000000
00000000
00000000
00000000
00000000
00000000
,
00000000
00000000
00002000
00000000
,
00033000
00000000
00000000
00000000
MMMMMMMM
00000000
00000000
00000000
00020000
00031000
00010000
00000000
00000010
00000010
00000000
00010000
,
00000000
00000010
00000000
00000001
00000000
00001000
00000000
00000100
00000001
00000010
00001000
00000000
00010000
00010000
00000000
00001000
,
00000000
00010000
00000000
01000000
00000000
00010000
00001000
01000000
00001000
00100000
00100000
00002000
00010000
00010000
00000000
01000000
,
00000000
00010000
00000000
00000010
00000000
00010000
00000000
01003000
00010000
00100000
02000000
00000000
13000000
00200000
00000000
00310000
,
00001000
00000000
00001000
00000000
00010000
00000000
00010000
00000000
00001000
00010000
00001000
00010000
00001000
00010000
00001000
00010000
00002000
00000000
00003000
00000000
00000000
00000000
00000000
00000000
00010000
00000000
00000000
00000000
00000000
00000000
00000000
00000000
,
01000000
00100000
00001000
01000000
,
00010000
00000100
00000010
00010000
,
00000100
00000010
00001000
00010000
,
01000000
00100000
00001000
01000000
,
00010000
00000100
00001000
00010000
,
00000010
00001000
00000000
00000110
,
00000000
00000000
00000000
00000000
00000000
00000000
00000000
00000000
00000000
00000000
00000000
00000000
00000000
00000000
00000000
00000000
00022000
00033000
00000000
00000000
00000000
00000000
00000000
00000000
00000000
00000000
00000000
00000000
00000000
00000000
00000000
00000000
00001000
00000000
00000000
00000000
00000000
00000000
00000000
00000000
00000000
00000000
00000000
00000000
00000000
00000000
00000000
00000000
00010000
00000000
00000000
00000000
00000000
00000000
00000000
00000000
00000000
00000000
00000000
00000000
00000000
00000000
00000000
00000000
,
00100000
10000000
00100000
00010000
,
00100000
01000000
00010000
00001000
,
00000010
00000100
00000001
00000010
,
00000100
00010000
00001000
01000000
,
00010000
00000000
10000000
00100000
01000000
00000000
00100000
10000000
,
01000000
00100000
00001000
00000010
,
00000100
00000000
00001000
00000000
00000001
00000100
00000010
00001000
,
00000100
00010000
00002000
00000000
00000000
00000000
00000000
00000000
,
00000000
00000000
00000000
00000000
,
00000000
00000000
00003000
00000000
;

//--------------- dance-double - Fred-104† ----------------
#NOTEDATA:;
#STEPSTYPE:dance-double;
#DESCRIPTION:Fred-104†;
#DIFFICULTY:Challenge;
#METER:18;
#BPMS:0=100,36=200,68=400,156=200,160=400,192=200,208=400,232=200,233=100,233.5=50,234=200,298=195,306=102.5,322=420;
#STOPS:349=0.286;
#TIMESIGNATURES:0=4=4,232=2=4,234=4=4;
#CREDIT:Fred-104†;
#NOTES:
00000000
00000000
00000000
00000000
,
00000000
00000000
00000000
00000000
,
00000000
00000000
00000000
00000000
,
00100000
00000000
00000000
00100000
00000000
00000000
10010000
00000000
00000000
MMMMMMMM
00000000
00000000
01100000
00000000
00000000
10000000
00100000
00010000
00001000
00000000
00000000
00010000
00000000
00000000
,
00010100
00000000
00000000
MMMM1000
00000000
00000000
0001MMMM
00000000
00000000
00011000
00000000
00000000
00010000
00000000
00000000
00001000
00000100
00000010
00001000
00000000
00000000
00001001
00000000
00000000
,
00000110
00000000
00001000
00000000
00000001
00000000
00000101
00000000
00000100
00000000
00001000
00000000
00011000
00001000
00010000
00001000
,
00010000
00000000
00000000
00000000
00000000
00000000
00101000
00000000
00000000
00000000
00000000
00000000
00001000
00000000
00000000
00000000
00000000
00000000
00010000
00000000
00000000
00000000
00000000
00000000
00010010
00000000
00000000
00000000
00000000
00000000
00000010
00000000
00010000
00000000
00001000
00000000
00010000
00000000
00000000
00100000
00000000
00000000
01000000
00000000
00000000
00000000
00000000
00000000
,
10020000
00000000
00000000
00000000
00000000
00000000
10030000
00000000
00000000
00000000
00000000
00000000
01020000
00000000
00000000
00000000
00000000
00000000
10030000
00000000
00000000
01000000
00000000
00000000
01200000
00000000
00000000
00000000
00000000
00000000
00301000
00000000
00001000
00000000
00001000
00000000
00010000
00000000
00000000
00001000
00000000
00000000
00011000
00000000
00000000
00000000
00000000
00000000
,
00011000
00000000
00000000
00000000
00000000
00000000
00011000
00000000
00000000
00000000
00000000
00000000
00010000
00000000
00000000
00000000
00000000
00000000
00000100
00000000
00000000
00000000
00000000
00000000
00001100
00000000
00000000
00000000
00000000
00000000
00001100
00000000
00000000
00000000
00000000
00000000
00001000
00000000
00000000
00000000
00000000
00000000
00000001
00000000
00000000
00000000
00000000
00000000
00000101
00000000
00000000
00000000
00000000
00000000
00000101
00000000
00000000
00000000
00000000
00000000
00000001
00000000
00000000
00000000
00000010
00000000
00000000
00000000
00000100
00000000
00000000
00000000
00000010
00000000
00000000
00000000
00000000
00000000
00001000
00000000
00000000
00000000
00000000
00000000
00010000
00000000
00000000
00001000
00000000
00000000
00010000
00000000
00000000
00001000
00000000
00000000
,
00020000
00030000
00000000
00000000
00000000
00000000
00000000
00000000
00001000
00000000
00000000
00000000
00000100
00000000
00000000
00000000
00000010
00000000
00000000
00000000
00000000
00000000
00000000
00000000
00001000
00000000
00000000
00000000
00000000
00000000
00000000
00000000
00000001
00000000
00000000
00000000
00000000
00000000
00000000
00000000
00000010
00000000
00000000
00000000
00000100
00000000
00000000
00000000
00001000
00000000
00000000
00000000
00000000
00000000
00000000
00000000
00001010
00000000
00000000
00000000
00000000
00000000
00000000
00000000
,
MMMMMMMM
00000101
MMMMMMMM
00011000
00010000
00010000
00001000
00001000
,
00010000
00000000
00100000
01000000
00010000
00000000
10000000
00000000
00010000
00000000
10000000
01000000
00100000
00000000
00101000
00000000
,
MMMMMMMM
00010010
MMMMMMMM
01001000
00001000
00001000
00010000
00010000
,
00000100
00000010
00000011
00000001
00000100
00001000
00011000
01001000
,
MMMMMMMM
00010010
MMMMMMMM
00011000
00010000
00001000
00000100
00000001
,
00000010
00000000
00000010
00000000
00000100
00000000
00000100
00000000
00000001
00000100
00001000
00000001
00000100
00000000
00001000
00000000
,
00010000
00000000
00001000
00010000
00000100
00000000
00010000
00000100
00001000
00000100
00000010
00000000
00000100
00010000
00001000
01000000
,
00200000
00300000
00000000
00000000
00000000
00000000
00000000
00000000
00000000
00000000
00000000
00000000
00000000
00000000
00000000
00000000
00010000
00000000
00000000
00000000
00000000
00000000
00000000
00000000
00001000
00000000
00000000
00000000
00000000
00000000
00000000
00000000
00000100
00000000
00000000
00000000
00000000
00000000
00000000
00000000
00000000
00000000
00000000
00000000
00000000
00000000
00000000
00000000
00000010
00000000
00000000
00000000
00000000
00000000
00000000
00000000
00001000
00000000
00000000
00000000
00000000
00000000
00000000
00000000
,
00000001
00000010
00000100
00000000
00001000
00000001
00000100
00000000
,
00001000
00010000
00100000
00000000
00010000
00001000
00000100
00000000
,
00001000
00010000
00100000
10000000
00010000
00100000
01000000
00000000
,
00100000
00000000
00010000
10000000
00100000
00000000
00010000
00001000
,
00010000
00000100
00000010
00000000
00000001
00001000
00000010
00000000
,
00000100
00001000
00010000
00000000
00100000
01000000
10000000
00000000
,
01000000
00010000
00100000
01000000
00010000
00001000
00010000
00000000
,
00001000
00000000
00100000
00001000
00010000
00000000
00001000
00000100
,
00000010
00001000
00000001
00000000
00000010
00000100
00001000
00000000
,
00000010
00000100
00001000
00000000
00010000
00001000
01000000
00000000
,
00010000
00100000
01000000
10000000
01000000
00100000
00001000
00000000
,
00010000
00000000
00000010
00001000
00000100
00000000
00010000
00001000
,
00010000
01000000
00100000
00000000
00010000
00100000
01000000
00000000
,
10000000
00010000
01000000
00000000
00001000
00010000
00000100
00000000
,
00000010
00000001
00001000
00000001
00000100
00000010
00001000
00000000
,
00000001
00001000
00000100
00000010
00001000
00000000
00010000
00000000
,
00001000
01000000
01100000
MMMMMMMM
,
00010000
10000000
01000000
00010000
01000000
00000000
10000000
00000000
,
00100000
00010000
00011000
MMMMMMMM
,
00010000
00001000
00000010
00000100
00000001
00000000
00000100
00000000
,
00001000
00000010
00010010
MMMMMMMM
,
00001000
00000000
00011000
00000000
00110000
00000000
MMMMMMMM
00000000
10100000
00000000
MMMMMMMM
00000000
10000000
00010000
10000000
00010000
,
10000000
00010000
01000000
00200000
00010000
0000MMMM
01300000
00000000
,
00001000
00010000
00011000
MMMMMMMM
,
00010000
00000010
00001000
00000200
00000001
MMMM0000
00000310
00000000
,
00000001
00001000
00001001
MMMMMMMM
,
00000001
00000100
00001000
00020000
00100000
0000MMMM
00130000
00000000
,
10000000
01000000
01100000
MMMMMMMM
,
00011000
00011000
00000000
00010010
,
00000010
00001000
00000001
00001000
00000010
00010000
00001000
00100000
,
01000000
00000000
10010000
MMMM0000
10000000
00100000
00010000
00001000
,
00010000
00000000
00010100
MMMMMMMM
00010000
00000100
00000010
00001000
,
00010000
00000000
00000110
0000MMMM
00001000
00000010
00000100
00001000
,
00000001
00000010
00001000
00000100
00000010
00001000
00010000
MMMMMMMM
,
00020000
00030000
00000000
00000000
00000000
00000000
00000000
00000000
00000000
00000000
00000000
00000000
00000000
00000000
00000000
00000000
00001000
00000000
00000000
00000000
00000000
00000000
00000000
00000000
00010000
00000000
00000000
00000000
00000000
00000000
00000000
00000000
00100000
00000000
00000000
00000000
00000000
00000000
00000000
00000000
00000000
00000000
00000000
00000000
00000000
00000000
00000000
00000000
01000000
00000000
00000000
00000000
00000000
00000000
00000000
00000000
00010000
00000000
00000000
00000000
00000000
00000000
00000000
00000000
,
10000000
00000000
00010000
01000000
00100000
00000000
00010000
00001000
,
00010000
00000000
00000100
00000010
00000001
00000000
00001000
00000001
,
00000100
00001000
00010000
00000000
00001000
00000010
00000001
00000000
,
00001000
00000000
00000100
00000010
00000001
00000000
00001000
00000010
,
00000100
00000000
00001000
01000000
00010000
10000000
01000000
00100000
,
00020000
00000000
00000000
00000000
00000000
00000000
00000000
00000000
10000000
00000000
00000000
00000000
00000000
00000000
00000000
00000000
0000MMMM
00000000
00000000
00000000
10000000
00000000
00000000
00000000
0000MMMM
00000000
10000000
00000000
0000MMMM
00000000
10030000
00000000
00020000
00030000
00000000
00000000
00000000
00000000
00000000
00000000
10000000
00000000
00000000
00000000
00000000
00000000
00000000
00000000
00200000
00300000
00000000
00000000
00000000
00000000
00000000
00000000
00010000
00000000
00000000
00000000
00000000
00000000
00000000
00000000
,
00001000
00000000
00000000
00000000
00000000
00000000
00000000
00000000
00010000
00000000
00000000
00000000
00000000
00000000
00000000
00000000
02000000
03000000
00000000
00000000
00000000
00000000
00000000
00000000
00010000
00000000
00000000
00000000
00001000
00000000
00000000
00000000
00020000
00030000
00000000
00000000
00000000
00000000
00000000
00000000
00001000
00000000
00000000
00000000
00000000
00000000
00000000
00000000
00000020
00000030
00000000
00000000
00000000
00000000
00000000
00000000
00001000
00000000
00000000
00000000
00000000
00000000
00000000
00000000
,
00010000
00000000
00000000
00000000
00000000
00000000
00000000
00000000
00001000
00000000
00000000
00000000
00000000
00000000
00000000
00000000
00000200
00000300
00000000
00000000
00000000
00000000
00000000
00000000
00000001
00000000
00000000
00000000
00001000
00000000
00000000
00000000
00000001
00000000
00000000
00000000
00000000
00000000
00000000
00000000
00000010
00000000
00000000
00000000
00000000
00000000
00000000
00000000
00002000
00003000
00000000
00000000
00000000
00000000
00000000
00000000
00010000
00000000
00000000
00000000
00000000
00000000
00000000
00000000
,
00001000
00000000
00000000
00000000
00000000
00000000
00000000
00000000
00000100
00000000
00000000
00000000
00000000
00000000
00000000
00000000
00002000
00003000
00000000
00000000
00000000
00000000
00000000
00000000
00010000
00000000
00000000
00000000
00001000
00000000
00000000
00000000
00020000
00030000
00000000
00000000
00000000
00000000
00000000
00000000
00100000
00000000
00000000
00000000
00000000
00000000
00000000
00000000
02000000
03000000
00000000
00000000
00000000
00000000
00000000
00000000
00020000
00000000
00000000
00000000
00000000
00000000
00000000
00000000
,
20000000
00000000
00000000
00000000
00000000
00000000
00000000
00000000
0003MMMM
00000000
00000000
00000000
00000000
00000000
00000000
00000000
3000MMMM
00000000
00000000
00000000
00000000
00000000
00000000
00000000
MMMMMMMM
00000000
00000000
00000000
00000000
00000000
00000000
00000000
00020000
00030000
00000000
00000000
00000000
00000000
00000000
00000000
01000000
00000000
00000000
00000000
00000000
00000000
00000000
00000000
00002000
00003000
00000000
00000000
00000000
00000000
00000000
00000000
00000100
00000000
00000000
00000000
00000000
00000000
00000000
00000000
,
00000010
00000000
00000000
00000000
00000000
00000000
00000000
00000000
00010000
00000000
00000000
00000000
00000000
00000000
00000000
00000000
00000200
00000300
00000000
00000000
00000000
00000000
00000000
00000000
00000010
00000000
00000000
00000000
00000000
00000000
00000000
00000000
00002000
00003000
00000000
00000000
00000000
00000000
00000000
00000000
00000001
00000000
00000000
00000000
00000000
00000000
00000000
00000000
00000200
00000300
00000000
00000000
00000000
00000000
00000000
00000000
00010000
00000000
00000000
00000000
00000000
00000000
00000000
00000000
,
00001000
00000000
00000000
00000000
00000000
00000000
00000000
00000000
00100000
00000000
00000000
00000000
00000000
00000000
00000000
00000000
20000000
30000000
00000000
00000000
00000000
00000000
00000000
00000000
00010000
00000000
00000000
00000000
00000000
00000000
00000000
00000000
01000000
00000000
00000000
00000000
00000000
00000000
00000000
00000000
00100000
00000000
00000000
00000000
00000000
00000000
00000000
00000000
00020000
00030000
00000000
00000000
00000000
00000000
00000000
00000000
10000000
00000000
00000000
00000000
00000000
00000000
00000000
00000000
,
00100000
00000000
00000000
00000000
00000000
00000000
00000000
00000000
00010000
00000000
00000000
00000000
00000000
00000000
00000000
00000000
00002000
00003000
00000000
00000000
00000000
00000000
00000000
00000000
00000100
00000000
00000000
00000000
00000000
00000000
00000000
00000000
00000002
00000003
00000000
00000000
00000000
00000000
00000000
00000000
00000010
00000000
00000000
00000000
00000000
00000000
00000000
00000000
00002000
00003000
00000000
00000000
00000000
00000000
00000000
00000000
00010000
00000000
00000000
00000000
00001000
00000000
00000000
00000000
,
01000000
00001000
00010000
00000000
00011000
00000000
MMMMMMMM
00000000
00011000
00000000
00000000
00000000
00020000
00000000
00030000
00000000
,
MMMMMMMM
00000000
00020000
00030000
MMMMMMMM
00000000
00020000
00030000
,
MMMMMMMM
00000000
00020000
00030000
MMMMMMMM
00000000
00020000
00030000
,
MMMMMMMM
00000000
00000000
00000000
00020000
00000000
00031000
00010000
00000100
00000000
00001100
00000000
MMMMMMMM
00000000
00000101
00000000
,
MMMMMMMM
00000220
MMMM0330
00000000
00001001
00000001
00001000
00000001
,
00000010
00000100
00010000
00001000
01000000
00010000
01000000
00010000
,
00100000
01000000
10000000
00010000
1001MMMM
10000000
01000000
0101MMMM
,
00010000
00001000
MMMM1010
00000010
00000001
MMMM1001
00001000
00000010
,
00010000
00001000
01000000
00010000
10000000
00100000
01000000
00100000
00020000
00000000
00000000
00000000
00000000
00000000
00000000
00000000
,
00000000
00000000
00002000
00000000
,
00033000
00000000
00000000
00000000
00000000
00000000
00000000
00000000
00000000
00000000
00000000
00000000
00000000
00000000
00000000
00000000
00000000
00000000
00000000
00000000
00000000
00000000
00000000
00000000
00000000
00000000
00000000
00000000
00000000
00000000
00000000
00000000
00000000
00000000
00000000
00000000
00000000
00000000
00000000
00000000
00000000
00000000
00000000
00000000
00000000
00000000
00000000
00000000
MMMMMMMM
00000000
00000000
00000000
MMMMMMMM
00000000
00000000
00000000
MMMMMMMM
00000000
00000000
00000000
MMMMMMMM
00000000
00000000
00000000
MMMMMMMM
00000000
00000000
00000000
00000000
00000000
00000000
00000000
00000000
00000000
00000000
00000000
00000000
00000000
00000000
00000000
00000000
00000000
00000000
00000000
00000000
00000000
00000000
00000000
00000000
00000000
00000000
00000000
00000000
00000000
00000000
00000000
00020000
00000000
00000000
00030000
00000000
00000000
00000000
00000000
00000000
00000000
00000000
00000000
00001000
00000000
00000000
00000000
00000000
00000000
00000000
00000000
00000000
00000000
00000000
00000000
00010000
00000000
00000000
00000000
00000000
00000000
00000000
00000000
00000000
00000000
00000000
00000000
00000100
00000000
00000000
00000000
00000000
00000000
00000000
00000000
00000000
00000000
00000000
00000000
00010000
00000000
00000000
00000000
00000000
00000000
00000000
00000000
00000000
00000000
00000000
00000000
00001000
00000000
00000000
00000000
00000000
00000000
00000000
00000000
00000000
00000000
00000000
00000000
00010000
00000000
00000000
00000000
00000000
00000000
00000000
00000000
00000000
00000000
00000000
00000000
00000010
00000000
00000000
00000000
00000000
00000000
00000000
00000000
00000000
00000000
00000000
00000000
,
00010000
00000000
00000000
00000000
00000000
00000000
00001000
00000000
00000000
00000000
00000000
00000000
00010000
00000000
00000000
00000000
00000000
00000000
00000100
00000000
00000000
00000000
00000000
00000000
00010000
00000000
00000000
00000000
00001000
00000000
00000000
00000000
01000000
00000000
00000000
00000000
00001000
00000000
00000000
00000000
00010000
00000000
00000000
00000000
00001000
00000000
00000000
00000000
00100000
00000000
00000000
00000000
00001000
00000000
00000000
00000000
00010000
00000000
00000000
00000000
00001000
00000000
00000000
00000000
01000000
00000000
00000000
00000000
00001000
00000000
00000000
00000000
00010000
00000000
00000000
00001000
00000000
00000000
00010000
00000000
00000000
00001000
00000000
00000000
01000000
00000000
00000000
00001000
00000000
00000000
01000000
00000000
00000000
00001000
00000000
00000000
,
00010000
00001000
00010000
00001000
00100000
00001000
00100000
00001000
00010000
00001000
00100000
00001000
00010000
00001000
01000000
00001000
00020000
00000000
00000000
00000000
00000000
00000000
00000000
00000000
00000000
00000000
00000000
00000000
00000000
00000000
00000000
00000000
,
00000000
00000000
0000MMMM
0003MMMM
,
00010000
00000000
00000000
00000000
00001000
00000000
00000000
00000000
00010000
00000000
00000000
00000000
00001000
00000000
00000000
00000000
00010000
00000000
00000010
00000000
00001000
00000000
00000100
00000000
00010000
00000000
00000010
00000000
00001000
00000000
00000100
00000000
00020000
00030000
00000000
00000000
00000000
00000000
00000000
00000000
00000000
00000000
00000000
00000000
00000000
00000000
00000000
00000000
00001000
00000000
00000000
00000000
00000000
00000000
00000000
00000000
00010000
00000000
00000000
00000000
00000000
00000000
00000000
00000000
,
00100000
00000000
01000000
00001000
00010000
00000010
00002000
00000000
,
00000001
MMMM0000
00003200
00000000
00001000
MMMM0000
00000320
00000000
,
00000001
MMMM0000
00000130
00000000
00001000
00000001
00000100
00000010
,
00000100
00001000
00010000
00000000
00001000
00000000
00010000
00000100
,
00001000
00000000
00000100
00000010
00000001
00001000
00000010
00000000
,
00000100
00001000
00010000
00000000
00011000
00000000
00010100
00000000
,
MMMMMMMM
00000000
00000000
00000000
00000000
00000000
00000000
00000000
00000000
00000000
00000000
00000000
00000000
00000000
00000000
00000000
00022000
00033000
00000000
00000000
00000000
00000000
00000000
00000000
00000000
00000000
00000000
00000000
00000000
00000000
00000000
00000000
00010000
00000000
00000000
00000000
00000000
00000000
00000000
00000000
00001000
00000000
00000000
00000000
00000000
00000000
00000000
00000000
00000100
00000000
00000000
00000000
00000000
00000000
00000000
00000000
00000001
00000000
00000000
00000000
00000000
00000000
00000000
00000000
,
00001000
00000000
00000100
00000000
00000010
00000001
00001000
00000010
,
00000100
00000000
00001000
00000000
00010000
00001000
01000000
00010000
,
10000000
00010000
00100000
01000000
00010000
00001000
00010000
00000100
,
00000010
00000001
00001000
00000000
00000001
00000000
00000010
00000100
,
00001000
00000000
00000100
00010000
00000100
00000000
00010000
00000100
,
00010000
00000000
00001000
00000000
01000000
00010000
00100000
01000000
,
10000000
00010000
01000000
00100000
10000000
01000000
00010000
00001000
,
00000010
00000001
00002000
00000000
00000000
00000000
00000000
00000000
,
00000000
00000000
00000000
00000000
,
00000000
00000000
00003000
00000000
;
