#TITLE:MARS WAR 3;
#ARTIST:JET GIRL SPIN;
#GENRE:TOY BRAKE CORE;
#BANNER:MARS WAR 3.png;
#BACKGROUND:MARS WAR 3-bg.png;
#CDTITLE:./CDTitles/pnm 13 CARNIVAL.png;
#MUSIC:MARS WAR 3.ogg;
#SAMPLESTART:30;
#SAMPLELENGTH:15;
#BPMS:0=200;
#STAGE:15;

//--------------- dance-single - Fred-104 ----------------
#NOTES:
     dance-single:
     Fred-104:
     Beginner:
     2:
     :
0000
0000
0000
0000
,
0000
0000
0000
0000
,
0000
0000
0000
0000
,
0000
0000
0000
0000
,
0000
0000
0000
0000
,
0000
0000
0000
0000
,
0000
0000
0000
0000
,
0000
0000
0000
0000
,
0000
0000
0000
0000
,
2000
3000
0002
0003
,
2000
0000
0000
0000
,
0000
0000
0000
0000
,
3000
0000
0000
0000
,
0002
0003
2000
3000
,
0002
0000
0000
0000
,
0000
0000
0000
0000
,
0003
0000
0000
0000
,
2000
3000
0002
0003
,
2000
0000
0000
0000
,
0000
0000
0000
0000
,
3000
0000
0000
0000
,
0002
0003
2000
3000
,
0002
0000
0000
0000
,
0000
0000
0000
0000
,
0003
0000
0000
0000
,
1000
0000
0000
0000
,
0000
0000
0000
0000
,
0001
0000
0000
0000
,
0000
0000
0000
0000
,
1000
0000
0000
0000
,
0000
0000
0000
0000
,
0001
0000
0000
0000
,
0000
0000
0000
0000
,
1000
0000
0000
0000
,
0000
0000
0000
0000
,
0001
0000
0000
0000
,
0000
0000
0000
0000
,
2000
0000
3000
0000
,
0002
0000
0003
0000
,
2000
3000
0002
0003
,
2002
0000
3003
0000
,
2000
3000
0002
0003
,
2000
0000
3000
0000
,
0002
0003
2000
3000
,
0002
0000
0003
0000
,
2000
3000
0002
0003
,
2000
0000
3000
0000
,
0002
0003
2000
3000
,
0002
0000
0003
0000
,
1000
0000
0000
0000
,
0001
0000
0000
0000
,
1000
0000
0000
0000
,
0001
0000
0000
0000
,
1000
0000
0000
0000
,
0000
0000
0000
0000
,
0001
0000
0000
0000
,
0000
0000
0000
0000
,
2000
0000
0000
0000
,
3000
0000
0000
0000
,
0002
0000
0000
0000
,
0003
0000
0000
0000
,
1000
0000
0000
0000
,
0001
0000
0000
0000
,
1000
0000
0000
0000
,
0001
0000
0000
0000
,
2000
0000
3000
0000
,
0002
0000
0003
0000
,
2000
3000
0002
0003
,
2002
0000
3003
0000
,
2000
3000
0002
0003
,
2000
0000
3000
0000
,
0002
0003
2000
3000
,
0002
0000
0003
0000
,
2000
3000
0020
0030
,
2000
0000
3000
0000
,
0002
0003
0020
0030
,
0002
0000
0003
0000
,
1000
0000
0000
0000
,
0001
0000
0000
0000
,
1000
0000
0000
0000
,
0001
0000
0000
0000
,
1000
0000
0000
0000
,
0010
0000
0000
0000
,
1000
0000
1000
0000
,
0001
0000
0001
0000
,
2000
0000
0000
0000
,
0000
0000
0000
0000
,
3000
0000
0000
0000
,
0000
0000
0000
0000
,
1000
0000
0000
0000
,
0000
0000
0000
0000
,
0001
0000
0000
0000
,
0000
0000
0000
0000
,
2002
0000
0000
0000
,
0000
0000
0000
0000
,
3003
0000
0000
0000
;

//--------------- dance-single - Fred-104 ----------------
#NOTES:
     dance-single:
     Fred-104:
     Easy:
     6:
     :
0000
0000
0000
0000
,
0000
0000
0000
0000
,
0000
0000
0000
0000
,
0000
0000
0000
0000
,
0000
0000
0000
0000
,
0000
0000
0000
0000
,
0000
0000
0000
0000
,
0000
0000
0000
0000
,
0000
0000
0000
0000
,
2000
0000
3020
0000
,
2030
0000
0000
0000
,
0000
0000
0000
0000
,
3000
0000
0000
0000
,
0002
0000
0203
0000
,
0302
0000
0000
0000
,
0000
0000
0000
0000
,
0003
0000
0000
0000
,
2000
0000
3020
0000
,
0230
0000
0000
0000
,
0001
0000
0000
0000
,
1300
0000
0001
0000
,
2000
0000
3020
0000
,
0230
0000
0000
0000
,
0001
0000
0000
0000
,
1300
0000
0000
0000
,
1001
0000
0001
0000
,
1000
0010
0100
0001
,
1000
0000
0001
0000
,
1000
0100
0010
0000
,
0001
0000
1000
0000
,
0001
0100
0010
1000
,
0001
0000
1000
0000
,
0001
1000
0100
0010
,
0001
0000
1000
0000
,
0001
1000
0010
1000
,
0100
0000
1000
0000
,
0001
1000
0001
0000
,
2000
3020
0130
0001
,
2000
3002
0023
0230
,
1300
0000
0000
0001
0000
0000
0100
0000
,
0220
0000
0000
0000
0000
0330
0000
0000
,
2000
0000
3020
0000
,
0230
0000
0302
0013
,
0002
0000
2003
0000
,
3010
0100
0010
0100
,
0002
0000
2003
0000
,
3200
0000
2300
3010
,
0200
0000
0320
0000
,
1030
0001
1000
0001
,
1001
0000
0001
0000
,
0100
0000
0010
0000
,
1000
0000
0100
0000
,
0010
0001
1000
0001
,
1000
1000
0010
0010
,
0100
0001
0100
0000
,
0001
0001
0010
0010
,
0100
1000
0100
1000
,
0002
0000
0203
0000
,
0320
0000
2030
0000
,
3200
0000
0320
0000
,
0032
2003
0002
3003
,
1001
0000
0001
0000
,
1000
0010
0100
0010
,
1000
0000
0100
0000
,
0010
0001
1000
0001
,
2000
3200
0310
0001
,
2000
3002
0203
0320
,
1030
0000
0000
0010
0000
0000
0100
0000
,
2002
0000
0000
0000
0000
3003
0000
0000
,
0002
0000
0023
0000
,
0230
0000
2300
3010
,
0200
0000
0320
0000
,
2030
3002
0103
0010
,
1000
0100
0020
0030
,
0001
0100
0020
0030
,
1000
0010
0200
0300
,
0001
0010
0200
0300
,
1001
0000
0001
0000
,
0100
0000
0010
0000
,
1000
0000
0010
0000
,
0100
0000
0001
0000
,
1000
0000
0010
0000
,
0100
0000
0001
0000
,
1000
0100
0010
0001
,
0100
0010
2000
3000
,
0001
0010
0100
0000
,
0010
0100
1000
0000
,
0001
1000
0010
0100
,
0001
1000
0001
0000
,
2000
0000
3020
0000
,
0130
0001
1000
0000
,
0002
0000
0023
0000
,
0130
1000
0001
0000
,
2002
0000
0000
0000
,
0000
0000
0000
0000
,
3003
0000
0000
0000
;

//--------------- dance-single - Fred-104 ----------------
#NOTES:
     dance-single:
     Fred-104:
     Medium:
     10:
     :
0000
0000
0000
0000
,
0000
0000
0000
0000
,
0000
0000
0000
0000
,
0000
0000
0000
0000
,
0000
0000
0000
0000
,
0000
0000
0000
0000
,
0000
0000
0000
0000
,
0000
0000
0000
0000
,
0000
0000
0000
0000
,
0002
0000
2003
0000
,
3200
0000
0000
0000
,
0000
0000
0000
0000
,
0300
0000
0000
0000
,
2000
0000
3020
0000
,
0230
0000
0000
0000
,
0000
0000
0000
0000
,
0300
0000
0000
0000
,
0002
0000
0023
0000
,
0230
0000
1000
0000
,
1000
0000
0001
0000
,
0301
1000
0010
0100
,
0002
0000
0023
0000
,
0230
0000
1000
0000
,
0001
0000
1000
0000
,
0302
0000
2003
3002
,
1003
0000
0010
1000
0000
0010
0100
0000
,
0001
0010
0000
0001
0100
0000
0010
0000
,
0100
0000
0001
0010
0000
0100
1000
0000
,
0001
0100
0001
0000
1000
0010
1000
0000
,
0001
0000
1000
0100
0000
0010
0001
0000
,
0100
0010
0100
0000
0001
0010
0001
0000
,
0100
0000
0001
0010
0000
0001
1000
0000
,
0010
1000
0100
0000
2000
0000
3002
0000
,
1003
0000
0010
0100
0000
0001
0100
0000
,
0001
0010
0100
0000
1000
0001
0100
0000
,
0001
0000
1000
0100
0000
0010
0001
0000
,
0100
0010
0100
0000
0001
1000
0010
0000
,
2000
3200
0302
0203
,
2300
3020
0032
0023
,
1030
0000
0000
0001
0000
0000
0100
0000
,
0010
0000
0000
1000
0000
2002
0000
3003
,
0002
0000
2003
0000
,
3020
0000
0000
0000
1030
0000
0100
0010
,
0200
0000
2300
0000
,
3010
0100
0010
0000
0100
0001
0100
0000
,
0002
0013
2000
3010
,
0002
0103
2000
3100
,
0002
0013
0200
1300
,
0010
1000
0010
0000
0100
0001
0100
0000
,
1100
0000
0101
0000
,
1010
0000
0011
0000
,
1100
0010
0101
0010
,
1000
0100
1000
0000
0001
0100
0001
0000
,
1001
1000
0010
0100
,
0001
0000
0010
0001
0010
0000
0001
0000
,
1001
0100
1001
0100
,
1000
0001
0010
0000
0001
1000
0010
0000
,
0100
0010
0100
0000
0001
0100
0001
0000
,
0010
0001
0010
0000
0100
1000
0100
0000
,
1000
0010
1000
0000
0001
0100
0001
0000
,
1000
0001
2002
3003
,
0001
0000
1000
0010
0000
0100
0010
0000
,
1000
0100
0000
0010
0001
0000
0101
0000
,
0001
0000
0100
0010
0000
0100
0001
0000
,
0010
0100
1000
0000
0001
1000
0010
0000
,
2000
3200
0302
0203
,
2300
3020
0032
0023
,
1030
0000
0001
0100
0000
0010
1000
0000
,
0001
0000
0000
1000
0000
2002
0000
3003
,
2000
0000
3200
0000
,
0320
0000
0230
1300
,
0002
0000
0203
0000
,
0320
0000
1030
0000
0001
1000
0001
0000
,
1000
0100
1000
0000
0010
0000
1000
0000
,
0010
0100
0010
0000
1000
0000
0100
0000
,
0010
0001
0010
0000
0001
0000
0100
0000
,
0001
0100
0001
0000
0100
0010
0100
0000
,
1001
0000
0110
0000
,
1001
0000
0110
0000
,
1010
0000
0101
0000
,
1100
0000
0011
0000
,
1100
1000
0010
0100
,
0101
0001
0010
0100
,
1100
1000
0101
0001
,
1000
0010
1000
0000
0001
0100
0001
0000
,
1001
0100
1000
0010
,
1000
0100
0001
0010
,
1000
0100
1000
0010
,
0100
0001
0100
0000
0001
0010
0001
0000
,
1001
0000
1000
0100
1000
0000
0010
0100
,
0000
0010
0100
0000
0001
0010
0001
0000
,
1000
0000
0001
0100
0001
0000
0100
0010
,
0000
0100
0010
0000
1000
0002
0000
0003
,
2002
0000
0000
0000
,
0000
0000
0000
0000
,
3003
0000
0000
0000
;

//--------------- dance-single - Fred-104 ----------------
#NOTES:
     dance-single:
     Fred-104:
     Hard:
     13:
     :
0000
0000
0000
0000
,
0000
0000
0000
0000
,
0000
0000
0000
0000
,
0000
0000
0000
0000
,
0000
0000
0000
0000
,
0000
0000
0000
0000
,
0000
0000
0000
0000
,
0000
0000
0000
0000
,
0000
0000
0000
0000
,
2000
0000
3020
0000
,
0230
0000
0000
0000
,
0001
0000
0000
0000
,
1300
0000
0000
0000
,
0002
0000
0023
0000
,
0230
0000
0000
0000
,
1000
0000
0000
0000
,
0302
0000
0003
0000
,
2000
3010
0200
0310
,
2000
0100
3100
1000
,
0001
0010
0100
1000
,
0001
0010
0001
0000
1000
0010
1000
0000
,
0002
0103
0020
0130
,
0002
1000
1003
0010
,
1000
0010
0100
0001
,
1000
0000
0010
0000
1000
0000
0010
0000
1000
0000
0010
0000
2000
0000
0000
0000
0000
0000
3002
0000
0000
0003
0000
0000
,
1100
0000
1000
0010
0100
0010
1000
0100
,
0010
0001
0000
0001
1000
0000
1001
0000
,
0011
0000
0010
0001
1000
0001
0100
0010
,
1000
0010
0100
0000
0001
0010
0001
0000
,
1001
0000
0001
1000
0010
1000
0100
1000
,
0010
0100
0000
0001
0100
0000
0110
0000
,
1001
0000
0001
1000
0100
1000
0001
0010
,
0000
0001
1000
0000
1100
0000
0011
0000
,
1001
0000
0001
0010
0100
1000
0010
0100
,
0001
0010
0001
1000
0001
0000
0101
0000
,
0110
0000
0010
1000
0100
1000
0001
0100
,
0001
0010
2000
0000
3001
0100
2000
0000
,
3002
0000
0203
0000
1300
0100
0002
0000
,
2003
3200
0302
0023
,
2030
0000
3001
1000
0001
0100
0010
0000
,
1100
0000
0000
0011
0000
2002
0000
3003
,
0001
0100
0001
0000
0001
0010
0001
0000
,
1000
0100
1000
0000
1000
0010
1000
0000
,
0010
0100
0010
0000
0010
1000
0010
0000
,
0100
0010
0100
0000
0100
0001
0100
0000
,
0002
0000
1003
0010
0200
0000
0302
0000
,
2003
0000
3001
0010
2000
0000
3010
0200
,
0000
1300
0001
0010
0002
0000
2003
0000
,
3001
0010
0100
1000
0010
0100
0001
0000
,
2100
3001
0102
1003
,
2010
3001
0012
1003
,
1002
0103
2001
3010
,
0001
0010
0100
1000
0010
0100
0001
0000
,
1100
0110
1100
0110
,
1100
0000
0001
1000
1010
0000
0101
0000
,
0011
0101
0011
1001
,
1000
0100
0010
0100
1000
0100
0010
0000
,
0001
0100
0001
0100
0001
0010
0001
0010
,
0100
1000
0100
1000
0010
1000
0010
1000
,
0001
0010
0100
1000
0001
0100
0010
1000
,
0001
1000
0010
0100
0002
0000
0000
0003
,
1001
0000
0001
0100
0010
0100
0001
0010
,
0100
1000
0010
0100
0010
0000
1010
0000
,
1100
0000
1000
0010
0100
0001
1000
0100
,
1000
0010
0002
0000
1003
0100
0002
0000
,
2003
0000
3200
0000
0301
0100
2000
0000
,
3002
0203
2300
3020
,
0032
0000
1003
0001
0010
0001
0100
0000
,
0101
0000
0000
1010
0000
2002
0000
3003
,
2000
0100
3200
0010
,
0320
0001
0032
2003
,
3200
1000
2300
0010
,
3020
0000
0100
0000
0130
0001
1000
0000
,
0001
0100
0001
0000
0001
0010
0001
0000
,
0100
0010
0100
0000
0100
0001
0100
0000
,
0010
1000
0010
0000
0010
0100
0010
0000
,
1000
0100
1000
0100
0010
0100
1000
0000
,
2100
3010
0102
0013
,
1200
0310
0201
0310
,
2010
3100
0012
0103
,
1020
0130
0021
0130
,
2100
3001
0012
1003
,
2010
3001
0012
1003
,
1010
1001
0011
1001
,
0001
0100
0010
1000
0001
0010
0100
0000
,
1100
0110
1100
0101
,
1100
0110
1100
0101
,
1000
0010
1000
0100
1000
0010
0100
0001
,
0010
0001
1000
0010
0100
0001
1000
0000
,
1001
0000
1000
0010
0100
0000
0010
1000
,
0000
0010
0100
0001
1000
0001
0010
0000
,
0001
1000
0001
1000
0100
0000
1000
0010
,
0000
0010
0100
0001
2000
0002
0000
3003
,
2002
0000
0000
0000
,
0000
0000
0000
0000
,
3003
0000
0000
0000
;

//--------------- dance-double - Fred-104 ----------------
#NOTES:
     dance-double:
     Fred-104:
     Easy:
     6:
     :
00000000
00000000
00000000
00000000
,
00000000
00000000
00000000
00000000
,
00000000
00000000
00000000
00000000
,
00000000
00000000
00000000
00000000
,
00000000
00000000
00000000
00000000
,
00000000
00000000
00000000
00000000
,
00000000
00000000
00000000
00000000
,
00000000
00000000
00000000
00000000
,
00000000
00000000
00000000
00000000
,
00020000
00000000
00032000
00000000
,
00023000
00000000
00000000
00000000
,
00000000
00000000
00000000
00000000
,
00030000
00000000
00000000
00000000
,
00002000
00000000
00023000
00000000
,
00032000
00000000
00000000
00000000
,
00000000
00000000
00000000
00000000
,
00003000
00000000
00000000
00000000
,
02000000
00000000
03200000
00000000
,
02300000
00000000
00000000
00000000
,
10000000
00000000
00000000
00000000
,
03010000
00000000
10000000
00000000
,
02000000
00000000
03200000
00000000
,
00302000
00000000
00000000
00000000
,
00010000
00000000
00000000
00000000
,
00003010
00000000
00000000
00000000
,
00011000
00000000
00010000
00000000
,
00000100
00001000
00000001
00000000
,
00000100
00000000
00000010
00000000
,
00000100
00000001
00000100
00000000
,
00000010
00000000
00001000
00000000
,
00000100
00010000
00000100
00000000
,
00010000
00000000
00001000
00000000
,
00100000
00010000
00100000
00010000
,
00100000
00000000
00010000
00000000
,
10000000
01000000
00100000
00000000
,
01000000
00000000
10000000
00000000
,
00100000
01000000
00010000
00000000
,
02000000
03200000
01300000
00010000
,
02000000
03002000
00023000
00032000
,
00013000
00000000
00000000
00001000
00000000
00000000
00010000
00000000
,
00022000
00000000
00000000
00000000
00000000
00033000
00000000
00000000
,
00020000
00000000
00032000
00000000
,
00003020
00000000
00000032
00000000
,
00000203
00000000
00002300
00000000
,
00013000
00100000
10000000
00010000
,
20000000
00000000
32000000
00000000
,
03200000
00000000
00302000
00000000
,
00023000
00000000
00030200
00000000
,
00010300
00001000
00010000
00001000
,
00011000
00000000
00010000
00000000
,
00000100
00000000
00001000
00000000
,
00000100
00000000
00000010
00000000
,
00000100
00000010
00000001
00000010
,
00000001
00000100
00001000
00000000
,
00010000
00001000
00000100
00000000
,
00001000
00010000
00100000
00000000
,
00010000
00001000
00000010
00000001
,
00002000
00000000
00003020
00000000
,
00000230
00000000
00000302
00000000
,
00002003
00000000
00003200
00000000
,
00020300
00032000
00020000
00033000
,
00011000
00000000
00001000
00000000
,
00100000
00010000
10000000
00000000
,
00010000
00000000
01000000
00000000
,
00010000
10000000
01000000
00000000
,
00200000
02300000
03010000
00001000
,
00020000
00030200
00000320
00002030
,
00013000
00000000
00000000
00001000
00000000
00000000
00010000
00000000
,
00022000
00000000
00000000
00000000
00000000
00033000
00000000
00000000
,
00002000
00000000
00003200
00000000
,
00000320
00000000
00000032
00000000
,
00000203
00000000
00002300
00000000
,
00023000
00032000
00013000
00001000
,
00100000
00010000
20000000
30000000
,
01000000
00100000
00002000
00003000
,
00010000
00000100
00000020
00000030
,
00000001
00000100
00000002
00000003
,
00001001
00000000
00000001
00000000
,
00000100
00000000
00001000
00000000
,
00010000
00000000
00100000
00000000
,
10000000
00000000
00010000
00000000
,
01000000
00000000
00100000
00000000
,
10000000
00000000
01000000
00000000
,
00100000
01000000
00100000
00001000
,
00010000
00001000
00020000
00030000
,
00001000
00000100
00000010
00000000
,
00000001
00001000
00000010
00000000
,
00010000
00001000
00010000
00000000
,
00001000
00100000
00010000
00000000
,
20000000
00000000
32000000
00000000
,
03010000
01000000
10000000
00000000
,
00200000
00000000
00320000
00000000
,
00031000
00000010
00001000
00000000
,
00022000
00000000
00000000
00000000
,
00000000
00000000
00000000
00000000
,
00033000
00000000
00000000
00000000
;

//--------------- dance-double - Fred-104 ----------------
#NOTES:
     dance-double:
     Fred-104:
     Medium:
     10:
     :
00000000
00000000
00000000
00000000
,
00000000
00000000
00000000
00000000
,
00000000
00000000
00000000
00000000
,
00000000
00000000
00000000
00000000
,
00000000
00000000
00000000
00000000
,
00000000
00000000
00000000
00000000
,
00000000
00000000
00000000
00000000
,
00000000
00000000
00000000
00000000
,
00000000
00000000
00000000
00000000
,
20000000
00000000
32000000
00000000
,
03020000
00000000
00000000
00000000
,
00000000
00000000
00000000
00000000
,
00030000
00000000
00000000
00000000
,
00002000
00000000
00003020
00000000
,
00000032
00000000
00000000
00000000
,
00000000
00000000
00000000
00000000
,
00000003
00000000
00000000
00000000
,
00002000
00000000
00003002
00000000
,
00000203
00000000
00000010
00000000
,
00000010
00000000
00010000
00000000
,
00001300
00010000
00001000
00100000
,
00002000
00000000
00203000
00000000
,
00320000
00000000
01000000
00000000
,
00001000
00000000
01000000
00000000
,
00032000
00000000
00023000
00032000
,
00013000
00000000
00001000
00100000
00000000
00010000
10000000
00000000
,
00100000
01000000
00000000
00100000
10000000
00000000
01000000
00000000
,
00100000
00000000
00010000
10000000
00000000
00100000
01000000
00000000
,
00001000
00010000
00001000
00000000
00100000
00001000
00010000
00000000
,
00001000
00000000
00000010
00000100
00000000
00000010
00001000
00000000
,
00000001
00000010
00000100
00000000
00010000
00001000
00010000
00000000
,
00000100
00000000
00010000
00001000
00000000
00010000
01000000
00000000
,
00010000
00100000
01000000
00000000
20000000
00000000
30200000
00000000
,
01300000
00000000
00010000
00100000
00000000
00001000
00010000
00000000
,
00001000
00010000
01000000
00000000
10000000
00010000
10000000
00000000
,
01000000
00000000
00100000
00001000
00000000
00010000
00001000
00000000
,
00010000
00000010
00001000
00000000
00000100
00010000
00001000
00000000
,
00020000
00032000
00003200
00000302
,
00002003
00003020
00000032
00000203
,
00001300
00000000
00000000
00010000
00000000
00000000
00001000
00000000
,
00000010
00000000
00000000
00000001
00000000
00002002
00000000
00003003
,
00000002
00000000
00002003
00000000
,
00003020
00000000
00020030
00031000
,
00020000
00000000
00032000
00000000
,
00013000
00001000
01000000
00010000
,
20000000
30100000
02000000
03010000
,
00200000
00310000
20000000
31000000
,
00020000
00130000
20000000
30010000
,
01000000
00100000
01000000
00000000
00001000
00010000
00001000
00000000
,
00011000
00000000
01001000
00000000
,
00010010
00000000
00101000
00000000
,
00010100
00010000
01001000
00001000
,
00010000
00001000
00010000
00000000
00000100
00001000
00000100
00000000
,
00000110
00000010
00000001
00001000
,
00000001
00000000
00000100
00000010
00000100
00000000
00000001
00000000
,
00001001
00000100
00001001
00000010
,
00001000
00000001
00001000
00000000
00000010
00001000
00000100
00000000
,
00010000
00001000
00010000
00000000
00001000
00010000
00100000
00000000
,
10000000
00010000
10000000
00000000
01000000
00010000
01000000
00000000
,
00010000
00001000
00010000
00000000
00001000
00000010
00000001
00000000
,
00000100
00001000
00022000
00033000
,
00001000
00000000
00010000
01000000
00000000
00010000
00001000
00000000
,
00010000
00100000
00000000
00010000
00001000
00000000
00011000
00000000
,
00010000
00000000
00001000
00000010
00000000
00001000
00010000
00000000
,
00001000
00000100
00001000
00000000
00010000
00100000
00010000
00000000
,
00002000
00023000
02030000
03020000
,
00032000
00023000
00230000
00320000
,
00031000
00000000
00010000
00100000
00000000
00010000
00001000
00000000
,
00000100
00000000
00000000
00000010
00000000
00002002
00000000
00003003
,
00000002
00000000
00002003
00000000
,
00003020
00000000
00000230
00000301
,
00002000
00000000
00003200
00000000
,
00020300
00000000
00031000
00000000
00010000
00001000
00010000
00000000
,
01000000
00100000
01000000
00000000
00001000
00000000
00010000
00000000
,
00000100
00001000
00000100
00000000
00010000
00000000
00000010
00000000
,
00001000
00000010
00001000
00000000
00000100
00000000
00010000
00000000
,
00001000
00010000
00001000
00000000
00100000
01000000
00100000
00000000
,
10010000
00000000
11000000
00000000
,
01010000
00000000
00011000
00000000
,
00001010
00000000
00000011
00000000
,
00000101
00000000
00001100
00000000
,
00011000
00001000
00100000
00010000
,
10010000
10000000
00100000
01000000
,
01010000
00010000
11000000
10000000
,
00100000
01000000
00100000
00000000
01000000
00001000
00010000
00000000
,
00011000
00010000
00100000
00010000
,
00001000
00000010
00001000
00010000
,
00001000
00000100
00001000
00010000
,
01000000
00010000
01000000
00000000
00010000
00001000
00010000
00000000
,
00011000
00000000
00010000
00000100
00001000
00000000
00000001
00000010
,
00000000
00001000
00000010
00000000
00000001
00001000
00000100
00000000
,
00010000
00000000
00001000
00010000
00001000
00000000
00100000
00010000
,
00000000
10000000
01000000
00000000
00010000
02000000
00000000
03000000
,
20020000
00000000
00000000
00000000
,
00000000
00000000
00000000
00000000
,
30030000
00000000
00000000
00000000
;

//--------------- dance-double - Fred-104 ----------------
#NOTES:
     dance-double:
     Fred-104:
     Hard:
     13:
     :
00000000
00000000
00000000
00000000
,
00000000
00000000
00000000
00000000
,
00000000
00000000
00000000
00000000
,
00000000
00000000
00000000
00000000
,
00000000
00000000
00000000
00000000
,
00000000
00000000
00000000
00000000
,
00000000
00000000
00000000
00000000
,
00000000
00000000
00000000
00000000
,
00000000
00000000
00000000
00000000
,
00020000
00000000
00032000
00000000
,
00003020
00000000
00000000
00000000
,
00000000
00000000
00000000
00000000
,
00000030
00000000
00000000
00000000
,
00020000
00000000
00032000
00000000
,
00003200
00000000
00000000
00000000
,
00000000
00000000
00000000
00000000
,
00000300
00000000
00000000
00000000
,
00020000
00031000
00020000
00030010
,
00020000
00001000
00001000
00031000
,
00100000
00010000
10000000
00000000
00010000
10000000
01000000
00000000
,
00100000
00001000
00100000
00000000
00001000
00010000
00001000
00000000
,
00020000
00031000
00020000
00030100
,
00020000
00001000
00001000
00031000
,
00010000
00000100
00000010
00000001
,
00001000
00000000
00000010
00000000
00001000
00000000
00000010
00000000
00000100
00000000
00000010
00000000
00000200
00000000
00000000
00000000
00000000
00000000
00000302
00000000
00000000
00000003
00000000
00000000
,
00001001
00000000
00000001
00000100
00000010
00001000
00000001
00000000
,
00000100
00001000
00000000
00010000
00001000
00000000
00011000
00000000
,
00101000
00000000
00001000
00010000
00100000
10000000
00010000
00000000
,
10000000
01000000
01000000
00000000
00010000
01000000
01000000
00000000
,
10010000
00000000
00010000
10000000
00100000
10000000
00010000
00000000
,
10000000
01000000
00000000
00100000
00001000
00000000
00011000
00000000
,
00010100
00000000
00010000
00001000
00000100
00000001
00001000
00000001
,
00000000
00000100
00000010
00000000
00001010
00000000
00000101
00000000
,
00001001
00000000
00000001
00000100
00001000
00010000
00001000
00000000
,
00010000
00001000
00010000
01000000
10000000
00000000
01100000
00000000
,
10010000
00000000
10000000
00100000
00010000
00001000
00010000
00000000
,
00001000
00010000
00002000
00000000
00013000
00000010
00020000
00000000
,
00032000
00000000
00003200
00000000
00000301
00000100
00002000
00000000
,
00003002
00000023
00002030
00003200
,
00000302
00000000
00001003
00000100
00000010
00000001
00000100
00000000
,
00000110
00000000
00000000
00011000
00000000
02200000
00000000
03300000
,
10000000
01000000
10000000
00000000
01000000
00100000
01000000
00000000
,
00100000
00001000
00100000
00000000
00001000
00010000
00001000
00000000
,
00010000
00000010
00010000
00000000
00000010
00000100
00000010
00000000
,
00001000
00000001
00001000
00000000
00000001
00000100
00000001
00000000
,
00000200
00000000
00000310
00010000
00002000
00000000
00023000
00000000
,
00030200
00000000
00010300
00001000
02000000
00000000
03100000
02000000
,
00000000
13000000
00100000
01000000
00010000
00000000
00101000
00000000
,
00010000
00001000
00010000
00000010
00010000
00001000
00010000
00000000
,
00021000
00030100
00001002
00000013
,
00000210
00010300
00012000
00103000
,
02100000
13000000
10020000
01030000
,
00010000
10000000
01000000
10000000
00100000
01000000
00010000
00000000
,
01010000
00100000
00011000
00010000
,
00001100
00000000
00001000
00000010
00000100
00000000
00000101
00000000
,
00000011
00001010
00000011
00001001
,
00000001
00000100
00001000
00000100
00000001
00000010
00000001
00000000
,
00001000
00000100
00001000
00000100
00000010
00000100
00000010
00000000
,
00000001
00000100
00000001
00000100
00001000
00010000
00001000
00000000
,
00010000
00001000
00010000
00001000
00010000
00100000
00010000
00100000
,
10000000
00010000
10000000
00010000
01000000
00200000
00000000
00300000
,
10010000
00000000
10000000
01000000
00010000
01000000
10000000
00000000
,
01000000
00010000
00001000
00010000
00001000
00000000
00011000
00000000
,
00010100
00000000
00001000
00000001
00001000
00000100
00000010
00000000
,
00001000
00000001
00000100
00000010
00000001
00001000
00000001
00000000
,
00002000
00000000
00003020
00000000
00000031
00000100
00002000
00000000
,
00023000
00230000
20300000
32000000
,
03010000
00000000
00001000
00010000
00000100
00010000
00001000
00000000
,
00010010
00000000
00000000
01001000
00000000
00022000
00000000
00033000
,
00002000
00003010
00020000
00130000
,
00002000
00000000
00010000
00000000
00013000
00000100
00001000
00000000
,
00020000
00030100
00002000
01003000
,
00020000
00000000
00031000
00000000
00010000
00001000
00010000
00000000
,
00000100
00001000
00000010
00000000
00000100
00000001
00000010
00000000
,
00000001
00001000
00000010
00000000
00010000
00001000
00100000
00000000
,
00010000
10000000
01000000
00000000
00100000
00010000
10000000
00000000
,
00010000
01000000
10000000
01000000
00010000
01000000
00100000
00000000
,
20100000
31000000
00120000
00130000
,
00021000
00030100
00002001
00003010
,
00000201
00000310
00001200
00010300
,
00021000
00031000
00102000
00013000
,
00210000
10300000
10020000
01030000
,
02100000
03001000
00021000
00030100
,
00000110
00000101
00001100
00000110
,
00000001
00000100
00000010
00001000
00000001
00000010
00000100
00000000
,
00001100
00000101
00001100
00011000
,
00110000
10100000
00110000
00011000
,
00010000
00001000
00010000
00000100
00001000
00000001
00000100
00000000
,
00000100
00000001
00000010
00000100
00001000
00000100
00010000
00000000
,
00011000
00000000
00001000
00100000
01000000
00000000
10000000
00010000
,
00000000
01000000
00100000
10000000
01000000
00100000
01000000
00000000
,
01100000
00000000
00001000
00010000
00001000
00000000
00010000
00000100
,
00000000
00001000
00000100
00000010
00000001
00000200
00000000
00000300
,
00000220
00000000
00000000
00000000
,
00000000
00000000
00000000
00000000
,
00000330
00000000
00000000
00000000
;
