#VERSION:0.83;
#TITLE:MARIA (I believe... );
#ARTIST:NAOKI feat.PAULA TERRY;
#GENRE:EUROBEAT;
#BANNER:MARIA (I believe... ).png;
#BACKGROUND:MARIA (I believe... )-bg.png;
#CDTITLE:./CDTitles/bm IIDX 9th style.png;
#MUSIC:MARIA (I believe... ).ogg;
#SAMPLESTART:87.911;
#SAMPLELENGTH:15;
#BPMS:0=158;
#BGSTAGE:2;

//--------------- dance-single - Fred-104 ----------------
#NOTEDATA:;
#STEPSTYPE:dance-single;
#DESCRIPTION:Fred-104;
#DIFFICULTY:Beginner;
#METER:2;
#CREDIT:Fred-104;
#NOTES:
0000
0000
0000
0000
,
0000
0000
0000
0000
,
0000
0000
0000
0000
,
0000
0000
0000
0000
,
0000
0000
0000
0000
,
0000
0000
0000
0000
,
2000
0000
0000
0000
,
0000
0000
0000
0000
,
3000
0000
0000
0000
,
0000
0000
0000
0000
,
0001
0000
0000
0000
,
1000
0000
0000
0000
,
0001
0000
0000
0000
,
1000
0000
0000
0000
,
0100
0000
0000
0000
,
1000
0000
0000
0000
,
0001
0000
0000
0000
,
1000
0000
0000
0000
,
0001
0000
0000
0000
,
0100
0000
0000
0000
,
0001
0000
0000
0000
,
1000
0000
0000
0000
,
0001
0000
0000
0000
,
0010
0000
0000
0000
,
0100
0000
0000
0000
,
0000
0000
0000
0000
,
1000
0000
0000
0000
,
0001
0000
0000
0000
,
1000
0000
0000
0000
,
0010
0000
0100
0000
,
0100
0000
0000
0000
,
0001
0000
1000
0000
,
2000
0000
3000
0000
,
0002
0000
0003
0000
,
1001
0000
0000
0000
,
0000
0000
0000
0000
,
0000
0000
0000
0000
,
0000
0000
0000
0000
,
0001
0000
1000
0000
,
0200
0000
0300
0000
,
1000
0000
0001
0000
,
0020
0000
0030
0000
,
0000
0000
0000
0000
,
0001
0000
1000
0000
,
0100
0000
0000
0000
,
1000
0000
0100
0000
,
0010
0000
0000
0000
,
0001
0000
1000
0000
,
0010
0000
0000
0000
,
1000
0000
0001
0000
,
1000
0000
0000
0000
,
0100
0000
0000
0000
,
0010
0000
0000
0000
,
0001
0000
0000
0000
,
1000
0000
0000
0000
,
0010
0000
0000
0000
,
1000
0000
1000
0000
,
0001
0000
0001
0000
,
1001
0000
0000
0000
,
0000
0000
0000
0000
,
0000
0000
0000
0000
,
0000
0000
0000
0000
,
2000
0000
0000
0000
,
3000
0000
0000
0000
,
0001
0000
0001
0000
,
1000
0000
1000
0000
,
0001
0000
1000
0000
,
0100
0000
0000
0000
,
0010
0000
0100
0000
,
1000
0000
0000
0000
,
0001
0000
1000
0000
,
0010
0000
0000
0000
,
0100
0000
0001
0000
,
2000
0000
3000
0000
,
0001
0000
0000
0000
,
2002
0000
0000
3003
0000
0000
0000
0000
;

//--------------- dance-single - Fred-104 ----------------
#NOTEDATA:;
#STEPSTYPE:dance-single;
#DESCRIPTION:Fred-104;
#DIFFICULTY:Easy;
#METER:5;
#CREDIT:Fred-104;
#NOTES:
0000
0000
0000
0000
,
0000
0000
0000
0000
,
0000
0000
0000
0000
,
0000
0000
0000
0000
,
0000
0000
0000
0000
,
0000
0000
0000
0000
,
0002
0000
0000
0000
,
2003
0000
3020
0230
,
0320
0000
0000
0000
,
1030
1000
0001
0001
,
2002
0000
0000
3003
,
0002
0000
0203
0000
,
0320
0000
0000
0000
,
0230
0000
0302
1003
,
0100
0000
1000
0000
,
0001
0100
0010
1000
,
0001
0000
1000
0000
,
0001
0000
0000
1000
0000
2002
0000
3003
,
2000
0000
3100
0010
,
0002
0000
1003
0001
,
0020
0000
0032
0000
,
1003
0010
1000
0001
,
0100
0000
0000
0010
0000
0000
0200
0000
,
0000
0301
1000
0001
,
0020
0000
0230
0000
,
1300
0100
0001
0100
,
2000
0000
3001
0000
,
1000
0001
0100
0010
,
0220
0330
2002
3003
,
0001
1000
0100
0010
,
0001
0000
1000
0010
,
0100
0000
0010
1000
,
0001
0000
1000
0000
,
0001
1000
0100
0010
,
1001
0000
0000
0000
,
0001
0000
0000
0000
,
1000
0000
0010
0000
,
0100
0000
0001
1000
,
0001
0000
0010
0000
,
0100
0000
1000
1000
,
2000
0000
3002
0000
,
0103
0000
1001
0000
,
0000
1000
0001
0100
,
0001
1000
0200
0300
,
0010
0001
2000
3000
,
0001
1000
0020
0030
,
0100
0001
2000
3000
,
0001
0010
0010
0100
,
1000
1000
0001
0100
,
0010
0010
0100
0100
,
2002
3003
0001
0000
,
1000
0100
0010
0001
,
2002
3003
0220
0330
,
2002
3003
0001
1000
,
0010
0000
0000
1000
0000
0000
0100
0000
,
0010
0000
0001
1000
,
0001
0000
0100
0000
,
1000
0010
0001
1000
,
1001
0000
0000
0000
,
0001
0000
0000
0000
,
1000
0000
0001
0000
,
0100
0010
0100
0001
,
1000
0000
0100
0000
,
0010
0000
0001
1000
,
0002
0000
0203
0000
,
0302
0000
2003
0000
,
3100
0100
0010
0001
,
2000
0000
3020
0130
,
0002
0000
2003
3002
,
0203
0320
0230
0302
,
2003
0000
3200
0000
,
0310
0001
0100
0001
,
2000
3000
0002
0003
,
2000
3001
2002
3003
,
0002
0000
0000
0003
,
2002
0000
0000
3003
0000
0000
0000
0000
;

//--------------- dance-single - Fred-104 ----------------
#NOTEDATA:;
#STEPSTYPE:dance-single;
#DESCRIPTION:Fred-104;
#DIFFICULTY:Medium;
#METER:8;
#CREDIT:Fred-104;
#NOTES:
0000
0000
0000
0000
,
0000
0000
0000
0000
,
0000
0000
0000
0000
,
0000
0000
0000
0000
,
0000
0000
0000
0000
,
0000
0000
0000
0000
,
0001
0000
0000
1000
0000
0000
0010
0000
,
1000
0001
0010
0100
0100
0000
0010
0000
,
0001
0000
1000
0001
0000
0100
0010
0000
,
0100
0100
0100
0000
0001
0000
1000
0000
,
2001
0000
3002
0000
,
0023
0000
0230
2300
,
3002
0000
0000
0100
0000
0100
0003
0100
,
0020
0000
1030
0001
,
1000
1000
0100
0010
,
0002
0003
1000
0001
,
0100
0000
0001
0000
,
1000
0000
0000
0001
0000
2002
0000
3003
,
0001
0000
0000
0000
0100
0010
0100
0000
,
0001
0000
0000
0000
1000
0100
0001
0000
,
0100
1000
0002
0003
,
1000
0010
0001
0010
,
1000
0000
0000
0001
0000
0000
1000
0000
,
0100
0000
0010
0000
0001
1000
0001
0000
,
0200
0010
0020
0330
,
1000
0100
0001
0010
,
2000
0000
3000
0000
0001
0000
0010
0100
,
0020
0000
0030
0001
0000
1000
0001
0000
,
1000
1100
0001
0101
,
1000
0001
0200
0320
,
0130
0000
0000
0001
0000
0000
1000
0000
,
0100
0000
0010
0000
0001
1000
0001
0000
,
0100
0000
0010
1000
0010
0000
0100
0000
,
0001
1000
0100
0010
,
1001
0000
0000
0000
0000
0000
0000
0001
,
1000
0000
0000
0000
0000
0000
0000
0100
,
0010
0000
0000
0000
,
0002
0000
2003
0000
3100
0010
0001
0000
,
1000
0000
0000
0001
0000
1000
0000
0010
,
0000
0100
0001
1000
,
0002
0000
2003
0000
,
3001
0000
0000
0100
0010
0000
1001
0000
,
0000
0001
1000
0100
,
0010
0100
0100
1000
,
0001
0100
0010
0010
,
0100
0000
0001
0000
1000
0001
1000
0000
,
0001
1000
0010
1000
,
0001
0100
1000
0100
,
0001
1000
0100
0010
,
0001
0000
0100
0000
0010
1000
0010
0000
,
2002
3003
0001
1000
,
0010
0000
0000
0010
0000
0100
0001
0000
,
1000
1010
0001
0011
,
1000
0000
1001
0000
0001
1000
0010
0000
,
0200
0000
0300
0002
0000
1003
0100
0000
,
0010
0000
0001
0000
1000
0010
0100
0000
,
0220
0330
0002
2003
,
3001
0000
0100
0000
0010
1000
0001
1000
,
0001
0000
0000
0000
0000
0000
0000
0100
,
0010
0000
0000
0000
0000
0000
0000
1000
,
0001
0000
0000
0000
,
0010
0000
0100
0000
1000
0001
1000
0000
,
1001
0000
0001
0100
0000
0010
0000
0100
,
0000
0001
1000
0100
,
0010
0000
0000
0001
0100
0000
0000
1000
,
0100
0000
0000
0001
0010
0000
1001
0000
,
1000
0000
0010
0100
0000
0010
1000
0000
,
0001
0000
0010
0100
0000
0000
1000
0000
,
0001
0000
0100
0001
0000
1000
0001
0000
,
0020
0230
2300
3002
,
0103
0000
0000
0010
0000
0100
0000
0001
,
0000
0000
1000
0000
0100
0010
0001
0000
,
1001
0000
0110
0000
,
1001
0000
0110
0000
,
1000
0100
1000
0000
0001
0100
0010
1000
,
0001
0000
0000
1000
0000
0000
1001
0000
0000
0000
0000
0000
0000
0000
0000
0000
;

//--------------- dance-single - Fred-104 ----------------
#NOTEDATA:;
#STEPSTYPE:dance-single;
#DESCRIPTION:Fred-104;
#DIFFICULTY:Hard;
#METER:11;
#CREDIT:Fred-104;
#NOTES:
0000
0000
0000
0000
,
0000
0000
0000
0000
,
0000
0000
0000
0000
,
0000
0000
0000
0000
,
0000
0000
0000
0000
,
0000
0000
0000
0000
,
1000
0100
0000
0010
0000
0001
1000
0010
,
0100
0001
0100
0001
1000
0100
0010
0001
,
1000
0001
0010
0100
0000
0010
0001
1000
,
0001
1000
1001
0000
0001
0100
0010
1000
,
0002
0000
0013
0020
0000
0000
0130
1000
,
0100
0000
1000
0002
0000
0000
0203
0000
,
0320
0000
0000
1000
0000
0001
0000
1030
,
0200
0300
0020
0032
,
1003
0000
0001
1000
0000
0010
0000
0100
,
0001
0000
0010
0100
0010
0001
1000
0001
,
1000
0000
0001
0100
1000
0000
0001
0010
,
1000
0000
0000
0000
0000
0000
0001
1000
0000
0000
2002
0000
0000
0000
3003
0000
,
0001
0000
0100
0001
1000
0001
0010
0100
,
2000
0000
3000
0002
0000
1003
0001
0100
,
0010
0000
0100
0001
1000
0000
0001
0010
,
0100
1000
0001
0000
0110
0000
1001
0000
,
1000
0000
0010
0100
0000
0001
0100
0000
,
0110
0000
0001
1000
0100
0010
0001
1000
,
0020
0100
1000
0130
,
0010
1000
0001
1000
0100
0010
0001
0000
,
1000
0100
0001
0100
1000
0001
1000
0000
,
0001
0100
1000
0100
0001
1000
0001
0000
,
1000
0010
0001
0010
1000
0001
1000
0000
,
0001
0010
0100
0000
1100
0000
1001
0000
,
1000
0000
0100
1000
0000
0001
1000
0010
,
0100
0000
0001
0010
0100
0000
0010
0001
,
1000
0001
0100
0010
1000
0001
0010
0100
,
1000
0000
0100
0000
0010
0000
0001
1000
0001
0000
0001
0000
0100
0000
0100
0000
,
0110
0000
0000
0000
0000
0000
0000
0001
,
1000
0000
0000
0000
0000
0000
0000
0100
,
0010
0000
0000
0000
,
0002
0000
0000
0000
0203
0000
0000
0000
0310
0000
1000
0000
0001
0000
0010
0100
,
0010
0000
0001
0100
0010
1000
0001
0010
,
0100
0000
1000
0000
0001
0000
0100
0010
0100
0000
0000
0000
0110
0000
0000
0000
,
0002
0100
2003
0010
,
3001
0000
0000
0000
1000
0000
0001
0100
0001
0000
1000
0000
0001
0010
0001
0000
,
0000
0000
1001
0000
0001
1000
0010
0000
,
0100
0000
0001
0000
1000
0000
0000
0001
0000
0000
0010
0000
0100
0000
1000
0000
,
0001
0100
0001
0000
1000
0000
0000
0100
0000
0000
0010
0000
0100
0000
1000
0000
,
0001
0000
0100
0000
0010
0000
0000
0100
0000
0000
0001
0000
1000
0000
0001
0000
,
0010
0100
0010
0000
0001
0000
0000
1000
0000
0000
0010
0000
0100
0000
0010
0000
,
1000
0001
0100
0001
1000
0001
0010
0000
,
0001
1000
0100
1000
0001
1000
0010
0000
,
0110
0000
1001
0000
1000
0100
0010
0000
,
0002
0000
0103
0001
1000
0001
0010
0001
,
0100
0000
0010
0100
0001
1000
0100
0010
,
0001
0011
1000
1010
,
1100
0000
0101
0000
0001
1000
0001
0100
,
0100
0000
0010
0200
0000
0301
1000
0100
,
0020
0000
0031
1000
0010
0100
0001
0000
,
0220
0000
0330
1000
0200
0000
0310
0001
,
1000
0000
0000
0001
0100
0000
0010
1000
0010
0000
0100
0000
0001
0000
1000
0000
,
1001
0000
0000
0000
0000
0000
0000
0001
,
0100
0000
0000
0000
0000
0000
0000
1000
,
0100
0000
0000
0000
,
0001
0000
1000
0000
0001
0000
0100
0010
0100
0000
0010
0000
1000
0000
0000
0000
,
1001
0000
1000
0100
0000
0001
0000
0100
,
0010
0000
0001
1000
0010
0000
1001
0000
,
1000
0100
1000
0100
0010
0001
0010
0001
,
1000
0010
0100
0001
1000
0100
0010
0000
,
0001
0100
0001
2000
0000
3001
0010
0001
,
1000
0010
1000
0002
0000
1003
0100
1000
,
0002
0000
0103
0002
0000
1003
0001
0010
,
0100
1100
0101
1001
,
1000
0000
0010
1000
0100
1000
0001
0100
,
0010
0000
0100
0001
1000
0001
0010
0100
,
1000
0000
0001
0100
1000
0000
0001
0010
,
1000
0001
0100
0010
0100
0200
0000
0000
,
0301
0000
1000
0000
0001
0000
0010
0100
0000
0010
0100
0000
1000
0000
0001
0000
,
0100
0000
0000
0010
0000
0000
1001
0000
0000
0000
0000
0000
0000
0000
0000
0000
;

//--------------- dance-single - Fred-104 ----------------
#NOTEDATA:;
#STEPSTYPE:dance-single;
#DESCRIPTION:Fred-104;
#DIFFICULTY:Challenge;
#METER:14;
#CREDIT:Fred-104;
#NOTES:
0000
0000
0000
0000
,
0000
0000
0000
0000
,
0000
0000
0000
0000
,
0000
0000
0000
0000
,
0000
0000
0000
0000
,
0000
0000
0000
0000
,
0001
0000
1000
0100
1000
0000
0001
0100
0000
0001
0010
0000
0001
0000
1000
0000
,
0001
0100
0010
0000
1000
0100
0010
0000
0001
0000
1000
0000
0001
0000
1000
0000
,
0010
0000
0100
0000
0001
0100
0010
0000
1000
0000
0100
0000
0010
0000
0001
0000
,
0010
0000
0010
0000
0011
0000
0000
0000
1000
0000
0100
1000
0001
0010
0001
0010
,
0002
0000
1000
2003
0000
0000
3010
0100
,
0002
0000
1000
0100
0003
0100
1000
0001
,
2000
0000
0000
3020
0000
0032
0000
0023
,
0230
0000
0000
0000
0000
0000
0000
0000
0302
0000
0000
0000
1003
0000
0001
1000
,
0010
0000
1000
0000
0001
0000
1000
0000
0001
0000
0010
0000
0100
0000
0010
0001
,
0010
0001
1000
0001
0200
0000
0310
1000
,
0002
0000
0000
0000
0013
0000
0100
0000
1000
0100
0010
0100
1000
0001
1000
0001
,
0100
0000
0000
0000
0000
0000
0001
0010
0000
0000
2002
0000
0000
0000
3003
0000
,
1000
0000
0100
0000
1000
0000
0001
0100
0001
0000
0010
0000
0100
0000
1000
0001
,
1000
0000
0001
0000
0100
0000
0010
1000
0010
0000
1000
0001
0010
0000
0100
0000
,
2000
0000
3001
0010
2000
0000
3001
0100
,
1000
0001
0101
0000
1010
0000
1001
1000
,
0001
0000
0010
0000
0100
0000
1000
0001
1000
0000
0010
0000
0100
0000
0010
1000
,
0010
0000
0100
0000
0001
0000
1000
0100
1000
0000
0100
0000
0010
0000
0100
1000
,
0100
0000
1000
0000
0010
0000
0100
0001
0100
0000
0001
0000
0010
0000
0100
0010
,
0100
0000
1000
0000
1000
0000
1000
0001
0000
0000
0100
0000
0010
0000
0100
0001
,
1000
0000
0001
0100
0001
0000
1000
0100
1000
0000
0001
0000
0200
0000
0000
0000
,
0301
0000
1000
0010
1000
0000
0001
0010
0001
0000
1000
0000
0010
0000
0100
0000
,
0001
0000
1000
0010
1000
0000
0001
0010
0001
0000
0010
0000
0200
0000
0000
0000
,
1300
0010
0110
0000
0101
0001
1001
0000
,
0001
0100
0010
0001
0010
0100
0001
1000
,
0001
0010
1000
0010
0100
1000
0001
0000
,
1000
0000
0100
0000
0010
0000
0001
1000
0001
0000
0100
0000
0010
0000
1000
0001
,
1000
0000
0001
0000
0100
0000
0010
1000
0001
0000
0001
0000
1000
0000
1000
0000
,
1001
0001
0010
0200
0000
1300
0001
0100
,
1000
0100
0001
2000
0000
3100
0001
0100
,
1000
0001
0010
0100
0010
0001
1000
0010
,
0100
0001
0100
0001
0100
0000
0001
1000
0100
0000
0010
0001
1000
0000
0001
0000
,
1001
0000
1000
0100
1000
0001
0100
1000
,
0100
0000
0001
0000
1000
0000
0001
1000
0010
0000
0100
0000
0001
0000
1000
0100
,
0010
0000
0000
0000
0001
0000
1000
0010
1000
0000
0001
0000
0010
0000
0100
1000
,
0100
0000
1000
0000
0001
0000
0100
0010
0100
0010
0100
0000
0001
1000
0001
0000
,
0000
0000
0000
0000
1000
0000
0010
0100
0000
0001
0100
0000
0010
0000
1000
0000
,
0001
0010
0001
0000
1000
0000
0001
0010
0000
0100
1000
0000
0001
0000
1000
0000
,
0010
0100
0010
0000
1000
0000
0001
0010
0000
0100
0010
0000
0001
0000
1000
0000
,
0010
0000
0100
0000
0001
0000
1000
0100
0000
0010
0001
0000
1000
0010
1000
0000
,
0001
0100
0001
0000
1000
0000
0001
0010
0000
0010
0100
0000
1000
0000
0001
0000
,
1000
0000
0100
0010
0100
0000
1000
0000
0010
0100
0010
0000
1000
0001
1000
0000
,
0001
0100
0001
0000
1000
0000
0001
0010
0001
0000
1000
0000
0001
0010
0100
0000
,
1100
0000
0101
0000
0100
0010
1001
0000
,
2000
0000
3100
1000
0100
0010
0001
1000
,
0010
0000
0100
0010
1000
0010
0001
0010
,
0100
0001
1001
0000
0100
1000
1001
0000
,
1100
0000
0000
0000
0001
0000
1000
0010
0100
0000
0001
0000
1000
0000
0100
0000
,
1000
0000
0010
0100
1000
0100
0001
1000
,
0001
0010
0100
1000
0001
0100
0010
0000
,
2010
0000
0000
3001
0020
0000
0130
1000
,
0001
0000
0100
0010
0100
0000
0100
0001
0100
0000
0001
0000
1000
0000
0100
0000
,
0110
0100
1000
0002
0000
1003
0010
0001
,
0010
1000
0001
0020
0000
1030
0010
0001
,
2000
0000
0000
3200
0000
2300
0000
3002
,
0103
0000
0010
0000
1000
0000
0001
0010
0001
0000
1000
0010
1000
0000
0001
0000
,
1000
0000
0010
1000
0100
0010
0100
1000
,
0002
0100
0023
0230
,
1300
0000
0100
0100
0010
0001
1000
1000
,
0001
0000
0100
0010
0100
0000
0001
1000
0100
1000
0100
1000
0001
0100
0001
0100
,
0010
0000
1000
0001
1000
0000
0100
0000
0010
0000
0001
1000
0001
0000
0100
0010
,
0100
0000
0001
0010
0001
0000
1000
0000
0001
0000
1000
0100
1000
0000
0001
0100
,
0001
1000
0100
0010
1000
0010
0001
0010
,
0100
1000
0001
0100
0010
1000
0001
0001
,
0001
1000
0010
0100
1000
0100
0010
0100
,
0002
0000
1003
0001
0010
0100
1000
0001
,
1000
0000
0000
0000
0001
0000
0010
0100
0010
0000
0000
0000
0001
0000
0100
0010
,
0100
0000
0001
1000
0100
1000
0001
0100
0001
0000
2002
0000
0000
0000
3003
0000
,
0010
1000
0010
1000
0001
0000
1000
0100
0000
0010
0001
0000
0100
0010
1000
0000
,
1100
0000
0000
0101
0000
0000
1001
0000
0000
0000
0000
0000
0000
0000
0000
0000
;

//--------------- dance-double - Fred-104 ----------------
#NOTEDATA:;
#STEPSTYPE:dance-double;
#DESCRIPTION:Fred-104;
#DIFFICULTY:Easy;
#METER:5;
#CREDIT:Fred-104;
#NOTES:
00000000
00000000
00000000
00000000
,
00000000
00000000
00000000
00000000
,
00000000
00000000
00000000
00000000
,
00000000
00000000
00000000
00000000
,
00000000
00000000
00000000
00000000
,
00000000
00000000
00000000
00000000
,
00000002
00000000
00000000
00000000
,
00002003
00000000
00003020
00020030
,
00032000
00000000
00000000
00000000
,
00013000
00010000
00001000
00001000
,
00022000
00000000
00000000
00033000
,
00020000
00000000
00032000
00000000
,
00003200
00000000
00000000
00000000
,
00000302
00000000
00002003
00003001
,
00000100
00000000
00000010
00000000
,
00000100
00000010
00010000
00001000
,
00010000
00000000
00000100
00000000
,
00001000
00000000
00000000
00000001
00000000
00002002
00000000
00003003
,
00000002
00000000
00000103
00001000
,
00020000
00000000
00031000
00010000
,
02000000
00000000
03100000
00000000
,
01000000
10000000
00010000
10000000
,
00100000
00000000
00000000
01000000
00000000
00000000
00020000
00000000
,
00000000
00130000
00001000
00100000
,
00002000
00000000
00023000
00000000
,
00031000
00010000
00000010
00010000
,
00002000
00000000
00013000
00000000
,
00000100
00001000
00000001
00000100
,
00000220
00000330
00002002
00003003
,
00000001
00000100
00000010
00001000
,
00000001
00000000
00000010
00000100
,
00001000
00000000
00000100
00010000
,
00001000
00000000
01000000
00000000
,
00001000
00010000
00001000
00010000
,
00011000
00000000
00000000
00000000
,
00001000
00000000
00000000
00000000
,
01000000
00000000
00100000
00000000
,
10000000
00000000
00100000
10000000
,
01000000
00000000
00100000
00000000
,
00001000
00000000
00010000
00010000
,
00020000
00000000
00032000
00000000
,
00013000
00000000
00011000
00000000
,
00000000
00010000
00000100
00001000
,
00000100
00010000
00002000
00003000
,
00010000
00001000
00000020
00000030
,
00000001
00001000
00000200
00000300
,
00010000
00001000
02000000
03000000
,
00001000
00010000
00100000
01000000
,
00010000
10000000
01000000
00100000
,
00001000
00001000
00010000
00010000
,
00022000
00033000
00010000
00000000
,
00001000
00010000
00000010
00010000
,
00022000
00033000
00000220
00000330
,
00002002
00003003
00000001
00000010
,
00001000
00000000
00000000
00010000
00000000
00000000
00001000
00000000
,
00010000
00000000
00001000
00010000
,
01000000
00000000
00100000
00000000
,
00010000
10000000
01000000
00100000
,
10010000
00000000
00000000
00000000
,
10000000
00000000
00000000
00000000
,
01000000
00000000
00010000
00000000
,
00001000
00010000
00001000
00010000
,
00001000
00000000
00000100
00000000
,
00000001
00000000
00000100
00001000
,
00020000
00000000
00032000
00000000
,
00023000
00000000
02030000
00000000
,
13000000
00100000
00010000
00001000
,
00020000
00000000
00032000
00013000
,
00002000
00000000
00003020
00000032
,
00002003
00003200
00000320
00000032
,
00002003
00000000
00003020
00000000
,
00010030
00001000
00010000
00000010
,
00020000
00030000
00002000
00003000
,
01000000
00100000
02200000
03300000
,
00020000
00000000
00000000
00030000
,
20020000
00000000
00000000
30030000
00000000
00000000
00000000
00000000
;

//--------------- dance-double - Fred-104 ----------------
#NOTEDATA:;
#STEPSTYPE:dance-double;
#DESCRIPTION:Fred-104;
#DIFFICULTY:Medium;
#METER:8;
#CREDIT:Fred-104;
#NOTES:
00000000
00000000
00000000
00000000
,
00000000
00000000
00000000
00000000
,
00000000
00000000
00000000
00000000
,
00000000
00000000
00000000
00000000
,
00000000
00000000
00000000
00000000
,
00000000
00000000
00000000
00000000
,
10000000
00000000
00000000
00010000
00000000
00000000
10000000
00000000
,
01000000
00100000
00001000
00010000
00010000
00000000
00001000
00000000
,
00010000
00000000
00000010
00001000
00000000
00000010
00001000
00000000
,
00000001
00000100
00001000
00000000
00010000
00000000
00001000
00000000
,
00012000
00000000
00023000
00000000
,
00032000
00000000
00203000
00320000
,
20030000
00000000
00000000
01000000
00000000
01000000
30000000
01000000
,
00200000
00000000
00301000
00010000
,
00001000
00010000
00001000
00000100
,
00000020
00000030
00001000
00000001
,
00000100
00000000
00001000
00000000
,
00010000
00000000
00000000
00001000
00000000
00022000
00000000
00033000
,
00001000
00000000
00000000
00000000
00100000
00010000
00100000
00000000
,
00001000
00000000
00000000
00000000
00010000
01000000
00100000
00000000
,
00010000
00100000
02000000
03000000
,
10000000
00100000
00010000
00001000
,
00010000
00000000
00000000
00001000
00000000
00000000
00000100
00000000
,
00000010
00000000
00001000
00000000
00000001
00000010
00000100
00000000
,
00020000
00001000
00002000
00033000
,
00001000
00010000
00100000
10000000
,
00020000
00000000
00030000
00000000
10000000
00000000
01000000
00010000
,
00002000
00000000
00003000
00010000
00000000
00000100
00010000
00000000
,
00001000
00010010
00010000
00101000
,
00001000
00010000
00000200
00020300
,
00031000
00000000
00000000
00010000
00000000
00000000
00000100
00000000
,
00000010
00000000
00000001
00000000
00001000
00000001
00001000
00000000
,
00000001
00000000
00000100
00000010
00000100
00000000
00001000
00010000
,
00001000
00000000
00010000
00000000
01000000
10000000
00010000
00000000
,
10010000
00000000
00000000
00000000
00000000
00000000
00000000
01000000
,
00100000
00000000
00000000
00000000
00000000
00000000
00000000
00001000
,
00010000
00000000
00000000
00000000
,
00000020
00000000
00020030
00000000
00030010
00001000
00000001
00000000
,
00001000
00000000
00000000
00000001
00000000
00000100
00000000
00001000
,
00000000
00010000
00001000
00000100
,
00000020
00000000
00020030
00000000
,
00031000
00000000
00000000
01000000
00100000
00000000
10010000
00000000
,
00000000
10000000
01000000
00010000
,
00001000
00000100
00000001
00001000
,
00000001
00000010
00001000
00010000
,
00100000
00000000
10000000
00000000
00010000
10000000
00010000
00000000
,
10000000
01000000
00100000
00001000
,
00010000
00100000
01000000
00010000
,
00001000
00000100
00000010
00000001
,
00001000
00000000
00000100
00000000
00010000
00001000
00010000
00000000
,
00022000
00033000
00001000
00010000
,
00001000
00000000
00000000
00100000
00000000
00010000
10000000
00000000
,
01000000
00110000
00001000
00010100
,
00001000
00000000
00011000
00000000
00010000
00001000
00010000
00000000
,
00002000
00000000
00003000
00020000
00000000
01030000
00100000
00000000
,
01000000
00000000
10000000
00000000
01000000
00100000
00001000
00000000
,
00022000
00033000
00020000
00032000
,
00013000
00000000
00000100
00000000
00001000
00000001
00000010
00000100
,
00000010
00000000
00000000
00000000
00000000
00000000
00000000
00000001
,
00001000
00000000
00000000
00000000
00000000
00000000
00000000
00000010
,
00010000
00000000
00000000
00000000
,
00001000
00000000
01000000
00000000
00010000
10000000
01000000
00000000
,
01100000
00000000
00100000
00001000
00000000
00010000
00000000
00001000
,
00000000
01000000
00001000
00010000
,
00001000
00000000
00000000
00000100
00000001
00000000
00000000
00001000
,
00000100
00000000
00000000
00000010
00000001
00000000
00001001
00000000
,
00000001
00000000
00000100
00000010
00000000
00010000
00001000
00000000
,
00010000
00000000
00000010
00001000
00000000
00000100
00010000
00000000
,
00001000
00000000
00100000
00010000
00000000
10000000
01000000
00000000
,
20000000
32000000
03020000
00032000
,
00013000
00000000
00000000
00000100
00000000
00000010
00000000
00000001
,
00000000
00000000
00001000
00000000
00000010
00010000
00001000
00000000
,
00011000
00000000
01100000
00000000
,
11000000
00000000
01010000
00000000
,
10000000
01000000
00100000
00000000
00001000
00010000
00000010
00001000
,
00000001
00000000
00000000
00000100
00000000
00000000
00000110
00000000
00000000
00000000
00000000
00000000
00000000
00000000
00000000
00000000
;

//--------------- dance-double - Fred-104 ----------------
#NOTEDATA:;
#STEPSTYPE:dance-double;
#DESCRIPTION:Fred-104;
#DIFFICULTY:Hard;
#METER:11;
#CREDIT:Fred-104;
#NOTES:
00000000
00000000
00000000
00000000
,
00000000
00000000
00000000
00000000
,
00000000
00000000
00000000
00000000
,
00000000
00000000
00000000
00000000
,
00000000
00000000
00000000
00000000
,
00000000
00000000
00000000
00000000
,
00010000
00001000
00000000
00000100
00000000
00000010
00001000
00000001
,
00000010
00000100
00000010
00001000
00010000
01000000
00100000
00000000
,
00010000
10000000
00100000
01000000
00000000
00100000
10000000
01000000
,
00100000
00001000
00011000
00000000
00010000
00001000
00000100
00000001
,
00002000
00000000
00003100
00010000
,
00002000
00000000
00013000
00100000
,
02000000
00000000
00000000
00010000
00000000
10000000
00000000
03010000
,
00200000
00300000
02000000
23000000
,
30010000
00000000
10000000
01000000
00000000
00100000
00000000
00001000
,
00010000
00000000
00001000
00000100
00000001
00000100
00000010
00010000
,
00001000
00000000
00010000
00001000
00000010
00000000
00000001
00001000
,
00000010
00000000
00000000
00000000
00000000
00000000
00010000
00001000
00000000
00000000
00022000
00000000
00000000
00000000
00033000
00000000
,
00001000
00000000
00100000
00001000
00010000
00001000
01000000
00010000
,
20000000
00000000
30000000
02000000
00000000
03100000
00001000
00010000
,
00001000
00000000
00010000
00001000
00000010
00000000
00000001
00000010
,
00000100
00001000
00000100
00000000
00011000
00000000
01100000
00000000
,
00010000
00000000
10000000
00100000
00010000
00001000
00010000
00000000
,
00011000
00000000
00010000
00001000
00000100
00000010
00001000
00000001
,
00000020
00000100
00000001
00000130
,
00000010
00000001
00000100
00001000
00010000
00001000
00010000
00000000
,
00001000
00010000
00100000
01000000
00010000
10000000
00010000
00000000
,
10000000
01000000
00100000
00001000
00010000
00001000
00000100
00000000
,
00001000
00010000
00001000
00000010
00000001
00000010
00000100
00000000
,
00010000
00001000
00010000
00000000
00011000
00000000
00010010
00000000
,
00001000
00000000
00010000
00001000
00000000
00100000
00001000
00010000
,
00000010
00000000
00001000
00000001
00000100
00000000
00001000
00010000
,
00100000
01000000
00010000
10000000
01000000
00100000
00010000
00000000
,
01000000
00000000
00001000
00000000
00010000
00000000
00000100
00010000
00000100
00000000
00001000
00000000
00000001
00000000
00000010
00000000
,
00000110
00000000
00000000
00000000
00000000
00000000
00000000
00010000
,
00001000
00000000
00000000
00000000
00000000
00000000
00000000
01000000
,
00100000
00000000
00000000
00000000
,
02000000
00000000
00000000
00000000
03002000
00000000
00000000
00000000
00013000
00000000
00000100
00000000
00001000
00000000
00000100
00000010
,
00000100
00000000
00000010
00000001
00001000
00000010
00000100
00001000
,
00010000
00100000
01000000
00010000
10000000
00000000
10010000
00000000
,
10000000
00000000
00000000
01000000
00100000
00000000
00000000
00001000
,
00010000
00000000
00000000
00000000
00001000
00000000
00010000
00001000
00010000
00000000
00000100
00000000
00001000
00000001
00001000
00000000
,
00000000
00000000
00000110
00000000
00010000
00001000
00010000
00000000
,
00000100
00000000
00010000
00000000
00001000
00000000
00000000
00010000
00000000
00000000
00100000
00000000
01000000
00000000
00100000
00000000
,
10000000
00000000
00010000
00000000
00100000
00000000
00000000
01000000
00000000
00000000
00100000
00000000
00001000
00000000
00010000
00000000
,
00001000
00000000
00010000
00000000
00000100
00000000
00000000
00001000
00000000
00000000
00000001
00000000
00000100
00000000
00000001
00000000
,
00000010
00000100
00000010
00000000
00000001
00000000
00000000
00001000
00000000
00000000
00000100
00000000
00010000
00000000
00001000
00000000
,
00010000
00001000
00100000
00001000
00010000
00001000
01000000
00000000
,
00001000
00010000
00000100
00010000
00001000
00010000
00000010
00000000
,
00001010
00000000
00001001
00000000
00000001
00000010
00001000
00010000
,
00002000
00000000
00013000
00100000
01000000
00100000
10000000
00010000
,
00100000
00000000
01000000
00100000
00001000
00010000
00000100
00001000
,
00000100
00011000
01000000
00011000
,
00000010
00000000
00011000
00000000
00100000
00001000
00010000
00001000
,
01000000
00000000
00001000
00010000
00000000
00001000
00100000
00010000
,
10000000
00000000
01000000
00100000
00001000
00010000
00001000
00000000
,
00022000
00000000
00033000
00010000
00001000
00000000
00000100
00000001
,
00000100
00000000
00000010
00000000
00001000
00000000
00000001
00000010
00000001
00000000
00000010
00000000
00000100
00000000
00010000
00000000
,
00011000
00000000
00000000
00000000
00000000
00000000
00000000
00010000
,
01000000
00000000
00000000
00000000
00000000
00000000
00000000
00100000
,
10000000
00000000
00000000
00000000
,
01000000
00000000
00100000
00000000
00001000
00000000
00010000
00001000
00010000
00000000
00000100
00000000
00001000
00000000
00000001
00000000
,
00001001
00000000
00000001
00000010
00000000
00000100
00000000
00010000
,
00001000
00000000
00010000
00001000
00000010
00001000
00010000
00000000
,
00011000
00000000
00001000
00100000
00010000
00000000
10000000
00010000
,
00100000
00000000
01000000
10000000
00100000
01000000
00100000
00000000
,
10000000
01000000
00100000
00020000
00000000
00130000
00001000
00010000
,
00001000
00010000
00000100
00002000
00000000
00003001
00001000
00000010
,
00000100
00000000
00000001
00001000
00000100
00000010
00001000
00010000
,
01000000
00100000
00010000
10000000
01000000
00100000
00001000
00000000
,
00011000
00000000
00010000
00001000
00010000
00000100
00000010
00000001
,
00001000
00000000
00000010
00000100
00001000
00010000
00001000
00000000
,
01001000
00000000
00001000
00010000
00000010
00000000
00001000
00000001
,
00000010
00000100
00010000
00001000
00000100
00000020
00000000
00000000
,
00001030
00000000
00000001
00000000
00000010
00000000
00000100
00001000
00000000
00000100
00001000
00000000
00000100
00000000
00010000
00000000
,
00001000
00000000
00000000
00010000
00000000
00000000
00011000
00000000
00000000
00000000
00000000
00000000
00000000
00000000
00000000
00000000
;

//--------------- dance-double - Fred-104 ----------------
#NOTEDATA:;
#STEPSTYPE:dance-double;
#DESCRIPTION:Fred-104;
#DIFFICULTY:Challenge;
#METER:15;
#CREDIT:Fred-104;
#NOTES:
00000000
00000000
00000000
00000000
,
00000000
00000000
00000000
00000000
,
00000000
00000000
00000000
00000000
,
00000000
00000000
00000000
00000000
,
00000000
00000000
00000000
00000000
,
00000000
00000000
00000000
00000000
,
00001000
00000000
00100000
00010000
00100000
00000000
00001000
00100000
00000000
00010000
10000000
00000000
00100000
00000000
01000000
00000000
,
00010000
10000000
01000000
10000000
00010000
01000000
00010000
00000000
10000000
00000000
01000000
00000000
00010000
00000000
00001000
00000000
,
00010000
00000000
00001000
00000000
00000010
00000100
00000010
00000000
00000001
00000000
00001000
00000000
00000001
00000000
00000100
00000000
,
00001000
00000000
00010000
00000000
00011000
00000000
00000000
00000000
00001000
00000000
00100000
00010000
10000000
00100000
01000000
00010000
,
20000000
00000000
00100000
30200000
00000000
00000000
01300000
00001000
,
00000100
00000000
00000020
00001000
00000030
00001000
00000001
00000010
,
00002000
00000000
00000000
00023000
00000000
02030000
00000000
23000000
,
30200000
00000000
00000000
00000000
00000000
00000000
00000000
00000000
00320000
00000000
00000000
00000000
00031000
00000000
00010000
00001000
,
00010000
00000000
00000100
00000000
00001000
00000000
00000100
00000000
00000010
00000000
00000001
00000000
00001000
00000000
00000010
00010000
,
00001000
00010000
00100000
01000000
00200000
00000000
10300000
01000000
,
00020000
00000000
00000000
00000000
00031000
00000000
00000100
00000000
00000001
00001000
00000001
00001000
00000010
00000100
00000010
00000100
,
00000010
00000000
00000000
00000000
00000000
00000000
00010000
00001000
00000000
00000000
02200000
00000000
00000000
00000000
03300000
00000000
,
00010000
00000000
01000000
00000000
00100000
00000000
00010000
00001000
00010000
00000000
00001000
00000000
00000010
00000000
00000100
00000010
,
00000001
00000000
00000010
00000000
00000100
00000000
00001000
00000100
00010000
00000000
00000010
00010000
00001000
00000000
00100000
00000000
,
02000000
00000000
13000000
00100000
00010000
00000000
00001000
00000100
,
00000001
00000010
00000110
00000000
00011000
00000000
01100000
00000000
,
00010000
00000000
10000000
00000000
01000000
00000000
00010000
00001000
00010000
00000000
00001000
00000000
00000100
00000000
00000001
00000010
,
00000001
00000000
00000010
00000000
00000100
00000000
00010000
00001000
00010000
00000000
00100000
00000000
01000000
00000000
00100000
10000000
,
00100000
00000000
10000000
00000000
01000000
00000000
00010000
00001000
00010000
00000000
00001000
00000000
00000010
00000000
00000100
00001000
,
00000100
00000000
00000010
00000000
00000010
00000000
00000010
00000001
00000000
00000000
00000100
00000000
00000010
00000000
00001000
00000100
,
00010000
00000000
00000010
00001000
00000010
00000000
00010000
00001000
00100000
00000000
00010000
00000000
02000000
00000000
00000000
00000000
,
03001000
00000000
00010000
00000100
00001000
00000000
00000100
00010000
00000100
00000000
00001000
00000000
00000001
00000000
00000100
00000000
,
00000010
00000000
00010000
00001000
00010000
00000000
00001000
01000000
00001000
00000000
00100000
00000000
00010000
00000000
00100000
00000000
,
00001000
00010000
00010010
00000000
01001000
00000000
01100000
00000000
,
10010000
00000000
10000000
01000000
00010000
00001000
00010000
00001000
,
00000100
00000000
00001000
00000000
00010000
00000000
00001000
00000000
00000010
00000000
00000001
00001000
00000001
00000000
00000000
00000000
,
00001000
00000000
00000001
00000000
00000100
00000000
00001000
00010000
00001000
00000000
00010000
00000000
00100000
00000000
01000000
00010000
,
01000000
00000000
00100000
00000000
10000000
00000000
00010000
00100000
00001000
00000000
00001000
00000000
00010000
00000000
00010000
00000000
,
00011000
00001000
00010000
00200000
00000000
10300000
01000000
00010000
,
00001000
00000100
00000001
00000020
00000000
00000031
00000100
00001000
,
00020000
00000000
00031000
00010000
00100000
01000000
00001000
00010000
,
01000000
00100000
01000000
00100000
00010000
00000000
10000000
00100000
01000000
00000000
00001000
00010000
00000010
00000000
00001000
00000000
,
00001001
00000000
00001000
00000001
00000100
00000010
00000100
00001000
,
00010000
00000000
00100000
00000000
01000000
00000000
00010000
10000000
01000000
00000000
00100000
00000000
00001000
00000000
00010000
00100000
,
01000000
00000000
00001000
00000000
00010000
00000000
00100000
10000000
00010000
00000000
01000000
00000000
00010000
00000000
10000000
01000000
,
00100000
00000000
00001000
00000000
00010000
00000000
00000010
00001000
00000010
00000100
00000001
00000000
00001000
00000001
00000010
00000000
,
00000000
00000000
00000000
00000000
00000001
00000000
00000001
00000100
00000000
00000010
00001000
00000000
00000001
00000010
00000100
00000000
,
00010000
00001000
00010000
00001000
00010000
00000000
00001000
00100000
00000000
00010000
10000000
00000000
00010000
10000000
01000000
00000000
,
00100000
00010000
00100000
00001000
00010000
00000000
00000010
00001000
00000000
00000010
00010000
00000000
00001000
00010000
00000100
00000000
,
00001000
00000010
00001000
00000000
00000001
00000000
00000100
00000010
00000000
00001000
00000010
00000100
00000001
00001000
00000010
00000000
,
00001000
00000100
00010000
00000000
00001000
00000000
00100000
00010000
10000000
00010000
00100000
00000000
00010000
00000000
01000000
00000000
,
00001000
00010000
00001000
00000000
00010000
00000000
00000010
00001000
00000010
00010000
00001000
00000000
00100000
00010000
10000000
00000000
,
00010000
00000000
10000000
01000000
10000000
00010000
01000000
00000000
00001000
00010000
00001000
00000000
00000010
00000100
00001000
00000000
,
00001001
00000000
00011000
00000000
10010000
00000000
00010000
10000000
,
02000000
00000000
13000000
00100000
00010000
00001000
00010000
00100000
,
01000000
00000000
00001000
00010000
00001000
00000010
00000001
00000010
,
00000100
00011000
01000000
10010000
,
00100000
00000000
00000000
00000000
00011000
00000000
00010000
00000010
00010000
00000000
00001000
00000000
00000100
00000000
00000010
00000000
,
00001000
00000000
00000100
00000010
00001000
00010000
00001000
00010000
,
00100000
01000000
00010000
00100000
01000000
00010000
00001000
00000000
,
00102000
00000000
00000000
00013000
00002000
00000000
00013000
00000010
,
00001000
00000000
00000001
00000100
00000001
00000000
00000001
00000010
00000001
00000000
00000010
00000000
00000100
00000000
00010000
00000000
,
00011000
00010000
00001000
00000020
00000000
00000031
00000100
00001000
,
00010000
01000000
10000000
00200000
00000000
10300000
01000000
00010000
,
00002000
00000000
00000000
00023000
00000000
00030020
00000000
00002030
,
00003001
00000000
00000010
00000000
00000100
00000000
00010000
00001000
00010000
00000000
00000010
00001000
00000010
00000000
00010000
00000000
,
00001000
00000000
00010000
00001000
00000010
00001000
00010000
00001000
,
02000000
00100000
03020000
20030000
,
31000000
00000000
00100000
00100000
00001000
00010000
00001000
00001000
,
00010000
00000000
00000010
00001000
00000010
00000000
00000100
00000000
00000001
00000010
00000001
00000010
00000100
00001000
00000100
00000000
,
00010000
00000000
00001000
01000000
00001000
00000000
00100000
00000000
00010000
10000000
00010000
00000000
01000000
00100000
01000000
00000000
,
00010000
00000000
10000000
01000000
10000000
00000000
00100000
00000000
00010000
00001000
00010000
00000000
00000010
00000100
00000010
00000000
,
00001000
00000100
00000010
00000000
00000001
00000000
00000100
00000010
00000100
00000000
00001000
00000000
00010000
00100000
01000000
00000000
,
00010000
00000000
10000000
00000000
01000000
00000000
00100000
00000000
00001000
00000000
00010000
00000000
00001000
00010000
00001000
00010000
,
00001000
00010000
00001000
00000100
00000001
00001000
00000010
00000100
,
00001000
00000000
00010000
00000000
00100000
00000000
01000000
00010000
01000000
00000000
00001000
00010000
00000100
00000000
00001000
00000000
,
00000001
00000000
00000000
00000000
00000010
00000000
00001000
00000000
00010000
00000000
00000000
00000000
00100000
00000000
01000000
00010000
,
01000000
00000000
00010000
10000000
00010000
10000000
01000000
00100000
00010000
00000000
00220000
00000000
00000000
00000000
00330000
00000000
,
00001000
00010000
00001000
00010000
00000010
00000000
00001000
00000100
00000000
00000010
00000001
00000000
00000100
00001000
00010000
00100000
,
01000000
00000000
00000000
01010000
00000000
00000000
10010000
00000000
00000000
00000000
00000000
00000000
00000000
00000000
00000000
00000000
;
