#VERSION:0.83;
#TITLE:M4K3 1T B0UNC3;
#ARTIST:kors k;
#TITLETRANSLIT:MAKE IT BOUNCE;
#GENRE:HDM;
#BANNER:M4K3 1T B0UNC3.png;
#BACKGROUND:M4K3 1T B0UNC3-bg.png;
#CDTITLE:./CDTitles/bm IIDX 23 copula.png;
#MUSIC:M4K3 1T B0UNC3.ogg;
#SAMPLESTART:86.4;
#SAMPLELENGTH:15;
#DISPLAYBPM:37.5:300;
#BPMS:0=150,48=37.5,48.75=75,49=300,50=150,81=300,82=150,112=300,112.5=150,112.75=75,113=150,153=75,169=150,197=37.5,197.75=75,198=300,199=150,214=75,214.25=150,214.5=300,215=150,226=75,227.5=150,228=300,229=150,244=75,244.25=150,244.5=300,245=150;
#STOPS:48.75=0.2,49=0.05,49.25=0.05,49.5=0.05,49.75=0.05,81=0.05,81.25=0.05,81.5=0.05,81.75=0.05,197.75=0.2,198=0.05,198.25=0.05,198.5=0.05,198.75=0.05,227.5=0.2,228=0.05,228.25=0.05,228.5=0.05,228.75=0.05;
#TIMESIGNATURES:0=4=4,48=1=4,49=4=4,197=1=4,198=4=4,226=2=4,228=4=4;
#BGSTAGE:6;

//--------------- dance-single - Fred-104 ----------------
#NOTEDATA:;
#STEPSTYPE:dance-single;
#DESCRIPTION:Fred-104;
#DIFFICULTY:Beginner;
#METER:3;
#DISPLAYBPM:150;
#BPMS:0=150;
#TIMESIGNATURES:0=4=4;
#CREDIT:Fred-104;
#NOTES:
0000
0000
0000
0000
,
0000
0000
0000
0000
,
0000
0000
0000
0000
,
0000
0000
0000
0000
,
0000
0000
0000
0000
,
1000
0000
0000
0000
,
0001
0000
1000
0000
,
0100
0000
1000
0000
,
0001
0000
1000
0000
,
0001
0000
0001
0000
,
0010
0000
0010
0000
,
0100
0000
0100
0000
,
2002
0000
0000
3003
,
1000
0000
0001
0000
,
1000
0000
0100
0000
,
0010
0000
0010
0000
,
0001
0000
1000
0000
,
0001
0000
0001
0000
,
1000
0000
0001
0000
,
0100
0000
0010
0000
,
0100
0000
0001
0000
,
1000
0000
0100
0000
,
1000
0000
0001
0000
,
0001
0000
0010
0000
,
0100
0000
1000
0000
,
1000
0000
0001
0000
,
1000
0000
0001
0000
,
1000
0000
0100
0000
,
2002
0000
0000
3003
,
2000
0000
3200
0000
,
0320
0000
0031
0000
,
2000
0000
3002
0000
,
0203
0000
0310
0000
,
0200
0000
0302
0000
,
2003
0000
3010
0000
,
1000
0000
0001
0000
,
0010
0010
0010
0000
,
2002
0000
0000
0000
,
0000
0000
0000
3003
,
2000
0000
0000
0000
,
3002
0000
0000
0003
,
2000
0000
0000
0000
,
3002
0000
0000
0003
,
2000
0000
0000
0000
,
3002
0000
0000
0003
,
2000
0000
0000
0000
,
3002
0000
0000
0003
,
1000
0000
1000
0000
,
0100
0100
0100
0000
,
0010
0000
0001
0000
,
1000
1000
1000
0000
,
0001
0000
0010
0000
,
1000
0000
0100
0000
,
0001
0000
1000
0000
,
2002
0000
0000
3003
,
1000
0000
0100
0000
,
1000
0001
1000
0000
,
0001
0000
1000
0000
,
0001
0100
0001
0000
,
1000
0000
0100
0000
,
0010
0001
0010
0000
,
0001
0000
1000
0000
,
2002
0000
0000
3003
,
0001
0000
1000
0000
,
0100
0010
0100
0000
,
1000
0000
0001
0000
,
0100
0010
0100
0000
,
0001
0000
1000
0000
,
0001
0010
0001
0000
,
1000
0000
0001
0000
,
1000
1000
1000
0000
,
2002
0000
0000
0000
,
0000
0000
0000
3003
;

//--------------- dance-single - Fred-104 ----------------
#NOTEDATA:;
#STEPSTYPE:dance-single;
#DESCRIPTION:Fred-104;
#DIFFICULTY:Easy;
#METER:9;
#DISPLAYBPM:75:150;
#BPMS:0=150,48=75,50=150,154=75,170=150,198=75,200=150;
#TIMESIGNATURES:0=4=4,48=2=4,50=4=4,198=2=4,200=4=4;
#CREDIT:Fred-104;
#NOTES:
0000
0000
0000
0000
,
0000
0000
0000
0000
,
0000
0000
0000
0000
,
0000
0000
0000
0000
,
0000
0000
0000
0000
,
1000
1000
0100
0100
,
0010
0000
0010
0000
0001
1000
0001
0000
,
0100
0010
0100
0000
0010
1000
0010
0000
,
1000
0100
1000
0000
0001
0000
1001
0000
,
1000
1000
0100
0100
,
0001
0001
0010
0010
,
1000
0100
1000
0000
0001
0100
0001
0000
,
2002
0000
0000
3003
1000
0000
1100
0000
,
0001
0101
1000
1010
,
0011
1001
0001
0011
,
1000
0000
1010
0000
0001
0010
0100
0000
,
1000
0010
0100
0000
0001
0000
0101
0000
,
1000
0000
1100
0000
0100
0010
0001
0000
,
1000
0010
0100
0000
0001
0000
0101
0000
,
1000
0000
1010
0000
1000
0001
1000
0001
,
0010
0000
0110
0000
1000
0100
1000
0000
,
0110
0001
0110
1000
,
0001
1000
0001
0000
0100
0000
1001
0000
,
0010
1001
0100
1001
,
1000
0001
1000
0000
0100
0100
0110
0000
,
0010
0011
0001
0101
,
1000
0100
0010
0000
0001
1000
0001
0000
,
0100
0010
0100
0000
0220
0000
0000
0000
,
0000
0330
2000
0000
,
3200
0320
0032
2003
,
3020
0230
0302
0000
,
2003
0000
3001
0010
,
1000
0100
0002
0000
,
2003
3200
0302
0023
,
2030
3002
0013
0100
,
1000
0000
0001
0000
0100
0000
0010
0100
,
0001
0100
0001
0000
2002
0000
0000
0000
,
0000
0000
0000
0000
,
0000
0000
3003
0000
1000
1000
0100
0100
,
0010
0001
0020
0000
0031
0001
1000
1000
,
0010
0100
0020
0000
1030
1000
0010
0010
,
0100
0001
0200
0000
0301
0001
1000
1000
,
0100
0010
0002
0000
1003
0000
1000
0000
,
0100
0100
0001
0001
,
0010
0010
1000
0010
,
0001
0100
1000
0001
,
1001
0000
1000
0100
,
1000
0100
0001
0010
,
0001
0000
0010
0000
1000
0100
1000
0000
,
0001
0100
0001
0000
2002
0000
0000
3003
,
1000
1100
0001
0101
,
1000
1010
0001
0100
,
0110
1000
1100
0001
,
0101
0000
1000
0000
0100
0010
0001
0000
,
1001
0010
1001
0100
,
1001
0000
0010
0000
0001
1000
0001
0000
,
0110
1001
1100
0011
,
1000
0010
0100
0001
1000
0000
1001
0000
,
1000
0100
1000
0000
1100
0000
0010
0000
,
0101
0000
0010
0000
1000
0001
0010
0000
,
0100
0011
0100
1010
,
0100
0000
0011
0000
0001
1000
0001
0000
,
0100
1001
0010
1001
,
0100
0000
0110
0000
1000
0001
1000
0000
,
0001
0000
0101
0000
1000
0100
1000
0000
,
0001
0000
0100
0000
1000
0100
0001
0000
,
2002
0000
0000
0000
,
0000
0000
0000
3003
;

//--------------- dance-single - Fred-104 ----------------
#NOTEDATA:;
#STEPSTYPE:dance-single;
#DESCRIPTION:Fred-104;
#DIFFICULTY:Medium;
#METER:13;
#DISPLAYBPM:37.5:150;
#BPMS:0=150,48=37.5,49=150,153=75,169=150,197=37.5,198=150,226=75,228=150;
#TIMESIGNATURES:0=4=4,48=1=4,49=4=4,197=1=4,198=4=4,226=2=4,228=4=4;
#CREDIT:Fred-104;
#NOTES:
0000
0000
0000
0000
,
0000
0000
0000
0000
,
0000
0000
0000
0000
,
0000
0000
0000
0000
,
0000
0000
0000
0000
,
1000
1000
0100
0100
,
0010
0010
0001
0001
,
1000
0001
0100
0010
,
1000
0001
0010
0110
,
1000
0100
1000
0100
0010
0001
0010
0001
,
1000
0010
0100
0001
1000
0100
0110
0000
,
0001
0010
0100
1000
0001
0100
0010
1000
,
2002
0000
0000
3003
1000
0000
0000
0000
1100
0000
0000
0000
0101
0000
0000
0000
,
1100
0000
0000
0000
0011
0000
0000
0000
1010
0000
0000
0000
1001
0000
0000
0001
,
0010
0100
1100
0000
0101
0000
1100
0000
,
0110
0000
0001
0020
0130
1000
0001
0001
,
0001
1000
1010
0000
0101
0000
1100
0000
,
0011
0000
0000
0000
1010
0000
0000
0000
0101
0000
0000
0000
0110
0000
0000
1000
,
0001
0000
0010
0000
0110
0000
0000
0000
1100
0000
0000
0000
0101
0000
0000
1000
,
0001
0000
0010
0000
0100
0000
1000
0000
0001
0000
0100
0000
0010
1000
0000
0000
,
1001
0000
1000
1000
1000
0001
0100
0010
,
1000
0001
0010
0100
0010
0001
0100
0010
,
1000
0010
0110
0000
0100
0001
1000
0100
,
0010
0001
1000
0020
0130
1000
0100
0001
,
1000
0100
0010
0010
0110
0000
0001
1000
,
0001
0100
0010
1000
0100
0010
0100
1000
,
0001
0100
0010
1000
0001
0010
0001
1000
,
0010
0000
0100
0000
0101
0000
0000
0000
1000
0000
0100
0000
0010
0001
0000
0001
,
1000
0000
0000
0000
0000
0000
1001
0000
0000
0000
0000
0000
0001
0000
0000
0100
0000
0000
0001
0000
0010
0000
0100
0000
,
1000
0000
0000
0001
0100
0010
1000
0000
0000
0110
0000
0000
,
1001
0000
2000
0000
0100
0000
0010
0010
,
3010
0000
0100
0001
1000
0100
0010
0001
,
1001
0000
0000
0000
0000
0000
0110
0000
0000
0000
0000
0000
1000
0000
0000
0001
0000
0000
1000
0000
0100
0000
0010
0000
,
0001
0000
0000
1000
0010
0100
0001
0000
0000
0110
0000
0000
,
1001
0000
0000
0000
0101
0000
0000
0001
1000
0000
0100
0000
0010
0000
0100
0000
,
1000
0000
0001
0100
0001
0000
0000
0000
1000
0000
0010
0000
0001
0000
0010
0000
,
1000
2002
0000
0000
,
0000
0000
0000
0000
,
3003
0000
0000
0000
0000
0000
0000
0000
1000
0000
0000
0000
0100
0000
0000
0000
0001
0000
0000
0100
0000
0000
1000
0000
0001
0000
0000
0010
0000
0000
0100
0000
,
1000
0000
0000
0010
0000
0000
0100
0000
0000
0000
0000
0000
0001
0000
0010
0000
1000
0000
0000
0010
0000
0000
0001
0000
1000
0000
0000
0010
0000
0000
0100
0000
,
0001
0000
0000
1000
0000
0000
0001
0000
0000
0000
0000
0000
1000
0000
0100
0000
0010
0000
0000
0001
0000
0000
1000
0000
0010
0000
0000
0100
0000
0000
0001
0000
,
0010
0000
0000
0100
0000
0000
1000
0000
0000
0000
0000
0000
0001
0000
0100
0000
1000
0000
0000
0100
0000
0000
0001
0000
1000
0000
0000
0100
0000
0000
0001
0000
,
0100
0000
0000
1000
0000
0000
0001
0000
0100
0000
0000
0000
0000
0000
0000
0000
0100
0000
0000
0000
0000
0000
0000
0000
0010
0000
0000
0000
0000
0000
0000
0000
,
0010
0000
1000
0100
1000
0000
0001
0100
,
0001
1000
1000
0001
,
0001
0000
0010
0100
0010
0000
0100
1000
,
0100
0000
1000
0010
1000
0010
0100
0001
,
0100
0001
1000
0100
1000
0100
0010
0001
,
0010
0001
1000
0001
0100
0010
1000
0001
,
0010
0000
0100
0000
2002
0000
0000
3003
0001
0000
0001
0000
0001
0000
0010
0000
,
0100
1000
0001
0100
0010
1000
0100
0010
,
0001
0000
0000
1000
0000
0000
0001
0000
0102
0000
0000
0000
1003
0000
0010
0000
,
0100
0001
1000
0100
0010
0100
1000
0001
,
0100
0010
0100
0001
1002
0000
1003
0100
,
0010
0100
1000
0001
0100
0010
1000
0001
,
0010
0000
0000
0100
0000
0000
1000
0000
1001
0000
0000
0000
0001
0000
0100
0000
,
1000
0000
0100
0000
0001
0000
0000
0000
2000
0100
0100
3100
0010
0000
0011
0000
,
1000
1000
1000
0001
0100
0010
1000
0100
,
0010
0000
0100
0000
1000
0010
1000
0010
0100
0000
0000
0001
0000
0000
0010
0000
,
0210
0000
1300
0001
0100
0001
1000
0100
,
0010
0000
0100
0000
1000
0010
1000
0010
0100
0000
0000
0001
0000
0000
0010
0000
,
0012
0000
1003
0001
0100
1000
0001
0010
,
1000
0000
0001
0000
0100
0010
0100
0010
1000
0000
0000
0010
0000
0000
0100
0000
,
0102
0000
1003
0010
0001
1000
0100
0001
,
1000
0100
0001
1000
0010
0001
0010
0000
,
0220
0000
0000
0000
,
0000
0000
0000
0000
0000
0330
1001
0000
;

//--------------- dance-single - Fred-104 ----------------
#NOTEDATA:;
#STEPSTYPE:dance-single;
#DESCRIPTION:Fred-104;
#DIFFICULTY:Hard;
#METER:16;
#CREDIT:Fred-104;
#NOTES:
0000
0000
0000
0000
,
0000
0000
0000
0000
,
0000
0000
0000
0000
,
0000
0000
0000
0000
,
0000
0000
0000
0000
,
1000
1000
0001
0001
,
1000
1000
0001
0001
,
0100
0010
0000
0010
0100
0000
0001
0000
0100
0010
0000
0010
1000
0000
0001
0000
,
0010
0100
0000
0100
1000
0000
0001
0000
0100
0010
0000
0010
1000
0000
0001
0000
,
0010
0100
0010
0100
1000
0100
1000
0100
,
1000
0010
1000
0010
0100
0001
1001
0000
,
0001
0010
0001
0010
0100
1000
0100
1000
0001
0100
0001
0100
0010
1000
0001
1000
,
0002
0000
0023
0000
0230
0000
2300
0000
3002
0000
2003
3000
2002
3003
0000
0000
2000
3000
0000
0000
0002
0003
0000
0000
2000
3000
0000
0000
0002
0003
0000
0000
1000
0000
0000
0000
0000
0000
0000
0000
0000
0000
0000
0000
0000
0000
0000
0000
0110
0000
0000
0000
0000
0000
0000
0000
0000
0000
0000
0000
0001
0000
0000
0000
,
0010
0000
0100
0000
1100
0000
0000
1000
0001
0000
0100
0000
0010
1000
0000
0001
,
0010
0000
0100
0000
1100
0000
0000
0000
0101
0000
0000
0000
1100
0000
0000
0010
,
0001
0000
0000
0000
0000
0000
1000
0000
0000
0000
0000
0000
0001
0000
0000
0000
0000
0000
0100
0000
0001
0000
0100
0000
0001
0000
0000
0000
0000
0000
1000
0000
0000
0000
0000
0000
0100
0000
0000
0010
0000
0000
0001
0000
0000
1000
0000
0000
,
0020
0000
0000
0000
0000
0000
0000
0000
0230
0000
0000
0000
0000
0000
0000
0000
0302
0000
0000
0000
0000
0000
0000
0000
2003
0000
0000
0000
0000
0000
0000
3000
1001
0000
0000
0000
0000
0000
0000
0000
0000
0000
0000
0000
0001
0000
0000
0000
0100
0000
0000
0000
0000
0000
0000
0000
0000
0000
0000
0000
1000
0000
0000
0000
,
0100
0000
0001
0000
0011
0000
0000
0010
0100
0000
1000
0000
0001
0100
0010
1000
,
0002
0000
0000
0000
0000
0000
0000
0000
0023
0000
0000
0000
0000
0000
0000
0030
0110
0000
0000
0000
0000
0000
0000
0000
0000
0000
0000
0000
0100
0000
0000
0000
1000
0000
0000
0000
0000
0000
0000
0000
0000
0000
0000
0000
0001
0000
0000
0000
1000
0000
0000
0000
0000
0000
0000
0000
0000
0000
0000
0000
0010
0000
0000
0000
,
0100
0000
0001
0000
1000
0000
0100
0000
0010
0000
1000
0000
0010
0001
1000
0000
,
2002
0000
0000
0000
0000
0000
0000
0000
0000
0000
0000
0000
3003
0000
0000
0000
0002
0003
0000
0000
2000
3000
0000
0000
0002
0003
0000
0000
2000
3000
0000
0000
0001
0000
0000
0000
0000
0000
0000
0000
0010
0000
0000
0000
0100
0000
0000
0000
1000
0000
0000
0000
0000
0000
0000
0000
0001
0000
0000
0000
0100
0000
0000
0000
,
0010
0000
1000
0000
0001
0010
0000
0100
1000
0000
0001
0000
0100
0010
1000
0010
,
0100
0000
0001
0000
1001
0000
0000
0000
1000
0100
0010
0000
0001
0010
0100
0000
,
1000
0001
0100
0000
1000
0100
0010
0100
0010
0000
1000
0000
0001
1000
0100
1000
,
0001
0000
0000
0000
0000
0000
0000
0000
0010
0000
0000
0000
0000
0000
0000
0000
0200
0000
0000
0000
0000
0000
0000
0000
2300
0000
0000
0000
0000
0000
0000
3000
1001
0000
0000
0000
0000
0000
0000
0000
0001
0000
0000
0000
0010
0000
0000
0000
0100
0000
0000
0000
0000
0000
0000
0000
1000
0000
0000
0000
0010
0000
0000
0000
,
0100
0000
0001
0000
1000
0100
0010
0001
1000
0000
0001
0100
0010
1000
0001
0010
,
0100
0010
0001
0000
1000
0000
0010
1000
0001
0000
0010
0001
1000
0000
0100
1000
,
0001
0100
0010
0000
1010
0000
0000
0000
1000
0000
0100
0000
0001
0100
0000
1000
,
0002
0000
0000
0000
0000
0000
0000
0000
0000
0003
0000
0000
1001
0000
0000
0000
0000
0000
0000
0000
0000
0000
0000
0000
1000
0000
0000
0000
0000
0000
0100
0000
0000
0000
0000
0000
1000
0000
0000
0000
0100
0000
0000
0000
0010
0000
0000
0000
,
1000
0010
0001
1000
0010
0001
0010
0100
0001
1000
0000
0000
,
1001
0000
0000
0000
0011
0000
0000
0001
1000
0000
0001
0000
0200
0000
0320
0000
,
2030
0000
3020
0000
0130
0001
0000
1000
0001
0000
0010
0100
1000
0000
0001
0000
,
1001
0000
0000
0000
0000
0000
0110
0000
0000
0000
0000
0000
0001
0000
0000
1000
0000
0000
0001
0000
0010
0000
0100
0000
,
0001
0100
1000
0001
0100
1000
0100
0010
1000
0001
0000
0000
,
1001
0000
0000
0000
1100
0000
0000
0001
1000
0000
0100
0000
0010
0001
1000
0010
,
0100
0001
2000
0000
3200
0302
0203
0310
,
0011
2002
0000
0000
,
0000
0000
0000
0000
,
3003
0000
0000
0000
0000
0000
0000
0000
1000
0000
0000
0000
0200
0000
0000
0000
1300
0000
0001
0010
0000
0100
1000
0000
0001
0100
0001
0100
0001
0100
0010
0000
,
1000
0000
0000
0100
0000
0000
0020
0000
0000
0000
0000
0000
0031
1000
0001
0000
0100
0000
0010
2000
0000
0000
3001
0000
0010
0100
0010
0100
1000
0100
1000
0000
,
0001
0000
0100
0001
0000
1000
0020
0000
0000
0000
0000
0000
1030
0001
1000
0000
0001
0000
0010
0200
0000
0000
1300
0000
0001
1000
0010
1000
0010
1000
0010
0000
,
0100
0000
0000
0001
0000
0000
2000
0000
0000
0000
0000
0000
3100
0010
0100
0000
0010
0000
0001
2000
0000
0000
3010
0000
0100
0010
0100
0010
1000
0010
1000
0000
,
0001
0000
0010
0100
0000
1000
0001
0000
1000
0000
0000
0000
0100
0000
0010
0000
0001
0000
0000
0000
0100
0000
0010
0000
1000
0000
0000
0000
0100
0000
0010
0000
,
0001
1000
0010
0000
0100
0001
1000
0001
0100
0001
1000
0000
0001
0000
0010
0100
,
0000
1000
0001
0000
0100
0000
0010
1000
0001
1000
0010
1000
0001
0000
1000
0100
,
0000
0010
0100
0000
1000
0001
0100
0001
1000
0001
0010
0000
0100
0000
1000
0001
,
0000
0100
0010
0000
1000
0000
0001
0000
0010
0000
0100
0000
0010
0000
0001
0000
,
1000
0010
0100
0001
0010
0100
1000
0001
,
1000
0000
0001
0000
0100
0010
1000
0001
0010
0100
1000
0100
0010
0001
0100
0010
,
1000
0000
0000
0000
0010
0000
0000
0000
0100
0000
0000
0000
0001
0000
0000
0000
2000
0000
3200
0000
0320
0000
0032
0000
0203
0000
0320
0030
2002
3003
0000
0000
2000
3000
0000
0000
0200
0300
0000
0000
2000
3000
0000
0000
0200
0300
0000
0000
1000
0000
0000
0000
0001
0000
0000
0000
0100
0000
0000
0000
0010
0000
0000
0000
,
1000
0001
0100
0010
1000
0001
0100
0010
1000
0001
0010
0100
1000
0001
0010
0100
,
1000
0000
0000
1010
0000
0000
0101
0000
0120
0000
0000
0000
1030
0100
0010
0001
,
1000
0100
0010
0001
1000
0100
0010
0001
1000
0001
0100
0010
1000
0001
0100
0010
,
1000
0000
0001
0010
0100
0000
1000
0000
2002
0000
0000
3003
1000
0001
0010
0100
,
1000
0001
0010
0100
1000
0001
0010
0100
1000
0001
0100
0010
1000
0001
0100
0010
,
1000
0000
0000
1010
0000
0000
0011
0000
0210
0000
0000
0000
1300
0001
0010
0100
,
1000
0000
0000
0000
0001
0000
0000
0000
0100
0000
0000
0000
0010
0000
0000
0000
1000
0000
0000
0000
0001
0000
0000
0000
0010
0000
0000
0000
0100
0000
0000
0000
2000
0000
0000
0000
0100
0000
0000
0000
0100
0000
0000
0000
3100
0000
0000
0000
0010
0000
0000
0000
0000
0000
0000
0000
2002
3003
0000
0000
0000
0000
0000
0000
,
0002
0003
0000
0000
2000
3000
0000
0000
0002
0003
0000
0000
2000
3000
0000
0000
0001
0000
0000
0000
0100
0000
0000
0000
0010
0000
0000
0000
1000
0000
0000
0000
0001
0000
0000
0000
0100
0000
0000
0000
0010
0000
0000
0000
1000
0000
0000
0000
0001
0000
0000
0000
0100
0000
0000
0000
0010
0000
0000
0000
1000
0000
0000
0000
,
0001
0010
0100
1000
0000
0001
0010
0100
1000
0000
0000
1100
0000
0000
0101
0000
,
0100
0000
0010
0000
1000
0001
0100
0010
1000
0001
0100
0010
1000
0001
0100
0010
,
1000
0100
0010
0001
1000
0100
0010
0000
0011
0000
0000
1010
0000
0000
0101
0000
,
2002
0000
0000
3003
0001
0100
0010
1000
0001
0100
0010
1000
0001
0100
0010
1000
,
0100
0010
0001
1000
0100
0010
0001
1000
0010
0000
0000
0110
0000
0000
0101
0000
,
2001
0000
0000
0000
3001
0100
0010
1000
0001
0100
0010
1000
0001
0100
0010
1000
,
0100
0010
0001
1000
0010
0100
0001
0100
0010
1000
0001
0010
0100
0000
0000
0000
,
2200
0000
0000
0000
,
0000
0000
0000
0000
0000
3300
1001
0000
;

//--------------- dance-double - Fred-104 ----------------
#NOTEDATA:;
#STEPSTYPE:dance-double;
#DESCRIPTION:Fred-104;
#DIFFICULTY:Easy;
#METER:9;
#DISPLAYBPM:75:150;
#BPMS:0=150,48=75,50=150,154=75,170=150,198=75,200=150;
#TIMESIGNATURES:0=4=4,48=2=4,50=4=4,198=2=4,200=4=4;
#CREDIT:Fred-104;
#NOTES:
00000000
00000000
00000000
00000000
,
00000000
00000000
00000000
00000000
,
00000000
00000000
00000000
00000000
,
00000000
00000000
00000000
00000000
,
00000000
00000000
00000000
00000000
,
00001000
00001000
00010000
00010000
,
01000000
00000000
01000000
00000000
10000000
00010000
10000000
00000000
,
01000000
00010000
00001000
00000100
,
00000001
00000010
00000100
00001100
,
00000001
00000001
00000100
00000100
,
00001000
00001000
00010000
00010000
,
00001000
01000000
00001000
00000000
00010000
00000100
00010000
00000000
,
00022000
00000000
00000000
00033000
00001000
00000000
01001000
00000000
,
00010000
00010100
00001000
00101000
,
00001000
00010010
00010000
00011000
,
01000000
00000000
01100000
00000000
10000000
00100000
00010000
00000000
,
00001000
00010000
00001000
00000000
00010000
00000000
00011000
00000000
,
00000100
00000000
00000110
00000000
00001000
00000100
00000010
00000000
,
00000001
00000100
00000010
00000000
00001000
00000000
00001100
00000000
,
00000001
00000000
00000011
00000000
00001000
00000001
00000100
00001000
,
00010000
00000000
00011000
00000000
00001000
00010000
00100000
00000000
,
01100000
00010000
11000000
00100000
,
00001000
00010000
00001000
00000000
00100000
00000000
00011000
00000000
,
00000010
00011000
01000000
10010000
,
10000000
01000000
00100000
00000000
00001000
00001000
00011000
00000000
,
00010000
00010010
00001000
00101000
,
00001000
00010000
00001000
00000000
00010000
00000100
00010000
00000000
,
00001000
01000000
00010000
00000000
20020000
00000000
00000000
00000000
,
00000000
30030000
20000000
00000000
,
32000000
03020000
00032000
00003020
,
00000032
00002003
00003200
00000000
,
00000320
00000000
00000031
00000100
,
00001000
00010000
00002000
00000000
,
00023000
02030000
23000000
30200000
,
00320000
00032000
00013000
00001000
,
00000100
00000010
00001000
00000100
,
00000010
00000001
00000010
00000000
00002002
00000000
00000000
00000000
,
00000000
00000000
00000000
00000000
,
00000000
00000000
00003003
00000000
00000001
00000100
00001000
00010000
,
01000000
10000000
00010000
00000000
10000000
00100000
00010000
00001000
,
00000010
00000001
00001000
00000000
00000001
00000100
00001000
00010000
,
00100000
10000000
00010000
00000000
10000000
01000000
00010000
00001000
,
00000010
00000001
00001000
00000000
00000001
00000000
00000001
00000000
,
00000100
00000100
00001000
00001000
,
00010000
00010000
01000000
01000000
,
10000000
10000000
00100000
00010000
,
00011000
00000000
00010000
00001000
,
00000010
00000100
00010000
00001000
,
00000010
00000000
00000100
00000000
00010000
00001000
00010000
00000000
,
00000100
00001000
00000010
00000000
00000220
00000000
00000000
00000330
,
00000001
00000101
00001000
00001100
,
00000100
00000000
00010100
00000000
00010000
00001000
00010000
00000000
,
00001000
01001000
00010000
00010100
,
00001000
00000000
00011000
00000000
00001000
00010000
00100000
00000000
,
01000000
10010000
00100000
10010000
,
01000000
00000000
10010000
00000000
10000000
01000000
00100000
00000000
,
00011000
00010010
00011000
00010100
,
00010000
00001000
00000100
00000001
00000010
00000000
00000110
00000000
,
00000001
00001000
00000001
00000000
00000100
00000000
00001000
00000000
,
00010000
00000000
01000000
00000000
00100000
00010000
10000000
00000000
,
00100000
10000000
00100000
00010000
,
00001000
00000000
00000010
00000000
00000001
00001000
00000100
00000000
,
00010000
00101000
00010000
00010010
,
00001000
00000000
00011000
00000000
00001000
00010000
01000000
00000000
,
00100000
00000000
00110000
00000000
10000000
01000000
00100000
00000000
,
00001000
00010000
00000100
00000000
00001000
00000001
00000100
00000000
,
00000220
00000000
00000000
00000000
,
00000000
00000000
00000000
00000330
;

//--------------- dance-double - Fred-104 ----------------
#NOTEDATA:;
#STEPSTYPE:dance-double;
#DESCRIPTION:Fred-104;
#DIFFICULTY:Medium;
#METER:13;
#DISPLAYBPM:37.5:150;
#BPMS:0=150,48=37.5,49=150,153=75,169=150,197=37.5,198=150,226=75,228=150;
#TIMESIGNATURES:0=4=4,48=1=4,49=4=4,197=1=4,198=4=4,226=2=4,228=4=4;
#CREDIT:Fred-104;
#NOTES:
00000000
00000000
00000000
00000000
,
00000000
00000000
00000000
00000000
,
00000000
00000000
00000000
00000000
,
00000000
00000000
00000000
00000000
,
00000000
00000000
00000000
00000000
,
00010000
00010000
00001000
00001000
,
00000010
00000010
00000001
00000001
,
00000100
00000100
00001000
00001000
,
00010000
00010000
00001000
00011000
,
00001000
00010000
00001000
00010000
01000000
00100000
01000000
00100000
,
00010000
10000000
00100000
01000000
00010000
00100000
00101000
00000000
,
00001000
00010000
00000010
00001000
00000001
00000010
00000100
00010000
,
00022000
00000000
00000000
00033000
00001000
00000000
00000000
00000000
00101000
00000000
00000000
00000000
00010010
00000000
00000000
00000000
,
00101000
00000000
00000000
00000000
00010100
00000000
00000000
00000000
00001000
00000000
01000000
00000000
00001000
00000000
00000000
00010000
,
00100000
01000000
01010000
00000000
10100000
00000000
11000000
00000000
,
00110000
00000000
10000000
00100000
00010000
00001000
00000010
00000001
,
00001000
00000100
00000110
00000000
00000011
00000000
00001010
00000000
,
00011000
00000000
00000000
00000000
00110000
00000000
00000000
00000000
10100000
00000000
00000000
00000000
10010000
00000000
00000000
10000000
,
01000000
00000000
00100000
00000000
00101000
00000000
00000000
00000000
00011000
00000000
00000000
00000000
00010010
00000000
00000000
00001000
,
00010000
00000000
00001000
00000000
00000100
00000000
00000001
00000000
00001000
00000000
00000100
00000000
00000010
00000100
00000000
00000000
,
00001100
00000000
00000001
00000001
00000001
00000100
00001000
00010000
,
00100000
00000000
00000000
00000000
01000000
00000000
00010000
00000000
10000000
00000000
01000000
00000000
00100000
00000000
00000000
00010000
,
00100000
00100000
00001000
00000100
00000010
00001000
00000001
00000010
,
00000100
00000000
00010000
00002000
00013000
00100000
01000000
00010000
,
10000000
01000000
00100000
00100000
00110000
00000000
00011000
00000000
,
00010000
00000100
00001000
00000100
00000010
00000001
00001000
00001000
,
00001000
00000010
00010000
00001000
00010000
01000000
00100000
01000000
,
10000000
00000000
01000000
00000000
00010000
00000000
00000000
00000000
00001000
00000000
00000100
00000000
00000001
00001000
00000000
00000001
,
00001000
00000000
00000000
00000000
00000000
00000000
00001001
00000000
00000000
00000000
00000000
00000000
00000001
00000000
00000000
00000100
00000000
00000000
00000010
00000000
00001000
00000000
00000010
00000000
,
00001000
00000000
00000000
00000100
00010000
00001000
00010000
00000000
00000000
01100000
00000000
00000000
,
10010000
00000000
00020000
00000000
10000000
00000000
00100000
00100000
,
00130000
00000000
00001000
00010000
00000100
00000010
00000001
00000010
,
00000100
00000000
00000000
00000000
00000000
00000000
00011000
00000000
00000000
00000000
00000000
00000000
00001000
00000000
00000000
00010000
00000000
00000000
00100000
00000000
01000000
00000000
00100000
00000000
,
01000000
00000000
00000000
00010000
10000000
01000000
00100000
00000000
00000000
00011000
00000000
00000000
,
00000110
00000000
00001000
00000100
00000001
00001000
00000010
00000001
,
00000010
00000100
00010000
00000000
00001000
00010000
00100000
00010000
,
00001000
00022000
00000000
00000000
,
00000000
00000000
00000000
00000000
,
00033000
00000000
00000000
00000000
00000000
00000000
00000000
00000000
00001000
00000000
00000000
00000000
00010000
00000000
00000000
00000000
00100000
00000000
00000000
01000000
00000000
00000000
01000000
00000000
00010000
00000000
00000000
10000000
00000000
00000000
10000000
00000000
,
01000000
00000000
00000000
00100000
00000000
00000000
00001000
00000000
00000000
00000000
00000000
00000000
00010000
00000000
00001000
00000000
00000100
00000000
00000000
00000010
00000000
00000000
00000010
00000000
00001000
00000000
00000000
00000100
00000000
00000000
00000100
00000000
,
00000010
00000000
00000000
00000001
00000000
00000000
00001000
00000000
00000000
00000000
00000000
00000000
00000001
00000000
00000100
00000000
00001000
00000000
00000000
00010000
00000000
00000000
01000000
00000000
10000000
00000000
00000000
00010000
00000000
00000000
10000000
00000000
,
00100000
00000000
00000000
00010000
00000000
00000000
00001000
00000000
00000000
00000000
00000000
00000000
00010000
00000000
00001000
00000000
00000010
00000000
00000000
00000001
00000000
00000000
00001000
00000000
00000010
00000000
00000000
00010000
00000000
00000000
00001000
00000000
,
00010000
00000000
00000000
00000100
00000000
00000000
00001000
00000000
00000100
00000000
00000000
00000000
00000010
00000000
00000000
00000000
00000001
00000000
00000000
00000000
00000000
00000000
00000000
00000000
00001000
00000000
00000000
00000000
00000010
00000000
00000000
00000000
,
00000100
00000000
00000001
00000100
00001000
00000000
00010000
00100000
,
10000000
00000000
01000000
00100000
00001000
00010000
00000100
00000001
,
00000100
00000000
00000000
00000000
00001000
00000000
00000010
00000000
00000100
00000000
00001000
00000000
00010000
00000000
00000000
00100000
,
00000000
10000000
00010000
00100000
00010000
00100000
01000000
10000000
,
00010000
01000000
00100000
00010000
00001000
00000100
00000001
00000010
,
00000100
00010000
00001000
00100000
01000000
10000000
00100000
00010000
,
00001000
00010000
00001000
00000000
00022000
00000000
00000000
00033000
00010000
00000000
00010000
00000000
00010000
00000000
00001000
00000000
,
00000100
00000010
00010000
00001000
00000100
00000010
00010000
00001000
,
00000100
00000000
00000000
00000001
00000000
00000000
00000010
00000000
00000210
00000000
00000000
00000000
00001300
00000000
00000001
00000000
,
00000100
00001000
00010000
00001000
00010000
01000000
10000000
00010000
,
10000000
00000000
00000000
01000000
00000000
00000000
00100000
00000000
00102000
00000000
00000000
00000000
00013000
00000000
00000010
00000000
,
00001000
00000100
00010000
00000010
00001000
00000100
00010000
00001000
,
00000010
00000000
00000000
00000100
00000000
00000000
00001000
00000000
00001001
00000000
00000000
00000000
00000001
00000000
00000010
00000000
,
00001000
00000000
00010000
00000000
00100000
00000000
01000000
00000000
00020000
10000000
10000000
10030000
01000000
00000000
01100000
00000000
,
00001000
00001000
00001000
00010000
00100000
01000000
00100000
10000000
,
00010000
00000000
00100000
00000000
00001000
00010000
00001000
00010000
00000010
00000000
00000000
00010000
00000000
00000000
00001000
00000000
,
00012000
00000000
00013000
00001000
00000100
00000001
00001000
00000100
,
00000010
00000000
00000001
00000000
00000100
00001000
00000100
00001000
00010000
00000000
00000000
00100000
00000000
00000000
01000000
00000000
,
01020000
00000000
10030000
01000000
00010000
00001000
00000100
00000001
,
00001000
00000000
00000001
00000000
00000010
00000000
00001000
00000000
00010000
00000000
00000000
00100000
00000000
00000000
01000000
00000000
,
01020000
00000000
10030000
01000000
00100000
00001000
00010000
00000100
,
00000010
00000001
00000100
00001000
00010000
00100000
01000000
00000000
,
20020000
00000000
00000000
00000000
,
00000000
00000000
00000000
00000000
00000000
30030000
01100000
00000000
;

//--------------- dance-double - Fred-104 ----------------
#NOTEDATA:;
#STEPSTYPE:dance-double;
#DESCRIPTION:Fred-104;
#DIFFICULTY:Hard;
#METER:16;
#CREDIT:Fred-104;
#NOTES:
00000000
00000000
00000000
00000000
,
00000000
00000000
00000000
00000000
,
00000000
00000000
00000000
00000000
,
00000000
00000000
00000000
00000000
,
00000000
00000000
00000000
00000000
,
00010000
00010000
00001000
00001000
,
00010000
00010000
00001000
00001000
,
00010000
00001000
00000000
00010000
00000010
00000000
00001000
00000000
00000001
00000010
00000000
00000100
00001000
00000000
00000001
00000000
,
00000100
00000010
00000000
00000100
00001000
00000000
00010000
00000000
00100000
01000000
00000000
00100000
10000000
00000000
00010000
00000000
,
10000000
00100000
01000000
00100000
00010000
00001000
00000100
00000001
,
00001000
00000100
00000010
00000001
00001000
00000010
00000110
00000000
,
00001000
00000010
00001000
00000010
00000100
00000001
00000100
00000001
00001000
00000100
00001000
00000100
00010000
00001000
00010000
00001000
,
00020000
00000000
00032000
00000000
00003200
00000000
00000302
00000000
00002003
00000000
00003200
00000300
00000220
00000330
00000000
00000000
00000002
00000003
00000000
00000000
00002000
00003000
00000000
00000000
00000002
00000003
00000000
00000000
00002000
00003000
00000000
00000000
00000001
00000000
00000000
00000000
00000000
00000000
00000000
00000000
00000000
00000000
00000000
00000000
00000000
00000000
00000000
00000000
00000110
00000000
00000000
00000000
00000000
00000000
00000000
00000000
00000000
00000000
00000000
00000000
00010000
00000000
00000000
00000000
,
00001000
00000000
00010000
00000000
00011000
00000000
00000000
00001000
01000000
00000000
00010000
00000000
10000000
01000000
00000000
00100000
,
00001000
00010000
00001000
00000000
00011000
00000000
00000000
00000000
00010010
00000000
00000000
00000000
00011000
00000000
00000000
00000100
,
00010000
00000000
00001000
00000000
00010000
00000000
00002000
00000000
00003100
00000000
00000001
00000000
00000010
00000100
00000010
00000100
,
00000020
00000000
00000000
00000000
00000000
00000000
00000000
00000000
00000032
00000000
00000000
00000000
00000000
00000000
00000000
00000000
00002003
00000000
00000000
00000000
00000000
00000000
00000000
00000000
00003002
00000000
00000000
00000000
00000000
00000000
00000000
00000003
00001001
00000000
00000000
00000000
00000000
00000000
00000000
00000000
00000000
00000000
00000000
00000000
00000001
00000000
00000000
00000000
00000100
00000000
00000000
00000000
00000000
00000000
00000000
00000000
00000000
00000000
00000000
00000000
00001000
00000000
00000000
00000000
,
00010000
00000000
00001000
00000000
00011000
00000000
00000000
00001000
00010000
00000000
01000000
00000000
10000000
01000000
10000000
01000000
,
00200000
00000000
00000000
00000000
00000000
00000000
00000000
00000000
00302000
00000000
00000000
00000000
00000000
00000000
00000000
00003000
00011000
00000000
00000000
00000000
00000000
00000000
00000000
00000000
00000000
00000000
00000000
00000000
00001000
00000000
00000000
00000000
00010000
00000000
00000000
00000000
00000000
00000000
00000000
00000000
00000000
00000000
00000000
00000000
00010000
00000000
00000000
00000000
00001000
00000000
00000000
00000000
00000000
00000000
00000000
00000000
00000000
00000000
00000000
00000000
00010000
00000000
00000000
00000000
,
00000010
00000000
00001000
00000000
00000100
00000000
00000010
00000000
00001000
00000000
00010000
00000000
01000000
00100000
00010000
00000000
,
10010000
00000000
00000000
00000000
00000000
00000000
00000000
00000000
00000000
00000000
00000000
00000000
00000000
00000000
00000000
00000000
20000000
30000000
00000000
00000000
02000000
03000000
00000000
00000000
20000000
30000000
00000000
00000000
02000000
03000000
00000000
00000000
10000000
00000000
00000000
00000000
00000000
00000000
00000000
00000000
00100000
00000000
00000000
00000000
10000000
00000000
00000000
00000000
00010000
00000000
00000000
00000000
00000000
00000000
00000000
00000000
00100000
00000000
00000000
00000000
01000000
00000000
00000000
00000000
,
10000000
00000000
01000000
00000000
00100000
00001000
00000000
00010000
00001000
00000000
00000010
00000000
00000001
00000010
00000001
00000010
,
00000100
00000000
00001000
00000000
00001001
00000000
00000000
00000000
00000001
00000100
00000001
00000000
00001000
00000100
00001000
00000000
,
00000001
00000010
00000100
00000000
00010000
00001000
00010000
00001000
00010000
00000000
00100000
00000000
01000000
00010000
01000000
00010000
,
10000000
00000000
00000000
00000000
00000000
00000000
00000000
00000000
01000000
00000000
00000000
00000000
00000000
00000000
00000000
00000000
00200000
00000000
00000000
00000000
00000000
00000000
00000000
00000000
02300000
00000000
00000000
00000000
00000000
00000000
00000000
03000000
01100000
00000000
00000000
00000000
00000000
00000000
00000000
00000000
10000000
00000000
00000000
00000000
01000000
00000000
00000000
00000000
00100000
00000000
00000000
00000000
00000000
00000000
00000000
00000000
00010000
00000000
00000000
00000000
01000000
00000000
00000000
00000000
,
00100000
00000000
10000000
00000000
01000000
00100000
00010000
00100000
00001000
00000000
00010000
00000000
00000010
00001000
00000001
00000010
,
00000001
00000000
00000010
00000000
00000100
00000000
00001000
00000001
00000100
00000000
00001000
00010000
01000000
00000000
10000000
00010000
,
01000000
00000000
00100000
00000000
10100000
00000000
00000000
00000000
10000000
00000000
01000000
00000000
00100000
00001000
00000000
00010000
,
00002000
00000000
00000000
00000000
00000000
00000000
00000000
00000000
00000000
00003000
00000000
00000000
00011000
00000000
00000000
00000000
00000000
00000000
00000000
00000000
00000000
00000000
00000000
00000000
00010000
00000000
00000000
00000000
00000000
00000000
00001000
00000000
00000000
00000000
00000000
00000000
00010000
00000000
00000000
00000000
00001000
00000000
00000000
00000000
00000010
00000000
00000000
00000000
,
00000100
00000010
00000001
00001000
00000001
00000100
00001000
00010000
01000000
10000000
00000000
00000000
,
10010000
00000000
00000000
00000000
11000000
00000000
00000000
01000000
00100000
00000000
00001000
00000000
00020000
00000000
00230000
00000000
,
02300000
00000000
03002000
00000000
00013000
00001000
00000000
00010000
00000010
00000000
00001000
00000001
00000010
00000000
00000000
00000000
,
00001001
00000000
00000000
00000000
00000000
00000000
00000110
00000000
00000000
00000000
00000000
00000000
00001000
00000000
00000000
00000001
00000000
00000000
00001000
00000000
00000100
00000000
00000010
00000000
,
00001000
00010000
00100000
01000000
00010000
10000000
01000000
00010000
00001000
00010000
00000000
00000000
,
00011000
00000000
00000000
00000000
00010010
00000000
00000000
00001000
00000001
00000000
00001000
00000000
00000100
00010000
00001000
00010000
,
00100000
01000000
00020000
00000000
20030000
32000000
03200000
00301000
,
00011000
02200000
00000000
00000000
,
00000000
00000000
00000000
00000000
,
03300000
00000000
00000000
00000000
00000000
00000000
00000000
00000000
10000000
00000000
00000000
00000000
02000000
00000000
00000000
00000000
03010000
00000000
00001000
00010000
00000000
00001000
00010000
00000000
00000100
00001000
00000100
00001000
00000100
00000010
00000100
00000000
,
00000010
00000000
00000000
00000001
00000000
00000000
00002000
00000000
00000000
00000000
00000000
00000000
00003001
00000100
00000001
00000000
00001000
00000000
00000001
00000020
00000000
00000000
00000130
00000000
00010000
00001000
00010000
00001000
00100000
00010000
00100000
00000000
,
00001000
00000000
00010000
00100000
00000000
01000000
00020000
00000000
00000000
00000000
00000000
00000000
10030000
01000000
10000000
00000000
01000000
00000000
00100000
00002000
00000000
00000000
00013000
00000000
00001000
00010000
00000010
00001000
00000010
00001000
00000010
00000000
,
00001000
00000000
00000000
00000100
00000000
00000000
00000020
00000000
00000000
00000000
00000000
00000000
00000031
00000100
00000001
00000000
00001000
00000000
00000010
00000100
00000000
00000000
00001000
00000000
00010000
00001000
00010000
00001000
00010000
00001000
00010000
00000000
,
00100000
00000000
01000000
00010000
00000000
10000000
01000000
00000000
10000000
00000000
00000000
00000000
01000000
00000000
00100000
00000000
00010000
00000000
00000000
00000000
00100000
00000000
00001000
00000000
00010000
00000000
00000000
00000000
00001000
00000000
00000010
00000000
,
00000000
00000001
00000010
00000000
00000100
00001000
00000001
00000100
00000010
00001000
00000001
00000000
00000010
00000000
00000100
00001000
,
00000000
00000100
00010000
00000000
00001000
00000000
01000000
00001000
00010000
00001000
01000000
00001000
00010000
00000000
00001000
00010000
,
00000000
01000000
00100000
00000000
00010000
10000000
00100000
10000000
00010000
10000000
01000000
00000000
00100000
00000000
00001000
00010000
,
00000000
00001000
00000100
00000000
00000001
00000000
00001000
00000000
00000010
00000000
00000001
00000000
00000010
00000000
00000100
00000000
,
00001000
00010000
00100000
01000000
10000000
01000000
00010000
10000000
,
01000000
00000000
00100000
00000000
00001000
00010000
00000010
00001000
00000010
00000100
00000001
00001000
00000100
00000010
00000001
00001000
,
00000010
00000000
00000000
00000000
00010000
00000000
00000000
00000000
00001000
00000000
00000000
00000000
01000000
00000000
00000000
00000000
00020000
00000000
20030000
00000000
32000000
00000000
03200000
00000000
00302000
00000000
00023000
00030000
00022000
00033000
00000000
00000000
00020000
00030000
00000000
00000000
00002000
00003000
00000000
00000000
00020000
00030000
00000000
00000000
00002000
00003000
00000000
00000000
00010000
00000000
00000000
00000000
00000010
00000000
00000000
00000000
00001000
00000000
00000000
00000000
00000010
00000000
00000000
00000000
,
00010000
00000010
00001000
00000010
00010000
00000010
00001000
00000010
00010000
00001000
00100000
00010000
00100000
00001000
00010000
00000010
,
00001000
00000000
00000000
00010010
00000000
00000000
00101000
00000000
00021000
00000000
00000000
00000000
00031000
00010000
00001000
01000000
,
00001000
00010000
00001000
01000000
00001000
00010000
00001000
01000000
00010000
01000000
00001000
00010000
00001000
01000000
00010000
01000000
,
00001000
00000000
00000000
00010000
00000000
00000000
00010000
00000000
00022000
00000000
00000000
00033000
00001000
00010000
00000010
00001000
,
00000010
00010000
00001000
00100000
00010000
00100000
00001000
00010000
00000010
00001000
00000010
00010000
00001000
00100000
00010000
00100000
,
00001000
00000000
00000000
00101000
00000000
00000000
00010010
00000000
00012000
00000000
00000000
00000000
01003000
00001000
00010000
00000100
,
00001000
00000000
00000000
00000000
00000100
00000000
00000000
00000000
00010000
00000000
00000000
00000000
00001000
00000000
00000000
00000000
01000000
00000000
00000000
00000000
00010000
00000000
00000000
00000000
01000000
00000000
00000000
00000000
00001000
00000000
00000000
00000000
00020000
00000000
00000000
00000000
00001000
00000000
00000000
00000000
00001000
00000000
00000000
00000000
00031000
00000000
00000000
00000000
00010000
00000000
00000000
00000000
00000000
00000000
00000000
00000000
00022000
00033000
00000000
00000000
00000000
00000000
00000000
00000000
,
00002000
00003000
00000000
00000000
00020000
00030000
00000000
00000000
00002000
00003000
00000000
00000000
00020000
00030000
00000000
00000000
00001000
00000000
00000000
00000000
00100000
00000000
00000000
00000000
00010000
00000000
00000000
00000000
10000000
00000000
00000000
00000000
00100000
00000000
00000000
00000000
10000000
00000000
00000000
00000000
00010000
00000000
00000000
00000000
00100000
00000000
00000000
00000000
00001000
00000000
00000000
00000000
00010000
00000000
00000000
00000000
00000010
00000000
00000000
00000000
00001000
00000000
00000000
00000000
,
00000001
00000010
00000001
00001000
00000010
00010000
00001000
00100000
00010000
00000000
00000000
00110000
00000000
00000000
10010000
00000000
,
10000000
00000000
00010000
00000000
10000000
01000000
10000000
00010000
01000000
00001000
00010000
00000100
00001000
00000001
00000100
00000001
,
00001000
00000100
00010000
00001000
01000000
00010000
10000000
00000000
10100000
00000000
00000000
00110000
00000000
00000000
00011000
00000000
,
00020020
00000000
00000000
00030030
00010000
00001000
00010000
00000010
00001000
00000010
00010000
00001000
00010000
00000010
00001000
00000001
,
00000010
00000100
00010000
00001000
00100000
01000000
10000000
00010000
01000000
00000000
00000000
01100000
00000000
00000000
10010000
00000000
,
01020000
00000000
00000000
00000000
10030000
01000000
00100000
00001000
00010000
00000010
00001000
00000001
00000010
00000100
00001000
00000100
,
00000010
00000001
00001000
00000010
00000100
00001000
00010000
00100000
01000000
00010000
10000000
01000000
00100000
00000000
00000000
00000000
,
00022000
00000000
00000000
00000000
,
00000000
00000000
00000000
00000000
00000000
00033000
00011000
00000000
;
