#TITLE:Lovesick Lovetune;
#ARTIST:VALLEYSTONE feat. 紫崎 雪;
#ARTISTTRANSLIT:VALLEYSTONE feat. Yuki Shizaki;
#BANNER:Lovesick Lovetune.png;
#BACKGROUND:Lovesick Lovetune-bg.png;
#CDTITLE:./CDTitles/SDVX III GRAVITY WARS.png;
#MUSIC:Lovesick Lovetune.ogg;
#SAMPLESTART:62.215;
#SAMPLELENGTH:15;
#BPMS:0=135;
#BGSTAGE:5;

//--------------- dance-single - Fred-104 ----------------
#NOTES:
     dance-single:
     Fred-104:
     Beginner:
     1:
     :
0000
0000
0000
0000
,
0000
0000
0000
0000
,
0000
0000
0000
0000
,
0000
0000
0000
0000
,
0000
0000
0000
0000
,
0000
0000
0000
0000
,
0000
0000
0000
0000
,
1000
0000
0000
0000
,
0000
0000
0000
0000
,
0001
0000
0000
0000
,
0000
0000
0000
0000
,
1000
0000
0000
0000
,
0000
0000
0000
0000
,
0010
0000
0000
0000
,
0000
0000
0000
0000
,
0100
0000
0000
0000
,
0000
0000
0000
0000
,
0001
0000
0000
0000
,
1000
0000
0000
0000
,
0001
0000
0000
0000
,
0000
0000
0000
0000
,
0010
0000
0000
0000
,
0000
0000
0000
0000
,
0100
0000
0000
0000
,
0000
0000
0000
0000
,
1000
0000
0000
0000
,
0000
0000
0000
0000
,
0001
0000
0000
0000
,
0000
0000
0000
0000
,
1000
0000
0000
0000
,
0000
0000
0000
0000
,
0001
0000
0000
0000
,
0000
0000
0000
0000
,
1000
0000
0000
0000
,
0001
0000
0000
0000
,
0001
0000
0000
0000
,
1000
0000
0000
0000
,
1000
0000
0000
0000
,
0010
0000
0000
0000
,
0100
0000
0000
0000
,
0001
0000
0000
0000
,
0001
0000
0000
0000
,
1000
0000
0000
0000
,
0100
0000
0000
0000
,
0010
0000
0000
0000
,
0001
0000
0000
0000
,
1000
0000
0000
0000
,
1000
0000
0000
0000
,
0001
0000
0000
0000
,
1000
0000
0000
0000
,
1000
0000
0000
0000
,
0001
0000
0000
0000
,
0000
0000
0000
0000
,
0010
0000
0000
0000
,
0000
0000
0000
0000
,
0100
0000
0000
0000
,
0000
0000
0000
0000
,
1000
0000
0000
0000
,
0001
0000
0000
0000
,
1000
0000
0000
0000
;

//--------------- dance-single - Fred-104 ----------------
#NOTES:
     dance-single:
     Fred-104:
     Easy:
     3:
     :
0000
0000
0000
0000
,
0000
0000
0000
0000
,
0000
0000
0000
0000
,
0000
0000
0000
0000
,
0000
0000
0000
0000
,
0000
0000
0000
0000
,
0000
0000
0000
0000
,
2000
3000
0002
0003
,
0200
0300
0020
0030
,
0200
0300
0002
0003
,
2000
0000
3001
0000
,
2000
0000
3200
0000
,
1300
0000
0001
0010
,
0010
0000
0100
0000
,
0010
0100
0010
0000
,
0200
0300
2000
3000
,
0002
0003
0100
0010
,
0200
0300
0002
1003
,
0001
1000
0002
0003
,
1000
0000
0001
0000
,
0100
0000
0001
0000
,
1000
0000
0001
0000
,
2000
0000
0000
3000
,
0001
0000
0010
0000
,
0100
0000
1000
0000
,
0001
0000
2000
3000
,
0002
0000
0000
0003
,
1000
0000
0001
0000
,
0100
0100
0100
0000
,
0001
0000
1000
0000
,
0200
0000
0000
0300
,
0010
0000
0010
0000
,
0001
0001
0001
0000
,
1000
0000
0001
0000
,
1001
0000
0000
0000
,
1000
0000
0001
0000
,
0100
0000
0000
0000
,
0001
0000
1000
0000
,
0001
0000
0010
0000
,
0100
0000
1000
0000
,
0001
0000
1000
0000
,
0001
0000
1000
0000
,
0001
0000
0000
0000
,
1000
0000
0100
0000
,
1000
0000
0100
0000
,
0010
0000
0001
0000
,
1000
0000
0001
0000
,
0100
0000
0100
0000
,
0010
0000
0010
0000
,
1000
0000
1000
0000
,
0002
0000
1003
0000
,
0002
0000
0203
0000
,
0301
0000
1000
0010
,
0010
0000
0100
0000
,
0010
0100
0010
0000
,
0200
0300
0002
0003
,
2000
3000
0100
0010
,
0200
0300
2000
3001
,
1000
0001
2000
3000
,
1001
0000
0000
0000
;

//--------------- dance-single - Fred-104 ----------------
#NOTES:
     dance-single:
     Fred-104:
     Medium:
     8:
     :
0000
0000
0000
0000
,
0000
0000
0000
0000
,
0000
0000
0000
0000
,
0000
0000
0000
0000
,
0000
0000
0000
0000
,
0000
0000
0000
0000
,
0000
0000
0000
0000
,
0001
0000
0000
0001
0000
0000
0001
0000
1000
0000
0000
1000
0000
0000
1000
0000
,
0020
0000
0030
0000
0100
0100
0001
0000
,
1000
0000
0000
0000
1000
0000
0100
0000
0010
0000
0000
0001
0000
0000
0001
0000
,
1000
0000
0000
1000
0000
0000
1000
0000
1001
0000
0000
0000
0001
0000
0001
0000
,
0100
0010
0100
0000
0001
0000
1000
0000
,
0100
0010
0100
0000
0010
0000
0001
0000
,
1000
0010
1000
0000
0001
0000
0010
0000
,
0100
1000
0100
0000
1000
0001
1000
0000
,
0001
1000
0010
0000
0100
0000
0010
0000
,
1000
0001
0010
0000
0100
0000
1000
0000
,
0010
1000
0001
0000
0100
0000
0010
0000
,
1000
0100
1000
0000
0002
0000
1003
0000
,
2001
0000
3002
0000
,
2003
0000
3002
0000
0203
0000
0310
0010
,
2000
0000
3002
0000
0013
0000
0100
0010
,
0001
0000
1000
0000
0010
0000
0100
0100
,
0200
0000
0301
0000
2000
0000
3100
0010
,
0001
0000
1000
0001
1000
0000
0001
0000
,
2000
3020
0032
0023
,
2030
0000
0000
0000
0000
0000
3001
1000
,
0002
0000
1003
0001
0020
0000
0130
0010
,
0200
0000
1300
0001
0020
0000
0031
0000
,
0200
0000
0320
0000
1030
0001
0020
0000
,
0230
0000
1300
0000
0001
0000
0010
0010
,
0020
0000
0031
1000
0020
0000
1030
0001
,
0020
0000
0130
1000
0002
0000
0103
0010
,
0110
0000
1001
0000
1000
0010
0100
0001
,
1000
0000
0000
1000
0000
0000
1000
0000
1010
0000
0000
0000
0101
0000
0000
0000
,
2001
0000
3002
0000
0013
0100
2000
0000
,
3001
0100
0020
0000
0130
0001
2000
0000
,
3002
0203
2300
3200
,
0301
0000
0000
0001
0000
0000
0010
0000
0100
0000
0000
0100
0000
0000
1000
0000
,
0001
0000
0000
0000
1001
0000
0000
0000
1000
0000
0000
0010
0000
0000
0100
0000
,
0001
0000
1000
0000
0200
0000
0000
0000
0310
0000
0000
0100
0000
0000
0100
0000
,
2000
3002
0203
0320
,
0130
0000
0000
0100
0000
0000
0100
0000
0001
0000
1000
0000
0001
0000
0000
0000
,
0010
0000
0000
0100
0000
0000
0100
0000
0010
0000
0000
0001
0000
0000
1000
0000
,
0200
0000
0310
0100
2000
0000
3002
0000
,
0103
0000
0000
0100
0000
0000
0010
0000
0100
0000
0000
0100
0000
0000
0001
0000
,
1000
0100
0001
0000
1000
0010
0001
0000
,
1000
0000
0000
0001
0000
0000
0010
0000
0100
0000
0000
0100
0000
0000
0010
0000
,
0002
0000
0103
0010
0100
0001
1000
0000
,
0200
0000
0000
0000
0310
0000
0001
0000
1000
0000
0000
0010
0000
0000
0100
0000
,
0001
0000
0000
0001
0000
0000
0001
0000
1001
0000
0000
0000
1000
0000
1000
0000
,
0100
0010
0100
0000
1000
0000
0001
0000
,
0100
0010
0100
0000
0010
0000
1000
0000
,
0001
0010
0001
0000
1000
0000
0010
0000
,
0100
0001
0100
0000
0001
1000
0001
0000
,
1000
0001
0010
0000
0100
0000
0010
0000
,
0001
1000
0010
0000
0100
0000
0001
0000
,
0010
0001
1000
0000
0100
0000
0010
0000
,
0001
0100
0001
0000
2000
0000
3001
1000
,
1001
0000
0000
0000
;

//--------------- dance-single - Fred-104 ----------------
#NOTES:
     dance-single:
     Fred-104:
     Hard:
     12:
     :
0000
0000
0000
0000
,
0000
0000
0000
0000
,
0000
0000
0000
0000
,
0000
0000
0000
0000
,
0000
0000
0000
0000
,
0000
0000
0000
0000
,
0000
0000
0000
0000
,
1000
0000
0001
0010
0000
0000
0001
0000
1000
0000
0000
0001
0000
0000
0100
0000
,
0020
0000
0000
0000
0000
0000
1030
0010
1000
0000
0100
0000
0010
0000
0001
0000
,
2000
0000
0000
0000
0000
0000
3001
0010
0001
0000
0100
0010
0000
0000
1000
0010
,
1000
0000
0001
0010
0000
0100
1000
0000
1001
0000
0000
0000
0001
0000
0001
0000
,
1000
0000
0001
0100
0001
0000
0000
1000
0000
1000
0000
1000
0001
0000
0010
0000
,
0100
0000
1000
0000
0001
0000
0000
0100
0000
0100
0000
0100
0010
0000
1000
0001
,
1000
0000
0100
0000
0010
0000
0000
0001
0000
0001
0000
0001
1000
0100
1000
0000
,
0001
0100
0001
0000
0100
0010
0100
0000
0010
1000
0000
0001
0000
2000
0000
0000
,
3100
0000
0010
0000
0001
0000
0000
1000
0000
1000
0000
1000
0010
0000
0100
0000
,
0001
0000
1000
0000
0100
0000
0000
0010
0000
0010
0000
0010
0100
0000
1000
0001
,
1000
0000
0001
0000
0100
0000
0000
0010
0000
0010
0000
0010
1000
0001
1000
0000
,
0100
0010
0100
0000
0010
0001
0010
0000
0001
0000
1000
0001
1000
0001
1000
0000
,
1002
0000
0000
1003
0020
0000
0000
0130
,
0002
0000
1003
0100
0020
0000
0030
0001
,
0200
0000
0320
0000
0230
0000
0301
1000
,
0100
0010
0000
0100
0010
0000
0001
1000
0000
0010
0100
0000
0001
1000
0001
1000
,
0200
0000
0000
0310
0200
0000
0000
1300
,
0002
0000
0103
0001
1000
0100
0010
0001
,
2000
0000
3200
0000
0302
0000
0103
1000
,
0001
0100
0000
0010
1000
0000
0001
0010
0000
0100
1000
0000
0001
1000
0001
1000
,
0002
0000
0023
0100
0230
0000
2300
0001
,
3002
0000
2003
0010
3020
0000
0130
0001
,
2000
0000
3200
0000
0310
0100
1000
0001
,
0100
0010
0000
1000
0001
0000
0010
0100
0000
1000
0001
0000
1000
0010
1000
0010
,
0200
0000
0301
1000
0200
0000
0310
0100
,
2000
0000
3010
0100
0002
0000
1003
0100
,
0110
0000
1001
0000
0001
0100
0010
1000
,
0001
0000
0000
0010
0000
0000
0100
0000
1100
0000
0000
0000
1001
0000
0000
0000
,
1000
0000
0100
0000
1000
0000
0000
0000
0010
0000
0100
0001
0000
1000
0001
0000
,
0010
0000
0100
0000
1000
0000
0010
0000
0100
0000
0001
1000
0000
0001
0010
0000
,
0200
2300
3002
0203
,
0310
0000
1000
0001
0000
1000
0100
0000
0010
0000
0001
1000
0000
0001
1000
0000
,
0020
0000
0000
0000
0130
0000
0001
1000
0001
0000
0010
0100
0000
0010
0100
0000
,
1000
0000
0100
0000
0010
0000
0100
0000
1000
0000
0010
0100
0000
0001
0100
0000
,
0020
0000
2030
0000
3001
0010
0110
0000
,
1000
0000
0001
0100
0000
0010
1000
0000
0001
0000
0010
0000
0100
0000
1000
0001
,
1000
0000
0001
0010
0000
0001
0010
0000
0100
0000
0000
0010
0000
0000
0001
0000
,
0200
0000
0000
0000
0301
0000
1000
0001
1000
0000
0100
0000
0010
0000
0001
0000
,
1000
0000
0010
0100
0000
0000
0001
0000
1000
0000
0100
0010
0000
0000
0001
0000
,
1000
0100
0001
0100
1000
0001
1001
0000
,
0001
0000
0100
0001
0000
1000
0001
0000
0010
0000
0000
0100
0000
0000
1000
0000
,
0020
0000
0000
0000
0130
0000
0001
1000
0001
0000
0010
0000
0100
0000
0010
0000
,
0002
0000
0000
0000
0103
0000
0010
1000
0010
0000
0100
0001
0000
1000
0100
0000
,
0010
0000
0001
1000
0000
0001
1000
0000
1001
0000
0000
0000
1000
0000
1000
0000
,
0001
0000
1000
0100
1000
0000
0000
0001
0000
0001
0000
0001
1000
0000
0010
0000
,
0100
0000
0001
0000
1000
0000
0000
0100
0000
0100
0000
0100
0010
0000
0001
1000
,
0001
0000
0100
0000
0010
0000
0000
1000
0000
1000
0000
1000
0001
0100
0001
0000
,
1000
0100
1000
0000
0100
0010
0100
0000
0010
0001
0000
1000
0000
0002
0000
0000
,
0103
0000
0010
0000
1000
0000
0000
0001
0000
0001
0000
0001
0010
0000
0100
0000
,
1000
0000
0001
0000
0100
0000
0000
0010
0000
0010
0000
0010
0100
0000
0001
1000
,
0001
0000
1000
0000
0100
0000
0000
0010
0000
0010
0000
0010
0001
1000
0001
0000
,
0100
0010
0100
0000
0010
1000
0010
0000
2000
0000
0000
0000
3001
0000
0001
0000
,
1001
0000
0000
0000
;

//--------------- dance-double - Fred-104 ----------------
#NOTES:
     dance-double:
     Fred-104:
     Easy:
     4:
     :
00000000
00000000
00000000
00000000
,
00000000
00000000
00000000
00000000
,
00000000
00000000
00000000
00000000
,
00000000
00000000
00000000
00000000
,
00000000
00000000
00000000
00000000
,
00000000
00000000
00000000
00000000
,
00000000
00000000
00000000
00000000
,
00002000
00003000
00000002
00000003
,
00002000
00003000
00000020
00000030
,
00020000
00030000
00001000
00000000
,
00020000
00000000
00031000
00000000
,
00020000
00000000
00032000
00000000
,
00103000
00000000
00010000
10000000
,
00010000
00000000
10000000
00000000
,
01000000
01000000
01000000
00000000
,
00200000
00300000
00002000
00003000
,
00020000
00030000
00001000
00010000
,
00000020
00000030
00002000
00003001
,
00000100
00000010
00000200
00000300
,
00000002
00000000
00002003
00000000
,
00003100
00000000
00010000
00000000
,
00001000
00000000
00010000
00000000
,
00100000
00000000
10000000
00010000
,
10000000
00000000
01000000
00000000
,
00100000
00000000
00010000
00000000
,
00100000
00000000
00001000
00000000
,
00010000
00000000
00001000
00010000
,
00002000
00003000
00020000
00030000
,
00000020
00002030
00003020
00000030
,
00002000
00003002
00000103
00000000
,
00000001
00000000
00001000
00000100
,
00010000
00000000
00001000
00000000
,
00010000
00000000
00000100
00000000
,
00010000
00001000
00010000
00000000
,
00001000
00001000
00022000
00033000
,
00001000
00000000
00010000
00000000
,
01000000
00000000
00100000
00000000
,
00010000
10000000
00010000
00000000
,
10000000
00000000
01000000
00000000
,
00010000
00000000
00001000
00000000
,
00000100
00000001
00001000
00000000
,
00000001
00000000
00000010
00000000
,
00000100
00000000
00010000
00000000
,
00001000
00000000
00010000
00000000
,
00001000
00000000
00010000
00000000
,
00100000
00000000
01000000
00000000
,
00010000
00000000
10000000
00000000
,
01000000
01000000
00100000
00000000
,
00001000
00000000
00010000
00000000
,
00000010
00000010
00010000
00000000
,
00002000
00000000
00013000
00000000
,
00002000
00000000
00023000
00000000
,
00030010
00000000
00001000
00000001
,
00001000
00000000
00000001
00000000
,
00000100
00000100
00000100
00000000
,
00000020
00000030
00020000
00030000
,
00002000
00003000
00010000
00001000
,
00200000
00300000
00020000
10030000
,
01000000
00100000
02000000
03000000
,
10010000
00000000
00000000
00000000
;

//--------------- dance-double - Fred-104 ----------------
#NOTES:
     dance-double:
     Fred-104:
     Medium:
     7:
     :
00000000
00000000
00000000
00000000
,
00000000
00000000
00000000
00000000
,
00000000
00000000
00000000
00000000
,
00000000
00000000
00000000
00000000
,
00000000
00000000
00000000
00000000
,
00000000
00000000
00000000
00000000
,
00000000
00000000
00000000
00000000
,
00001000
00010000
00001000
00010000
,
00200000
00300000
01000000
00010000
,
10000000
01000000
00100000
00001000
,
00010000
00000000
00000000
00010000
00000000
00000000
00010000
00000000
00011000
00000000
00000000
00000000
00001000
00000000
00001000
00000000
,
00010000
00000100
00010000
00000100
,
00001000
00000001
00001000
00000000
,
00000001
00000100
00001000
00010000
,
01000000
00000000
10000000
00000000
00010000
10000000
00010000
00000000
,
10000000
01000000
00100000
00001000
,
00010000
00001000
00010000
00000000
,
00001000
00000010
00000001
00000010
,
00000100
00001000
00000100
00000000
00020000
00000000
00031000
00000000
,
00020000
00000000
00032000
00000000
,
00103000
00001000
00100000
00010000
,
02000000
03200000
00320000
00032000
,
00013000
00000000
00010000
00000000
00001000
00000000
00010000
00001000
,
00020000
00000000
00032000
00000000
,
00003100
00000001
00001000
00000100
,
00000010
00000001
00000100
00001000
,
00010000
00000000
00010000
00000000
00001000
00000000
00001000
00010000
,
00002000
00023000
00230000
02300000
,
03010000
00000000
10000000
01000000
10000000
00000000
00010000
00000000
,
02000000
03002000
00023000
00032000
,
00013000
00000000
00001000
00000000
00010000
00000000
00001000
00010000
,
00002000
00023000
00030020
00002030
,
00003010
00000000
00001000
00000001
00000010
00000000
00000100
00000000
,
00010000
00001000
00010000
00010000
,
00001000
00000000
00000000
00001000
00000000
00000000
00001000
00000000
00010000
00000000
00000000
00000000
00011000
00000000
00000000
00000000
,
01100000
00000000
10000000
00000000
00010000
00000000
10000000
01000000
,
00100000
00000000
00001000
00000000
00010000
00000000
00001000
01000000
,
00002000
00023000
00032000
00003200
,
00001300
00000000
00010000
00000000
00001000
00010000
00001000
00000000
,
00010000
00011000
00001000
00010000
,
00100000
00000000
10000000
00010000
10000000
00000000
01000000
00000000
,
00200000
00320000
00230000
00302000
,
00013000
00000000
00001000
00000000
00010000
00001000
00011000
00000000
,
00010000
00000000
00000000
00010000
00000000
00000000
00010000
00000000
00001000
00000000
00000000
00001000
00000000
00000000
00001000
00000000
,
00010000
00000010
00002000
00003002
,
00001003
00000000
00000000
00000010
00000000
00000000
00010000
00000000
00001000
00000000
00000000
00010000
00000000
00000000
00100000
00000000
,
02000000
00000000
03020000
00000000
10030000
00010000
10000000
00000000
,
01000000
00000000
00000000
01000000
00000000
00000000
00100000
00000000
00001000
00000000
00000000
00001000
00000000
00000000
00010000
00000000
,
00000020
00002030
00003002
00000203
,
00002300
00023000
00032000
02003000
,
03001000
00000000
00000000
00001000
00000000
00000000
00001000
00000000
00011000
00000000
00000000
00000000
00010000
00000000
00010000
00000000
,
00001000
01000000
00001000
01000000
,
00010000
10000000
00010000
00000000
,
10000000
01000000
00010000
00001000
,
00000100
00000000
00000001
00000000
00001000
00000001
00001000
00000000
,
00000001
00000100
00000010
00010000
,
00001000
00010000
00001000
00000000
,
00010000
00100000
10000000
00100000
,
01000000
00010000
01000000
00000000
00002000
00000000
00013000
00000000
,
00011000
00000000
00000000
00000000
;

//--------------- dance-double - Fred-104 ----------------
#NOTES:
     dance-double:
     Fred-104:
     Hard:
     12:
     :
00000000
00000000
00000000
00000000
,
00000000
00000000
00000000
00000000
,
00000000
00000000
00000000
00000000
,
00000000
00000000
00000000
00000000
,
00000000
00000000
00000000
00000000
,
00000000
00000000
00000000
00000000
,
00000000
00000000
00000000
00000000
,
00001000
00000000
00000000
00010000
00000000
00000000
00001000
00000000
00010000
00000000
00000000
00100000
00000000
00000000
01000000
00000000
,
00020000
00000000
00000000
00000000
00000000
00000000
10030000
01000000
10000000
00000000
01000000
00000000
00100000
00000000
00001000
00000000
,
00020000
00000000
00000000
00000000
00000000
00000000
00030010
00010000
00000010
00000000
00001000
00000010
00000000
00000000
00000100
00000001
,
00000100
00000000
00000001
00001000
00000000
00000100
00000010
00000000
00000011
00000000
00000000
00000000
00001000
00000000
00000001
00000000
,
00001000
00000000
00000010
00000000
00000100
00000000
00000000
00000001
00000000
00000001
00000000
00000001
00000010
00000000
00000000
00000000
,
00000100
00000000
00010000
00000000
00001000
00000000
00000000
00010000
00000000
00010000
00000000
00010000
01000000
00000000
10000000
00010000
,
10000000
00000000
01000000
00000000
00100000
00000000
00000000
00010000
00000000
00010000
00000000
00010000
00100000
00010000
00100000
00000000
,
00001000
00010000
00001000
00000000
00010000
00000010
00010000
00000000
00000010
00010000
00000000
00001000
00000000
00020000
00000000
00000000
,
00031000
00000000
00010000
00000000
00100000
00000000
00000000
01000000
00000000
01000000
00000000
01000000
00010000
00000000
00000000
00000000
,
10000000
00000000
01000000
00000000
00010000
00000000
00000000
00001000
00000000
00001000
00000000
00001000
00010000
00000000
00000100
00000010
,
00000100
00000000
00000010
00000000
00000001
00000000
00000000
00001000
00000000
00001000
00000000
00001000
00000100
00001000
00000100
00000000
,
00010000
00001000
00010000
00000000
00100000
10000000
00100000
00000000
02000000
00000000
00000000
00000000
03010000
10000000
00010000
00000000
,
10020000
00000000
00000000
10030000
00020000
00000000
00000000
00130000
,
00002000
00000000
00013000
00001000
00000200
00000000
00000301
00001000
,
00000002
00000000
00000023
00000000
00002030
00000000
00013000
00001000
,
00010000
00001000
00000000
00010000
00001000
00000000
00100000
00010000
00000000
00100000
01000000
00000000
10000000
00010000
10000000
00010000
,
02000000
00000000
00000000
03100000
02000000
00000000
00000000
03010000
,
20000000
00000000
31000000
00100000
00002000
00000000
00013000
00000010
,
00020000
00000000
00032000
00000000
00003020
00000000
00000031
00000010
,
00000100
00001000
00000000
00000100
00001000
00000000
00000001
00001000
00000000
00000010
00010000
00000000
00001000
00010000
00001000
00010000
,
00001000
00000000
00010000
00001000
00000100
00000000
00000001
00000100
,
00000010
00001000
00000001
00000010
00000100
00000000
00010000
00001000
,
00010000
00100000
01000000
00000000
00100000
10000000
00010000
10000000
,
01000000
00100000
00000000
00010000
00100000
00000000
00001000
00010000
00000000
00001000
00010000
00000000
00000100
00001000
00000100
00001000
,
00000001
00000100
00000001
00000100
00001000
00000000
00010000
00001000
,
00010000
01000000
10000000
01000000
00100000
00010000
00100000
00001000
,
00011000
00000000
00010010
00000000
00010000
00001000
00000100
00000010
,
00001000
00000000
00000000
00000001
00000000
00000000
00000010
00000000
00000110
00000000
00000000
00000000
00001001
00000000
00000000
00000000
,
00000001
00000000
00001000
00000000
00000100
00000000
00000000
00000000
00010000
00000000
00001000
00100000
00000000
00001000
00010000
00000000
,
00001000
00000000
00010000
00000000
00100000
00000000
01000000
00000000
00100000
00000000
10000000
00100000
00000000
01000000
00010000
00000000
,
20000000
32000000
03020000
00032000
,
00013000
00000000
00000100
00001000
00000000
00000100
00001000
00000000
00000100
00000000
00000010
00000001
00000000
00001000
00000010
00000000
,
00000200
00000000
00000000
00000000
00001300
00000000
00010000
00001000
00010000
00000000
00100000
01000000
00000000
00010000
10000000
00000000
,
01000000
00000000
00100000
00000000
00010000
00000000
00100000
00000000
00001000
00000000
00010000
00001000
00000000
00100000
00001000
00000000
,
00020000
00000000
00032000
00000000
00003100
00000001
00001001
00000000
,
00001000
00000000
00000001
00000010
00000000
00000100
00000010
00000000
00000100
00000000
00010000
00000000
00001000
00000000
00010000
00001000
,
00010000
00000000
00100000
01000000
00000000
00010000
01000000
00000000
00100000
00000000
00000000
10000000
00000000
00000000
00010000
00000000
,
00200000
00000000
00000000
00000000
00301000
00000000
00010000
00001000
00010000
00000000
00000010
00000000
00001000
00000000
00000001
00000000
,
00000010
00000000
00000100
00001000
00000000
00000000
00000100
00000000
00010000
00000000
00001000
01000000
00000000
00000000
00010000
00000000
,
10000000
00100000
00010000
00001000
00000010
00000001
00001001
00000000
,
00000001
00000000
00000010
00000100
00000000
00001000
00000001
00000000
00000100
00000000
00000000
00001000
00000000
00000000
00010000
00000000
,
00002000
00000000
00000000
00000000
01003000
00000000
00100000
10000000
00100000
00000000
01000000
00000000
00010000
00000000
10000000
00000000
,
02000000
00000000
00000000
00000000
03100000
00000000
00001000
00010000
00001000
00000000
00100000
00001000
00000000
00010000
00001000
00000000
,
00100000
00000000
00010000
10000000
00000000
00100000
01000000
00000000
01010000
00000000
00000000
00000000
00010000
00000000
10000000
00000000
,
00010000
00000000
00100000
00000000
01000000
00000000
00000000
10000000
00000000
10000000
00000000
10000000
00100000
00000000
00000000
00000000
,
01000000
00000000
00001000
00000000
00010000
00000000
00000000
00001000
00000000
00001000
00000000
00001000
00000100
00000000
00000001
00001000
,
00000001
00000000
00000100
00000000
00000010
00000000
00000000
00001000
00000000
00001000
00000000
00001000
00000010
00001000
00000010
00000000
,
00010000
00001000
00010000
00000000
00001000
00100000
00001000
00000000
00100000
00001000
00000000
00010000
00000000
00002000
00000000
00000000
,
00013000
00000000
00001000
00000000
00000010
00000000
00000000
00000100
00000000
00000100
00000000
00000100
00001000
00000000
00000000
00000000
,
00000001
00000000
00000100
00000000
00001000
00000000
00000000
00010000
00000000
00010000
00000000
00010000
00001000
00000000
01000000
00100000
,
01000000
00000000
00100000
00000000
10000000
00000000
00000000
00010000
00000000
00010000
00000000
00010000
01000000
00010000
01000000
00000000
,
00001000
00010000
00001000
00000000
00000010
00000001
00000010
00000000
00000200
00000000
00000000
00000000
00001300
00000000
00000001
00000000
,
00001001
00000000
00000000
00000000
;
