#TITLE:Lost wing at.0;
#ARTIST:猫叉Master+;
#ARTISTTRANSLIT:Nekomata Master+;
#GENRE:DRUM'N'BASS;
#BANNER:Lost wing at.0.png;
#BACKGROUND:Lost wing at.0-bg.png;
#CDTITLE:./CDTitles/BeatStream AnimTribe.png;
#MUSIC:Lost wing at.0.ogg;
#SAMPLESTART:81.731;
#SAMPLELENGTH:15;
#BPMS:0=185;

//--------------- dance-single - Fred-104 ----------------
#NOTES:
     dance-single:
     Fred-104:
     Beginner:
     4:
     :
0000
0000
0000
0000
,
0000
0000
0000
0000
,
0000
0000
0000
0000
,
0000
0000
0000
0000
,
0000
0000
0000
0000
,
0000
0000
0000
0000
,
0000
0000
0000
0000
,
0000
0000
0000
0000
,
2000
0000
0000
0000
,
0000
0000
0000
0000
,
0000
0000
0000
3000
,
0002
0000
0000
0000
,
0000
0000
0000
0000
,
2003
0000
0000
0000
,
3002
0000
0000
0000
,
0000
0000
0000
0000
,
2003
0000
0000
3000
,
0001
0000
0001
0000
,
0100
0000
0000
0000
,
1000
0000
1000
0000
,
0010
0000
0000
0000
,
0001
0000
1000
0000
,
0001
0000
0000
0000
,
0100
0000
0010
0000
,
0100
0000
0001
1000
,
0001
0000
0000
0000
,
1000
0000
0010
0000
,
0100
0000
0001
0000
,
1000
1000
1000
0000
,
0001
0000
0000
0000
,
1000
0000
0000
0000
,
0100
0000
0010
0000
,
0001
0001
0001
0000
,
1000
0000
0000
0000
,
0001
0000
1000
0000
,
0002
0000
0003
0000
,
1000
0000
0001
0000
,
1000
0000
0100
0000
,
1000
0000
0000
0000
,
0001
0000
0010
0000
,
0001
0000
1000
0000
,
2002
0000
0000
0000
,
0000
0000
3003
0000
,
1000
0000
0000
0001
,
0000
0000
1000
0000
,
0002
0000
0000
0000
,
0000
0000
0003
0000
,
2000
0000
0000
0000
,
0000
0000
3000
0000
,
0200
0000
0000
0000
,
0000
0000
0300
0000
,
0020
0000
0000
0000
,
0000
0000
0030
0000
,
0002
0000
0000
0000
,
0000
0000
0003
0000
,
2000
0000
0000
0000
,
0000
0000
3000
0000
,
0002
0000
0000
0000
,
0000
0000
0003
0000
,
2000
0000
0000
0000
,
0000
0000
3000
0000
,
1001
0000
0000
1001
,
0000
0000
0000
0000
,
1000
0000
0100
0000
,
0001
0000
0000
0000
,
0001
0000
0010
0000
,
1000
0000
0001
0000
,
2000
0000
0000
3000
,
0001
0000
1000
0000
,
0002
0000
0000
0003
,
2000
0000
0000
3000
,
0001
0000
0010
0000
,
1000
0000
0000
0000
,
1000
0000
0100
0000
,
0001
0000
1000
0000
,
0002
0000
0000
0003
,
2000
0000
0000
3000
,
0002
0000
0000
0003
,
2000
0000
3002
0000
,
2003
0000
0000
0000
,
0000
0000
0000
3000
,
0002
0000
0000
0003
,
0200
0000
0000
0000
,
0000
0000
0000
0000
,
0000
0000
0300
0000
,
0020
0000
0000
0000
,
0000
0000
0030
1000
,
1000
1000
0001
0001
,
2000
0000
0000
0000
,
0000
0000
0000
3000
,
0002
0000
0000
0003
,
2002
0000
0000
0000
,
0000
0000
0000
0000
,
0000
0000
0000
0000
,
3003
0000
0000
0000
;

//--------------- dance-single - Fred-104 ----------------
#NOTES:
     dance-single:
     Fred-104:
     Easy:
     8:
     :
0000
0000
0000
0000
,
0000
0000
0000
0000
,
0000
0000
0000
0000
,
0000
0000
0000
0000
,
0000
0000
0000
0000
,
0000
0000
0000
0000
,
0000
0000
0000
0000
,
0000
0000
0000
0000
,
1000
0000
0000
1000
0000
0000
0001
0000
,
0000
2002
0000
0000
0000
0000
0000
0000
,
0000
0000
0000
3003
,
0001
0000
0000
0001
0000
0000
1000
0000
,
0000
2002
0000
0000
0000
0000
3003
0000
,
0220
0000
0000
0330
,
2002
0000
0000
0000
,
0000
0000
0000
3003
,
1000
0100
0010
0001
,
1001
0000
0001
0100
,
0110
0000
1000
0100
,
0110
0000
0000
0000
0001
1000
0000
1000
,
0000
0001
0000
0100
0000
0100
0000
0001
,
1000
0000
0000
0100
0000
0000
1000
0000
,
0000
0001
0000
0000
0200
0000
0320
0000
,
0130
0000
0000
0001
0000
0100
0000
0100
,
0000
0010
0000
1000
0000
1000
0000
0001
,
1000
0000
0001
0000
0010
0001
0010
0000
,
0001
0000
1000
0000
0010
1000
0010
0000
,
0100
0000
0001
0000
1000
0000
0000
0001
,
0000
1000
0000
0100
0000
0100
0000
0010
,
0001
0000
0100
0000
0010
1000
0010
0000
,
1000
0000
0100
0000
0010
0001
0010
0000
,
0001
0000
1000
0000
0001
0000
0000
1000
,
0000
0100
0000
0010
0000
0010
0000
0001
,
2000
0000
3001
1000
,
0200
0000
1300
0001
,
0020
0000
0000
0000
0031
0000
0000
1000
,
0000
0010
0000
0100
0000
0001
0000
0010
,
0100
0000
1000
0000
0001
1000
0001
0000
,
0100
0000
0010
0000
1000
0001
1000
0000
,
0001
0000
0010
0000
0100
0100
0000
1000
,
0000
0001
0000
0100
0000
0010
0000
2002
,
0000
0000
0000
0000
,
0000
0000
0000
3003
,
1000
0000
0000
0100
0000
0000
0001
0000
,
0000
0100
0000
0000
1000
0000
0001
0000
,
1000
0000
0000
0010
0000
0000
0001
0000
,
0000
0010
0000
0000
0000
0000
0000
0000
,
1000
0000
0000
0010
0000
0000
0001
0000
,
0000
0010
0000
0000
0000
0000
0000
0000
,
1000
0000
0000
0100
0000
0000
0001
0000
,
0000
0100
0000
0000
0000
0000
0000
0000
,
1000
0000
0000
0100
0000
0000
0001
0000
,
0000
0100
0000
0000
1000
0000
0001
0000
,
1000
0000
0000
0100
0000
0000
0010
0000
,
0000
0001
0000
0000
0100
0000
0010
0000
,
0100
0000
0000
0001
0000
0000
0100
0000
,
0000
0010
0000
0000
1000
0000
0001
0000
,
1000
0000
0000
1010
0000
0000
0001
0000
,
0000
0011
0000
0000
1000
0000
0001
0000
,
1000
0000
0000
1100
0000
0000
0001
0000
,
0000
0101
0000
0000
1000
0000
0001
0000
,
1000
0000
0000
0110
0000
0000
0001
0000
,
0000
1001
0000
0000
0000
0000
0000
0000
,
1000
0100
0010
0001
,
0100
0010
1000
0010
,
0100
0001
0010
0100
,
1000
0000
0001
0000
0100
0010
0100
0000
,
0002
0000
0000
0000
,
1003
0001
0100
0020
,
0000
0000
0000
0030
,
0110
0000
0100
0000
0001
1000
0001
0000
,
1000
0010
0100
0001
,
0010
0100
1000
0100
,
0010
0001
0100
0010
,
1000
0000
0001
0000
0010
0100
0010
0000
,
0002
0000
0000
0003
,
0100
0000
0010
0000
0100
0001
0200
0000
,
0000
0000
0000
0000
0000
0000
0301
1000
,
0001
0100
0010
1000
,
1100
0000
0000
0110
0000
0000
0011
0000
,
0000
2002
0000
0000
0000
0000
3003
0000
,
0220
0000
0000
0330
,
1010
0000
0000
0110
0000
0000
0101
0000
,
0000
2002
0000
0000
0000
0000
3003
0000
,
0220
0000
0000
0330
,
1100
0000
0000
1001
0000
0000
0101
0000
,
0000
2002
0000
0000
0000
0000
0000
0000
,
0000
0000
0000
3003
,
1010
0000
0000
1001
0000
0000
0011
0000
,
0000
2002
0000
0000
0000
0000
3003
0000
,
0220
0000
0000
0330
,
2002
0000
0000
0000
,
0000
0000
0000
0000
,
0000
0000
0000
0000
,
3003
0000
0000
0000
;

//--------------- dance-single - Fred-104 ----------------
#NOTES:
     dance-single:
     Fred-104:
     Medium:
     12:
     :
0000
0000
0000
0000
,
0000
0000
0000
0000
,
0000
0000
0000
0000
,
0000
0000
0000
0000
,
0000
0000
0000
0000
,
0000
0000
0000
0000
,
0000
0000
0000
0000
,
0000
0000
0000
0000
,
0110
0000
0000
1000
0000
0000
0110
0000
,
0000
2002
0000
0000
0000
0000
0000
0000
,
0000
0000
0000
3003
,
0110
0000
0000
0001
0000
0000
0110
0000
,
0000
2002
0000
0000
0000
0000
3003
0000
,
0220
0000
0000
0330
,
2002
0000
0000
0000
,
0000
0000
0000
3003
,
1000
0000
0001
0100
0010
1000
0001
0000
,
1001
0000
1000
0100
0010
0001
1000
0000
,
1100
0000
1000
0001
0100
0010
0100
0000
,
0101
0000
0001
0010
0100
1000
0000
1010
,
0000
0101
0000
1100
0000
0001
1000
0001
,
0100
0000
0010
1000
0100
0010
0001
1000
,
0001
0100
0010
0100
0002
0000
2003
0000
,
3001
0000
0100
0010
1000
0010
0100
0101
,
0000
1010
0000
0011
0000
1100
0000
0001
,
1000
0000
0100
0010
0001
1000
0020
0000
,
0130
0000
0001
1000
0100
0010
0002
0000
,
1003
0000
0001
0100
0010
0100
0001
0010
,
0000
0100
1000
0001
0000
0110
0000
1000
,
0001
0000
1000
0100
0001
0100
2000
0000
,
3001
0000
1000
0010
0001
0010
1000
0200
,
0000
0310
0001
1000
0001
0100
0010
0200
,
0000
0301
1000
0001
0000
0110
0000
1000
,
0100
0000
0010
0001
1000
0001
0100
0000
,
0010
0000
0100
0001
1000
0100
0010
0000
,
0001
0000
1000
0001
0100
0010
1000
0100
,
0000
1100
0000
0101
0000
1001
0000
0001
,
0200
0000
0310
1000
0001
0100
0010
1000
,
0200
0000
1300
0001
0010
0100
0010
0001
,
0200
0000
0301
1000
0001
0010
0001
1000
,
0000
1100
0000
0011
0000
0110
0000
1001
,
0000
0001
1000
0001
0001
0100
0010
0100
,
0001
1000
0100
0010
0001
1000
0010
0000
,
1000
0000
0000
0010
0000
0000
1001
0000
0000
0000
0000
0000
0001
0000
0000
0010
,
0000
1001
0000
0000
0110
0000
1001
0000
,
0001
0000
0000
0010
0000
0000
0200
0000
0000
0000
0000
0000
1300
0000
0000
0010
,
0000
0200
0000
0000
0000
0000
0300
0000
,
0001
0000
0000
0100
0000
0000
0020
0000
0000
0000
0000
0000
1030
0000
0000
0100
,
0000
0020
0000
0000
0032
0000
2003
0000
,
3001
0000
0000
0010
0000
0000
2000
0000
0000
0000
0000
0000
3001
0000
0000
0100
,
0000
2000
0000
0000
3002
0000
2003
0000
,
3100
0000
0000
0010
0000
0000
0002
0000
0000
0000
0000
0000
0103
0000
0000
0010
,
0000
2000
0000
3001
1000
0001
0100
0000
,
0110
0000
0000
1000
0000
0000
0002
0000
0000
0000
0003
0000
0110
0000
0000
0001
,
0000
2000
0000
0000
3001
0000
1000
0000
,
1001
0000
0000
1000
0000
0000
0100
0000
0000
0000
0000
0000
1001
0000
0000
0001
,
0000
0200
0000
0000
0000
0000
1300
0001
,
1000
0000
0000
0100
0000
0000
0010
0000
0011
0000
0000
0000
0001
0000
0000
1000
,
0000
0001
0000
0100
0020
0000
0230
0300
,
1000
0000
0000
0100
0000
0000
0110
0000
0000
0000
0000
0000
0001
0000
0000
0100
,
0000
0110
0000
0001
1000
0001
0100
0010
,
1000
0000
0000
0010
0000
0000
0110
0000
0000
0000
0000
0000
0001
0000
0000
0010
,
0000
0110
0000
0000
0000
0000
0000
0000
,
1000
0100
1000
0001
0100
0001
1000
0010
,
1000
0001
0010
0001
1000
0100
0010
0100
,
1000
0001
0100
0010
0100
0001
1000
0001
,
0010
0100
1000
0001
0100
0010
0100
0001
,
2000
0000
0000
0000
0000
0000
0000
3001
,
1000
0100
0010
0001
1000
0010
0200
0000
,
0000
0000
0000
0300
,
1001
0000
1000
0001
0100
0010
1000
0000
,
0001
0010
0001
1000
0100
1000
0001
0100
,
0001
1000
0010
1000
0001
0100
0010
1000
,
0010
0100
0001
1000
0100
0010
0001
1000
,
0010
0100
0010
1000
0010
0100
0001
1000
,
0200
0000
0000
0000
0000
0000
0000
0310
,
0001
1000
0010
0100
0001
1000
0200
0000
,
0000
0000
0000
0000
0000
0000
0000
1300
,
0100
0001
0100
1000
0001
0100
0010
0000
,
1010
0000
0000
0011
0000
0000
1100
0000
,
0000
0202
0000
0000
0000
0000
0303
0000
,
0220
0000
0000
0000
0000
0000
0330
1000
,
1100
0000
0000
0101
0000
0000
1010
0000
,
0000
0022
0000
0000
0000
0000
0033
0000
,
2002
0000
0000
3003
,
1100
0000
0000
0101
0000
0000
0011
0000
,
0000
2020
0000
0000
0000
0000
0000
0000
,
0000
0000
0000
3030
,
1010
0000
0000
0011
0000
0000
0101
0000
,
0000
2200
0000
0000
0000
0000
3300
0000
,
0220
0000
0000
0330
,
2002
0000
0000
0000
,
0000
0000
0000
0000
,
0000
0000
0000
0000
,
3003
0000
0000
0000
;

//--------------- dance-single - Fred-104 ----------------
#NOTES:
     dance-single:
     Fred-104:
     Hard:
     16:
     :
0000
0000
0000
0000
,
0000
0000
0000
0000
,
0000
0000
0000
0000
,
0000
0000
0000
0000
,
0000
0000
0000
0000
,
0000
0000
0000
0000
,
0000
0000
0000
0000
,
0000
0000
0000
0000
0000
0000
0000
0000
0000
0000
0000
0000
0000
0000
0001
1000
,
0002
0000
0103
1002
0000
0013
1002
0000
,
0103
2002
0000
0000
0000
0000
0000
0000
,
0000
0000
0000
0000
3003
0000
1000
0100
1000
0001
0100
0001
1000
0100
0010
0001
,
2000
0000
3001
2010
0000
3001
2100
0000
,
3001
0000
0000
2002
0000
0000
0000
0000
0000
0000
0000
0000
0000
0000
0000
0000
0000
0000
3003
0000
0000
1000
0001
1000
,
0002
0000
0000
0000
0000
0000
0000
0000
0000
0013
0100
1000
,
0001
0000
0000
0100
0000
0000
0010
0000
0000
0000
0000
0000
0000
0000
0100
0000
,
0000
0001
0000
0000
0100
0000
0000
0000
0000
0000
0001
0000
0000
0000
1000
0000
,
1001
0000
0000
0000
1001
0000
0000
1000
0100
0000
0010
0000
0011
0000
0000
0000
,
1001
0000
0001
0100
1000
0100
0010
0000
,
1001
0000
1000
0100
0001
0100
0010
0001
,
1001
0000
1000
0100
1000
1100
0000
0101
,
0000
0000
0011
0000
0000
0000
1010
0000
0000
0000
1001
0000
0000
0000
0001
0010
,
0001
0100
0010
0001
1000
0100
0001
1000
,
0100
0010
0001
0100
0020
0000
0230
0000
,
0301
0000
0100
0000
0010
1000
0001
1000
0100
0000
0010
0000
0001
0000
0011
0000
,
0000
0000
1010
0000
0000
0000
0101
0000
0000
0000
1001
0000
0001
0010
0100
1000
,
0001
0000
0000
0000
1000
0000
0010
0000
0100
1000
0100
0000
0002
0000
0000
0000
,
1003
0000
0000
0000
0001
0000
0010
0000
0100
0001
0100
0000
2000
0000
0000
0000
,
3001
0000
1000
0100
0010
1000
0001
0200
,
0000
0000
0310
0000
0001
1000
0010
0000
0000
0000
0110
0000
0000
0000
1010
0000
,
1001
0000
0000
0000
1000
0000
0100
0000
0010
1000
0010
0000
0002
0000
0000
0000
,
1003
0000
0000
0000
0001
0000
0100
0010
0001
0000
0010
0000
1000
0001
0200
0000
,
0000
0000
0301
0010
1000
0000
0001
0000
0100
0000
0010
0000
0100
0000
2000
0000
,
0000
0000
3001
1000
0010
0000
1010
0000
0000
0000
0101
0000
0000
0000
1100
0000
,
1001
0000
0000
0000
1000
0000
0001
0100
0010
1000
0001
0000
0010
0000
0100
0010
,
0002
0000
0000
0000
1003
0000
0001
0100
0010
0000
0100
0000
0001
0000
1000
0100
,
0020
0000
0000
0000
0031
0000
0100
0010
0100
0000
0001
0000
1000
0000
1100
0000
,
0000
0000
0101
0000
0000
0000
1010
0000
0000
0000
1001
0000
0001
1000
0001
1000
,
0002
0000
0000
0000
1003
0000
0010
1000
0001
0000
0010
0000
0100
0010
0001
1000
,
0020
0000
0000
0000
0130
0000
0001
1000
0100
0000
0010
0000
0100
1000
0001
0100
,
0020
0000
0000
0000
1030
0000
0010
0100
0010
0000
1000
0000
0100
0000
0110
0000
,
0000
0011
0000
1010
0000
0101
0000
1001
,
0000
0000
1000
0100
1000
0100
0010
0100
0010
0100
0010
0100
1000
0100
1000
0001
,
0100
0001
0100
0010
1000
0010
1000
0001
0010
0100
1000
0100
0010
0001
1000
0000
,
1001
0000
0000
1100
0000
0000
0101
0000
0000
0000
0000
0000
1100
0000
0000
0011
,
0000
1010
0000
0000
0110
0000
1001
0000
,
1000
0000
0000
0100
0000
0000
0002
0000
0000
0000
0000
0000
1003
0000
0000
0010
,
0000
0002
0000
0000
0000
0000
0003
0000
,
0001
0000
0000
0100
0000
0000
2000
0000
0000
0000
0000
0000
3001
0000
0000
0010
,
0000
2000
0000
0000
3002
0000
0203
0000
,
0301
0000
0000
1000
0000
0000
0200
0000
0000
0000
0000
0000
0301
0000
0000
1000
,
0000
0020
0000
0000
0032
0000
2003
0000
,
3001
0000
0000
1000
0000
0000
0020
0000
0000
0000
0000
0000
0031
0000
0000
1000
,
0000
0200
0000
0302
0023
0230
2300
3020
,
2030
0000
0000
0100
0000
0000
0001
0000
0000
0000
0000
0000
0010
0000
0000
0001
,
0000
3200
0000
0310
0002
0000
2003
0000
,
3002
0000
0000
1000
0000
0000
0100
0000
0000
0000
0000
0000
1000
0000
0000
0010
,
0000
0203
0000
0000
0000
0000
0320
2030
,
3001
0000
0000
0010
0000
0000
0100
0000
0110
0000
0000
0000
1000
0000
0000
0001
,
0000
0000
0010
0000
0000
0000
0001
1000
0020
0000
0000
0000
0230
0000
0000
0300
,
0101
0000
0000
1010
0000
0000
0011
0000
0000
0000
0001
0010
0100
0000
0000
1100
,
0000
0000
0110
0000
0000
0000
0001
0000
1000
0001
0010
0100
1000
0010
0100
0001
,
0010
0000
0000
0011
0000
0000
1001
0000
0000
0000
1000
0010
0100
0000
0000
0101
,
0000
0000
1001
0000
0000
0000
0000
0000
0000
0000
0000
0000
0000
0000
0001
1000
,
0001
0000
1000
0100
0010
0000
0100
0000
0001
0000
0100
0000
0010
0000
0001
0100
,
1000
0000
0001
0000
0010
0000
0100
0000
0001
0000
1000
0100
0001
0000
0100
0000
,
0010
0000
0001
0000
1000
0000
0001
0100
0010
0000
0001
0000
1000
0000
0100
0000
,
0010
1000
0001
0010
0100
0010
1000
0010
,
0002
0000
0000
0000
0100
0000
0000
0000
1000
0000
0000
0000
0013
0000
0100
1000
,
0001
0000
1000
0000
0010
0000
0100
0000
1000
0000
0100
0000
0010
1000
0001
0000
,
2000
0000
0000
0000
3100
0000
0010
0100
1000
0000
0001
0000
0100
0000
0010
0000
,
0100
0000
0001
1000
0001
0000
0010
0000
0100
0000
0100
0000
0110
0000
0000
0000
,
1000
0010
0100
0001
1000
0000
0100
0000
0010
0000
0001
0000
0100
0001
1000
0001
,
0010
0000
0100
0000
0010
0000
0001
0000
1000
0001
0100
0010
0100
0000
0001
0000
,
0010
0000
0000
0000
0000
0000
0100
0000
0000
0000
0000
0000
1000
0000
0000
0010
0000
0000
0100
0000
0000
0001
0000
0000
1000
0000
0000
0000
0000
0000
0100
0000
0010
0000
0100
0000
0010
0000
0000
0000
0000
0000
0100
0000
0000
0000
0000
0000
,
1000
0000
0001
0000
0100
0001
0010
0100
1000
0000
0001
0000
0101
0000
0000
0000
,
2001
0000
0000
0000
0001
0000
0000
0000
0010
0000
0000
0000
3100
0000
0010
0100
,
1000
0010
0001
1000
0100
0001
1000
0100
,
0020
0000
0000
0000
0130
0000
1000
0001
0100
0000
0010
0000
1000
0000
0001
0010
,
0100
0000
1000
0000
0001
0000
1000
0001
0100
0001
1000
0100
0010
0001
0100
0010
,
1000
0000
0001
0010
0100
0000
1100
0000
1000
0010
0100
0000
0101
0000
0001
1000
,
0001
2002
0000
0000
0000
0000
0000
3003
,
0220
0000
0000
0000
0000
0000
0000
0000
0000
0000
0000
0000
0330
0000
1000
0010
,
0100
0000
0001
1000
0100
0000
0110
0000
0010
0001
1000
0000
1010
0000
0010
0100
,
0001
0000
0011
0000
0000
0000
0001
1000
0010
0000
0100
0000
0001
0000
0000
0000
,
1000
0100
1000
0000
0001
0100
0001
0000
1000
0000
0001
0000
1000
0001
0100
0010
,
1000
0000
0001
0010
0100
0000
1100
0000
1000
0010
0100
0000
0101
0000
0001
1000
,
0100
0000
0220
0000
0000
0000
0000
0000
0000
0000
0330
0000
0001
1000
0001
0000
,
0100
0010
0100
0000
0001
0010
0100
1000
0001
0100
0010
1000
0010
0100
0001
1000
,
0001
0000
0100
1000
0100
0000
0001
0000
0010
1000
0010
0000
0001
0000
0100
0010
,
1000
0000
2020
0000
0000
0000
0000
0000
0000
0000
0000
0000
3030
0000
0001
1000
,
0200
0000
0000
0000
0000
0000
0000
0000
0000
0301
0100
1000
,
0002
0000
0000
0000
,
0000
0000
0000
0000
,
0000
0000
0000
0000
,
0003
0000
0000
0000
;

//--------------- dance-double - Fred-104 ----------------
#NOTES:
     dance-double:
     Fred-104:
     Easy:
     8:
     :
00000000
00000000
00000000
00000000
,
00000000
00000000
00000000
00000000
,
00000000
00000000
00000000
00000000
,
00000000
00000000
00000000
00000000
,
00000000
00000000
00000000
00000000
,
00000000
00000000
00000000
00000000
,
00000000
00000000
00000000
00000000
,
00000000
00000000
00000000
00000000
,
00000001
00000000
00000000
00000100
00000000
00000000
00001000
00000000
,
00000000
00022000
00000000
00000000
00000000
00000000
00000000
00000000
,
00000000
00000000
00000000
00033000
,
00001000
00000000
00000000
00010000
00000000
00000000
00100000
00000000
,
00000000
20020000
00000000
00000000
00000000
00000000
30030000
00000000
,
22000000
00000000
00000000
33000000
,
02020000
00000000
00000000
00000000
,
00000000
00000000
00000000
03030000
,
00001000
00001000
00010000
00010000
,
00011000
00000000
00010000
00001000
,
00101000
00000000
00001000
00010000
,
00010010
00000000
00000000
00000000
00001000
00001000
00000000
00010000
,
00000000
00001000
00000000
01000000
00000000
00010000
00000000
10000000
,
00010000
00000000
00000000
10000000
00000000
00000000
01000000
00000000
,
00000000
00100000
00000000
00000000
00002000
00000000
00023000
00000000
,
00031000
00000000
00000000
00100000
00000000
00001000
00000000
00001000
,
00000000
00010000
00000000
00000010
00000000
00000010
00000000
00001000
,
00000001
00000000
00000100
00000000
00000010
00001000
00000010
00000000
,
00010000
00000000
00001000
00000000
00010000
00000100
00010000
00000000
,
00001000
00000000
01000000
00000000
00001000
00000000
00000000
00001000
,
00000000
00010000
00000000
00001000
00000000
01000000
00000000
00010000
,
01000000
00000000
00100000
00000000
10000000
00010000
10000000
00000000
,
01000000
00000000
00100000
00000000
00001000
00010000
00001000
00000000
,
01000000
00000000
00001000
00000000
00010000
00000000
00000000
00001000
,
00000000
00010000
00000000
00000010
00000000
00001000
00000000
00000001
,
00000200
00000000
00000310
00010000
,
00002000
00000000
01003000
00010000
,
00200000
00000000
00000000
00000000
01300000
00000000
00000000
10000000
,
00000000
00100000
00000000
00010000
00000000
00001000
00000000
00000100
,
00000010
00000000
00001000
00000000
00000010
00001000
00000010
00000000
,
00000100
00000000
00000001
00000000
00001000
00000010
00001000
00000000
,
00000001
00000000
00000010
00000000
00001000
00010000
00000000
01000000
,
00000000
00100000
00000000
00001000
00000000
00010000
00000000
00022000
,
00000000
00000000
00000000
00000000
,
00000000
00000000
00000000
00033000
,
00001000
00000000
00000000
00010000
00000000
00000000
01000000
00000000
,
00000000
00010000
00000000
00000000
00001000
00000000
00010000
00000000
,
00001000
00000000
00000000
00010000
00000000
00000000
00100000
00000000
,
00000000
00010000
00000000
00000000
00000000
00000000
00000000
00000000
,
00001000
00000000
00000000
00010000
00000000
00000000
01000000
00000000
,
00000000
00010000
00000000
00000000
00000000
00000000
00000000
00000000
,
00001000
00000000
00000000
00010000
00000000
00000000
00000010
00000000
,
00000000
00010000
00000000
00000000
00000000
00000000
00000000
00000000
,
00001000
00000000
00000000
00010000
00000000
00000000
00000100
00000000
,
00000000
00010000
00000000
00000000
00001000
00000000
00010000
00000000
,
00000010
00000000
00000000
00001000
00000000
00000000
00000010
00000000
,
00000000
00010000
00000000
00000000
00001000
00000000
01000000
00000000
,
00010000
00000000
00000000
01000000
00000000
00000000
00100000
00000000
,
00000000
01000000
00000000
00000000
00100000
00000000
10000000
00000000
,
01000000
00000000
00000000
01100000
00000000
00000000
00001000
00000000
,
00000000
00011000
00000000
00000000
00010000
00000000
00000010
00000000
,
00010000
00000000
00000000
00101000
00000000
00000000
00001000
00000000
,
00000000
00010010
00000000
00000000
00001000
00000000
00010000
00000000
,
00001000
00000000
00000000
00010100
00000000
00000000
00010000
00000000
,
00000000
01001000
00000000
00000000
00000000
00000000
00000000
00000000
,
00001000
00010000
00100000
10000000
,
00010000
00100000
01000000
10000000
,
00100000
00010000
00001000
00000100
,
00000010
00000000
00001000
00000000
00000001
00000100
00000010
00000000
,
00000200
00000001
00000000
00000001
,
00000301
00000010
00001000
00020000
,
00000000
00001000
00000000
00031000
,
00011000
00000000
00001000
00000000
00010000
00100000
01000000
00000000
,
00010000
10000000
01000000
00010000
,
00001000
00010000
00100000
00010000
,
00001000
00000100
00000010
00001000
,
00000100
00000000
00000010
00000000
00000001
00001000
00000100
00000000
,
00020000
00001000
00000000
00031000
,
00001000
00000000
01000000
00000000
00010000
10000000
00020000
00000000
,
10000000
00000000
00000000
00000000
10000000
00000000
10030000
01000000
,
10000000
01000000
00100000
00010000
,
01000000
00000000
00000000
01001000
00000000
00000000
00001000
00000000
,
00000000
00022000
00000000
00000000
00000000
00000000
00033000
00000000
,
00020020
00000000
00000000
00030030
,
00001000
00000000
00000000
00000110
00000000
00000000
00000001
00000000
,
00000000
00002002
00000000
00000000
00000000
00000000
00003003
00000000
,
00000220
00000000
00000000
00000330
,
00000001
00000000
00000000
00001001
00000000
00000000
00000100
00000000
,
00000000
00022000
00000000
00000000
00000000
00000000
00000000
00000000
,
00000000
00000000
00000000
00033000
,
00101000
00000000
00000000
00011000
00000000
00000000
00010010
00000000
,
00000000
00022000
00000000
00000000
00000000
00000000
00033000
00000000
,
02002000
00000000
00000000
03003000
,
00022000
00000000
00000000
00000000
,
00000000
00000000
00000000
00000000
,
00000000
00000000
00000000
00000000
,
00033000
00000000
00000000
00000000
;

//--------------- dance-double - Fred-104 ----------------
#NOTES:
     dance-double:
     Fred-104:
     Medium:
     13:
     :
00000000
00000000
00000000
00000000
,
00000000
00000000
00000000
00000000
,
00000000
00000000
00000000
00000000
,
00000000
00000000
00000000
00000000
,
00000000
00000000
00000000
00000000
,
00000000
00000000
00000000
00000000
,
00000000
00000000
00000000
00000000
,
00000000
00000000
00000000
00000000
,
11000000
00000000
00000000
00010000
00000000
00000000
00101000
00000000
,
00000000
00022000
00000000
00000000
00000000
00000000
00000000
00000000
,
00000000
00000000
00000000
00033000
,
00101000
00000000
00000000
00010000
00000000
00000000
00010010
00000000
,
00000000
00002020
00000000
00000000
00000000
00000000
00003030
00000000
,
00000220
00000000
00000000
00000330
,
00002002
00000000
00000000
00000000
,
00000000
00000000
00000000
00003003
,
00000001
00000000
00000010
00000000
00001000
00010000
00001000
00000000
,
00011000
00000000
00001000
00100000
00010000
10000000
00010000
00000000
,
11000000
00000000
10000000
01000000
00100000
00001000
00010000
00000000
,
00011000
00000000
00010000
00001000
00000010
00000100
00000000
00001100
,
00000000
00000110
00000000
00001001
00000000
00000001
00000010
00000100
,
00010000
00000000
00001000
00100000
00001000
00010000
00100000
00010000
,
00001000
00010000
00000010
00001000
00000002
00000000
00000203
00000000
,
00000301
00000000
00000010
00000100
00000010
00001000
00010000
00011000
,
00000000
01100000
00000000
00110000
00000000
10010000
00000000
10000000
,
01000000
00000000
10000000
00100000
00010000
00100000
02000000
00000000
,
03010000
00000000
10000000
01000000
00010000
00001000
00020000
00000000
,
00130000
00000000
01000000
00001000
00010000
00100000
01000000
00001000
,
00000000
00010000
00001000
00010000
00000000
00010010
00000000
00001000
,
00010000
00000000
00001000
00010000
00000100
00001000
00000200
00000000
,
00000310
00000000
00000001
00000100
00001000
00010000
00001000
00000200
,
00000000
00000310
00010000
00001000
00000100
00000001
00001000
00000020
,
00000000
00000130
00000001
00001000
00000000
00001100
00000000
00000100
,
00010000
00000000
00001000
00010000
00100000
01000000
00100000
00000000
,
10000000
00000000
01000000
10000000
00010000
10000000
01000000
00000000
,
00100000
00000000
00001000
00010000
00001000
01000000
00001000
00010000
,
00000000
00011000
00000000
01001000
00000000
00010010
00000000
00001000
,
00020000
00000000
00031000
00010000
00001000
00000010
00000100
00001000
,
00000020
00000000
00000130
00000001
00001000
00000100
00000010
00000100
,
00020000
00000000
00031000
00100000
00001000
00010000
00000010
00010000
,
00000000
00011000
00000000
00101000
00000000
00010100
00000000
00011000
,
00000000
00001000
00010000
00100000
01000000
00010000
00100000
01000000
,
10000000
00100000
00010000
00001000
00000100
00000010
00001000
00000001
,
00000010
00000000
00000000
00000100
00000000
00000000
00011000
00000000
00000000
00000000
00000000
00000000
00001000
00000000
00000000
00100000
,
00000000
00110000
00000000
00000000
11000000
00000000
01010000
00000000
,
10000000
00000000
00000000
00100000
00000000
00000000
00020000
00000000
00000000
00000000
00000000
00000000
00031000
00000000
00000000
00000100
,
00000000
00000002
00000000
00000000
00000000
00000000
00000003
00000000
,
00000001
00000000
00000000
00000010
00000000
00000000
00002000
00000000
00000000
00000000
00000000
00000000
00013000
00000000
00000000
01000000
,
00000000
20000000
00000000
00000000
32000000
00000000
03200000
00000000
,
00301000
00000000
00000000
00001000
00000000
00000000
00020000
00000000
00000000
00000000
00000000
00000000
00031000
00000000
00000000
01000000
,
00000000
00020000
00000000
00000000
00230000
00000000
00302000
00000000
,
00013000
00000000
00000000
00000010
00000000
00000000
00002000
00000000
00000000
00000000
00000000
00000000
00003100
00000000
00000000
00010000
,
00000000
00002000
00000000
00013000
00000010
00001000
00000010
00000000
,
00001010
00000000
00000000
00000001
00000000
00000000
00000200
00000000
00000000
00000000
00000300
00000000
00011000
00000000
00000000
00000010
,
00000000
00020000
00000000
00000000
00031000
00000000
00100000
00000000
,
00110000
00000000
00000000
00001000
00000000
00000000
01000000
00000000
00000000
00000000
00000000
00000000
01100000
00000000
00000000
10000000
,
00000000
00020000
00000000
00000000
00000000
00000000
10030000
01000000
,
00100000
00000000
00000000
00001000
00000000
00000000
00010000
00000000
00011000
00000000
00000000
00000000
00010000
00000000
00000000
00000010
,
00000000
00001000
00000000
00000010
00000200
00000000
00000302
00000000
,
00001003
00000000
00000000
00000100
00000000
00000000
00011000
00000000
00000000
00000000
00000000
00000000
00010000
00000000
00000000
01000000
,
00000000
00011000
00000000
00001000
00010000
00100000
01000000
00010000
,
10000000
00000000
00000000
01000000
00000000
00000000
01010000
00000000
00000000
00000000
00000000
00000000
00010000
00000000
00000000
01000000
,
00000000
11000000
00000000
00000000
00000000
00000000
00000000
00000000
,
10000000
00100000
10000000
01000000
00100000
00010000
01000000
00001000
,
00010000
00001000
00000100
00000010
00001000
00000001
00000010
00000100
,
00000010
00001000
00010000
01000000
00100000
01000000
10000000
00010000
,
01000000
00100000
10000000
01000000
00010000
00001000
00010000
01000000
,
20000000
00000000
01000000
00000000
00000000
00000000
01000000
31000000
,
00100000
00001000
00010000
00000100
00000010
00000001
00002000
00000000
,
00000000
00000010
00000000
00003010
,
00000110
00000000
00000001
00000010
00000100
00010000
00001000
00000000
,
00010000
00001000
00000100
00000010
00010000
00000100
00010000
00001000
,
00010000
01000000
00100000
00010000
00100000
01000000
10000000
00100000
,
00010000
00001000
00010000
00100000
01000000
00001000
00010000
00001000
,
00000010
00000100
00001000
00000010
00000001
00000010
00001000
00000100
,
00020000
00000000
00001000
00000000
00000000
00000000
00001000
00031000
,
00010000
00100000
10000000
01000000
00010000
00001000
00020000
00000000
,
00000000
00000000
00001000
00000000
00000000
00000000
00001000
00031000
,
00010000
01000000
10000000
00100000
00010000
00001000
00010000
00000000
,
00011000
00000000
00010000
00000010
00000000
00001000
00000010
00000000
,
00001000
00002002
00000000
00000000
00000000
00000000
00003003
00000000
,
00000220
00000000
00000000
00000000
00000000
00000000
00000330
00010000
,
00011000
00000000
00001000
01000000
00000000
00010000
10000000
00000000
,
01000000
02200000
00000000
00000000
00000000
00000000
03300000
00000000
,
00022000
00000000
00000000
00033000
,
00101000
00000000
00000000
00010010
00000000
00000000
01001000
00000000
,
00000000
00020200
00000000
00000000
00000000
00000000
00000000
00000000
,
00000000
00000000
00000000
00030300
,
00101000
00000000
00000000
00010100
00000000
00000000
01001000
00000000
,
00000000
00020020
00000000
00000000
00000000
00000000
00030030
00000000
,
00022000
00000000
00000000
00033000
,
00002002
00000000
00000000
00000000
,
00000000
00000000
00000000
00000000
,
00000000
00000000
00000000
00000000
,
00003003
00000000
00000000
00000000
;

//--------------- dance-double - Fred-104 ----------------
#NOTES:
     dance-double:
     Fred-104:
     Hard:
     16:
     :
00000000
00000000
00000000
00000000
,
00000000
00000000
00000000
00000000
,
00000000
00000000
00000000
00000000
,
00000000
00000000
00000000
00000000
,
00000000
00000000
00000000
00000000
,
00000000
00000000
00000000
00000000
,
00000000
00000000
00000000
00000000
,
00000000
00000000
00000000
00000000
00000000
00000000
00000000
00000000
00000000
00000000
00000000
00000000
00000000
00000000
00010000
00001000
,
00020000
00000000
00031000
00020010
00000000
00031000
00020100
00000000
,
00031000
00022000
00000000
00000000
00000000
00000000
00000000
00000000
,
00000000
00000000
00000000
00000000
00033000
00000000
00010000
00000010
00001000
00000010
00010000
00001000
00100000
00001000
00010000
00000000
,
00012000
00000000
00013000
01002000
00000000
00013000
00102000
00000000
,
00013000
00000000
00000000
00022000
00000000
00000000
00000000
00000000
00000000
00000000
00000000
00000000
00000000
00000000
00000000
00000000
00000000
00000000
00033000
00000000
00000000
00001000
00010000
00001000
,
00020000
00000000
00000000
00000000
00000000
00000000
00000000
00000000
00000000
00031000
00010000
01000000
,
10000000
00000000
00000000
00010000
00000000
00000000
01000000
00000000
00000000
00000000
00000000
00000000
00000000
00000000
00100000
00000000
,
00000000
10000000
00000000
00000000
00010000
00000000
00000000
00000000
00000000
00000000
10000000
00000000
00000000
00000000
01000000
00000000
,
00100000
00000000
00000000
00100000
00001000
00000000
00000000
00010000
00000100
00000000
00001000
00000000
00001001
00000000
00000000
00000000
,
00000110
00000000
00000001
00000100
00001000
00010000
00001000
00000000
,
00011000
00000000
00001000
00010000
01000000
00100000
00010000
10000000
,
11000000
00000000
00010000
01000000
00100000
10000000
00000000
11000000
,
00000000
00000000
00110000
00000000
00000000
00000000
00001100
00000000
00000000
00000000
00000011
00000000
00000000
00000000
00000001
00001000
,
00000100
00000010
00001000
00000010
00000001
00000100
00001000
00010000
,
00001000
00100000
01000000
00100000
00020000
00000000
02030000
00000000
,
03010000
00000000
10000000
00000000
01000000
00100000
01000000
00100000
00001000
00000000
00010000
00000000
00000000
00000000
00010010
00000000
,
00000000
00000000
00101000
00000000
00000000
00000000
00010100
00000000
00000000
00000000
01001000
00000000
00001000
00010000
00001000
00010000
,
00001000
00000000
00000000
00000000
00010000
00000000
00001000
00000000
00000100
00000010
00001000
00000000
00000002
00000000
00000000
00000000
,
00001003
00000000
00000000
00000000
00000001
00000000
00000100
00000000
00000010
00010000
00001000
00000000
00200000
00000000
00000000
00000000
,
00301000
00000000
00010000
01000000
00100000
00010000
10000000
00200000
,
00000000
00000000
00310000
00000000
00001000
00000100
00000010
00000000
00001000
00000000
00000001
00000010
00000100
00000000
00010000
00001000
,
00010000
00000000
00000000
00000000
00001000
00000000
00010000
00000000
01000000
00100000
00010000
00000000
02000000
00000000
00000000
00000000
,
03010000
00000000
00000000
00000000
10000000
00000000
01000000
00010000
00001000
00000000
00010000
00000000
00100000
01000000
00002000
00000000
,
00000000
00000000
00013000
00001000
00000100
00000000
00000010
00000000
00001000
00000000
00000001
00000000
00000010
00000000
00000200
00000000
,
00000000
00000000
00000310
00000001
00001000
00000000
00001100
00000000
00000000
00000000
00010010
00000000
00000000
00000000
00101000
00000000
,
00011000
00000000
00000000
00000000
00010000
00000000
00001000
00100000
00010000
00000000
10000000
00000000
00010000
01000000
00100000
01000000
,
00020000
00000000
00000000
00000000
10030000
00000000
01000000
00100000
00010000
00000000
00100000
00000000
00001000
00000000
00010000
00000010
,
00020000
00000000
00000000
00000000
00031000
00000000
00000100
00000010
00001000
00000000
00000001
00000000
00000010
00000000
00000011
00000000
,
00000000
00000000
00001001
00000000
00000000
00000000
00000101
00000000
00000000
00000000
00011000
00000000
00001000
00010000
00001000
00000000
,
00200000
00000000
00000000
00000000
00310000
00000000
10000000
00010000
01000000
00000000
00100000
00000000
10000000
01000000
00100000
00001000
,
00020000
00000000
00000000
00000000
00031000
00000000
00010000
00000010
00001000
00000000
00000100
00000000
00000010
00000001
00001000
00000010
,
00000200
00000000
00000000
00000000
00000301
00000000
00000100
00001000
00010000
00000000
00100000
00000000
01000000
00000000
00010000
00000000
,
00000000
11000000
00000000
00011000
00000000
00010100
00000000
00011000
,
00000000
00000000
00010000
00001000
00010000
00001000
00010000
00000000
00000100
00001000
00000001
00001000
00000010
00000000
00001000
00000000
,
00000001
00000010
00000001
00000010
00000100
00001000
00000100
00001000
00000100
00010000
00000100
00010000
00001000
00010000
00001000
00010000
,
00001000
00000000
00000000
00101000
00000000
00000000
00010010
00000000
00000000
00000000
00000000
00000000
00011000
00000000
00000000
00010100
,
00000000
01001000
00000000
00000000
00011000
00000000
01100000
00000000
,
10000000
00000000
00000000
01000000
00000000
00000000
00020000
00000000
00000000
00000000
00000000
00000000
00031000
00000000
00000000
00000010
,
00000000
00000002
00000000
00000000
00000000
00000000
00000003
00000000
,
00000001
00000000
00000000
00000100
00000000
00000000
00002000
00000000
00000000
00000000
00000000
00000000
00013000
00000000
00000000
00100000
,
00000000
20000000
00000000
00000000
30020000
00000000
20030000
00000000
,
31000000
00000000
00000000
00100000
00000000
00000000
00002000
00000000
00000000
00000000
00000000
00000000
00013000
00000000
00000000
00001000
,
00000000
00000020
00000000
00000000
00000230
00000000
00002300
00000000
,
00003001
00000000
00000000
00000100
00000000
00000000
00002000
00000000
00000000
00000000
00000000
00000000
00013000
00000000
00000000
00100000
,
00000000
02000000
00000000
03010000
10000000
01000000
00010000
00001000
,
00010000
00000000
00000000
00011000
00000000
00000000
00010010
00000000
00000000
00000000
00000000
00000000
00001010
00000000
00000000
00001001
,
00000000
00001100
00000000
00000010
00020000
00000000
00032000
00003000
,
00101000
00000000
00000000
00010010
00000000
00000000
01001000
00000000
00000000
00000000
00000000
00000000
00010100
00000000
00000000
00101000
,
00000000
00010010
00000000
00000000
00000000
00000000
00010000
00001000
,
00101000
00000000
00000000
10010000
00000000
00000000
11000000
00000000
00000000
00000000
00000000
00000000
01100000
00000000
00000000
00110000
,
00000000
00101000
00000000
00001000
00020000
00000000
00030020
00000000
,
00001030
00000000
00000000
00000100
00000000
00000000
00000110
00000000
00000000
00000000
00000001
00000100
00001000
00000000
00000000
00010000
,
00000000
00000000
00110000
00000000
00000000
00000000
10000000
00000000
00010000
01000000
00100000
10000000
01000000
00100000
00010000
10000000
,
00100000
00000000
00000000
01000000
00000000
00000000
01001000
00000000
00000000
00000000
00010000
00001000
00000100
00000000
00000000
00000010
,
00000000
00000000
00001001
00000000
00000000
00000000
00000000
00000000
00000000
00000000
00000000
00000000
00000000
00000000
00000001
00000010
,
00000100
00000000
00001000
00000001
00000100
00000000
00001000
00000000
00010000
00000000
00100000
00000000
01000000
00000000
00010000
10000000
,
01000000
00000000
00010000
00000000
01000000
00000000
00100000
00000000
00010000
00000000
10000000
00100000
00010000
00000000
00001000
00000000
,
00000100
00000000
00000010
00000000
00000100
00000000
00000001
00000010
00000100
00000000
00010000
00000000
00001000
00000000
00010000
00000000
,
01000000
00100000
00010000
10000000
00100000
00010000
00001000
01000000
,
00002000
00000000
00000000
00000000
00010000
00000000
00000000
00000000
00013000
00000000
00000010
00000000
00001000
00000000
00000001
00000100
,
00000010
00000000
00000100
00000000
00001000
00000000
00010000
00000000
00100000
00000000
10000000
00000000
00100000
01000000
10000000
00000000
,
02000000
00000000
00000000
00000000
03100000
00000000
10000000
01000000
00010000
00000000
00001000
00000000
00010000
00000000
00100000
00000000
,
00010000
00000000
00001000
00000100
00000001
00000000
00001000
00000000
00000100
00000000
00000010
00000000
00000001
00000000
00000000
00000000
,
00001000
00000001
00000010
00000100
00001000
00000000
00000010
00000000
00010000
00000000
00001000
00000000
00100000
00010000
10000000
00100000
,
01000000
00000000
00010000
00000000
10000000
00000000
01000000
00000000
00100000
00001000
00010000
00001000
00000010
00000000
00000100
00000000
,
00001000
00000000
00000000
00000000
00000000
00000000
00000001
00000000
00000000
00000000
00000000
00000000
00000100
00000000
00000000
00000010
00000000
00000000
00000100
00000000
00000000
00000001
00000000
00000000
00001000
00000000
00000000
00000000
00000000
00000000
00000001
00000000
00000010
00000000
00000001
00000000
00000010
00000000
00000000
00000000
00000000
00000000
00000100
00000000
00000000
00000000
00000000
00000000
,
00001000
00000000
00000001
00000000
00001000
00000010
00010000
00001000
00010000
00000000
00001000
00000000
00010000
00000000
00000000
00000000
,
00020010
00000000
00000000
00000000
00001000
00000000
00000000
00000000
00000010
00000000
00000000
00000000
00031000
00000000
00010000
00001000
,
00010000
00001000
00000010
00000001
00000100
00001000
00010000
00001000
,
02000000
00000000
00000000
00000000
03010000
00000000
00100000
01000000
00100000
00000000
00010000
00000000
10000000
00000000
01000000
00100000
,
00001000
00000000
00010000
00000000
00000010
00000000
00001000
00000010
00000100
00000001
00001000
00000001
00000010
00000001
00000010
00000100
,
00001000
00000000
00000001
00000100
00001000
00000000
00010000
00000000
00100000
01000000
00010000
00000000
10000000
00000000
01000000
00010000
,
00001000
00022000
00000000
00000000
00000000
00000000
00033000
00000000
,
00002002
00000000
00000000
00000000
00000000
00000000
00000000
00000000
00000000
00000000
00000000
00000000
00003003
00000000
00001000
00000001
,
00001000
00000000
00000001
00000010
00001000
00000000
00010000
00000000
01000000
00100000
00010000
00000000
10000000
00000000
00100000
00010000
,
00001000
00000000
00011000
00000000
00000000
00000000
00010000
00001000
00000100
00000000
00000010
00000000
00001000
00000000
00000000
00000000
,
00000001
00000100
00000001
00000000
00001000
00000100
00001000
00000000
00000001
00000000
00000010
00000000
00000100
00001000
00000100
00010000
,
00001000
00000000
00010000
00001000
00000010
00000000
00001000
00000000
00010000
00001000
00000100
00000000
00001000
00000000
00010000
00001000
,
00010000
00000000
00022000
00000000
00000000
00000000
00000000
00000000
00000000
00000000
00033000
00000000
00001000
00100000
00001000
00000000
,
00100000
00010000
00100000
00000000
01000000
10000000
01000000
10000000
00010000
01000000
00100000
10000000
01000000
00100000
00010000
00000000
,
10000000
00000000
01000000
00010000
00001000
00000000
00000010
00000000
00000100
00001000
00000001
00000000
00000100
00000000
00000010
00010000
,
00001000
00000000
00022000
00000000
00000000
00000000
00000000
00000000
00000000
00000000
00000000
00000000
00033000
00000000
00001000
00010000
,
00002000
00000000
00000000
00000000
00000000
00000000
00000000
00000000
00000000
00013000
01000000
10000000
,
00020000
00000000
00000000
00000000
,
00000000
00000000
00000000
00000000
,
00000000
00000000
00000000
00000000
,
00030000
00000000
00000000
00000000
;
